osu file format v14

[General]
AudioFilename: audio.mp3
AudioLeadIn: 0
PreviewTime: 13
Countdown: 0
SampleSet: Normal
StackLeniency: 0.7
Mode: 1
LetterboxInBreaks: 0
WidescreenStoryboard: 0

[Editor]
DistanceSpacing: 1
BeatDivisor: 4
GridSize: 32
TimelineZoom: 1.6

[Metadata]
Title:The Letter
TitleUnicode:The Letter
Artist:Crumb
ArtistUnicode:Crumb
Creator:Skull Kid
Version:anxiety
Source:
Tags:Ideal Idealism Jinx english indie dream pop Lila Ramani Jesse Brotter Brian Aronow Jonathan Gilad
BeatmapID:2648919
BeatmapSetID:1274857

[Difficulty]
HPDrainRate:8
CircleSize:4
OverallDifficulty:5.5
ApproachRate:9
SliderMultiplier:1.4
SliderTickRate:1

[Events]
//Background and Video events
0,0,"BG.jpg",0,-100
//Break Periods
//Storyboard Layer 0 (Background)
//Storyboard Layer 1 (Fail)
//Storyboard Layer 2 (Pass)
//Storyboard Layer 3 (Foreground)
//Storyboard Layer 4 (Overlay)
//Storyboard Sound Samples

[TimingPoints]
212,512.820512820513,6,1,0,10,1,0
212,-166.666666666667,6,1,0,10,0,0
14058,-170.940170940171,6,1,0,10,0,0
15596,-175.438596491228,6,1,0,10,0,0
16365,-177.777777777778,6,1,0,10,0,0
17135,-180.18018018018,6,1,0,10,0,0
18673,-153.846153846154,6,1,0,10,0,0
19186,-156.25,6,1,0,10,0,0
19699,-158.730158730159,6,1,0,10,0,0
20212,-161.290322580645,6,1,0,10,0,0
20981,-165.289256198347,6,1,0,10,0,0
21494,-168.067226890756,6,1,0,10,0,0
21750,-169.491525423729,6,1,0,10,0,0
22519,-165.289256198347,6,1,0,10,0,0
23288,-161.290322580645,6,1,0,10,0,0
24058,-157.48031496063,6,1,0,10,0,0
24827,-153.846153846154,6,1,0,10,0,0
26365,-157.48031496063,6,1,0,10,0,0
27904,-161.290322580645,6,1,0,10,0,0
28673,-163.265306122449,6,1,0,10,0,0
29442,-165.289256198347,6,1,0,10,0,0
29955,-166.666666666667,6,1,0,10,0,0
30468,-168.067226890756,6,1,0,10,0,0
30981,-142.857142857143,6,1,0,10,0,0
31494,-144.927536231884,6,1,0,10,0,0
32006,-147.058823529412,6,1,0,10,0,0
32519,-149.253731343284,6,1,0,10,0,0
33032,-151.515151515152,6,1,0,10,0,0
33801,-155.038759689922,6,1,0,10,0,0
34058,-156.25,6,1,0,10,0,0
34827,-152.671755725191,6,1,0,10,0,0
35596,-149.253731343284,6,1,0,10,0,0
36365,-145.985401459854,6,1,0,10,0,0
36878,-142.857142857143,6,1,0,15,0,0
37904,-144.927536231884,6,1,0,15,0,0
38417,-147.058823529412,6,1,0,15,0,0
38673,-149.253731343284,6,1,0,15,0,0
39442,-151.515151515152,6,1,0,15,0,0
40212,-153.846153846154,6,1,0,15,0,0
40981,-156.25,6,1,0,15,0,0
41494,-158.730158730159,6,1,0,15,0,0
41750,-161.290322580645,6,1,0,15,0,0
42263,-163.934426229508,6,1,0,15,0,0
42776,-166.666666666667,6,1,0,15,0,0
43288,-169.491525423729,6,1,0,15,0,0
44058,-172.413793103448,6,1,0,15,0,0
44827,-175.438596491228,6,1,0,15,0,0
45596,-178.571428571429,6,1,0,15,0,0
46109,-178.571428571429,6,1,0,30,0,0
46365,512.820512820513,6,1,0,30,1,8
46375,512.820512820513,3,1,0,30,1,0
90990,-102.040816326531,3,1,0,30,0,0
91246,-104.166666666667,3,1,0,30,0,0
91503,-106.382978723404,3,1,0,30,0,0
91759,-108.695652173913,3,1,0,30,0,0
92016,-111.111111111111,3,1,0,30,0,0
92272,-113.636363636364,3,1,0,30,0,0
92528,512.820512820513,6,1,0,10,1,8
92529,770.218228498074,2,1,0,30,1,0
92529,-62.5,4,1,0,30,0,0
93042,-61.5384615384615,4,1,0,30,0,0
93299,-60.6060606060606,4,1,0,30,0,0
93812,-59.7014925373134,4,1,0,30,0,0
94069,-58.8235294117647,4,1,0,30,0,0
94582,-57.9710144927536,4,1,0,30,0,0
94839,-57.1428571428571,4,1,0,30,0,0
95353,-56.3380281690141,4,1,0,30,0,0
95609,-55.5555555555556,4,1,0,30,0,0
96123,-54.7945205479452,4,1,0,30,0,0
96380,-54.054054054054,4,1,0,30,0,0
96893,-53.3333333333333,4,1,0,30,0,0
97150,-52.6315789473684,4,1,0,30,0,0
97663,-51.9480519480519,4,1,0,30,0,0
97920,-51.2820512820513,4,1,0,30,0,0
98434,-50.6329113924051,4,1,0,30,0,0
98690,-50,4,1,0,30,0,0
102541,-49.5049504950495,4,1,0,30,0,0
102798,-49.0196078431373,4,1,0,30,0,0
103055,-48.5436893203883,4,1,0,30,0,0
103312,-48.0769230769231,4,1,0,30,0,0
103568,-47.6190476190476,4,1,0,30,0,0
103825,-47.1698113207547,4,1,0,30,0,0
104082,-46.7289719626168,4,1,0,30,0,0
104339,-46.2962962962963,4,1,0,30,0,0
104595,-45.8715596330275,4,1,0,30,0,0
104852,-45.4545454545455,4,1,0,30,0,0
109730,-45.045045045045,4,1,0,30,0,0
109987,-44.6428571428571,4,1,0,30,0,0
110244,-44.2477876106195,4,1,0,30,0,0
110500,-43.859649122807,4,1,0,30,0,0
110586,-43.4782608695652,4,1,0,30,0,0
110671,-43.1034482758621,4,1,0,30,0,0
110757,-42.7350427350427,4,1,0,30,0,0
110843,-42.3728813559322,4,1,0,30,0,0
110928,-42.0168067226891,4,1,0,30,0,0
111014,-41.6666666666667,4,1,0,30,0,0
114095,759.493670886076,2,1,0,30,1,0
114095,-41.6666666666667,4,1,0,30,0,0
115867,-38.4615384615385,4,1,0,30,0,0
116120,-35.7142857142857,4,1,0,30,0,0
116373,-33.3333333333333,4,1,0,30,0,0
116626,-31.25,4,1,0,30,0,0
116879,-29.4117647058824,4,1,0,30,0,0
117006,-41.6666666666667,4,1,0,20,0,0
117132,517.241379310345,3,1,0,20,1,0
123209,-100,3,1,0,10,0,0

[HitObjects]
256,192,12519,5,8,0:0:0:0:
256,192,14058,1,0,0:0:0:0:
256,192,15596,1,8,0:0:0:0:
256,192,16365,1,8,0:0:0:0:
256,192,17135,1,0,0:0:0:0:
256,192,18673,1,8,0:0:0:0:
256,192,19186,1,0,0:0:0:0:
256,192,19699,1,0,0:0:0:0:
256,192,20212,1,8,0:0:0:0:
256,192,20981,1,8,0:0:0:0:
256,192,21494,1,0,0:0:0:0:
256,192,21750,1,8,0:0:0:0:
256,192,22519,1,0,0:0:0:0:
256,192,23288,1,8,0:0:0:0:
256,192,24058,1,0,0:0:0:0:
256,192,24827,1,8,0:0:0:0:
256,192,26365,1,0,0:0:0:0:
256,192,27904,1,8,0:0:0:0:
256,192,28673,1,8,0:0:0:0:
256,192,29442,1,0,0:0:0:0:
256,192,29955,1,8,0:0:0:0:
256,192,30468,1,0,0:0:0:0:
256,192,30981,1,8,0:0:0:0:
256,192,31494,1,8,0:0:0:0:
256,192,32006,1,0,0:0:0:0:
256,192,32519,1,8,0:0:0:0:
256,192,33032,1,0,0:0:0:0:
256,192,33801,1,0,0:0:0:0:
256,192,34058,1,8,0:0:0:0:
256,192,34827,1,0,0:0:0:0:
256,192,35596,1,8,0:0:0:0:
256,192,36365,1,0,0:0:0:0:
256,192,37135,1,0,0:0:0:0:
256,192,37904,1,8,0:0:0:0:
256,192,38417,1,8,0:0:0:0:
256,192,38673,1,0,0:0:0:0:
256,192,39442,1,8,0:0:0:0:
256,192,40212,1,0,0:0:0:0:
256,192,40981,1,8,0:0:0:0:
256,192,41494,1,8,0:0:0:0:
256,192,41750,1,0,0:0:0:0:
256,192,42263,1,8,0:0:0:0:
256,192,42776,1,8,0:0:0:0:
256,192,43288,1,0,0:0:0:0:
256,192,44058,1,8,0:0:0:0:
256,192,44827,1,8,0:0:0:0:
256,192,45596,1,0,0:0:0:0:
256,192,46375,1,8,0:0:0:0:
256,192,46631,1,0,0:0:0:0:
256,192,46887,1,0,0:0:0:0:
256,192,47144,1,8,0:0:0:0:
256,192,47400,1,0,0:0:0:0:
256,192,47657,1,0,0:0:0:0:
256,192,47913,1,8,0:0:0:0:
256,192,48169,1,0,0:0:0:0:
256,192,48426,1,8,0:0:0:0:
256,192,48682,1,0,0:0:0:0:
256,192,48939,1,0,0:0:0:0:
256,192,49195,1,8,0:0:0:0:
256,192,49451,1,4,0:0:0:0:
256,192,49708,1,0,0:0:0:0:
256,192,49964,1,8,0:0:0:0:
256,192,50221,1,0,0:0:0:0:
256,192,50733,1,8,0:0:0:0:
256,192,50990,1,0,0:0:0:0:
256,192,51246,1,8,0:0:0:0:
256,192,51503,1,8,0:0:0:0:
256,192,51759,1,0,0:0:0:0:
256,192,52272,1,8,0:0:0:0:
256,192,52528,1,0,0:0:0:0:
256,192,52785,1,0,0:0:0:0:
256,192,53041,1,8,0:0:0:0:
256,192,53298,1,0,0:0:0:0:
256,192,53810,1,8,0:0:0:0:
256,192,54067,1,0,0:0:0:0:
256,192,54323,1,8,0:0:0:0:
256,192,54580,1,8,0:0:0:0:
256,192,54836,1,0,0:0:0:0:
256,192,55092,1,8,0:0:0:0:
256,192,55349,1,0,0:0:0:0:
256,192,55605,1,0,0:0:0:0:
256,192,55862,1,0,0:0:0:0:
256,192,56118,1,8,0:0:0:0:
256,192,56375,1,0,0:0:0:0:
256,192,56631,1,0,0:0:0:0:
256,192,56887,1,0,0:0:0:0:
256,192,57144,1,8,0:0:0:0:
256,192,57400,1,0,0:0:0:0:
256,192,57657,1,0,0:0:0:0:
256,192,57913,1,8,0:0:0:0:
256,192,58169,1,8,0:0:0:0:
256,192,58426,1,0,0:0:0:0:
256,192,58682,1,8,0:0:0:0:
256,192,58939,1,0,0:0:0:0:
256,192,59195,1,8,0:0:0:0:
256,192,59451,1,0,0:0:0:0:
256,192,59708,1,0,0:0:0:0:
256,192,59964,1,8,0:0:0:0:
256,192,60221,1,8,0:0:0:0:
256,192,60477,1,0,0:0:0:0:
256,192,60733,1,0,0:0:0:0:
256,192,60990,1,0,0:0:0:0:
256,192,61246,1,8,0:0:0:0:
256,192,61503,1,8,0:0:0:0:
256,192,61759,1,0,0:0:0:0:
256,192,62016,1,8,0:0:0:0:
256,192,62272,1,8,0:0:0:0:
256,192,62528,1,0,0:0:0:0:
256,192,63041,1,8,0:0:0:0:
256,192,63298,1,0,0:0:0:0:
256,192,63554,1,0,0:0:0:0:
256,192,63810,1,8,0:0:0:0:
256,192,64067,1,0,0:0:0:0:
256,192,64580,1,8,0:0:0:0:
256,192,64836,1,0,0:0:0:0:
256,192,65092,1,8,0:0:0:0:
256,192,65349,1,8,0:0:0:0:
256,192,65605,1,0,0:0:0:0:
256,192,66118,1,8,0:0:0:0:
256,192,66375,1,0,0:0:0:0:
256,192,66631,1,0,0:0:0:0:
256,192,66887,1,8,0:0:0:0:
256,192,67144,1,0,0:0:0:0:
256,192,67400,1,8,0:0:0:0:
256,192,67657,1,8,0:0:0:0:
256,192,67913,1,0,0:0:0:0:
256,192,68169,1,0,0:0:0:0:
256,192,68426,1,8,0:0:0:0:
256,192,68682,1,0,0:0:0:0:
256,192,68939,1,0,0:0:0:0:
256,192,69195,1,0,0:0:0:0:
256,192,69451,1,8,0:0:0:0:
256,192,69708,1,0,0:0:0:0:
256,192,69964,1,0,0:0:0:0:
256,192,70221,1,8,0:0:0:0:
256,192,70477,1,8,0:0:0:0:
256,192,70733,1,0,0:0:0:0:
256,192,70990,1,8,0:0:0:0:
256,192,71246,1,0,0:0:0:0:
256,192,71503,1,8,0:0:0:0:
256,192,71759,1,0,0:0:0:0:
256,192,72016,1,0,0:0:0:0:
256,192,72272,1,8,0:0:0:0:
256,192,72528,1,8,0:0:0:0:
256,192,72785,1,0,0:0:0:0:
256,192,73041,1,0,0:0:0:0:
256,192,73298,1,0,0:0:0:0:
256,192,73554,1,8,0:0:0:0:
256,192,73810,1,8,0:0:0:0:
256,192,74067,1,0,0:0:0:0:
256,192,74323,1,0,0:0:0:0:
256,192,74580,1,8,0:0:0:0:
256,192,74836,1,0,0:0:0:0:
256,192,75349,1,8,0:0:0:0:
256,192,75605,1,0,0:0:0:0:
256,192,75862,1,8,0:0:0:0:
256,192,76118,1,8,0:0:0:0:
256,192,76375,1,0,0:0:0:0:
256,192,76887,1,8,0:0:0:0:
256,192,77144,1,0,0:0:0:0:
256,192,77400,1,0,0:0:0:0:
256,192,77657,1,8,0:0:0:0:
256,192,77913,1,0,0:0:0:0:
256,192,78426,1,8,0:0:0:0:
256,192,78682,1,0,0:0:0:0:
256,192,78939,1,8,0:0:0:0:
256,192,79195,1,8,0:0:0:0:
256,192,79451,1,0,0:0:0:0:
256,192,79708,1,8,0:0:0:0:
256,192,79964,1,0,0:0:0:0:
256,192,80221,1,0,0:0:0:0:
256,192,80477,1,0,0:0:0:0:
256,192,80733,1,8,0:0:0:0:
256,192,80990,1,0,0:0:0:0:
256,192,81246,1,0,0:0:0:0:
256,192,81503,1,0,0:0:0:0:
256,192,81759,1,8,0:0:0:0:
256,192,82016,1,0,0:0:0:0:
256,192,82272,1,0,0:0:0:0:
256,192,82528,1,8,0:0:0:0:
256,192,82785,1,8,0:0:0:0:
256,192,83041,1,0,0:0:0:0:
256,192,83298,1,8,0:0:0:0:
256,192,83554,1,0,0:0:0:0:
256,192,83810,1,8,0:0:0:0:
256,192,84067,1,0,0:0:0:0:
256,192,84323,1,0,0:0:0:0:
256,192,84580,1,8,0:0:0:0:
256,192,84836,1,8,0:0:0:0:
256,192,85092,1,0,0:0:0:0:
256,192,85349,1,0,0:0:0:0:
256,192,85605,1,0,0:0:0:0:
256,192,85862,1,8,0:0:0:0:
256,192,86118,1,8,0:0:0:0:
256,192,86375,1,0,0:0:0:0:
256,192,86631,1,8,0:0:0:0:
256,192,86887,1,8,0:0:0:0:
256,192,87144,1,0,0:0:0:0:
256,192,87657,1,8,0:0:0:0:
256,192,87913,1,0,0:0:0:0:
256,192,88169,1,0,0:0:0:0:
256,192,88426,1,8,0:0:0:0:
256,192,88682,1,0,0:0:0:0:
256,192,89195,1,8,0:0:0:0:
256,192,89451,1,0,0:0:0:0:
256,192,89708,1,8,0:0:0:0:
256,192,89964,1,8,0:0:0:0:
256,192,90221,1,0,0:0:0:0:
256,192,90733,1,0,0:0:0:0:
256,192,90990,1,8,0:0:0:0:
256,192,91054,1,8,0:0:0:0:
256,192,91246,1,8,0:0:0:0:
256,192,91503,1,8,0:0:0:0:
256,192,91759,1,0,0:0:0:0:
256,192,92016,1,0,0:0:0:0:
256,192,92272,1,0,0:0:0:0:
256,192,92529,1,8,0:0:0:0:
256,192,92785,1,0,0:0:0:0:
256,192,93042,1,0,0:0:0:0:
256,192,93299,1,8,0:0:0:0:
256,192,93555,1,8,0:0:0:0:
256,192,93812,1,0,0:0:0:0:
256,192,94069,1,8,0:0:0:0:
256,192,94326,1,0,0:0:0:0:
256,192,94582,1,0,0:0:0:0:
256,192,94839,1,8,0:0:0:0:
256,192,95096,1,8,0:0:0:0:
256,192,95353,1,0,0:0:0:0:
256,192,95609,1,8,0:0:0:0:
256,192,95866,1,0,0:0:0:0:
256,192,96123,1,0,0:0:0:0:
256,192,96380,1,8,0:0:0:0:
256,192,96636,1,8,0:0:0:0:
256,192,96893,1,0,0:0:0:0:
256,192,97150,1,8,0:0:0:0:
256,192,97407,1,0,0:0:0:0:
256,192,97663,1,0,0:0:0:0:
256,192,97920,1,0,0:0:0:0:
256,192,98177,1,8,0:0:0:0:
256,192,98434,1,8,0:0:0:0:
256,192,98690,1,0,0:0:0:0:
256,192,98947,1,0,0:0:0:0:
256,192,99075,1,0,0:0:0:0:
256,192,99204,1,0,0:0:0:0:
256,192,99460,1,8,0:0:0:0:
256,192,99717,1,0,0:0:0:0:
256,192,99974,1,8,0:0:0:0:
256,192,100231,1,0,0:0:0:0:
256,192,100487,1,0,0:0:0:0:
256,192,100616,1,8,0:0:0:0:
256,192,100744,1,0,0:0:0:0:
256,192,101001,1,8,0:0:0:0:
256,192,101258,1,8,0:0:0:0:
256,192,101514,1,0,0:0:0:0:
256,192,101771,1,0,0:0:0:0:
256,192,102028,1,0,0:0:0:0:
256,192,102156,1,0,0:0:0:0:
256,192,102285,1,0,0:0:0:0:
256,192,102541,1,8,0:0:0:0:
256,192,102798,1,0,0:0:0:0:
256,192,103055,1,0,0:0:0:0:
256,192,103312,1,8,0:0:0:0:
256,192,103568,1,0,0:0:0:0:
256,192,103697,1,0,0:0:0:0:
256,192,103825,1,8,0:0:0:0:
256,192,104082,1,0,0:0:0:0:
256,192,104339,1,12,0:0:0:0:
256,192,104595,1,8,0:0:0:0:
256,192,104852,1,4,0:0:0:0:
256,192,105109,1,0,0:0:0:0:
256,192,105237,1,0,0:0:0:0:
256,192,105365,1,0,0:0:0:0:
256,192,105622,1,8,0:0:0:0:
256,192,105879,1,0,0:0:0:0:
256,192,106136,1,0,0:0:0:0:
256,192,106392,1,8,0:0:0:0:
256,192,106649,1,8,0:0:0:0:
256,192,106778,1,8,0:0:0:0:
256,192,106906,1,0,0:0:0:0:
256,192,107163,1,8,0:0:0:0:
256,192,107419,1,0,0:0:0:0:
256,192,107676,1,0,0:0:0:0:
256,192,107933,1,8,0:0:0:0:
256,192,108190,1,0,0:0:0:0:
256,192,108318,1,0,0:0:0:0:
256,192,108446,1,8,0:0:0:0:
256,192,108703,1,8,0:0:0:0:
256,192,108960,1,0,0:0:0:0:
256,192,109217,1,0,0:0:0:0:
256,192,109473,1,12,0:0:0:0:
256,192,109730,1,0,0:0:0:0:
256,192,109858,1,8,0:0:0:0:
256,192,109987,1,0,0:0:0:0:
256,192,110244,1,12,0:0:0:0:
256,192,110500,1,0,0:0:0:0:
256,192,110586,1,0,0:0:0:0:
256,192,110671,1,8,0:0:0:0:
256,192,110757,1,8,0:0:0:0:
256,192,110843,1,8,0:0:0:0:
256,192,110928,1,8,0:0:0:0:
256,192,111014,1,4,0:0:0:0:
256,192,111270,1,0,0:0:0:0:
256,192,111399,1,0,0:0:0:0:
256,192,111527,1,0,0:0:0:0:
256,192,111784,1,8,0:0:0:0:
256,192,112041,1,0,0:0:0:0:
256,192,112297,1,8,0:0:0:0:
256,192,112554,1,0,0:0:0:0:
256,192,112811,1,0,0:0:0:0:
256,192,112939,1,8,0:0:0:0:
256,192,113068,1,0,0:0:0:0:
256,192,113324,1,8,0:0:0:0:
256,192,113581,1,8,0:0:0:0:
256,192,113838,1,0,0:0:0:0:
256,192,114095,1,0,0:0:0:0:
256,192,114348,1,0,0:0:0:0:
256,192,114474,1,0,0:0:0:0:
256,192,114601,1,0,0:0:0:0:
256,192,114854,1,8,0:0:0:0:
256,192,115107,1,0,0:0:0:0:
256,192,115360,1,0,0:0:0:0:
256,192,115613,1,8,0:0:0:0:
256,192,115867,1,4,0:0:0:0:
256,192,116120,1,4,0:0:0:0:
256,192,116373,1,12,0:0:0:0:
256,192,116626,1,12,0:0:0:0:
256,192,116879,1,12,0:0:0:0:
256,192,117132,1,0,0:0:0:0:
256,192,117390,1,0,0:0:0:0:
256,192,117649,1,8,0:0:0:0:
256,192,117907,1,0,0:0:0:0:
256,192,118166,1,0,0:0:0:0:
256,192,118425,1,0,0:0:0:0:
256,192,118683,1,8,0:0:0:0:
256,192,118942,1,0,0:0:0:0:
256,192,119200,1,0,0:0:0:0:
256,192,119459,1,8,0:0:0:0:
256,192,119718,1,8,0:0:0:0:
256,192,119976,1,0,0:0:0:0:
256,192,120235,1,8,0:0:0:0:
256,192,120494,1,0,0:0:0:0:
256,192,120752,1,8,0:0:0:0:
256,192,121011,1,0,0:0:0:0:
256,192,121269,1,0,0:0:0:0:
256,192,121528,1,8,0:0:0:0:
256,192,121787,1,8,0:0:0:0:
256,192,122045,1,0,0:0:0:0:
256,192,122304,1,0,0:0:0:0:
256,192,122563,1,0,0:0:0:0:
256,192,122821,1,8,0:0:0:0:
256,192,123080,1,8,0:0:0:0:
256,192,123338,1,0,0:0:0:0:
256,192,123425,1,0,0:0:0:0:
