osu file format v14

[General]
AudioFilename: audio.mp3
AudioLeadIn: 0
PreviewTime: 197906
Countdown: 1
SampleSet: Normal
StackLeniency: 0.7
Mode: 0
LetterboxInBreaks: 0
WidescreenStoryboard: 0

[Editor]
DistanceSpacing: 1.5
BeatDivisor: 4
GridSize: 32
TimelineZoom: 1.5

[Metadata]
Title:MZRY
TitleUnicode:MZRY
Artist:Crown the empire
ArtistUnicode:Crown the empire
Creator:MilusPrime
Version:MISERY
Source:
Tags:
BeatmapID:2128028
BeatmapSetID:1016767

[Difficulty]
HPDrainRate:6
CircleSize:3.6
OverallDifficulty:8
ApproachRate:9.4
SliderMultiplier:1
SliderTickRate:1

[Events]
//Background and Video events
0,0,"thumb-1920-792487.png",0,0
//Break Periods
2,107053,117336
//Storyboard Layer 0 (Background)
//Storyboard Layer 1 (Fail)
//Storyboard Layer 2 (Pass)
//Storyboard Layer 3 (Foreground)
//Storyboard Layer 4 (Overlay)
//Storyboard Sound Samples

[TimingPoints]
12,350.877192982456,4,1,0,100,1,0
25275,-71.4285714285714,4,1,0,100,0,0
47731,-125,4,1,0,100,0,0
59310,-62.5,4,1,0,100,0,0
81415,-45.4545454545455,4,1,0,100,0,1
106678,-45.4545454545455,4,1,0,100,0,0
117906,-500,4,2,0,40,0,0
123520,-263.157894736842,4,2,0,40,0,0
129134,-100,4,2,0,40,0,0
151590,-47.6190476190476,4,1,0,100,0,0
173345,-40,4,1,0,100,0,1
179661,-31.25,4,1,0,100,0,1
185275,-100,4,1,0,100,0,0
194222,-71.4285714285714,4,1,0,100,0,0
200713,-71.4285714285714,4,1,0,100,0,1
222117,-71.4285714285714,4,1,0,100,0,0
223871,-71.4285714285714,4,1,0,100,0,1
230187,-500,4,1,0,100,0,0
230275,-500,4,1,0,5,0,0
238959,-500,4,1,0,5,0,0

[HitObjects]
5,163,2819,5,0,0:0:0:0:
101,112,2994,1,0,0:0:0:0:
25,249,3169,2,0,L|22:300,2,50
157,368,3696,1,0,0:0:0:0:
119,260,3871,1,0,0:0:0:0:
219,297,4047,2,0,L|286:298,1,50
408,384,4397,2,0,L|351:383,1,50
126,260,4748,5,0,0:0:0:0:
242,251,4924,1,0,0:0:0:0:
151,343,5099,1,0,0:0:0:0:
174,175,5275,5,0,0:0:0:0:
236,96,5450,1,0,0:0:0:0:
136,63,5626,2,0,L|135:1,1,50
252,171,5976,2,0,L|251:226,1,50
178,336,6327,1,0,0:0:0:0:
279,276,6503,1,0,0:0:0:0:
256,371,6678,2,0,L|318:368,1,50
498,292,7029,5,0,0:0:0:0:
364,348,7204,1,0,0:0:0:0:
461,359,7380,1,0,0:0:0:0:
327,237,7555,1,0,0:0:0:0:
417,261,7731,1,0,0:0:0:0:
310,128,7906,1,0,0:0:0:0:
429,178,8082,1,0,0:0:0:0:
268,295,8257,1,0,0:0:0:0:
490,367,8433,2,0,L|420:367,1,50
160,372,8783,6,0,L|153:303,1,50
201,185,9134,1,0,0:0:0:0:
97,232,9310,1,0,0:0:0:0:
240,276,9485,2,0,L|308:267,1,50
392,196,9836,5,0,0:0:0:0:
315,133,10012,1,0,0:0:0:0:
405,109,10187,2,0,L|474:109,1,50
511,12,10538,2,0,L|444:12,1,50
388,109,10889,2,0,L|456:108,1,50
481,12,11240,2,0,L|412:12,1,50
309,26,11590,5,0,0:0:0:0:
380,107,11766,1,0,0:0:0:0:
204,122,11941,1,0,0:0:0:0:
292,97,12117,1,0,0:0:0:0:
260,190,12292,1,0,0:0:0:0:
384,131,12468,1,0,0:0:0:0:
304,273,12643,2,0,L|303:333,1,50
206,377,12994,2,0,L|209:313,1,50
205,212,13345,5,0,0:0:0:0:
135,302,13520,1,0,0:0:0:0:
109,205,13696,2,0,L|107:134,1,50
9,14,14047,1,0,0:0:0:0:
106,67,14222,1,0,0:0:0:0:
205,19,14397,2,0,L|275:23,1,50
333,96,14748,2,0,L|266:95,1,50
384,20,15099,5,0,0:0:0:0:
265,85,15275,1,0,0:0:0:0:
401,153,15450,2,0,L|470:152,1,50
334,233,15801,2,0,L|281:231,1,50
170,222,16152,1,0,0:0:0:0:
243,304,16327,1,0,0:0:0:0:
143,313,16503,2,0,L|83:312,1,50
2,131,16854,6,0,L|1:191,1,50
15,297,17204,1,0,0:0:0:0:
83,201,17380,1,0,0:0:0:0:
100,354,17555,1,0,0:0:0:0:
200,214,17731,1,0,0:0:0:0:
127,284,17906,1,0,0:0:0:0:
274,333,18082,1,0,0:0:0:0:
319,230,18257,6,0,L|321:164,1,50
430,325,18608,2,0,L|430:376,1,50
433,207,18959,2,0,L|497:207,1,50
286,345,19310,2,0,L|222:345,1,50
427,192,19661,1,0,0:0:0:0:
179,179,19836,1,0,0:0:0:0:
10,16,20012,6,0,L|8:71,1,50
60,209,20362,1,0,0:0:0:0:
105,103,20538,1,0,0:0:0:0:
143,258,20713,1,0,0:0:0:0:
201,76,20889,1,0,0:0:0:0:
265,231,21064,2,0,L|256:298,1,50
10,368,21415,6,0,L|8:313,1,50
60,175,21765,1,0,0:0:0:0:
105,281,21941,1,0,0:0:0:0:
143,126,22116,1,0,0:0:0:0:
201,308,22292,1,0,0:0:0:0:
265,153,22467,2,0,L|256:86,1,50
502,368,22819,6,0,L|504:313,1,50
452,175,23169,1,0,0:0:0:0:
407,281,23345,1,0,0:0:0:0:
369,126,23520,1,0,0:0:0:0:
311,308,23696,1,0,0:0:0:0:
247,153,23871,1,0,0:0:0:0:
13,353,25275,6,0,P|81:363|172:350,1,139.999995727539
263,148,25976,2,0,L|188:149,1,69.9999978637696
285,321,26327,1,0,0:0:0:0:
392,157,26503,1,0,0:0:0:0:
13,234,26854,6,0,L|104:231,1,69.9999978637696
230,121,27204,1,0,0:0:0:0:
209,295,27380,1,0,0:0:0:0:
120,103,27555,1,0,0:0:0:0:
336,266,27731,2,0,B|399:264|399:264|344:297|344:297,1,104.999996795654
335,325,28082,2,0,P|428:331|475:313,1,139.999995727539
8,17,28783,5,0,0:0:0:0:
115,283,28959,1,0,0:0:0:0:
168,32,29134,1,0,0:0:0:0:
0,200,29310,1,0,0:0:0:0:
283,130,29661,5,0,0:0:0:0:
219,376,29836,1,0,0:0:0:0:
498,250,30187,5,0,0:0:0:0:
485,129,30362,1,0,0:0:0:0:
269,0,30538,1,0,0:0:0:0:
336,309,30713,1,0,0:0:0:0:
371,129,30889,2,0,P|311:123|224:143,1,139.999995727539
23,213,31415,5,0,0:0:0:0:
23,213,31503,1,0,0:0:0:0:
23,213,31590,1,0,0:0:0:0:
403,156,31766,1,0,0:0:0:0:
126,372,31941,1,0,0:0:0:0:
102,32,32117,1,0,0:0:0:0:
328,266,32468,6,0,L|320:312,1,34.9999989318848
427,234,32643,2,0,L|429:186,1,34.9999989318848
411,352,32819,2,0,L|407:392,1,34.9999989318848
288,55,32994,1,0,0:0:0:0:
196,297,33169,1,0,0:0:0:0:
10,117,33696,6,0,P|93:117|168:122,1,139.999995727539
15,377,34397,1,0,0:0:0:0:
304,195,34573,1,0,0:0:0:0:
74,296,34748,1,0,0:0:0:0:
317,343,34924,1,0,0:0:0:0:
367,16,35275,5,0,0:0:0:0:
367,320,35450,1,0,0:0:0:0:
479,105,35626,1,0,0:0:0:0:
226,242,35801,5,0,0:0:0:0:
40,15,35976,1,0,0:0:0:0:
108,363,36152,1,0,0:0:0:0:
240,27,36327,1,0,0:0:0:0:
26,224,36503,2,0,L|171:228,1,139.999995727539
503,11,37204,5,0,0:0:0:0:
371,237,37380,1,0,0:0:0:0:
347,19,37555,1,0,0:0:0:0:
485,235,37731,1,0,0:0:0:0:
209,354,38082,5,0,0:0:0:0:
369,243,38257,1,0,0:0:0:0:
138,246,38433,1,0,0:0:0:0:
321,114,38608,2,0,L|222:117,1,69.9999978637696
10,370,39310,6,0,L|156:356,1,139.999995727539
503,12,40011,5,0,0:0:0:0:
368,203,40187,1,0,0:0:0:0:
277,1,40362,1,0,0:0:0:0:
485,131,40538,1,0,0:0:0:0:
254,143,40889,5,0,0:0:0:0:
7,378,41064,1,0,0:0:0:0:
344,306,41240,1,0,0:0:0:0:
6,113,41415,1,0,0:0:0:0:
155,318,41590,1,0,0:0:0:0:
190,37,41766,1,0,0:0:0:0:
107,216,41941,1,0,0:0:0:0:
386,209,42117,2,0,L|241:212,1,139.999995727539
79,37,42643,5,0,0:0:0:0:
79,37,42731,1,0,0:0:0:0:
79,37,42819,1,0,0:0:0:0:
122,250,42994,1,0,0:0:0:0:
188,43,43169,1,0,0:0:0:0:
32,278,43345,1,0,0:0:0:0:
282,353,43696,6,0,L|288:294,1,34.9999989318848
420,159,43871,2,0,L|419:205,1,34.9999989318848
232,199,43959,2,0,L|224:142,1,34.9999989318848
359,15,44222,1,0,0:0:0:0:
351,269,44397,2,0,L|270:270,1,69.9999978637696
0,36,44924,6,0,L|153:45,1,139.999995727539
244,130,45626,5,0,0:0:0:0:
317,373,45801,1,0,0:0:0:0:
431,158,45976,1,0,0:0:0:0:
256,274,46152,1,0,0:0:0:0:
28,183,46503,6,0,L|113:178,1,69.9999978637696
357,78,46854,1,0,0:0:0:0:
165,264,47029,1,0,0:0:0:0:
215,46,47204,1,0,0:0:0:0:
332,292,47380,1,0,0:0:0:0:
428,14,47555,1,0,0:0:0:0:
496,374,47731,5,0,0:0:0:0:
376,359,48082,1,0,0:0:0:0:
256,365,48433,1,0,0:0:0:0:
146,317,48783,1,0,0:0:0:0:
36,365,49134,1,0,0:0:0:0:
63,248,49485,5,0,0:0:0:0:
182,259,49836,1,0,0:0:0:0:
121,155,50187,1,0,0:0:0:0:
241,157,50538,1,0,0:0:0:0:
280,270,50889,1,0,0:0:0:0:
364,184,51240,5,0,0:0:0:0:
453,263,51590,1,0,0:0:0:0:
504,154,51941,1,0,0:0:0:0:
497,34,52292,1,0,0:0:0:0:
404,109,52643,1,0,0:0:0:0:
313,29,52994,5,0,0:0:0:0:
207,86,53345,1,0,0:0:0:0:
101,28,53696,1,0,0:0:0:0:
3,97,54047,1,0,0:0:0:0:
75,192,54397,1,0,0:0:0:0:
11,293,54748,5,0,0:0:0:0:
97,376,55099,1,0,0:0:0:0:
209,334,55450,1,0,0:0:0:0:
319,381,55801,1,0,0:0:0:0:
414,308,56152,1,0,0:0:0:0:
297,277,56503,1,0,0:0:0:0:
11,165,57906,6,0,L|97:160,1,80
224,57,58433,1,0,0:0:0:0:
250,293,58608,1,0,0:0:0:0:
360,78,58783,1,0,0:0:0:0:
4,363,59134,5,0,0:0:0:0:
134,309,59310,2,0,L|236:308,1,80
358,369,59661,1,0,0:0:0:0:
350,230,59836,1,0,0:0:0:0:
488,308,60011,2,0,L|491:190,1,80
398,163,60362,2,0,L|396:69,1,80
283,17,60713,5,0,0:0:0:0:
155,44,60889,1,0,0:0:0:0:
7,220,61240,6,0,P|51:234|102:230,1,80
219,137,61590,2,0,P|266:163|281:191,1,80
195,348,61941,1,0,0:0:0:0:
422,168,62117,1,0,0:0:0:0:
239,271,62292,2,0,P|168:267|144:255,1,80
65,147,62643,2,0,L|167:142,1,80
358,69,62994,2,0,P|307:53|260:49,1,80
137,33,63345,1,0,0:0:0:0:
291,191,63520,1,0,0:0:0:0:
89,268,63696,5,0,0:0:0:0:
211,127,63871,1,0,0:0:0:0:
204,303,64047,1,0,0:0:0:0:
76,80,64222,1,0,0:0:0:0:
295,288,64397,1,0,0:0:0:0:
496,299,64748,6,0,L|401:287,1,80
293,268,65099,1,0,0:0:0:0:
424,214,65275,1,0,0:0:0:0:
308,120,65450,2,0,L|213:122,1,80
92,168,65801,1,0,0:0:0:0:
238,366,65976,5,0,0:0:0:0:
322,125,66152,1,0,0:0:0:0:
70,301,66327,1,0,0:0:0:0:
458,272,66503,1,0,0:0:0:0:
103,130,66678,5,0,0:0:0:0:
292,298,66854,1,0,0:0:0:0:
211,24,67029,1,0,0:0:0:0:
199,236,67204,1,0,0:0:0:0:
405,93,67380,2,0,L|497:93,1,80
473,172,67731,5,0,0:0:0:0:
473,172,67906,1,0,0:0:0:0:
406,263,68082,5,0,0:0:0:0:
406,263,68257,1,0,0:0:0:0:
255,130,68433,1,0,0:0:0:0:
296,333,68608,1,0,0:0:0:0:
365,122,68783,1,0,0:0:0:0:
151,348,68959,5,0,0:0:0:0:
290,31,69134,1,0,0:0:0:0:
258,248,69310,1,0,0:0:0:0:
67,72,69485,1,0,0:0:0:0:
440,107,69661,1,0,0:0:0:0:
98,227,69836,1,0,0:0:0:0:
288,16,70011,1,0,0:0:0:0:
393,273,70187,2,0,P|335:295|296:302,1,80
220,307,70538,5,0,0:0:0:0:
220,307,70713,1,0,0:0:0:0:
67,236,70889,2,0,L|176:234,1,80
239,185,71240,1,0,0:0:0:0:
196,90,71415,1,0,0:0:0:0:
98,125,71590,1,0,0:0:0:0:
95,229,71766,1,0,0:0:0:0:
169,301,71941,1,0,0:0:0:0:
272,314,72117,1,0,0:0:0:0:
505,259,72292,6,0,L|405:257,1,80
330,213,72643,1,0,0:0:0:0:
291,116,72819,1,0,0:0:0:0:
224,195,72994,2,0,L|121:195,1,80
57,136,73345,5,0,0:0:0:0:
6,45,73520,1,0,0:0:0:0:
107,19,73696,2,0,L|208:19,1,80
290,35,74047,1,0,0:0:0:0:
392,21,74222,1,0,0:0:0:0:
459,99,74397,2,0,L|476:185,1,80
477,281,74748,5,0,0:0:0:0:
428,373,74924,1,0,0:0:0:0:
350,304,75099,1,0,0:0:0:0:
267,367,75275,1,0,0:0:0:0:
236,182,75450,5,0,0:0:0:0:
139,367,75626,1,0,0:0:0:0:
81,280,75801,1,0,0:0:0:0:
12,202,75976,1,0,0:0:0:0:
70,115,76152,1,0,0:0:0:0:
12,28,76327,1,0,0:0:0:0:
115,42,76503,2,0,L|230:42,1,80
275,108,76854,5,0,0:0:0:0:
199,179,77029,1,0,0:0:0:0:
287,233,77204,2,0,L|391:232,1,80
453,174,77555,1,0,0:0:0:0:
360,125,77731,1,0,0:0:0:0:
339,23,77906,5,0,0:0:0:0:
249,76,78082,1,0,0:0:0:0:
271,177,78257,1,0,0:0:0:0:
167,185,78433,1,0,0:0:0:0:
70,146,78608,2,0,L|73:232,1,80
143,379,78959,5,0,0:0:0:0:
241,208,79134,1,0,0:0:0:0:
59,298,79310,1,0,0:0:0:0:
271,313,79485,1,0,0:0:0:0:
57,156,79661,1,0,0:0:0:0:
276,58,79836,1,0,0:0:0:0:
150,163,80011,5,0,0:0:0:0:
382,260,80187,1,0,0:0:0:0:
186,14,80362,1,0,0:0:0:0:
147,353,80538,1,0,0:0:0:0:
318,119,80713,1,0,0:0:0:0:
24,113,80889,1,0,0:0:0:0:
337,360,81064,1,0,0:0:0:0:
145,17,81240,1,0,0:0:0:0:
439,300,81415,2,0,P|471:191|219:43,1,440.000013427735
0,372,82468,6,0,P|117:379|239:369,1,220.000006713867
138,283,82994,2,0,L|29:284,1,110.000003356934
216,81,83345,1,0,0:0:0:0:
26,22,83520,6,0,B|48:239|236:142|259:369,1,440.000013427735
402,307,84397,5,0,0:0:0:0:
249,36,84573,1,0,0:0:0:0:
497,115,84924,5,0,0:0:0:0:
279,300,85275,2,0,L|141:298,1,110.000003356934
3,105,85626,2,0,P|153:98|8:91,1,440.000013427735
494,271,86678,6,0,L|262:265,1,220.000006713867
110,371,87204,2,0,L|236:370,1,110.000003356934
94,213,87555,1,0,0:0:0:0:
484,136,87731,2,0,L|246:131,1,220.000006713867
50,31,88257,1,0,0:0:0:0:
436,328,88608,5,0,0:0:0:0:
153,206,88783,1,0,0:0:0:0:
304,378,88959,1,0,0:0:0:0:
295,122,89134,2,0,L|294:3,1,110.000003356934
91,117,89485,1,0,0:0:0:0:
495,161,89661,1,0,0:0:0:0:
14,337,89836,6,0,B|234:325|106:186|213:68|353:161|333:251,1,440.000013427735
194,354,90713,5,0,0:0:0:0:
455,333,90889,1,0,0:0:0:0:
1,174,91240,5,0,0:0:0:0:
293,105,91590,5,0,0:0:0:0:
114,183,91941,6,0,L|109:308,1,110.000003356934
195,357,92204,1,0,0:0:0:0:
241,328,92291,1,0,0:0:0:0:
270,282,92379,1,0,0:0:0:0:
275,227,92468,2,0,L|250:135,1,55.0000016784668
499,356,92643,5,0,0:0:0:0:
479,146,92819,1,0,0:0:0:0:
336,352,92994,1,0,0:0:0:0:
367,36,93169,1,0,0:0:0:0:
154,267,93345,5,0,0:0:0:0:
403,204,93520,1,0,0:0:0:0:
156,30,93696,1,0,0:0:0:0:
335,368,93871,1,0,0:0:0:0:
280,18,94047,2,0,L|274:269,1,220.000006713867
2,357,95099,6,0,L|239:351,1,220.000006713867
342,263,95626,2,0,L|203:262,1,110.000003356934
77,211,95976,1,0,0:0:0:0:
239,26,96152,2,0,P|345:51|428:348,1,440.000013427735
245,348,97029,5,0,0:0:0:0:
0,151,97204,1,0,0:0:0:0:
226,80,97555,6,0,L|216:204,1,110.000003356934
411,253,97906,2,0,L|395:377,1,110.000003356934
118,338,98257,2,0,L|107:115,1,220.000006713867
472,339,99310,6,0,L|246:331,1,220.000006713867
64,197,99836,2,0,L|200:204,1,110.000003356934
313,40,100187,1,0,0:0:0:0:
13,41,100362,2,0,B|142:17|159:191|335:132,1,330.000010070801
438,128,101240,5,0,0:0:0:0:
290,293,101415,1,0,0:0:0:0:
309,83,101590,1,0,0:0:0:0:
424,333,101766,1,0,0:0:0:0:
135,22,101941,1,0,0:0:0:0:
104,349,102117,5,0,0:0:0:0:
241,8,102292,1,0,0:0:0:0:
351,379,102468,2,0,L|351:251,1,110.000003356934
159,297,102819,2,0,L|152:150,1,110.000003356934
362,23,103169,2,0,L|363:167,1,110.000003356934
40,254,103520,2,0,L|38:106,1,110.000003356934
442,248,103871,2,0,L|445:367,1,110.000003356934
41,43,104222,2,0,L|185:41,1,110.000003356934
336,58,104573,5,0,0:0:0:0:
149,199,104748,1,0,0:0:0:0:
380,282,104924,1,0,0:0:0:0:
176,326,105099,5,0,0:0:0:0:
363,185,105274,1,0,0:0:0:0:
132,102,105450,1,0,0:0:0:0:
10,254,105626,5,0,0:0:0:0:
295,122,105801,1,0,0:0:0:0:
275,354,105976,1,0,0:0:0:0:
46,113,106152,1,0,0:0:0:0:
448,280,106327,1,0,0:0:0:0:
90,309,106503,1,0,0:0:0:0:
253,21,106678,2,0,L|247:160,1,110.000003356934
19,47,117906,6,0,B|221:41|278:57|249:116,1,280
220,373,123520,2,0,B|128:314|74:151|191:243|220:263|220:263|246:245|380:154|304:320|222:375,1,531.999993505859
16,143,129134,6,0,L|120:144,1,100
174,249,129836,2,0,L|286:249,1,100
352,144,130538,2,0,L|459:144,1,100
283,10,131240,2,0,L|161:8,1,100
496,241,131941,6,0,L|392:240,1,100
338,135,132643,2,0,L|226:135,1,100
160,240,133345,2,0,L|53:240,1,100
229,374,134047,2,0,L|351:376,1,100
256,190,134748,6,0,L|257:78,1,100
108,211,135450,2,0,L|108:310,1,100
386,216,136152,2,0,L|386:328,1,100
7,26,136854,6,0,L|108:26,1,100
503,26,137555,2,0,L|400:26,1,100
6,113,138257,6,0,L|107:113,1,100
502,113,138958,2,0,L|433:113,1,50
415,194,139310,2,0,L|346:194,1,50
320,94,139661,2,0,L|251:94,1,50
161,213,140011,2,0,L|230:213,1,50
282,293,140362,2,0,L|351:293,1,50
398,214,140713,2,0,L|505:214,1,100
472,365,141415,6,0,L|365:365,1,100
227,279,142117,2,0,L|334:279,1,100
153,154,142819,2,0,L|260:154,1,100
427,73,143520,2,0,L|320:73,1,100
82,79,144222,2,0,L|189:79,1,100
419,186,144924,6,0,L|312:186,1,100
100,155,145626,2,0,L|100:255,1,100
224,229,146327,2,0,L|223:329,1,100
309,176,147029,2,0,L|309:76,1,100
214,242,147731,2,0,L|213:364,1,100
320,167,148433,2,0,L|320:50,1,100
0,164,151590,6,0,P|143:21|282:304,1,629.999980773926
221,124,152994,2,0,P|151:288|0:167,1,419.999987182618
83,40,153871,2,0,L|213:39,1,104.999996795654
307,105,154222,1,0,0:0:0:0:
22,196,154397,2,0,L|361:203,1,314.999990386963
493,310,155099,2,0,L|238:307,1,209.999993591309
70,303,155626,5,0,0:0:0:0:
355,221,155801,2,0,L|462:218,1,104.999996795654
176,102,156152,2,0,L|41:102,1,104.999996795654
190,246,156503,2,0,L|190:359,1,104.999996795654
392,40,156854,1,0,0:0:0:0:
58,289,157029,1,0,0:0:0:0:
203,15,157204,2,0,B|103:107|103:107|290:186|204:354,1,419.999987182618
342,338,158257,6,0,L|460:330,1,104.999996795654
191,270,158608,1,0,0:0:0:0:
266,86,158783,2,0,L|265:24,1,52.4999983978272
338,285,158959,2,0,L|342:354,1,52.4999983978272
129,183,159134,2,0,L|48:188,1,52.4999983978272
501,140,159310,5,0,0:0:0:0:
146,177,159485,1,0,0:0:0:0:
214,379,159836,5,0,0:0:0:0:
201,62,160011,2,0,B|270:40|356:82|356:82|309:144|211:167,1,314.999990386963
64,137,160713,2,0,L|69:360,1,209.999993591309
358,139,161240,5,0,0:0:0:0:
192,369,161415,2,0,L|312:364,1,104.999996795654
416,267,161766,2,0,L|270:275,1,104.999996795654
123,233,162117,5,0,0:0:0:0:
174,224,162204,1,0,0:0:0:0:
213,190,162292,1,0,0:0:0:0:
231,142,162380,1,0,0:0:0:0:
222,91,162467,1,0,0:0:0:0:
188,51,162555,1,0,0:0:0:0:
139,34,162643,1,0,0:0:0:0:
88,44,162731,1,0,0:0:0:0:
49,78,162819,2,0,L|28:294,1,209.999993591309
426,373,163520,6,0,L|423:253,1,104.999996795654
304,40,163871,1,0,0:0:0:0:
266,322,164047,1,0,0:0:0:0:
498,144,164222,2,0,L|363:173,1,104.999996795654
13,108,164573,1,0,0:0:0:0:
381,170,164748,1,0,0:0:0:0:
56,244,164924,5,0,0:0:0:0:
338,17,165099,1,0,0:0:0:0:
213,363,165275,2,0,L|211:248,1,104.999996795654
176,8,165626,2,0,B|270:75|270:75|187:149,1,209.999993591309
4,234,166327,6,0,L|140:235,1,104.999996795654
464,65,166678,1,0,0:0:0:0:
118,314,166854,1,0,0:0:0:0:
150,16,167204,5,0,0:0:0:0:
512,195,167380,1,0,0:0:0:0:
209,148,167731,6,0,L|206:252,1,104.999996795654
411,248,168082,1,0,0:0:0:0:
14,374,168257,1,0,0:0:0:0:
145,19,168433,2,0,L|398:30,1,209.999993591309
492,75,169134,2,0,L|264:103,1,209.999993591309
65,120,169836,2,0,B|23:164|23:164|84:218|84:218|22:280,1,209.999993591309
177,357,170362,5,0,0:0:0:0:
424,81,170538,1,0,0:0:0:0:
18,252,170713,1,0,0:0:0:0:
484,354,170889,1,0,0:0:0:0:
6,20,171240,2,0,L|226:36,1,209.999993591309
510,62,171941,2,0,L|264:100,1,209.999993591309
32,136,172468,1,0,0:0:0:0:
400,293,172643,1,0,0:0:0:0:
172,177,172819,6,0,L|168:322,1,104.999996795654
481,372,173169,2,0,L|472:249,1,104.999996795654
460,206,173432,1,0,0:0:0:0:
433,149,173520,1,0,0:0:0:0:
394,101,173608,1,0,0:0:0:0:
345,63,173695,1,0,0:0:0:0:
288,38,173783,1,0,0:0:0:0:
226,26,173871,1,0,0:0:0:0:
164,30,173959,1,0,0:0:0:0:
105,48,174046,5,0,0:0:0:0:
350,362,174222,1,0,0:0:0:0:
75,357,174397,5,0,0:0:0:0:
399,86,174573,1,0,0:0:0:0:
83,29,174748,5,0,0:0:0:0:
195,361,174924,1,0,0:0:0:0:
501,278,175099,5,0,0:0:0:0:
336,8,175275,1,0,0:0:0:0:
91,197,175450,5,0,0:0:0:0:
509,152,175626,1,0,0:0:0:0:
254,13,175801,5,0,0:0:0:0:
140,358,175976,1,0,0:0:0:0:
459,363,176152,5,0,0:0:0:0:
104,25,176327,1,0,0:0:0:0:
0,248,176503,5,0,0:0:0:0:
512,189,176678,1,0,0:0:0:0:
169,364,176854,6,0,L|162:237,1,104.999996795654
159,68,177204,2,0,P|211:46|270:42,1,104.999996795654
452,58,177555,2,0,L|445:168,1,104.999996795654
291,349,177906,2,0,L|432:348,1,104.999996795654
470,268,178257,1,0,0:0:0:0:
111,126,178433,1,0,0:0:0:0:
0,364,178608,6,0,L|137:364,1,104.999996795654
496,170,178959,1,0,0:0:0:0:
496,170,179134,1,0,0:0:0:0:
496,170,179310,2,0,L|493:292,1,104.999996795654
0,34,179661,6,0,L|5:207,1,160
481,370,180011,2,0,L|478:193,1,160
78,20,180362,2,0,L|259:20,1,160
377,376,180713,2,0,L|197:375,1,160
13,319,181064,5,0,0:0:0:0:
458,122,181240,1,0,0:0:0:0:
125,35,181415,5,0,0:0:0:0:
365,374,181590,1,0,0:0:0:0:
495,232,181766,5,0,0:0:0:0:
28,143,181941,1,0,0:0:0:0:
11,371,182117,6,0,L|190:375,1,160
485,22,182468,2,0,L|306:22,1,160
0,225,182819,2,0,L|187:227,1,160
404,122,183169,5,0,0:0:0:0:
261,316,183345,1,0,0:0:0:0:
462,300,183520,1,0,0:0:0:0:
219,66,183696,1,0,0:0:0:0:
112,363,183871,1,0,0:0:0:0:
471,25,184047,1,0,0:0:0:0:
6,220,184222,5,0,0:0:0:0:
502,323,184397,1,0,0:0:0:0:
122,12,184573,1,0,0:0:0:0:
283,362,184748,1,0,0:0:0:0:
301,9,184924,1,0,0:0:0:0:
102,369,185099,1,0,0:0:0:0:
429,9,185275,2,0,L|426:72,1,50
448,131,185626,5,0,0:0:0:0:
470,202,185801,1,0,0:0:0:0:
470,276,185976,2,0,P|448:292|412:304,1,50
353,287,186327,1,0,0:0:0:0:
278,300,186503,1,0,0:0:0:0:
223,351,186678,2,0,L|154:353,1,50
101,328,187029,5,0,0:0:0:0:
58,266,187204,1,0,0:0:0:0:
25,198,187380,2,0,P|22:154|24:137,1,50
59,83,187731,1,0,0:0:0:0:
133,76,187906,1,0,0:0:0:0:
100,144,188082,2,0,L|109:208,1,50
143,259,188433,5,0,0:0:0:0:
203,302,188608,1,0,0:0:0:0:
272,274,188783,1,0,0:0:0:0:
260,199,188959,1,0,0:0:0:0:
213,140,189134,1,0,0:0:0:0:
214,64,189310,1,0,0:0:0:0:
273,18,189485,2,0,L|340:20,1,50
389,55,189836,5,0,0:0:0:0:
438,111,190011,1,0,0:0:0:0:
407,180,190187,2,0,L|405:240,1,50
179,375,190538,1,0,0:0:0:0:
403,259,190713,1,0,0:0:0:0:
179,375,190889,2,0,L|108:374,1,50
59,344,191240,5,0,0:0:0:0:
13,284,191415,1,0,0:0:0:0:
80,251,191590,1,0,0:0:0:0:
122,189,191766,1,0,0:0:0:0:
110,115,191941,1,0,0:0:0:0:
117,40,192117,1,0,0:0:0:0:
184,7,192292,2,0,L|249:15,1,50
298,51,192643,5,0,0:0:0:0:
347,107,192819,1,0,0:0:0:0:
308,171,192994,1,0,0:0:0:0:
352,231,193169,1,0,0:0:0:0:
315,296,193345,2,0,L|313:351,1,50
18,357,193696,5,0,0:0:0:0:
298,151,193871,1,0,0:0:0:0:
2,68,194047,1,0,0:0:0:0:
249,356,194222,2,0,L|345:357,1,69.9999978637696
147,120,194573,5,0,0:0:0:0:
491,239,194748,1,0,0:0:0:0:
139,343,194924,1,0,0:0:0:0:
416,36,195099,1,0,0:0:0:0:
368,359,195275,5,0,0:0:0:0:
175,16,195450,1,0,0:0:0:0:
496,192,195626,1,0,0:0:0:0:
0,133,195801,1,0,0:0:0:0:
496,320,195976,1,0,0:0:0:0:
79,30,196152,1,0,0:0:0:0:
241,368,196327,1,0,0:0:0:0:
413,26,196503,1,0,0:0:0:0:
4,289,199661,6,0,L|83:291,1,69.9999978637696
282,209,200011,2,0,L|195:200,1,69.9999978637696
8,102,200362,1,0,0:0:0:0:
236,328,200538,1,0,0:0:0:0:
247,26,200713,6,0,P|283:27|319:32,1,69.9999978637696
211,201,201064,5,0,0:0:0:0:
465,106,201240,1,0,0:0:0:0:
277,107,201415,1,0,0:0:0:0:
423,313,201590,2,0,L|500:311,1,69.9999978637696
183,354,201941,5,0,0:0:0:0:
410,208,202117,1,0,0:0:0:0:
77,99,202292,1,0,0:0:0:0:
286,253,202468,1,0,0:0:0:0:
277,32,202643,1,0,0:0:0:0:
13,331,202819,2,0,L|113:324,1,69.9999978637696
386,253,203169,6,0,P|344:266|292:264,1,69.9999978637696
86,174,203520,1,0,0:0:0:0:
296,332,203696,1,0,0:0:0:0:
244,28,203871,2,0,L|255:116,1,69.9999978637696
296,332,204222,2,0,P|333:338|379:324,1,69.9999978637696
253,110,204573,2,0,P|218:103|184:109,1,69.9999978637696
16,355,204924,2,0,B|50:361|107:323|172:336,1,139.999995727539
471,267,205450,6,0,L|468:182,1,69.9999978637696
270,291,205801,1,0,0:0:0:0:
374,41,205976,2,0,P|360:87|342:121,1,69.9999978637696
199,220,206327,2,0,P|217:139|207:80,1,139.999995727539
18,8,207029,6,0,L|25:64,1,34.9999989318848
97,303,207204,2,0,L|81:252,1,34.9999989318848
219,68,207380,2,0,L|156:89,1,34.9999989318848
295,312,207555,2,0,L|316:367,1,34.9999989318848
377,145,207731,2,0,L|365:87,1,34.9999989318848
65,189,207906,1,0,0:0:0:0:
430,292,208082,5,0,0:0:0:0:
150,7,208257,1,0,0:0:0:0:
208,331,208433,1,0,0:0:0:0:
286,33,208608,1,0,0:0:0:0:
490,200,208783,1,0,0:0:0:0:
53,108,208959,1,0,0:0:0:0:
454,372,209134,6,0,L|357:366,1,69.9999978637696
6,252,209485,2,0,L|98:250,1,69.9999978637696
480,137,209836,2,0,L|399:143,1,69.9999978637696
0,372,210187,2,0,B|154:305|122:395|286:310,1,279.999991455078
112,88,211240,5,0,0:0:0:0:
112,88,211415,1,0,0:0:0:0:
112,88,211590,1,0,0:0:0:0:
315,333,211766,1,0,0:0:0:0:
302,46,211941,1,0,0:0:0:0:
19,296,212117,1,0,0:0:0:0:
401,175,212292,6,0,P|401:235|394:275,1,69.9999978637696
188,368,212643,2,0,P|185:333|186:298,1,69.9999978637696
298,89,212994,1,0,0:0:0:0:
0,229,213345,2,0,L|167:228,1,139.999995727539
306,152,213871,5,0,0:0:0:0:
374,333,214047,1,0,0:0:0:0:
141,122,214222,5,0,0:0:0:0:
448,231,214397,1,0,0:0:0:0:
3,353,214748,2,0,L|102:349,1,69.9999978637696
187,258,215099,2,0,L|260:255,1,69.9999978637696
490,120,215450,2,0,L|400:126,1,69.9999978637696
181,58,215801,5,0,0:0:0:0:
372,259,215976,1,0,0:0:0:0:
335,20,216152,1,0,0:0:0:0:
121,278,216327,1,0,0:0:0:0:
301,153,216503,1,0,0:0:0:0:
51,128,216678,5,0,0:0:0:0:
297,368,216854,1,0,0:0:0:0:
287,21,217029,1,0,0:0:0:0:
76,368,217204,1,0,0:0:0:0:
468,123,217380,1,0,0:0:0:0:
4,224,217555,2,0,L|89:229,1,69.9999978637696
491,302,217906,6,0,L|393:299,1,69.9999978637696
5,111,218257,2,0,L|105:115,1,69.9999978637696
286,358,218608,2,0,L|283:267,1,69.9999978637696
223,22,218959,2,0,L|228:103,1,69.9999978637696
414,257,219310,5,0,0:0:0:0:
46,288,219485,1,0,0:0:0:0:
328,133,219661,1,0,0:0:0:0:
216,318,219836,1,0,0:0:0:0:
71,32,220011,1,0,0:0:0:0:
434,169,220187,5,0,0:0:0:0:
36,284,220362,1,0,0:0:0:0:
308,41,220538,1,0,0:0:0:0:
270,361,220713,1,0,0:0:0:0:
151,12,220889,1,0,0:0:0:0:
492,290,221064,2,0,L|410:282,1,69.9999978637696
12,102,221415,2,0,L|112:103,1,69.9999978637696
496,142,221766,6,0,B|400:149|454:195|343:205,1,139.999995727539
203,242,222468,1,0,0:0:0:0:
256,108,222819,1,0,0:0:0:0:
359,301,223169,1,0,0:0:0:0:
106,129,223520,1,0,0:0:0:0:
1,373,223871,6,0,L|98:372,1,69.9999978637696
499,297,224222,1,0,0:0:0:0:
0,194,224397,6,0,L|97:193,1,69.9999978637696
501,213,224748,1,0,0:0:0:0:
125,287,224924,2,0,L|31:288,1,69.9999978637696
370,80,225275,2,0,L|447:80,1,69.9999978637696
376,352,225626,1,0,0:0:0:0:
172,73,225801,1,0,0:0:0:0:
211,368,225976,2,0,B|231:292|231:292|178:220,1,139.999995727539
133,181,226503,5,0,0:0:0:0:
0,18,226678,2,0,L|92:28,1,69.9999978637696
291,20,227029,1,0,0:0:0:0:
365,255,227204,1,0,0:0:0:0:
160,16,227380,1,0,0:0:0:0:
81,302,227555,5,0,0:0:0:0:
411,155,227731,1,0,0:0:0:0:
4,115,227906,1,0,0:0:0:0:
284,17,228082,2,0,L|285:114,1,69.9999978637696
208,184,228433,1,0,0:0:0:0:
157,372,228608,2,0,L|156:276,1,69.9999978637696
368,328,228959,5,0,0:0:0:0:
495,20,229134,1,0,0:0:0:0:
116,146,229310,1,0,0:0:0:0:
486,21,229485,2,0,L|489:118,1,69.9999978637696
52,360,229836,1,0,0:0:0:0:
231,11,230011,1,0,0:0:0:0:
496,370,230187,2,0,B|386:102|228:340|141:59,1,500
