osu file format v14

[General]
AudioFilename: audio.mp3
AudioLeadIn: 0
PreviewTime: 44911
Countdown: 0
SampleSet: Soft
StackLeniency: 0.7
Mode: 0
LetterboxInBreaks: 0
WidescreenStoryboard: 1

[Editor]
Bookmarks: 11419,34222,57025,68426,74127,96930,119732,142524,153925,165326,176728
DistanceSpacing: 1
BeatDivisor: 8
GridSize: 32
TimelineZoom: 1.9

[Metadata]
Title:Superstar (feat. Remington Leith)
TitleUnicode:Superstar (feat. Remington Leith)
Artist:Crown The Empire
ArtistUnicode:Crown The Empire
Creator:Soraka
Version:Fame
Source:
Tags:dogma palaye royale rock english male vocals vocalist emo muya- adeaaa
BeatmapID:4166761
BeatmapSetID:2003683

[Difficulty]
HPDrainRate:5
CircleSize:4
OverallDifficulty:7.5
ApproachRate:9
SliderMultiplier:3.59999990463257
SliderTickRate:1

[Events]
//Background and Video events
0,0,"a32-min.png",0,0
//Break Periods
2,34421,45023
2,68626,73527
2,119932,139085
//Storyboard Layer 0 (Background)
//Storyboard Layer 1 (Fail)
//Storyboard Layer 2 (Pass)
//Storyboard Layer 3 (Foreground)
//Storyboard Layer 4 (Overlay)
//Storyboard Sound Samples

[TimingPoints]
18,712.589073634204,4,2,1,50,1,0
11419,-111.111111111111,4,2,14,70,0,0
11775,-111.111111111111,4,2,15,70,0,0
12132,-111.111111111111,4,2,16,70,0,0
12488,-111.111111111111,4,2,14,70,0,0
13022,-111.111111111111,4,2,17,70,0,0
13468,-111.111111111111,4,2,17,5,0,0
13557,-111.111111111111,4,2,14,70,0,0
13913,-111.111111111111,4,2,15,70,0,0
14091,-111.111111111111,4,2,17,70,0,0
14269,-111.111111111111,4,2,14,70,0,0
14626,-111.111111111111,4,2,15,70,0,0
14982,-111.111111111111,4,2,16,70,0,0
15338,-111.111111111111,4,2,14,70,0,0
15873,-111.111111111111,4,2,17,70,0,0
16407,-111.111111111111,4,2,14,70,0,0
16763,-111.111111111111,4,2,15,70,0,0
17031,-111.111111111111,4,2,15,5,0,0
17120,-111.111111111111,4,2,14,70,0,0
17476,-111.111111111111,4,2,15,70,0,0
17832,-111.111111111111,4,2,16,70,0,0
18189,-111.111111111111,4,2,14,70,0,0
18723,-111.111111111111,4,2,17,70,0,0
19257,-111.111111111111,4,2,14,70,0,0
19614,-111.111111111111,4,2,15,70,0,0
19792,-111.111111111111,4,2,17,70,0,0
19970,-111.111111111111,4,2,14,70,0,0
20326,-111.111111111111,4,2,15,70,0,0
20683,-111.111111111111,4,2,16,70,0,0
21039,-111.111111111111,4,2,14,70,0,0
21306,-111.111111111111,4,2,14,5,0,0
21395,-111.111111111111,4,2,14,70,0,0
21573,-111.111111111111,4,2,17,70,0,0
22108,-111.111111111111,4,2,14,70,0,0
22464,-111.111111111111,4,2,15,70,0,0
22642,-111.111111111111,4,2,14,70,0,0
23177,-111.111111111111,4,2,15,70,0,0
23533,-111.111111111111,4,2,14,70,0,0
23889,-111.111111111111,4,2,18,70,0,0
24246,-111.111111111111,4,2,16,70,0,0
24958,-111.111111111111,4,2,14,70,0,0
25314,-111.111111111111,4,2,15,70,0,0
25671,-111.111111111111,4,2,16,70,0,0
26027,-111.111111111111,4,2,15,70,0,0
26383,-111.111111111111,4,2,16,70,0,0
26740,-111.111111111111,4,2,14,70,0,0
27274,-111.111111111111,4,2,17,70,0,0
27808,-111.111111111111,4,2,14,70,0,0
27987,-111.111111111111,4,2,17,70,0,0
28165,-111.111111111111,4,2,15,70,0,0
28432,-111.111111111111,4,2,15,5,0,0
28521,-111.111111111111,4,2,16,70,0,0
28877,-111.111111111111,4,2,15,70,0,0
29234,-111.111111111111,4,2,14,70,0,0
29590,-111.111111111111,4,2,18,70,0,0
29946,-111.111111111111,4,2,16,70,0,0
30659,-111.111111111111,4,2,14,70,0,0
31015,-111.111111111111,4,2,15,70,0,0
31371,-111.111111111111,4,2,16,70,0,0
31728,-111.111111111111,4,2,15,70,0,0
32084,-111.111111111111,4,2,16,70,0,0
32440,-111.111111111111,4,2,14,70,0,0
32708,-111.111111111111,4,2,14,5,0,0
32797,-111.111111111111,4,2,14,70,0,0
32975,-111.111111111111,4,2,17,70,0,0
33509,-111.111111111111,4,2,14,70,0,0
33687,-111.111111111111,4,2,17,70,0,0
34222,-111.111111111111,4,2,15,70,0,0
34934,-111.111111111111,4,2,17,50,0,0
45623,-83.3333333333333,4,2,19,90,0,0
45890,-83.3333333333333,4,2,19,5,0,0
45979,-83.3333333333333,4,2,19,90,0,0
46336,-83.3333333333333,4,2,15,90,0,0
46514,-83.3333333333333,4,2,17,90,0,0
46692,-83.3333333333333,4,2,20,90,0,0
47048,-83.3333333333333,4,2,14,90,0,0
47761,-83.3333333333333,4,2,21,90,0,0
47939,-83.3333333333333,4,2,17,90,0,0
48117,-125,4,2,17,90,0,0
48384,-125,4,2,17,5,0,0
48474,-83.3333333333333,4,2,14,90,0,0
48741,-83.3333333333333,4,2,14,5,0,0
48830,-83.3333333333333,4,2,14,90,0,0
49008,-83.3333333333333,4,2,17,90,0,0
49186,-83.3333333333333,4,2,15,90,0,0
49453,-83.3333333333333,4,2,15,5,0,0
49542,-83.3333333333333,4,2,20,90,0,0
49899,-83.3333333333333,4,2,14,90,0,0
50611,-83.3333333333333,4,2,21,90,0,0
50789,-83.3333333333333,4,2,17,90,0,0
51324,-83.3333333333333,4,2,14,90,0,0
51591,-83.3333333333333,4,2,14,5,0,0
51680,-83.3333333333333,4,2,16,90,0,0
51858,-83.3333333333333,4,2,17,90,0,0
52037,-83.3333333333333,4,2,22,90,0,0
52393,-83.3333333333333,4,2,20,90,0,0
52749,-83.3333333333333,4,2,14,90,0,0
53105,-83.3333333333333,4,2,18,90,0,0
53462,-83.3333333333333,4,2,21,90,0,0
54174,-83.3333333333333,4,2,14,90,0,0
54441,-83.3333333333333,4,2,14,5,0,0
54531,-83.3333333333333,4,2,16,90,0,0
54709,-83.3333333333333,4,2,17,90,0,0
54887,-83.3333333333333,4,2,22,90,0,0
55154,-83.3333333333333,4,2,22,5,0,0
55243,-83.3333333333333,4,2,20,90,0,0
55599,-83.3333333333333,4,2,14,90,0,0
56312,-83.3333333333333,4,2,21,90,0,0
56490,-83.3333333333333,4,2,17,90,0,0
56668,-125,4,2,17,90,0,0
57025,-83.3333333333333,4,2,19,90,0,0
57292,-83.3333333333333,4,2,19,5,0,0
57381,-83.3333333333333,4,2,19,90,0,0
57737,-83.3333333333333,4,2,15,90,0,0
57915,-83.3333333333333,4,2,17,90,0,0
58094,-83.3333333333333,4,2,20,90,0,0
58450,-83.3333333333333,4,2,14,90,0,0
59162,-83.3333333333333,4,2,21,90,0,0
59341,-83.3333333333333,4,2,17,90,0,0
59519,-125,4,2,17,90,0,0
59875,-83.3333333333333,4,2,14,90,0,0
60142,-83.3333333333333,4,2,14,5,0,0
60231,-83.3333333333333,4,2,14,90,0,0
60409,-83.3333333333333,4,2,17,90,0,0
60588,-83.3333333333333,4,2,15,90,0,0
60855,-83.3333333333333,4,2,15,5,0,0
60944,-83.3333333333333,4,2,20,90,0,0
61122,-83.3333333333333,4,2,17,90,0,0
61300,-83.3333333333333,4,2,14,90,0,0
62013,-83.3333333333333,4,2,21,90,0,0
62191,-83.3333333333333,4,2,17,90,0,0
62725,-83.3333333333333,4,2,14,90,0,0
62993,-83.3333333333333,4,2,14,5,0,0
63082,-83.3333333333333,4,2,16,90,0,0
63260,-83.3333333333333,4,2,17,90,0,0
63438,-83.3333333333333,4,2,22,90,0,0
63794,-83.3333333333333,4,2,20,90,0,0
64151,-83.3333333333333,4,2,14,90,0,0
64507,-83.3333333333333,4,2,18,90,0,0
64863,-83.3333333333333,4,2,21,90,0,0
65576,-83.3333333333333,4,2,14,90,0,0
65843,-83.3333333333333,4,2,14,5,0,0
65932,-83.3333333333333,4,2,16,90,0,0
66110,-83.3333333333333,4,2,17,90,0,0
66288,-83.3333333333333,4,2,22,90,0,0
66556,-83.3333333333333,4,2,22,5,0,0
66645,-83.3333333333333,4,2,20,90,0,0
67001,-83.3333333333333,4,2,14,90,0,0
67268,-83.3333333333333,4,2,14,5,0,0
67357,-83.3333333333333,4,2,18,90,0,0
67713,-100,4,2,17,90,0,0
68782,-100,4,2,16,40,0,0
72702,-100,4,2,17,40,0,0
74127,-111.111111111111,4,2,14,70,0,0
74483,-111.111111111111,4,2,15,70,0,0
74839,-111.111111111111,4,2,14,70,0,0
75017,-111.111111111111,4,2,17,70,0,0
75196,-111.111111111111,4,2,18,70,0,0
75552,-111.111111111111,4,2,14,70,0,0
75730,-111.111111111111,4,2,17,70,0,0
76175,-111.111111111111,4,2,17,5,0,0
76265,-111.111111111111,4,2,14,70,0,0
76621,-111.111111111111,4,2,15,70,0,0
76977,-111.111111111111,4,2,14,70,0,0
77333,-111.111111111111,4,2,15,70,0,0
77690,-111.111111111111,4,2,14,70,0,0
77957,-111.111111111111,4,2,14,5,0,0
78046,-111.111111111111,4,2,18,70,0,0
78402,-111.111111111111,4,2,14,70,0,0
78759,-111.111111111111,4,2,17,70,0,0
79115,-111.111111111111,4,2,14,70,0,0
79382,-111.111111111111,4,2,14,5,0,0
79471,-111.111111111111,4,2,15,70,0,0
79827,-111.111111111111,4,2,14,70,0,0
80184,-111.111111111111,4,2,15,70,0,0
80540,-111.111111111111,4,2,14,70,0,0
80896,-111.111111111111,4,2,18,70,0,0
81253,-111.111111111111,4,2,14,70,0,0
81431,-111.111111111111,4,2,17,70,0,0
81965,-111.111111111111,4,2,14,70,0,0
82232,-111.111111111111,4,2,14,5,0,0
82322,-111.111111111111,4,2,15,70,0,0
82678,-111.111111111111,4,2,14,70,0,0
83034,-111.111111111111,4,2,15,70,0,0
83390,-111.111111111111,4,2,16,70,0,0
83747,-111.111111111111,4,2,18,70,0,0
84014,-111.111111111111,4,2,18,5,0,0
84103,-111.111111111111,4,2,14,70,0,0
84816,-111.111111111111,4,2,16,70,0,0
84994,-111.111111111111,4,2,17,70,0,0
85172,-111.111111111111,4,2,15,70,0,0
85350,-111.111111111111,4,2,17,70,0,0
85528,-111.111111111111,4,2,14,70,0,0
85795,-111.111111111111,4,2,14,5,0,0
85884,-111.111111111111,4,2,15,70,0,0
86241,-111.111111111111,4,2,14,70,0,0
86419,-111.111111111111,4,2,17,70,0,0
86597,-111.111111111111,4,2,18,70,0,0
86864,-111.111111111111,4,2,18,5,0,0
86953,-111.111111111111,4,2,14,70,0,0
87310,-111.111111111111,4,2,17,70,0,0
87666,-111.111111111111,4,2,16,70,0,0
88022,-111.111111111111,4,2,15,70,0,0
88379,-111.111111111111,4,2,14,70,0,0
88735,-111.111111111111,4,2,15,70,0,0
89091,-111.111111111111,4,2,14,70,0,0
89358,-111.111111111111,4,2,14,5,0,0
89447,-111.111111111111,4,2,18,70,0,0
89804,-111.111111111111,4,2,14,70,0,0
90071,-111.111111111111,4,2,14,5,0,0
90160,-111.111111111111,4,2,17,70,0,0
90516,-111.111111111111,4,2,16,70,0,0
90784,-111.111111111111,4,2,16,5,0,0
90873,-111.111111111111,4,2,15,70,0,0
91051,-111.111111111111,4,2,14,70,0,0
91407,-111.111111111111,4,2,17,70,0,0
91496,-111.111111111111,4,2,17,5,0,0
91585,-111.111111111111,4,2,15,70,0,0
91941,-111.111111111111,4,2,14,70,0,0
92209,-111.111111111111,4,2,14,5,0,0
92298,-111.111111111111,4,2,18,70,0,0
92654,-111.111111111111,4,2,14,70,0,0
93010,-111.111111111111,4,2,17,70,0,0
93367,-111.111111111111,4,2,16,70,0,0
93545,-111.111111111111,4,2,17,70,0,0
93723,-111.111111111111,4,2,15,70,0,0
94079,-111.111111111111,4,2,23,70,0,0
94436,-111.111111111111,4,2,15,70,0,0
94792,-111.111111111111,4,2,23,70,0,0
95148,-111.111111111111,4,2,14,70,0,0
95504,-142.857142857143,4,2,17,60,0,0
96930,-83.3333333333334,4,2,19,90,0,0
97197,-83.3333333333334,4,2,19,5,0,0
97286,-83.3333333333334,4,2,19,90,0,0
97642,-83.3333333333334,4,2,15,90,0,0
97820,-83.3333333333334,4,2,17,90,0,0
97998,-83.3333333333334,4,2,20,90,0,0
98355,-83.3333333333334,4,2,14,90,0,0
99067,-83.3333333333334,4,2,21,90,0,0
99246,-83.3333333333334,4,2,17,90,0,0
99424,-125,4,2,17,90,0,0
99691,-125,4,2,17,5,0,0
99780,-83.3333333333333,4,2,14,90,0,0
100047,-83.3333333333333,4,2,14,5,0,0
100136,-83.3333333333333,4,2,14,90,0,0
100314,-83.3333333333333,4,2,17,90,0,0
100493,-83.3333333333333,4,2,15,90,0,0
100760,-83.3333333333333,4,2,15,5,0,0
100849,-83.3333333333333,4,2,20,90,0,0
101205,-83.3333333333333,4,2,14,90,0,0
101918,-83.3333333333333,4,2,21,90,0,0
102096,-83.3333333333333,4,2,17,90,0,0
102630,-83.3333333333333,4,2,14,90,0,0
102898,-83.3333333333333,4,2,14,5,0,0
102987,-83.3333333333333,4,2,16,90,0,0
103165,-83.3333333333333,4,2,17,90,0,0
103343,-83.3333333333333,4,2,22,90,0,0
103699,-83.3333333333333,4,2,20,90,0,0
104056,-83.3333333333333,4,2,14,90,0,0
104412,-83.3333333333333,4,2,18,90,0,0
104768,-83.3333333333333,4,2,21,90,0,0
105481,-83.3333333333333,4,2,14,90,0,0
105748,-83.3333333333333,4,2,14,5,0,0
105837,-83.3333333333333,4,2,16,90,0,0
106015,-83.3333333333333,4,2,17,90,0,0
106193,-83.3333333333333,4,2,22,90,0,0
106460,-83.3333333333333,4,2,22,5,0,0
106550,-83.3333333333333,4,2,20,90,0,0
106906,-83.3333333333333,4,2,14,90,0,0
107618,-83.3333333333333,4,2,21,90,0,0
107797,-83.3333333333333,4,2,17,90,0,0
107975,-125,4,2,17,90,0,0
108331,-83.3333333333333,4,2,19,90,0,0
108598,-83.3333333333333,4,2,19,5,0,0
108687,-83.3333333333333,4,2,19,90,0,0
109044,-83.3333333333333,4,2,15,90,0,0
109222,-83.3333333333333,4,2,17,90,0,0
109400,-83.3333333333333,4,2,20,90,0,0
109756,-83.3333333333333,4,2,14,90,0,0
110469,-83.3333333333333,4,2,21,90,0,0
110647,-83.3333333333333,4,2,17,90,0,0
110825,-125,4,2,17,90,0,0
111181,-83.3333333333333,4,2,14,90,0,0
111449,-83.3333333333333,4,2,14,5,0,0
111538,-83.3333333333333,4,2,14,90,0,0
111716,-83.3333333333333,4,2,17,90,0,0
111894,-83.3333333333333,4,2,15,90,0,0
112161,-83.3333333333333,4,2,15,5,0,0
112250,-83.3333333333333,4,2,20,90,0,0
112428,-83.3333333333333,4,2,17,90,0,0
112607,-83.3333333333333,4,2,14,90,0,0
113319,-83.3333333333333,4,2,21,90,0,0
113497,-83.3333333333333,4,2,17,90,0,0
114032,-83.3333333333333,4,2,14,90,0,0
114299,-83.3333333333333,4,2,14,5,0,0
114388,-83.3333333333333,4,2,16,90,0,0
114566,-83.3333333333333,4,2,17,90,0,0
114744,-83.3333333333333,4,2,22,90,0,0
115101,-83.3333333333333,4,2,20,90,0,0
115457,-83.3333333333333,4,2,14,90,0,0
115813,-83.3333333333333,4,2,18,90,0,0
116170,-83.3333333333333,4,2,21,90,0,0
116882,-83.3333333333333,4,2,14,90,0,0
117149,-83.3333333333333,4,2,14,5,0,0
117238,-83.3333333333333,4,2,16,90,0,0
117595,-83.3333333333333,4,2,15,90,0,0
117862,-83.3333333333333,4,2,15,5,0,0
117951,-83.3333333333333,4,2,17,90,0,0
118307,-83.3333333333333,4,2,14,90,0,0
118575,-83.3333333333333,4,2,14,5,0,0
118664,-83.3333333333333,4,2,14,90,0,0
119020,-100,4,2,24,90,0,0
119732,-100,4,2,15,70,0,0
141823,-100,4,2,17,40,0,0
142524,712.589073634204,4,2,14,50,1,0
142524,-125,4,2,14,50,0,0
143236,-125,4,2,17,50,0,0
143592,-125,4,2,14,50,0,0
144305,-125,4,2,16,50,0,0
144661,-125,4,2,17,50,0,0
145374,-125,4,2,14,50,0,0
145908,-125,4,2,17,50,0,0
146443,-125,4,2,14,50,0,0
147155,-125,4,2,16,50,0,0
147512,-125,4,2,17,50,0,0
148224,-125,4,2,14,50,0,0
148581,-125,4,2,16,50,0,0
148759,-125,4,2,17,50,0,0
149293,-125,4,2,14,50,0,0
150362,-125,4,2,17,50,0,0
151075,-125,4,2,14,50,0,0
151431,-125,4,2,16,50,0,0
151609,-125,4,2,17,50,0,0
152143,-125,4,2,14,50,0,0
153212,-125,4,2,17,50,0,0
153925,-83.3333333333333,4,2,19,90,0,0
154192,-83.3333333333333,4,2,19,5,0,0
154281,-83.3333333333333,4,2,19,90,0,0
154638,-83.3333333333333,4,2,15,90,0,0
154816,-83.3333333333333,4,2,17,90,0,0
154994,-83.3333333333333,4,2,20,90,0,0
155350,-83.3333333333333,4,2,14,90,0,0
156063,-83.3333333333333,4,2,21,90,0,0
156241,-83.3333333333333,4,2,17,90,0,0
156419,-125,4,2,17,90,0,0
156775,-83.3333333333333,4,2,14,90,0,0
157043,-83.3333333333333,4,2,14,5,0,0
157132,-83.3333333333333,4,2,14,90,0,0
157310,-83.3333333333333,4,2,17,90,0,0
157488,-83.3333333333333,4,2,15,90,0,0
157844,-83.3333333333333,4,2,20,90,0,0
158022,-83.3333333333333,4,2,17,90,0,0
158200,-83.3333333333333,4,2,14,90,0,0
158468,-83.3333333333333,4,2,14,5,0,0
158557,-83.3333333333333,4,2,14,90,0,0
158913,-83.3333333333333,4,2,21,90,0,0
159091,-83.3333333333333,4,2,17,90,0,0
159626,-83.3333333333333,4,2,14,90,0,0
159893,-83.3333333333333,4,2,14,5,0,0
159982,-83.3333333333333,4,2,16,90,0,0
160160,-83.3333333333333,4,2,17,90,0,0
160338,-83.3333333333333,4,2,22,90,0,0
160695,-83.3333333333333,4,2,20,90,0,0
161051,-83.3333333333333,4,2,14,90,0,0
161407,-83.3333333333333,4,2,18,90,0,0
161763,-83.3333333333333,4,2,21,90,0,0
162476,-83.3333333333333,4,2,14,90,0,0
162743,-83.3333333333333,4,2,14,5,0,0
162832,-83.3333333333333,4,2,16,90,0,0
163010,-83.3333333333333,4,2,17,90,0,0
163189,-83.3333333333333,4,2,22,90,0,0
163456,-83.3333333333333,4,2,22,5,0,0
163545,-83.3333333333333,4,2,20,90,0,0
163901,-83.3333333333333,4,2,23,90,0,0
164168,-83.3333333333333,4,2,23,5,0,0
164257,-83.3333333333333,4,2,14,90,0,0
164614,-100,4,2,21,90,0,0
164792,-100,4,2,17,90,0,0
165326,-90.9090909090909,4,2,19,90,0,0
165594,-90.9090909090909,4,2,19,5,0,0
165683,-90.9090909090909,4,2,16,90,0,0
165861,-90.9090909090909,4,2,17,90,0,0
166039,-90.9090909090909,4,2,22,90,0,0
166395,-90.9090909090909,4,2,20,90,0,0
166752,-90.9090909090909,4,2,14,90,0,0
167464,-90.9090909090909,4,2,24,90,0,0
167820,-125,4,2,17,90,0,0
168088,-125,4,2,17,5,0,0
168177,-83.3333333333333,4,2,14,90,0,0
168444,-83.3333333333333,4,2,14,5,0,0
168533,-83.3333333333333,4,2,16,90,0,0
168889,-83.3333333333333,4,2,15,90,0,0
169157,-83.3333333333333,4,2,15,5,0,0
169246,-83.3333333333333,4,2,17,90,0,0
169602,-83.3333333333333,4,2,23,90,0,0
169869,-83.3333333333333,4,2,23,5,0,0
169958,-83.3333333333333,4,2,18,90,0,0
170314,-100,4,2,24,90,0,0
171027,-90.9090909090909,4,2,14,90,0,0
171294,-90.9090909090909,4,2,14,5,0,0
171383,-90.9090909090909,4,2,16,90,0,0
171562,-90.9090909090909,4,2,17,90,0,0
171740,-90.9090909090909,4,2,22,90,0,0
172096,-90.9090909090909,4,2,20,90,0,0
172452,-90.9090909090909,4,2,14,90,0,0
173165,-90.9090909090909,4,2,24,90,0,0
173521,-125,4,2,17,90,0,0
173788,-125,4,2,17,5,0,0
173877,-83.3333333333333,4,2,14,90,0,0
174145,-83.3333333333333,4,2,14,5,0,0
174234,-83.3333333333333,4,2,16,90,0,0
174590,-83.3333333333333,4,2,15,90,0,0
174857,-83.3333333333333,4,2,15,5,0,0
174946,-83.3333333333333,4,2,17,90,0,0
175303,-83.3333333333333,4,2,23,90,0,0
175570,-83.3333333333333,4,2,23,5,0,0
175659,-83.3333333333333,4,2,18,90,0,0
176015,-100,4,2,24,90,0,0
176728,-100,4,2,15,70,0,0

[Colours]
Combo1 : 66,24,188
Combo2 : 150,193,237
Combo3 : 165,71,87

[HitObjects]
414,365,11419,6,0,P|497:356|471:259,2,161.999990764618,6|2|10,1:2|2:2|2:2,0:0:0:0:
404,367,12488,2,0,P|397:322|385:288,1,80.9999953823091,2|0,1:3|0:0,0:0:0:0:
403,110,12844,5,2,2:2:0:0:
456,165,13022,1,2,2:2:0:0:
376,208,13200,2,1,B|305:223|340:247|270:262,1,121.499993073464,2|0,1:2|0:0,0:0:0:0:
259,253,13557,5,10,2:2:0:0:
27,11,14269,6,0,P|89:2|117:93,1,161.999990764618,2|2,1:2|2:3,0:0:0:0:
123,82,14804,1,0,1:1:0:0:
18,177,14982,2,0,P|11:132|-1:98,1,80.9999953823091,10|0,2:2|0:0,0:0:0:0:
130,213,15338,6,0,P|199:210|224:112,1,161.999990764618,2|2,1:3|2:2,0:0:0:0:
231,132,15873,1,2,2:2:0:0:
328,49,16051,2,0,P|274:36|249:24,1,80.9999953823091,2|0,1:2|0:0,0:0:0:0:
408,155,16407,1,10,2:2:0:0:
464,95,16585,1,0,1:1:0:0:
402,163,16763,2,1,B|417:234|441:199|456:269,1,121.499993073464,2|0,2:2|0:0,0:0:0:0:
444,279,17120,6,0,P|411:333|319:303,2,161.999990764618,2|2|10,1:2|2:2|2:2,0:0:0:0:
453,275,18189,6,0,P|446:230|434:196,1,80.9999953823091,2|0,1:3|0:0,0:0:0:0:
434,17,18545,5,2,2:2:0:0:
487,72,18723,1,2,2:2:0:0:
407,115,18901,2,0,P|361:125|323:141,1,80.9999953823091,2|0,1:2|0:0,0:0:0:0:
178,9,19257,6,0,P|234:15|255:109,1,161.999990764618,10|2,2:2|2:2,0:0:0:0:
256,105,19792,1,2,1:2:0:0:
98,57,19970,6,0,P|39:69|22:161,1,161.999990764618,2|2,1:2|2:3,0:0:0:0:
20,158,20504,1,0,1:1:0:0:
117,220,20683,6,0,P|171:207|196:195,1,80.9999953823091,10|0,2:2|0:0,0:0:0:0:
15,303,21039,6,0,P|77:320|157:356,1,121.499993073464,2|0,1:3|0:0,0:0:0:0:
145,350,21395,5,2,2:2:0:0:
211,309,21573,1,2,2:2:0:0:
295,377,21751,2,0,P|318:330|308:298,1,80.9999953823091,2|0,1:2|0:0,0:0:0:0:
349,144,22108,6,0,P|363:181|374:220,1,80.9999953823091,10|0,2:2|1:1,0:0:0:0:
442,378,22464,1,2,1:2:0:0:
505,295,22642,1,8,2:2:0:0:
381,228,22820,6,1,B|283:249|332:282|232:303,2,161.999990764618,2|2|10,1:2|2:2|2:2,0:0:0:0:
435,158,23711,1,0,0:0:0:0:
335,12,23889,6,0,P|252:17|244:104,1,161.999990764618,2|2,1:2|2:3,0:0:0:0:
233,82,24424,1,0,0:0:0:0:
127,160,24602,2,0,P|120:115|108:81,1,80.9999953823091,0|0,1:1|0:0,0:0:0:0:
236,198,24958,6,0,P|276:203|314:216,1,80.9999953823091,10|0,2:2|0:0,0:0:0:0:
134,285,25314,2,0,P|95:298|55:303,1,80.9999953823091,2|0,2:2|0:0,0:0:0:0:
303,365,25671,6,0,P|343:334|303:230,1,161.999990764618,2|2,1:3|2:3,0:0:0:0:
319,237,26205,1,0,1:1:0:0:
419,154,26383,2,0,L|506:184,1,80.9999953823091,10|0,2:2|0:0,0:0:0:0:
384,14,26740,6,0,P|317:1|263:96,1,161.999990764618,2|2,1:3|2:2,0:0:0:0:
260,66,27274,1,2,2:2:0:0:
152,134,27452,2,0,P|148:97|131:52,1,80.9999953823091,2|0,1:2|0:0,0:0:0:0:
247,198,27808,5,10,2:2:0:0:
160,268,27986,1,2,1:2:0:0:
259,330,28164,2,1,B|330:345|295:369|365:384,1,121.499993073464,2|0,2:2|0:0,0:0:0:0:
384,382,28521,6,0,L|411:223,2,161.999990764618,2|2|10,1:3|2:2|2:2,0:0:0:0:
471,335,29412,1,0,0:0:0:0:
303,268,29590,6,0,P|260:242|284:124,1,161.999990764618,2|2,1:2|2:3,0:0:0:0:
262,140,30124,1,0,0:0:0:0:
367,68,30303,2,0,P|414:86|459:95,1,80.9999953823091,0|0,1:1|0:0,0:0:0:0:
240,5,30659,6,0,P|202:20|163:30,1,80.9999953823091,10|0,2:2|0:0,0:0:0:0:
19,92,31015,1,2,2:2:0:0:
65,26,31193,1,0,1:1:0:0:
130,143,31371,6,1,B|145:191|91:222|93:191|35:216|48:267,1,161.999990764618,2|2,1:3|2:3,0:0:0:0:
47,261,31906,1,0,1:1:0:0:
177,375,32084,2,0,P|170:330|158:296,1,80.9999953823091,10|0,2:2|0:0,0:0:0:0:
233,149,32440,6,0,P|287:143|318:215,1,121.499993073464,2|0,1:3|0:0,0:0:0:0:
325,208,32797,5,2,2:2:0:0:
393,278,32975,1,2,2:2:0:0:
468,203,33153,2,0,P|486:122|491:106,1,80.9999953823091,2|0,1:2|0:0,0:0:0:0:
374,0,33509,1,10,2:2:0:0:
442,58,33687,1,2,1:2:0:0:
361,118,33865,6,1,B|263:139|312:172|212:193,1,161.999990764618,2|4,1:2|2:2,0:0:0:0:
251,73,45623,6,1,B|282:50|323:73|323:73|342:117|389:114,1,161.999990764618,6|0,1:2|0:0,0:0:0:0:
457,82,45979,2,0,P|465:25|408:1,1,107.999993843079,2|0,1:2|0:0,0:0:0:0:
240,162,46336,5,10,2:2:0:0:
358,239,46514,1,2,2:2:0:0:
200,354,46692,2,0,P|191:305|171:243,1,107.999993843079,2|0,1:2|0:0,0:0:0:0:
403,368,47048,6,0,P|482:368|493:224,1,215.999987686158,2|2,1:2|2:3,0:0:0:0:
9,70,47761,5,10,2:2:0:0:
97,2,47939,1,2,2:2:0:0:
180,102,48117,6,1,B|167:163|145:130|131:196,1,107.999997138977,2|0,2:2|0:0,0:0:0:0:
5,222,48474,6,1,B|56:193|87:255|58:230|95:295|150:266,1,161.999990764618,2|0,1:2|0:0,0:0:0:0:
210,229,48830,1,2,1:2:0:0:
301,325,49008,1,2,2:2:0:0:
445,118,49186,6,0,P|385:121|377:229,1,161.999990764618,10|0,2:2|0:0,0:0:0:0:
374,284,49542,2,0,P|427:299|469:260,1,107.999993843079,2|0,1:2|0:0,0:0:0:0:
268,121,49899,6,1,B|211:95|155:139|193:163|135:209|81:182,2,215.999987686158,2|2|10,1:2|1:3|2:2,0:0:0:0:
359,207,50789,1,2,2:2:0:0:
445,118,50968,2,0,P|455:65|469:11,1,107.999993843079,2|0,2:2|0:0,0:0:0:0:
508,259,51324,6,1,B|477:236|436:259|436:259|417:303|370:300,1,161.999990764618,6|0,1:2|0:0,0:0:0:0:
295,333,51680,2,0,B|248:320|248:320|242:315|242:315|186:300,1,107.999993843079,2|2,1:3|2:2,0:0:0:0:
0,384,52037,6,0,P|54:377|75:220,1,215.999987686158,10|2,2:2|1:2,0:0:0:0:
7,199,52571,1,0,0:0:0:0:
96,51,52749,6,1,B|165:70|125:78|192:97,1,107.999993843079,2|0,1:2|0:0,0:0:0:0:
367,19,53105,2,0,P|313:24|287:84,1,107.999993843079,2|0,2:2|0:0,0:0:0:0:
352,260,53462,6,1,B|390:269|420:295|420:295|519:280|485:202,1,215.999987686158,10|0,2:2|0:0,0:0:0:0:
235,322,54174,6,1,B|184:293|153:355|182:330|145:395|90:366,1,161.999990764618,6|0,1:2|0:0,0:0:0:0:
31,338,54530,2,0,P|23:281|80:257,1,107.999993843079,2|2,1:3|2:2,0:0:0:0:
29,90,54887,6,0,B|104:108|104:108|110:114|110:114|196:135,1,161.999990764618,10|0,2:2|0:0,0:0:0:0:
262,110,55243,2,0,B|291:65|291:65|266:16,1,107.999993843079,2|0,1:2|0:0,0:0:0:0:
35,182,55599,6,1,B|9:239|53:295|77:257|123:315|96:369,2,215.999987686158,2|2|14,1:2|1:3|2:2,0:0:0:0:
134,110,56490,1,2,2:2:0:0:
69,25,56668,2,0,L|0:7,1,71.9999980926514,2|0,2:2|0:0,0:0:0:0:
184,203,57025,6,1,B|215:180|256:203|256:203|275:247|322:244,1,161.999990764618,6|0,1:2|0:0,0:0:0:0:
397,277,57381,2,0,B|444:264|444:264|450:259|450:259|506:244,1,107.999993843079,2|0,1:2|0:0,0:0:0:0:
313,107,57737,5,10,2:2:0:0:
439,187,57915,1,2,2:2:0:0:
313,338,58094,2,0,B|266:325|266:325|260:320|260:320|204:305,1,107.999993843079,2|0,1:2|0:0,0:0:0:0:
0,170,58450,6,0,P|111:169|119:42,1,215.999987686158,2|2,1:2|2:3,0:0:0:0:
484,316,59163,5,10,2:2:0:0:
396,384,59341,1,2,2:2:0:0:
312,283,59519,6,1,B|322:237|339:262|350:212,1,71.9999980926514,2|0,2:2|0:0,0:0:0:0:
455,55,59875,6,1,B|395:74|395:74|381:108|381:108|320:126,1,161.999990764618,2|0,1:2|0:0,0:0:0:0:
257,88,60231,1,2,1:2:0:0:
434,197,60409,1,2,2:2:0:0:
261,342,60588,6,1,B|210:371|179:309|208:334|171:269|116:298,1,161.999990764618,10|0,2:2|0:0,0:0:0:0:
40,327,60944,2,0,P|3:269|55:219,1,107.999993843079,2|2,1:2|2:2,0:0:0:0:
185,48,61300,6,1,B|242:22|298:66|260:90|318:136|372:109,2,215.999987686158,2|2|10,1:2|1:3|2:2,0:0:0:0:
122,161,62191,1,2,2:2:0:0:
9,71,62369,2,0,P|62:27|99:35,1,107.999993843079,2|0,2:2|0:0,0:0:0:0:
271,203,62725,6,1,B|240:180|199:203|199:203|180:247|133:244,1,161.999990764618,6|0,1:2|0:0,0:0:0:0:
53,213,63082,2,0,P|2:247|11:297,1,107.999993843079,2|2,1:3|2:2,0:0:0:0:
241,378,63438,6,0,P|299:324|252:190,1,215.999987686158,10|2,2:2|1:2,0:0:0:0:
196,144,63972,1,0,0:0:0:0:
364,10,64151,6,1,B|345:77|337:37|318:106,1,107.999993843079,2|0,1:2|0:0,0:0:0:0:
410,260,64507,2,0,P|467:261|483:188,1,107.999993843079,2|0,2:2|0:0,0:0:0:0:
317,106,64863,6,1,B|279:97|249:71|249:71|150:86|184:164,1,215.999987686158,10|0,2:2|0:0,0:0:0:0:
50,363,65576,6,0,B|32:288|32:288|26:282|26:282|5:196,1,161.999990764618,6|0,1:2|0:0,0:0:0:0:
12,125,65932,2,0,B|57:96|57:96|106:121,1,107.999993843079,2|2,1:3|2:2,0:0:0:0:
297,302,66288,6,1,B|357:321|357:321|371:355|371:355|432:373,1,161.999990764618,10|0,2:2|0:0,0:0:0:0:
505,338,66645,2,0,B|534:293|534:293|509:244,1,107.999993843079,2|0,1:2|0:0,0:0:0:0:
261,0,67001,6,0,B|223:66|223:66|236:114|236:114|218:177,1,161.999990764618,2|0,1:2|0:0,0:0:0:0:
163,206,67357,2,0,B|203:248|203:248|250:233,1,107.999993843079,2|0,1:2|0:0,0:0:0:0:
482,119,67713,6,0,B|400:138|400:138|394:145|394:145|300:167,1,179.999995231629,2|2,1:2|1:2,0:0:0:0:
62,34,68426,5,0,0:0:0:0:
270,364,74127,6,0,P|187:355|213:258,2,161.999990764618,6|2|10,1:2|2:3|2:2,0:0:0:0:
270,364,75017,1,2,2:2:0:0:
352,306,75196,2,0,P|359:261|371:227,1,80.9999953823091,2|0,1:2|0:0,0:0:0:0:
350,42,75552,5,2,2:2:0:0:
297,97,75730,1,2,2:2:0:0:
395,146,75908,6,1,B|440:160|440:160|450:186|450:186|496:199,1,121.499993073464,2|0,1:2|0:0,0:0:0:0:
512,191,76265,5,10,2:2:0:0:
265,0,76977,6,0,P|182:9|208:106,1,161.999990764618,2|2,1:2|2:3,0:0:0:0:
173,74,77512,1,0,1:1:0:0:
107,166,77690,6,1,B|36:181|71:205|1:220,1,121.499993073464,10|0,2:2|0:0,0:0:0:0:
1,210,78046,2,0,L|100:237,1,80.9999953823091,2|0,1:2|0:0,0:0:0:0:
155,347,78402,6,0,P|201:355|226:254,1,161.999990764618,2|2,2:2|1:2,0:0:0:0:
235,264,78937,1,2,2:2:0:0:
312,146,79115,6,1,B|383:161|348:185|418:200,1,121.499993073464,10|0,2:2|0:0,0:0:0:0:
439,200,79471,2,0,P|467:153|439:115,1,80.9999953823091,2|0,2:2|0:0,0:0:0:0:
296,25,79827,6,1,B|234:43|234:43|221:79|221:79|158:96,2,161.999990764618,2|2|10,1:2|2:3|2:2,0:0:0:0:
296,25,80718,1,0,0:0:0:0:
375,89,80896,2,0,P|362:127|356:167,1,80.9999953823091,2|0,1:2|0:0,0:0:0:0:
432,255,81253,5,2,2:2:0:0:
488,312,81431,1,2,2:2:0:0:
398,376,81609,2,0,P|359:363|319:357,1,80.9999953823091,2|2,1:2|0:0,0:0:0:0:
301,364,81876,1,2,0:0:0:0:
301,364,81965,6,1,B|286:293|262:328|247:258,1,121.499993073464,10|0,2:2|0:0,0:0:0:0:
254,245,82322,2,0,P|292:257|332:263,1,80.9999953823091,2|0,2:2|1:1,0:0:0:0:
138,360,82678,6,0,P|88:341|107:236,1,161.999990764618,2|2,1:2|2:2,0:0:0:0:
91,245,83212,1,0,1:1:0:0:
23,162,83390,1,10,2:2:0:0:
239,0,83747,6,1,B|224:71|200:36|185:106,1,121.499993073464,2|0,1:2|0:0,0:0:0:0:
193,114,84103,2,0,P|216:146|317:117,2,161.999990764618,2|0|10,2:2|1:1|2:2,0:0:0:0:
193,114,84994,1,2,2:2:0:0:
258,199,85172,2,0,P|243:239|235:284,1,80.9999953823091,2|10,2:2|2:2,0:0:0:0:
429,375,85528,6,0,P|381:345|394:276,1,121.499993073464,2|0,1:2|0:0,0:0:0:0:
404,270,85884,2,0,B|441:278|441:278|444:282|444:282|487:292,1,80.9999953823091,2|0,2:2|0:0,0:0:0:0:
421,92,86241,5,10,2:2:0:0:
474,147,86419,1,2,2:2:0:0:
394,190,86597,2,1,B|323:205|358:229|288:244,1,121.499993073464,2|0,1:2|0:0,0:0:0:0:
272,248,86953,6,0,L|252:160,1,80.9999953823091,2|0,2:2|0:0,0:0:0:0:
321,69,87310,1,2,1:2:0:0:
253,29,87488,1,2,2:2:0:0:
164,114,87666,1,10,2:2:0:0:
1,346,88379,6,0,P|84:337|58:240,1,161.999990764618,2|2,1:2|2:2,0:0:0:0:
92,271,88913,1,0,1:1:0:0:
189,359,89091,6,1,B|260:344|225:320|295:305,1,121.499993073464,10|0,2:2|0:0,0:0:0:0:
316,300,89447,2,0,B|337:341|337:341|319:382,1,80.9999953823091,2|0,1:2|0:0,0:0:0:0:
191,264,89804,6,0,L|160:138,1,121.499993073464,2|0,2:2|0:0,0:0:0:0:
171,137,90160,1,2,1:2:0:0:
259,176,90338,1,2,2:2:0:0:
337,60,90516,2,0,P|399:69|413:144,1,121.499993073464,10|0,2:2|0:0,0:0:0:0:
414,135,90873,1,2,2:3:0:0:
498,221,91051,1,8,2:2:0:0:
412,311,91229,6,1,B|341:326|376:350|306:365,1,121.499993073464,2|0,1:2|0:0,0:0:0:0:
296,366,91585,2,0,L|275:279,1,80.9999953823091,2|0,2:2|0:0,0:0:0:0:
171,137,91941,6,0,P|216:175|180:236,1,121.499993073464,10|0,2:2|0:0,0:0:0:0:
178,237,92298,2,0,B|140:245|140:245|137:249|137:249|94:259,1,80.9999953823091,2|0,1:2|0:0,0:0:0:0:
0,118,92654,6,0,P|62:120|85:32,1,161.999990764618,2|2,2:2|1:2,0:0:0:0:
87,36,93189,1,2,2:2:0:0:
186,95,93367,1,10,2:2:0:0:
291,18,93545,5,2,2:2:0:0:
373,67,93723,2,0,L|358:154,1,80.9999953823091,2|0,2:2|1:1,0:0:0:0:
459,376,94079,6,0,P|511:327|468:227,1,161.999990764618,2|2,1:2|2:3,0:0:0:0:
493,245,94614,1,0,1:1:0:0:
359,146,94792,6,1,B|328:123|287:146|287:146|268:190|221:187,1,161.999990764618,10|2,2:2|1:3,0:0:0:0:
219,186,95326,1,0,0:0:0:0:
93,22,95504,6,0,P|137:43|140:129,1,125.999992816925,2|0,2:2|0:0,0:0:0:0:
149,113,96039,1,0,0:0:0:0:
79,230,96217,6,0,P|25:213|10:204,1,62.9999964084627,2|2,2:2|2:2,0:0:0:0:
116,379,96573,1,2,2:2:0:0:
207,272,96751,1,2,2:2:0:0:
426,384,96930,6,1,B|455:333|393:302|418:331|353:294|382:239,1,161.999990764618,6|0,1:2|0:0,0:0:0:0:
410,180,97286,2,0,P|467:172|491:229,1,107.999993843079,2|0,1:2|0:0,0:0:0:0:
319,363,97642,5,10,2:2:0:0:
487,285,97820,1,2,2:2:0:0:
329,157,97998,2,0,B|279:170|279:170|273:175|273:175|226:188,1,107.999993843079,2|0,1:2|0:0,0:0:0:0:
31,356,98355,6,0,P|87:354|93:211,1,215.999987686158,2|2,1:2|2:3,0:0:0:0:
444,0,99067,5,10,2:2:0:0:
512,88,99245,1,2,2:2:0:0:
410,180,99424,6,1,B|349:167|382:145|314:132,1,107.999997138977,2|0,2:2|0:0,0:0:0:0:
308,0,99780,6,1,B|289:60|289:60|255:74|255:74|237:135,1,161.999990764618,2|0,1:2|0:0,0:0:0:0:
273,202,100136,1,2,1:2:0:0:
167,281,100314,1,2,2:2:0:0:
21,69,100493,6,0,P|81:72|89:180,1,161.999990764618,10|0,2:2|0:0,0:0:0:0:
92,235,100849,2,0,P|39:250|-3:211,1,107.999993843079,2|0,1:2|0:0,0:0:0:0:
201,82,101205,6,1,B|258:56|314:100|276:124|334:170|388:143,2,215.999987686158,2|2|10,1:2|1:3|2:2,0:0:0:0:
144,187,102096,1,2,2:2:0:0:
48,103,102274,2,0,B|29:50|29:50|10:2,1,107.999993843079,2|0,2:2|0:0,0:0:0:0:
0,238,102630,6,1,B|31:215|72:238|72:238|91:282|138:279,1,161.999990764618,6|0,1:2|0:0,0:0:0:0:
213,301,102987,2,0,P|260:252|248:199,1,107.999993843079,2|2,1:3|2:2,0:0:0:0:
341,6,103343,6,0,P|424:19|441:142,1,215.999987686158,10|2,2:2|1:2,0:0:0:0:
381,199,103877,1,0,0:0:0:0:
473,356,104056,6,0,P|506:292|480:261,1,107.999993843079,2|0,1:2|0:0,0:0:0:0:
381,199,104412,2,1,B|312:218|352:226|285:245,1,107.999993843079,2|0,2:2|0:0,0:0:0:0:
86,339,104768,6,1,B|124:348|154:374|154:374|253:359|219:281,1,215.999987686158,10|0,2:2|0:0,0:0:0:0:
46,63,105481,6,1,B|75:114|13:145|38:116|-27:153|2:208,1,161.999990764618,6|0,1:2|0:0,0:0:0:0:
30,267,105837,2,0,P|87:275|121:222,1,107.999993843079,2|2,1:3|2:2,0:0:0:0:
198,41,106193,6,0,B|216:116|216:116|222:122|222:122|243:208,1,161.999990764618,10|0,2:2|0:0,0:0:0:0:
201,266,106550,2,0,B|254:288|254:288|306:248,1,107.999993843079,2|0,1:2|0:0,0:0:0:0:
451,37,106906,6,0,P|380:48|396:176,2,215.999987686158,2|2|14,1:2|1:3|2:2,0:0:0:0:
512,136,107797,1,2,2:2:0:0:
469,234,107975,6,0,P|433:249|398:250,1,71.9999980926514,2|0,2:2|0:0,0:0:0:0:
132,307,108331,6,1,B|163:284|204:307|204:307|223:351|270:348,1,161.999990764618,6|0,1:2|0:0,0:0:0:0:
345,381,108687,2,0,B|392:368|392:368|398:363|398:363|454:348,1,107.999993843079,2|0,1:2|0:0,0:0:0:0:
369,144,109044,5,10,2:2:0:0:
469,234,109222,1,2,2:2:0:0:
295,301,109400,2,0,B|282:254|282:254|277:248|277:248|262:192,1,107.999993843079,2|0,1:2|0:0,0:0:0:0:
444,12,109756,6,0,P|472:67|359:139,1,215.999987686158,2|2,1:2|2:3,0:0:0:0:
0,330,110469,5,10,2:2:0:0:
106,383,110647,1,2,2:2:0:0:
190,282,110825,6,1,B|180:236|163:261|152:211,1,71.9999980926514,2|0,2:2|0:0,0:0:0:0:
12,77,111181,6,1,B|72:96|72:96|86:130|86:130|147:148,1,161.999990764618,2|0,1:2|0:0,0:0:0:0:
210,110,111537,1,2,1:2:0:0:
358,246,111715,1,2,2:2:0:0:
501,85,111894,6,1,B|470:62|429:85|429:85|410:129|363:126,1,161.999990764618,10|0,2:2|0:0,0:0:0:0:
292,103,112250,2,0,B|272:52|272:52|307:7,1,107.999993843079,2|2,1:2|2:2,0:0:0:0:
489,196,112607,6,1,B|515:253|471:309|447:271|401:329|428:383,2,215.999987686158,2|2|10,1:2|1:3|2:2,0:0:0:0:
380,135,113497,1,2,2:2:0:0:
457,4,113675,2,0,P|507:63|488:101,1,107.999993843079,2|0,2:2|0:0,0:0:0:0:
316,243,114032,6,1,B|285:220|244:243|244:243|225:287|178:284,1,161.999990764618,6|0,1:2|0:0,0:0:0:0:
107,326,114389,2,0,P|56:292|65:242,1,107.999993843079,2|2,1:3|2:2,0:0:0:0:
0,8,114744,6,0,B|104:36|104:36|117:46|117:46|204:70,1,215.999987686158,10|2,2:2|1:2,0:0:0:0:
290,18,115279,1,0,0:0:0:0:
394,198,115457,6,1,B|413:129|421:169|440:102,1,107.999993843079,2|0,1:2|0:0,0:0:0:0:
290,18,115813,2,0,B|243:31|243:31|237:36|237:36|181:51,1,107.999993843079,2|0,2:2|0:0,0:0:0:0:
40,257,116170,6,1,B|78:266|108:292|108:292|207:277|173:199,1,215.999987686158,10|0,2:2|0:0,0:0:0:0:
408,66,116882,6,1,B|389:126|389:126|355:140|355:140|337:201,1,161.999990764618,6|0,1:2|0:0,0:0:0:0:
372,274,117239,2,0,B|417:303|417:303|466:278,1,107.999993843079,2|0,1:3|0:0,0:0:0:0:
262,121,117595,6,0,B|187:139|187:139|181:145|181:145|106:163,1,161.999990764618,10|0,2:2|0:0,0:0:0:0:
38,212,117951,2,0,B|12:162|12:162|38:117,1,107.999993843079,2|0,1:3|0:0,0:0:0:0:
348,0,118307,6,0,B|406:75|406:75|375:107|379:136,1,161.999990764618,2|0,1:2|0:0,0:0:0:0:
455,222,118664,2,0,B|486:159|486:159|463:150|453:133,1,107.999993843079,2|0,1:3|0:0,0:0:0:0:
231,247,119020,6,0,L|49:292,1,179.999995231629,14|0,2:2|0:0,0:0:0:0:
262,121,119732,5,4,2:2:0:0:
256,192,139685,12,2,141823,0:0:0:0:
404,302,142524,6,0,P|410:365|485:345,2,143.999996185303,2|2|2,2:2|2:2|2:2,0:0:0:0:
405,301,143414,1,2,2:2:0:0:
358,238,143592,2,0,L|286:219,1,71.9999980926514,2|0,2:2|0:0,0:0:0:0:
218,162,143949,2,1,B|133:179|175:208|91:226,1,143.999996185303,2|2,2:2|2:3,0:0:0:0:
0,75,144661,5,2,2:2:0:0:
56,23,144839,1,2,2:2:0:0:
121,66,145018,2,0,L|192:82,1,71.9999980926514,2|0,2:2|0:0,0:0:0:0:
280,11,145374,6,0,P|344:29|338:119,1,143.999996185303,2|2,2:2|2:2,0:0:0:0:
354,97,145908,1,2,2:2:0:0:
419,170,146086,2,0,P|466:185|492:169,1,71.9999980926514,2|0,2:2|0:0,0:0:0:0:
354,97,146443,2,0,P|317:130|318:160,1,71.9999980926514,2|0,2:2|0:0,0:0:0:0:
266,241,146799,2,0,P|201:265|145:224,1,143.999996185303,2|2,2:2|2:3,0:0:0:0:
15,356,147512,5,2,2:2:0:0:
79,309,147690,1,2,2:2:0:0:
147,357,147868,2,0,L|216:379,1,71.9999980926514,2|0,2:2|0:0,0:0:0:0:
340,347,148224,6,0,P|370:272|324:215,1,143.999996185303,2|2,2:2|2:3,0:0:0:0:
250,164,148759,2,1,B|165:181|207:210|123:228,1,143.999996185303,2|0,2:2|0:0,0:0:0:0:
50,123,149293,2,0,L|130:149,1,71.9999980926514,2|0,2:2|0:0,0:0:0:0:
220,94,149649,6,0,P|236:59|155:4,2,143.999996185303,2|2|2,2:2|2:2|2:2,0:0:0:0:
512,105,151075,6,0,P|437:75|380:121,1,143.999996185303,2|2,2:2|2:3,0:0:0:0:
361,190,151609,2,1,B|378:274|407:232|425:316,1,143.999996185303,2|0,2:2|0:0,0:0:0:0:
349,366,152143,2,0,L|274:386,1,71.9999980926514,2|0,2:2|0:0,0:0:0:0:
120,327,152500,2,0,P|207:334|219:260,1,143.999996185303,2|0,2:2|0:0,0:0:0:0:
0,70,153212,5,2,2:2:0:0:
98,20,153390,1,2,2:2:0:0:
189,84,153569,2,0,L|171:153,1,71.9999980926514,2|2,2:2|2:2,0:0:0:0:
16,294,153925,6,1,B|47:271|88:294|88:294|107:338|154:335,1,161.999990764618,6|0,1:2|0:0,0:0:0:0:
237,307,154281,2,0,B|250:260|250:260|255:254|255:254|270:198,1,107.999993843079,2|0,1:2|0:0,0:0:0:0:
429,25,154638,5,10,2:2:0:0:
512,145,154816,1,2,2:2:0:0:
347,231,154994,2,0,B|380:122,1,107.999993843079,2|0,1:2|0:0,0:0:0:0:
512,349,155350,6,0,P|444:294|329:371,1,215.999987686158,2|2,1:2|2:3,0:0:0:0:
14,74,156063,5,10,2:2:0:0:
120,21,156241,1,2,2:2:0:0:
204,122,156419,6,1,B|194:168|177:143|166:193,1,71.9999980926514,2|0,2:2|0:0,0:0:0:0:
0,319,156775,6,1,B|60:300|60:300|74:266|74:266|135:248,1,161.999990764618,2|0,1:2|0:0,0:0:0:0:
198,286,157132,1,2,1:2:0:0:
28,158,157310,1,2,2:2:0:0:
171,25,157488,6,0,B|214:0|214:0|264:29,1,107.999993843079,10|0,2:2|0:0,0:0:0:0:
326,81,157755,1,0,0:0:0:0:
326,81,157844,2,0,B|312:130|312:130|307:136|307:136|294:183,1,107.999993843079,2|2,1:2|2:2,0:0:0:0:
465,373,158200,6,0,P|503:319|436:219,1,161.999990764618,2|0,1:2|0:0,0:0:0:0:
405,178,158557,2,0,L|294:208,1,107.999993843079,2|0,1:3|0:0,0:0:0:0:
44,314,158913,5,10,2:2:0:0:
200,384,159091,1,2,2:2:0:0:
38,308,159269,2,0,B|25:261|25:261|20:255|20:255|6:205,1,107.999993843079,2|0,2:2|0:0,0:0:0:0:
207,18,159626,6,1,B|238:-5|279:18|279:18|298:62|345:59,1,161.999990764618,6|0,1:2|0:0,0:0:0:0:
416,101,159982,2,0,P|467:67|458:17,1,107.999993843079,2|2,1:3|2:2,0:0:0:0:
245,125,160338,6,0,B|141:153|141:153|128:163|128:163|41:187,1,215.999987686158,10|2,2:2|1:2,0:0:0:0:
82,99,160873,1,0,0:0:0:0:
220,218,161051,6,1,B|201:285|193:245|174:314,1,107.999993843079,2|0,1:2|0:0,0:0:0:0:
39,187,161407,2,0,B|143:158,1,107.999993843079,2|0,2:2|0:0,0:0:0:0:
328,311,161763,6,1,B|366:320|396:346|396:346|495:331|461:253,1,215.999987686158,10|0,2:2|0:0,0:0:0:0:
256,0,162476,6,0,B|274:75|274:75|280:81|280:81|301:167,1,161.999990764618,6|0,1:2|0:0,0:0:0:0:
294,238,162832,2,0,B|249:267|249:267|200:242,1,107.999993843079,2|2,1:3|2:2,0:0:0:0:
442,371,163189,6,1,B|461:311|461:311|495:297|495:297|513:236,1,161.999990764618,10|0,2:2|0:0,0:0:0:0:
478,163,163545,2,0,B|433:134|433:134|384:159,1,107.999993843079,2|0,1:2|0:0,0:0:0:0:
119,384,163901,6,0,B|81:318|81:318|94:270|94:270|76:207,1,161.999990764618,2|0,1:2|0:0,0:0:0:0:
21,178,164257,2,0,B|61:136|61:136|108:151,1,107.999993843079,2|0,1:3|0:0,0:0:0:0:
336,260,164614,6,0,L|161:216,1,179.999995231629,14|2,2:2|2:2,0:0:0:0:
161,216,165148,1,0,0:0:0:0:
150,32,165326,6,0,P|200:51|190:151,1,148.500000597954,6|0,1:2|0:0,0:0:0:0:
161,216,165683,2,1,B|99:233|136:240|73:258,1,99.0000003986359,2|2,1:3|2:2,0:0:0:0:
316,384,166039,6,1,B|339:331|299:279|277:314|234:261|259:211,1,198.000000797272,10|2,2:2|1:2,0:0:0:0:
320,156,166573,1,0,0:0:0:0:
203,11,166752,6,0,P|130:39|142:149,2,198.000000797272,2|2|10,1:2|2:3|2:2,0:0:0:0:
438,383,167820,6,1,B|451:322|473:355|487:289,1,107.999997138977,2|0,2:2|0:0,0:0:0:0:
437,230,168177,6,1,B|377:211|377:211|363:177|363:177|302:159,1,161.999990764618,6|0,1:2|0:0,0:0:0:0:
229,194,168533,2,0,B|200:239|200:239|225:288,1,107.999993843079,2|0,1:3|0:0,0:0:0:0:
21,114,168889,6,0,B|96:96|96:96|102:90|102:90|177:72,1,161.999990764618,10|0,2:2|0:0,0:0:0:0:
245,23,169246,2,0,B|271:73|271:73|245:118,1,107.999993843079,2|0,1:3|0:0,0:0:0:0:
18,358,169602,6,0,B|102:315|102:315|128:351|157:353,1,161.999990764618,2|0,1:2|0:0,0:0:0:0:
238,378,169958,2,0,B|259:326|259:326|215:276,1,107.999993843079,2|0,1:2|0:0,0:0:0:0:
375,84,170314,6,0,L|420:266,1,179.999995231629,10|0,2:2|0:0,0:0:0:0:
238,378,171027,6,0,P|188:359|198:259,1,148.500000597954,6|0,1:2|0:0,0:0:0:0:
233,217,171383,2,0,B|282:231|282:231|288:236|288:236|335:249,1,99.0000003986359,2|0,1:3|0:0,0:0:0:0:
117,5,171740,6,0,P|23:33|67:131,1,198.000000797272,10|2,2:2|1:2,0:0:0:0:
94,169,172274,1,0,0:0:0:0:
203,27,172452,6,1,B|256:4|308:44|273:66|326:109|376:84,2,198.000000797272,2|2|10,1:2|2:3|2:2,0:0:0:0:
48,384,173521,6,1,B|35:323|13:356|-1:290,1,107.999997138977,2|0,2:2|0:0,0:0:0:0:
37,222,173877,6,1,B|77:231|77:231|92:234|98:252|98:252|102:254|102:254|108:270|123:274|123:274|180:289,1,161.999990764618,6|0,1:2|0:0,0:0:0:0:
255,267,174234,2,0,B|272:231|279:224|279:224|278:215|278:215|269:210|252:152,1,107.999993843079,2|0,1:3|0:0,0:0:0:0:
462,0,174590,6,0,B|434:12|427:9|427:9|412:15|407:25|407:25|388:55|388:55|428:138,1,161.999990764618,10|0,2:2|0:0,0:0:0:0:
488,160,174946,2,0,B|499:177|513:193|513:193|507:201|509:208|509:208|474:219|449:233,1,107.999993843079,2|0,1:3|0:0,0:0:0:0:
139,384,175303,6,1,B|135:359|135:359|153:324|153:324|169:316|169:316|188:274|188:274|172:226,1,161.999990764618,2|0,1:2|0:0,0:0:0:0:
122,168,175659,2,0,B|91:171|91:171|73:195|73:195|102:256,1,107.999993843079,2|0,1:2|0:0,0:0:0:0:
315,356,176015,6,1,B|342:378|342:378|331:310|331:310|326:307|326:307|311:230,1,179.999995231629,10|0,2:2|0:0,0:0:0:0:
487,73,176728,5,4,2:2:0:0:
