osu file format v14

[General]
AudioFilename: audio.mp3
AudioLeadIn: 0
PreviewTime: 44911
Countdown: 0
SampleSet: Soft
StackLeniency: 0.7
Mode: 0
LetterboxInBreaks: 0
WidescreenStoryboard: 1

[Editor]
DistanceSpacing: 1
BeatDivisor: 8
GridSize: 16
TimelineZoom: 1.9

[Metadata]
Title:Superstar (feat. Remington Leith)
TitleUnicode:Superstar (feat. Remington Leith)
Artist:Crown The Empire
ArtistUnicode:Crown The Empire
Creator:Soraka
Version:AdeAAa's Hard
Source:
Tags:dogma palaye royale rock english male vocals vocalist emo muya- adeaaa
BeatmapID:4201133
BeatmapSetID:2003683

[Difficulty]
HPDrainRate:4
CircleSize:3.9
OverallDifficulty:6
ApproachRate:7.8
SliderMultiplier:2.89999990463257
SliderTickRate:1

[Events]
//Background and Video events
0,0,"a32-min.png",0,0
//Break Periods
2,34210,44844
2,68626,73348
2,119932,138906
//Storyboard Layer 0 (Background)
//Storyboard Layer 1 (Fail)
//Storyboard Layer 2 (Pass)
//Storyboard Layer 3 (Foreground)
//Storyboard Layer 4 (Overlay)
//Storyboard Sound Samples

[TimingPoints]
18,712.589073634204,4,2,1,50,1,0
11419,-125,4,2,14,70,0,0
11775,-125,4,2,15,70,0,0
12132,-125,4,2,16,70,0,0
12488,-125,4,2,14,70,0,0
13022,-125,4,2,17,70,0,0
13557,-125,4,2,14,70,0,0
13913,-125,4,2,15,70,0,0
14091,-125,4,2,17,70,0,0
14269,-125,4,2,14,70,0,0
14626,-125,4,2,15,70,0,0
14982,-125,4,2,16,70,0,0
15338,-125,4,2,14,70,0,0
15873,-125,4,2,17,70,0,0
16407,-125,4,2,14,70,0,0
16763,-125,4,2,15,70,0,0
17120,-125,4,2,14,70,0,0
17476,-125,4,2,15,70,0,0
17832,-125,4,2,16,70,0,0
18189,-125,4,2,14,70,0,0
18723,-125,4,2,17,70,0,0
19257,-125,4,2,14,70,0,0
19614,-125,4,2,15,70,0,0
19792,-125,4,2,17,70,0,0
19970,-125,4,2,14,70,0,0
20326,-125,4,2,15,70,0,0
20683,-125,4,2,16,70,0,0
21039,-125,4,2,14,70,0,0
21573,-125,4,2,17,70,0,0
22108,-125,4,2,14,70,0,0
22464,-125,4,2,15,70,0,0
22642,-125,4,2,14,70,0,0
23177,-125,4,2,15,70,0,0
23533,-125,4,2,14,70,0,0
23889,-125,4,2,18,70,0,0
24246,-125,4,2,16,70,0,0
24958,-125,4,2,14,70,0,0
25314,-125,4,2,15,70,0,0
25671,-125,4,2,16,70,0,0
26027,-125,4,2,15,70,0,0
26383,-125,4,2,16,70,0,0
26740,-125,4,2,14,70,0,0
27274,-125,4,2,17,70,0,0
27808,-125,4,2,14,70,0,0
27987,-125,4,2,17,70,0,0
28165,-125,4,2,15,70,0,0
28521,-125,4,2,16,70,0,0
28877,-125,4,2,15,70,0,0
29234,-125,4,2,14,70,0,0
29590,-125,4,2,18,70,0,0
29946,-125,4,2,16,70,0,0
30659,-125,4,2,14,70,0,0
31015,-125,4,2,15,70,0,0
31371,-125,4,2,16,70,0,0
31728,-125,4,2,15,70,0,0
32084,-125,4,2,16,70,0,0
32440,-125,4,2,14,70,0,0
32975,-125,4,2,17,70,0,0
33509,-125,4,2,14,70,0,0
33687,-125,4,2,17,70,0,0
34222,-125,4,2,15,70,0,0
34934,-125,4,2,17,50,0,0
45623,-95.2380952380952,4,2,19,90,0,1
46336,-95.2380952380952,4,2,15,90,0,1
46514,-95.2380952380952,4,2,17,90,0,1
46692,-95.2380952380952,4,2,20,90,0,1
47048,-95.2380952380952,4,2,14,90,0,1
47761,-95.2380952380952,4,2,21,90,0,1
47939,-95.2380952380952,4,2,17,90,0,1
48474,-95.2380952380952,4,2,14,90,0,1
49008,-95.2380952380952,4,2,17,90,0,1
49186,-95.2380952380952,4,2,15,90,0,1
49542,-95.2380952380952,4,2,20,90,0,1
49899,-95.2380952380952,4,2,14,90,0,1
50611,-95.2380952380952,4,2,21,90,0,1
50789,-95.2380952380952,4,2,17,90,0,1
51324,-95.2380952380952,4,2,14,90,0,1
51680,-95.2380952380952,4,2,16,90,0,1
51858,-95.2380952380952,4,2,17,90,0,1
52037,-95.2380952380952,4,2,22,90,0,1
52393,-95.2380952380952,4,2,20,90,0,1
52749,-95.2380952380952,4,2,14,90,0,1
53105,-95.2380952380952,4,2,18,90,0,1
53462,-95.2380952380952,4,2,21,90,0,1
54174,-95.2380952380952,4,2,14,90,0,1
54531,-95.2380952380952,4,2,16,90,0,1
54709,-95.2380952380952,4,2,17,90,0,1
54887,-95.2380952380952,4,2,22,90,0,1
55243,-95.2380952380952,4,2,20,90,0,1
55599,-95.2380952380952,4,2,14,90,0,1
56312,-95.2380952380952,4,2,21,90,0,1
56490,-95.2380952380952,4,2,17,90,0,1
57025,-95.2380952380952,4,2,19,90,0,1
57737,-95.2380952380952,4,2,15,90,0,1
57915,-95.2380952380952,4,2,17,90,0,1
58094,-95.2380952380952,4,2,20,90,0,1
58450,-95.2380952380952,4,2,14,90,0,1
59162,-95.2380952380952,4,2,21,90,0,1
59341,-95.2380952380952,4,2,17,90,0,1
59875,-95.2380952380952,4,2,14,90,0,1
60409,-95.2380952380952,4,2,17,90,0,1
60588,-95.2380952380952,4,2,15,90,0,1
60944,-95.2380952380952,4,2,20,90,0,1
61122,-95.2380952380952,4,2,17,90,0,1
61300,-95.2380952380952,4,2,14,90,0,1
62013,-95.2380952380952,4,2,21,90,0,1
62191,-95.2380952380952,4,2,17,90,0,1
62725,-95.2380952380952,4,2,14,90,0,1
63082,-95.2380952380952,4,2,16,90,0,1
63260,-95.2380952380952,4,2,17,90,0,1
63438,-95.2380952380952,4,2,22,90,0,1
63794,-95.2380952380952,4,2,20,90,0,1
64151,-95.2380952380952,4,2,14,90,0,1
64507,-95.2380952380952,4,2,18,90,0,1
64863,-95.2380952380952,4,2,21,90,0,1
65576,-95.2380952380952,4,2,14,90,0,1
65932,-95.2380952380952,4,2,16,90,0,1
66110,-95.2380952380952,4,2,17,90,0,1
66288,-95.2380952380952,4,2,22,90,0,1
66645,-95.2380952380952,4,2,20,90,0,1
67001,-95.2380952380952,4,2,14,90,0,1
67357,-95.2380952380952,4,2,18,90,0,1
67713,-95.2380952380952,4,2,17,90,0,1
68070,-117.64705882353,4,2,17,90,0,1
68426,-95.2380952380952,4,2,17,90,0,0
68782,-95.2380952380952,4,2,16,40,0,0
72702,-95.2380952380952,4,2,17,40,0,0
74127,-125,4,2,14,70,0,0
74483,-125,4,2,15,70,0,0
74839,-125,4,2,14,70,0,0
75017,-125,4,2,17,70,0,0
75196,-125,4,2,18,70,0,0
75552,-125,4,2,14,70,0,0
75730,-125,4,2,17,70,0,0
76265,-125,4,2,14,70,0,0
76621,-125,4,2,15,70,0,0
76977,-125,4,2,14,70,0,0
77333,-125,4,2,15,70,0,0
77690,-125,4,2,14,70,0,0
78046,-125,4,2,18,70,0,0
78402,-125,4,2,14,70,0,0
78759,-125,4,2,17,70,0,0
79115,-125,4,2,14,70,0,0
79471,-125,4,2,15,70,0,0
79827,-125,4,2,14,70,0,0
80184,-125,4,2,15,70,0,0
80540,-125,4,2,14,70,0,0
80896,-125,4,2,18,70,0,0
81253,-125,4,2,14,70,0,0
81431,-125,4,2,17,70,0,0
81965,-125,4,2,14,70,0,0
82322,-125,4,2,15,70,0,0
82678,-125,4,2,14,70,0,0
83034,-125,4,2,15,70,0,0
83390,-125,4,2,16,70,0,0
83747,-125,4,2,18,70,0,0
84103,-125,4,2,14,70,0,0
84816,-125,4,2,16,70,0,0
84994,-125,4,2,17,70,0,0
85172,-125,4,2,15,70,0,0
85350,-125,4,2,17,70,0,0
85528,-125,4,2,14,70,0,0
85884,-125,4,2,15,70,0,0
86241,-125,4,2,14,70,0,0
86419,-125,4,2,17,70,0,0
86597,-125,4,2,18,70,0,0
86953,-125,4,2,14,70,0,0
87310,-125,4,2,17,70,0,0
87666,-125,4,2,16,70,0,0
88022,-125,4,2,15,70,0,0
88379,-125,4,2,14,70,0,0
88735,-125,4,2,15,70,0,0
89091,-125,4,2,14,70,0,0
89447,-125,4,2,18,70,0,0
89804,-125,4,2,14,70,0,0
90160,-125,4,2,17,70,0,0
90516,-125,4,2,16,70,0,0
90873,-125,4,2,15,70,0,0
91051,-125,4,2,14,70,0,0
91407,-125,4,2,17,70,0,0
91585,-125,4,2,15,70,0,0
91941,-125,4,2,14,70,0,0
92298,-125,4,2,18,70,0,0
92654,-125,4,2,14,70,0,0
93010,-125,4,2,17,70,0,0
93367,-125,4,2,16,70,0,0
93545,-125,4,2,17,70,0,0
93723,-125,4,2,15,70,0,0
94079,-125,4,2,23,70,0,0
94436,-125,4,2,15,70,0,0
94792,-125,4,2,23,70,0,0
95148,-125,4,2,14,70,0,0
95504,-125,4,2,17,60,0,0
96930,-95.2380952380952,4,2,19,90,0,1
97642,-95.2380952380952,4,2,15,90,0,1
97820,-95.2380952380952,4,2,17,90,0,1
97998,-95.2380952380952,4,2,20,90,0,1
98355,-95.2380952380952,4,2,14,90,0,1
99067,-95.2380952380952,4,2,21,90,0,1
99246,-95.2380952380952,4,2,17,90,0,1
99780,-95.2380952380952,4,2,14,90,0,1
100314,-95.2380952380952,4,2,17,90,0,1
100493,-95.2380952380952,4,2,15,90,0,1
100849,-95.2380952380952,4,2,20,90,0,1
101205,-95.2380952380952,4,2,14,90,0,1
101918,-95.2380952380952,4,2,21,90,0,1
102096,-95.2380952380952,4,2,17,90,0,1
102630,-95.2380952380952,4,2,14,90,0,1
102987,-95.2380952380952,4,2,16,90,0,1
103165,-95.2380952380952,4,2,17,90,0,1
103343,-95.2380952380952,4,2,22,90,0,1
103699,-95.2380952380952,4,2,20,90,0,1
104056,-95.2380952380952,4,2,14,90,0,1
104412,-95.2380952380952,4,2,18,90,0,1
104768,-95.2380952380952,4,2,21,90,0,1
105481,-95.2380952380952,4,2,14,90,0,1
105837,-95.2380952380952,4,2,16,90,0,1
106015,-95.2380952380952,4,2,17,90,0,1
106193,-95.2380952380952,4,2,22,90,0,1
106550,-95.2380952380952,4,2,20,90,0,1
106906,-95.2380952380952,4,2,14,90,0,1
107618,-95.2380952380952,4,2,21,90,0,1
107797,-95.2380952380952,4,2,17,90,0,1
108331,-95.2380952380952,4,2,19,90,0,1
109044,-95.2380952380952,4,2,15,90,0,1
109222,-95.2380952380952,4,2,17,90,0,1
109400,-95.2380952380952,4,2,20,90,0,1
109756,-95.2380952380952,4,2,14,90,0,1
110469,-95.2380952380952,4,2,21,90,0,1
110647,-95.2380952380952,4,2,17,90,0,1
111181,-95.2380952380952,4,2,14,90,0,1
111716,-95.2380952380952,4,2,17,90,0,1
111894,-95.2380952380952,4,2,15,90,0,1
112250,-95.2380952380952,4,2,20,90,0,1
112428,-95.2380952380952,4,2,17,90,0,1
112607,-95.2380952380952,4,2,14,90,0,1
113319,-95.2380952380952,4,2,21,90,0,1
113497,-95.2380952380952,4,2,17,90,0,1
114032,-95.2380952380952,4,2,14,90,0,1
114388,-95.2380952380952,4,2,16,90,0,1
114566,-95.2380952380952,4,2,17,90,0,1
114744,-95.2380952380952,4,2,22,90,0,1
115101,-95.2380952380952,4,2,20,90,0,1
115457,-95.2380952380952,4,2,14,90,0,1
115813,-95.2380952380952,4,2,18,90,0,1
116170,-95.2380952380952,4,2,21,90,0,1
116882,-95.2380952380952,4,2,14,90,0,1
117238,-95.2380952380952,4,2,16,90,0,1
117595,-95.2380952380952,4,2,15,90,0,1
117951,-95.2380952380952,4,2,17,90,0,1
118307,-95.2380952380952,4,2,14,90,0,1
119020,-95.2380952380952,4,2,24,90,0,1
119376,-117.647058823529,4,2,24,90,0,1
119732,-95.2380952380952,4,2,15,70,0,0
141823,-95.2380952380952,4,2,17,40,0,0
142524,712.589073634204,4,2,14,50,1,0
142524,-125,4,2,14,50,0,0
143236,-125,4,2,17,50,0,0
143592,-125,4,2,14,50,0,0
144305,-125,4,2,16,50,0,0
144661,-125,4,2,17,50,0,0
145374,-125,4,2,14,50,0,0
145908,-125,4,2,17,50,0,0
146443,-125,4,2,14,50,0,0
147155,-125,4,2,16,50,0,0
147512,-125,4,2,17,50,0,0
148224,-125,4,2,14,50,0,0
148581,-125,4,2,16,50,0,0
148759,-125,4,2,17,50,0,0
149293,-125,4,2,14,50,0,0
150362,-142.857142857143,4,2,17,50,0,0
151075,-125,4,2,14,50,0,0
151431,-125,4,2,16,50,0,0
151609,-125,4,2,17,50,0,0
152143,-125,4,2,14,50,0,0
153212,-125,4,2,17,50,0,0
153925,-95.2380952380952,4,2,19,90,0,1
154638,-95.2380952380952,4,2,15,90,0,1
154816,-95.2380952380952,4,2,17,90,0,1
154994,-95.2380952380952,4,2,20,90,0,1
155350,-95.2380952380952,4,2,14,90,0,1
156063,-95.2380952380952,4,2,21,90,0,1
156241,-95.2380952380952,4,2,17,90,0,1
156775,-95.2380952380952,4,2,14,90,0,1
157310,-95.2380952380952,4,2,17,90,0,1
157488,-95.2380952380952,4,2,15,90,0,1
157844,-95.2380952380952,4,2,20,90,0,1
158022,-95.2380952380952,4,2,17,90,0,1
158200,-95.2380952380952,4,2,14,90,0,1
158913,-95.2380952380952,4,2,21,90,0,1
159091,-95.2380952380952,4,2,17,90,0,1
159626,-95.2380952380952,4,2,14,90,0,1
159982,-95.2380952380952,4,2,16,90,0,1
160160,-95.2380952380952,4,2,17,90,0,1
160338,-95.2380952380952,4,2,22,90,0,1
160695,-95.2380952380952,4,2,20,90,0,1
161051,-95.2380952380952,4,2,14,90,0,1
161407,-95.2380952380952,4,2,18,90,0,1
161763,-95.2380952380952,4,2,21,90,0,1
162476,-95.2380952380952,4,2,14,90,0,1
162832,-95.2380952380952,4,2,16,90,0,1
163010,-95.2380952380952,4,2,17,90,0,1
163189,-95.2380952380952,4,2,22,90,0,1
163545,-95.2380952380952,4,2,20,90,0,1
163901,-95.2380952380952,4,2,23,90,0,1
164257,-95.2380952380952,4,2,14,90,0,1
164614,-105.263157894737,4,2,21,90,0,0
164792,-105.263157894737,4,2,17,90,0,0
165326,-95.2380952380952,4,2,19,90,0,1
165683,-95.2380952380952,4,2,16,90,0,1
165861,-95.2380952380952,4,2,17,90,0,1
166039,-95.2380952380952,4,2,22,90,0,1
166395,-95.2380952380952,4,2,20,90,0,1
166752,-95.2380952380952,4,2,14,90,0,1
167464,-95.2380952380952,4,2,24,90,0,1
167820,-95.2380952380952,4,2,17,90,0,1
168177,-95.2380952380952,4,2,14,90,0,1
168533,-95.2380952380952,4,2,16,90,0,1
168889,-95.2380952380952,4,2,15,90,0,1
169246,-95.2380952380952,4,2,17,90,0,1
169602,-95.2380952380952,4,2,23,90,0,1
169958,-95.2380952380952,4,2,18,90,0,1
170314,-95.2380952380952,4,2,24,90,0,1
171027,-95.2380952380952,4,2,14,90,0,1
171383,-95.2380952380952,4,2,16,90,0,1
171562,-95.2380952380952,4,2,17,90,0,1
171740,-95.2380952380952,4,2,22,90,0,1
172096,-95.2380952380952,4,2,20,90,0,1
172452,-95.2380952380952,4,2,14,90,0,1
173165,-95.2380952380952,4,2,24,90,0,1
173521,-95.2380952380952,4,2,17,90,0,1
173877,-95.2380952380952,4,2,14,90,0,1
174234,-95.2380952380952,4,2,16,90,0,1
174590,-95.2380952380952,4,2,15,90,0,1
174946,-95.2380952380952,4,2,17,90,0,1
175303,-95.2380952380952,4,2,23,90,0,1
175659,-95.2380952380952,4,2,18,90,0,1
176015,-117.647058823529,4,2,24,90,0,1
176728,-95.2380952380952,4,2,15,70,0,0

[Colours]
Combo1 : 66,24,188
Combo2 : 150,193,237
Combo3 : 165,71,87

[HitObjects]
160,336,11419,6,0,P|198:324|295:300,2,115.999996185303,6|2|10,1:2|2:2|2:2,0:0:0:0:
27,264,12488,2,0,P|17:254|88:201,1,115.999996185303,2|2,1:3|2:2,0:0:0:0:
117,137,13022,1,2,2:2:0:0:
117,137,13200,2,0,P|155:149|252:173,1,115.999996185303,2|10,1:2|2:2,0:0:0:0:
490,17,14269,6,0,P|495:36|414:72,1,115.999996185303,2|2,1:2|2:3,0:0:0:0:
366,123,14804,1,0,1:1:0:0:
366,123,14982,2,0,P|339:116|299:108,1,57.9999980926514,10|0,2:2|0:0,0:0:0:0:
251,61,15338,2,0,L|275:192,1,115.999996185303,2|2,1:3|2:2,0:0:0:0:
366,292,16051,2,0,P|371:309|352:344,1,57.9999980926514,2|0,1:2|0:0,0:0:0:0:
289,382,16407,2,0,B|226:367|242:358|178:343,1,115.999996185303,10|2,2:2|2:2,0:0:0:0:
56,256,17120,6,0,L|76:373,2,115.999996185303,2|2|10,1:2|2:2|2:2,0:0:0:0:
24,108,18189,2,0,P|49:91|120:138,1,115.999996185303,2|2,1:3|2:2,0:0:0:0:
176,180,18723,1,2,2:2:0:0:
176,180,18901,2,0,P|201:176|223:150,1,57.9999980926514,2|0,1:2|0:0,0:0:0:0:
276,100,19257,2,0,L|414:131,1,115.999996185303,10|2,2:2|2:2,0:0:0:0:
441,180,19792,1,2,1:2:0:0:
509,148,19970,6,0,B|494:100|492:49|492:49|499:20,2,115.999996185303,2|2|10,1:2|2:3|2:2,0:0:0:0:
510,299,21039,2,0,P|453:293|417:365,1,115.999996185303,2|2,1:3|2:2,0:0:0:0:
351,370,21573,1,2,2:2:0:0:
351,370,21751,2,0,L|232:350,1,115.999996185303,2|10,1:2|2:2,0:0:0:0:
157,382,22286,1,0,1:1:0:0:
126,313,22464,1,2,1:2:0:0:
52,329,22642,1,8,2:2:0:0:
126,297,22820,6,0,P|132:244|144:176,1,115.999996185303,2|2,1:2|2:2,0:0:0:0:
36,58,23533,2,0,P|36:73|64:108,1,57.9999980926514,10|0,2:2|0:0,0:0:0:0:
141,101,23889,2,0,L|256:76,2,115.999996185303,2|2|0,1:2|2:3|1:1,0:0:0:0:
259,194,24958,2,0,P|279:214|283:242,1,57.9999980926514,10|0,2:2|0:0,0:0:0:0:
261,314,25314,1,2,2:2:0:0:
398,376,25671,6,0,B|412:371|422:356|422:356|509:338,1,115.999996185303,2|2,1:3|2:3,0:0:0:0:
459,270,26205,1,0,1:1:0:0:
509,206,26383,2,0,P|507:180|470:86,1,115.999996185303,10|2,2:2|1:3,0:0:0:0:
338,9,27096,1,2,2:2:0:0:
338,9,27274,1,2,2:2:0:0:
283,60,27452,2,0,P|260:57|164:22,1,115.999996185303,2|10,1:2|2:2,0:0:0:0:
128,88,27987,1,2,1:2:0:0:
189,131,28165,2,0,P|202:158|199:188,1,57.9999980926514,2|0,2:2|0:0,0:0:0:0:
163,257,28521,6,0,P|109:268|51:294,2,115.999996185303,2|2|10,1:3|2:2|2:2,0:0:0:0:
283,347,29590,2,0,P|295:359|337:363,1,57.9999980926514,2|0,1:2|0:0,0:0:0:0:
407,382,29946,2,0,P|421:364|529:364,1,115.999996185303,2|0,2:3|1:1,0:0:0:0:
403,239,30659,2,0,P|393:219|400:181,1,57.9999980926514,10|0,2:2|0:0,0:0:0:0:
448,128,31015,1,2,2:2:0:0:
426,55,31193,1,0,1:1:0:0:
357,85,31371,6,0,P|300:68|238:58,1,115.999996185303,2|2,1:3|2:3,0:0:0:0:
181,16,31906,1,0,1:1:0:0:
123,64,32084,2,0,P|129:86|140:128,1,57.9999980926514,10|0,2:2|0:0,0:0:0:0:
198,164,32440,2,0,P|184:214|166:281,1,115.999996185303,2|2,1:3|2:2,0:0:0:0:
194,346,32975,1,2,2:2:0:0:
126,378,33153,2,0,P|95:369|79:333,1,57.9999980926514,2|0,1:2|0:0,0:0:0:0:
22,284,33509,1,10,2:2:0:0:
69,225,33687,1,2,1:2:0:0:
23,165,33865,1,2,1:2:0:0:
188,235,45623,6,0,B|241:227|241:227|279:247|279:247|355:236,2,152.249990346909,6|2|10,1:2|1:2|2:2,0:0:0:0:
73,165,46514,1,2,2:2:0:0:
141,109,46692,2,0,P|135:76|115:31,1,76.1249951734545,2|0,1:2|0:0,0:0:0:0:
229,54,47048,2,0,P|260:76|350:21,1,152.249990346909,2|2,1:2|2:3,0:0:0:0:
487,153,47761,6,0,L|409:138,1,76.1249951734545,10|2,2:2|2:2,0:0:0:0:
348,178,48117,1,2,2:2:0:0:
348,178,48295,1,0,0:0:0:0:
430,268,48474,6,0,L|273:307,1,152.249990346909,2|2,1:2|1:2,0:0:0:0:
197,384,49008,1,2,2:2:0:0:
117,342,49186,2,0,P|109:319|124:262,1,76.1249951734545,10|0,2:2|0:0,0:0:0:0:
215,211,49542,2,0,P|223:188|208:131,1,76.1249951734545,2|0,1:2|0:0,0:0:0:0:
193,26,49899,2,0,P|198:29|347:30,2,152.249990346909,2|2|10,1:2|1:3|2:2,0:0:0:0:
112,83,50789,1,2,2:2:0:0:
49,34,50968,1,2,2:2:0:0:
49,34,51146,1,0,0:0:0:0:
57,178,51324,6,0,P|130:163|202:186,1,152.249990346909,6|2,1:2|1:3,0:0:0:0:
308,179,51858,1,2,2:2:0:0:
356,258,52037,2,0,P|381:241|393:186,1,76.1249951734545,10|0,2:2|0:0,0:0:0:0:
481,125,52393,2,0,P|483:155|524:193,1,76.1249951734545,2|0,1:2|0:0,0:0:0:0:
473,308,52749,2,0,P|426:293|325:338,1,152.249990346909,2|2,1:2|2:2,0:0:0:0:
277,384,53284,1,0,0:0:0:0:
229,280,53462,1,10,2:2:0:0:
0,370,54174,6,0,L|31:214,1,152.249990346909,6|2,1:2|1:3,0:0:0:0:
115,147,54709,1,2,2:2:0:0:
135,61,54887,2,0,P|107:55|58:84,1,76.1249951734545,10|0,2:2|0:0,0:0:0:0:
199,121,55243,2,0,P|218:99|217:42,1,76.1249951734545,2|0,1:2|0:0,0:0:0:0:
109,156,55599,2,0,P|116:190|123:233,1,76.1249951734545,2|0,1:2|0:0,0:0:0:0:
195,310,55956,2,0,P|201:347|208:384,1,76.1249951734545,2|0,1:3|0:0,0:0:0:0:
292,284,56312,5,14,2:2:0:0:
371,326,56490,1,2,2:2:0:0:
371,326,56668,1,2,2:2:0:0:
427,264,56846,1,0,0:0:0:0:
342,173,57025,6,0,B|326:98|384:107|367:20,2,152.249990346909,6|2|10,1:2|1:2|2:2,0:0:0:0:
247,119,57915,1,2,2:2:0:0:
185,167,58094,2,0,P|151:160|100:150,1,76.1249951734545,2|0,1:2|0:0,0:0:0:0:
31,65,58450,2,0,P|90:52|180:35,1,152.249990346909,2|2,1:2|2:3,0:0:0:0:
499,10,59162,6,0,P|495:25|447:56,1,76.1249951734545,10|2,2:2|2:2,0:0:0:0:
374,35,59519,1,2,2:2:0:0:
374,35,59697,1,0,0:0:0:0:
248,0,59875,6,0,P|272:36|242:135,1,152.249990346909,2|2,1:2|1:2,0:0:0:0:
155,191,60409,1,2,2:2:0:0:
88,246,60588,2,0,P|92:280|101:323,1,76.1249951734545,10|0,2:2|0:0,0:0:0:0:
199,384,60944,2,0,P|233:380|276:371,1,76.1249951734545,2|2,1:2|2:2,0:0:0:0:
365,313,61300,2,0,B|455:334|413:352|522:376,2,152.249990346909,2|2|10,1:2|1:3|2:2,0:0:0:0:
268,245,62191,1,2,2:2:0:0:
298,166,62369,1,2,2:2:0:0:
298,166,62547,1,0,0:0:0:0:
418,211,62725,6,0,P|402:142|387:59,1,152.249990346909,6|2,1:2|1:3,0:0:0:0:
267,58,63260,1,2,2:2:0:0:
201,15,63438,2,0,P|183:27|126:43,1,76.1249951734545,10|0,2:2|0:0,0:0:0:0:
189,182,63794,2,0,P|187:160|202:103,1,76.1249951734545,2|0,1:2|0:0,0:0:0:0:
60,105,64151,2,0,P|62:145|34:254,1,152.249990346909,2|2,1:2|2:2,0:0:0:0:
0,322,64685,1,0,0:0:0:0:
107,375,64863,1,10,2:2:0:0:
364,306,65576,6,0,P|293:320|204:342,1,152.249990346909,6|2,1:2|1:3,0:0:0:0:
135,256,66110,1,2,2:2:0:0:
196,197,66288,2,0,P|200:173|207:116,1,76.1249951734545,10|0,2:2|0:0,0:0:0:0:
271,27,66645,2,0,P|274:52|318:82,1,76.1249951734545,2|0,1:2|0:0,0:0:0:0:
413,118,67001,2,0,P|363:115|308:195,2,152.249990346909,2|2|2,1:2|1:2|1:2,0:0:0:0:
496,254,68070,2,0,P|469:298|417:303,1,61.6249991488457,2|0,1:2|0:0,0:0:0:0:
388,320,68426,1,0,0:0:0:0:
28,350,74127,6,0,L|144:328,1,115.999996185303,6|2,1:2|2:3,0:0:0:0:
331,298,74839,1,10,2:2:0:0:
331,298,75017,1,2,2:2:0:0:
300,376,75196,2,0,P|285:360|249:338,1,57.9999980926514,2|0,1:2|0:0,0:0:0:0:
237,267,75552,2,0,P|253:252|275:216,1,57.9999980926514,2|2,2:2|2:2,0:0:0:0:
344,184,75908,2,0,P|354:150|285:103,2,115.999996185303,2|10|2,1:2|2:2|2:2,0:0:0:0:
512,35,76977,6,0,L|385:64,1,115.999996185303,2|2,1:2|2:3,0:0:0:0:
296,27,77512,1,0,1:1:0:0:
296,27,77690,2,0,L|238:10,1,57.9999980926514,10|0,2:2|0:0,0:0:0:0:
182,84,78046,2,0,B|125:97|125:97|95:80|70:53,2,115.999996185303,2|2|2,1:2|2:2|1:2,0:0:0:0:
291,118,78937,1,2,2:2:0:0:
248,186,79115,2,0,P|242:214|238:248,1,57.9999980926514,10|0,2:2|0:0,0:0:0:0:
277,307,79471,2,0,P|273:335|267:364,1,57.9999980926514,2|0,2:2|0:0,0:0:0:0:
146,310,79827,6,0,P|113:307|38:347,2,115.999996185303,2|2|10,1:2|2:3|2:2,0:0:0:0:
325,235,80896,2,0,P|335:217|286:136,1,115.999996185303,2|2,1:2|2:2,0:0:0:0:
251,79,81431,1,2,2:2:0:0:
192,126,81609,1,2,1:2:0:0:
192,126,81787,1,0,0:0:0:0:
130,82,81965,2,0,P|132:57|140:20,1,57.9999980926514,10|0,2:2|0:0,0:0:0:0:
63,13,82322,2,0,P|61:38|53:75,1,57.9999980926514,2|0,2:2|1:1,0:0:0:0:
0,191,82678,6,0,P|55:173|111:160,1,115.999996185303,2|2,1:2|2:2,0:0:0:0:
185,193,83212,1,0,1:1:0:0:
265,182,83390,2,0,P|268:204|247:246,1,57.9999980926514,10|0,2:2|0:0,0:0:0:0:
172,299,83747,2,0,P|160:325|162:353,1,57.9999980926514,2|0,1:2|0:0,0:0:0:0:
261,384,84103,2,0,P|316:366|372:353,2,115.999996185303,2|0|10,2:2|1:1|2:2,0:0:0:0:
380,265,85172,5,2,2:2:0:0:
445,312,85350,1,10,2:2:0:0:
487,243,85528,2,0,L|462:116,2,115.999996185303,2|2|10,1:2|2:2|2:2,0:0:0:0:
348,142,86597,2,0,L|360:74,1,57.9999980926514,2|0,1:2|0:0,0:0:0:0:
317,14,86953,2,0,P|281:9|229:74,1,115.999996185303,2|2,2:2|1:2,0:0:0:0:
255,133,87488,1,2,2:2:0:0:
202,186,87666,1,10,2:2:0:0:
461,340,88379,6,0,B|403:329|412:322|341:308,1,115.999996185303,2|2,1:2|2:2,0:0:0:0:
296,254,88913,1,0,1:1:0:0:
247,311,89091,2,0,P|229:290|222:247,1,57.9999980926514,10|0,2:2|0:0,0:0:0:0:
143,209,89447,2,0,L|14:231,2,115.999996185303,2|2|2,1:2|2:2|1:2,0:0:0:0:
230,163,90338,1,2,2:2:0:0:
230,163,90516,2,0,L|241:101,1,57.9999980926514,10|0,2:2|0:0,0:0:0:0:
261,27,90873,1,2,2:3:0:0:
336,92,91051,1,8,2:2:0:0:
404,24,91229,6,0,P|420:21|462:7,1,57.9999980926514,2|2,1:2|2:2,0:0:0:0:
454,91,91585,1,2,2:2:0:0:
454,91,91763,1,0,0:0:0:0:
399,161,91941,2,0,P|402:177|416:219,1,57.9999980926514,10|0,2:2|0:0,0:0:0:0:
484,276,92298,2,0,P|493:314|434:356,2,115.999996185303,2|2|2,1:2|2:2|1:2,0:0:0:0:
407,286,93189,1,2,2:2:0:0:
339,360,93367,2,0,L|276:346,1,57.9999980926514,10|2,2:2|2:2,0:0:0:0:
250,279,93723,1,2,2:2:0:0:
191,343,93901,1,0,1:1:0:0:
115,299,94079,6,0,L|0:324,2,115.999996185303,2|2|10,1:2|2:3|2:2,0:0:0:0:
169,246,94970,1,0,0:0:0:0:
170,170,95148,1,2,1:3:0:0:
107,127,95326,1,0,0:0:0:0:
179,163,95504,1,2,2:2:0:0:
359,317,96930,6,0,B|403:338|479:348|479:348|505:369,2,152.249990346909,6|2|10,1:2|1:2|2:2,0:0:0:0:
244,361,97821,1,2,2:2:0:0:
169,308,97999,2,0,P|174:270|184:229,1,76.1249951734545,2|0,1:2|0:0,0:0:0:0:
260,185,98355,2,0,P|249:118|226:26,1,152.249990346909,2|2,1:2|2:3,0:0:0:0:
0,0,99068,6,0,P|19:32|58:48,1,76.1249951734545,10|2,2:2|2:2,0:0:0:0:
133,35,99424,1,2,2:2:0:0:
133,35,99602,1,0,0:0:0:0:
172,150,99781,6,0,P|92:167|18:186,1,152.249990346909,2|2,1:2|1:2,0:0:0:0:
103,276,100315,1,2,2:2:0:0:
48,349,100493,2,0,P|83:355|123:366,1,76.1249951734545,10|0,2:2|0:0,0:0:0:0:
204,326,100849,2,0,P|239:320|279:309,1,76.1249951734545,2|0,1:2|0:0,0:0:0:0:
356,262,101206,2,0,P|382:326|329:382,2,152.249990346909,2|2|10,1:2|1:3|2:2,0:0:0:0:
269,200,102096,1,2,2:2:0:0:
306,125,102275,1,2,2:2:0:0:
306,125,102453,1,0,0:0:0:0:
178,124,102631,6,0,L|9:158,1,152.249990346909,6|2,1:2|1:3,0:0:0:0:
97,254,103165,1,2,2:2:0:0:
160,311,103343,2,0,P|169:273|182:235,1,76.1249951734545,10|0,2:2|0:0,0:0:0:0:
272,184,103699,2,0,P|284:147|292:110,1,76.1249951734545,2|0,1:2|0:0,0:0:0:0:
316,22,104056,2,0,P|366:70|468:49,1,152.249990346909,2|2,1:2|2:2,0:0:0:0:
504,6,104591,1,0,0:0:0:0:
512,122,104769,1,10,2:2:0:0:
227,350,105481,6,0,P|219:296|194:197,1,152.249990346909,6|2,1:2|1:3,0:0:0:0:
98,126,106016,1,2,2:2:0:0:
188,114,106194,2,0,P|209:86|210:37,1,76.1249951734545,10|0,2:2|0:0,0:0:0:0:
308,92,106550,2,0,P|287:120|286:169,1,76.1249951734545,2|0,1:2|0:0,0:0:0:0:
368,224,106906,2,0,P|402:218|453:205,1,76.1249951734545,2|0,1:2|0:0,0:0:0:0:
462,297,107262,2,0,P|428:303|377:316,1,76.1249951734545,2|0,1:3|0:0,0:0:0:0:
279,369,107619,5,14,2:2:0:0:
250,287,107797,1,2,2:2:0:0:
250,287,107975,1,2,2:2:0:0:
162,314,108153,1,0,0:0:0:0:
47,270,108332,6,0,B|20:117,2,152.249990346909,6|2|10,1:2|1:2|2:2,0:0:0:0:
146,199,109222,1,2,2:2:0:0:
198,124,109401,2,0,P|157:117|111:105,1,76.1249951734545,2|0,1:2|0:0,0:0:0:0:
187,24,109756,2,0,P|223:14|352:-2,1,152.249990346909,2|2,1:2|2:3,0:0:0:0:
484,152,110469,6,0,L|460:42,1,76.1249951734545,10|2,2:2|2:2,0:0:0:0:
398,136,110826,1,2,2:2:0:0:
398,136,111004,1,0,0:0:0:0:
417,256,111182,6,0,B|341:246|353:232|260:216,1,152.249990346909,2|2,1:2|1:2,0:0:0:0:
170,146,111716,1,2,2:2:0:0:
104,209,111895,2,0,P|68:219|25:235,1,76.1249951734545,10|0,2:2|0:0,0:0:0:0:
97,302,112250,1,2,1:2:0:0:
97,302,112428,1,2,2:2:0:0:
197,371,112607,2,0,P|214:304|231:220,2,152.249990346909,2|2|10,1:2|1:3|2:2,0:0:0:0:
308,320,113498,1,2,2:2:0:0:
387,374,113676,1,2,2:2:0:0:
387,374,113854,1,0,0:0:0:0:
483,328,114032,6,0,P|467:259|452:176,1,152.249990346909,6|2,1:2|1:3,0:0:0:0:
497,81,114567,1,2,2:2:0:0:
430,18,114745,2,0,P|401:20|355:46,1,76.1249951734545,10|0,2:2|0:0,0:0:0:0:
325,125,115101,2,0,P|292:144|254:148,1,76.1249951734545,2|0,1:2|0:0,0:0:0:0:
170,185,115458,2,0,L|190:27,1,152.249990346909,2|2,1:2|2:2,0:0:0:0:
105,70,115992,1,0,0:0:0:0:
5,0,116170,1,10,2:2:0:0:
6,363,116883,6,0,P|64:328|164:327,1,152.249990346909,6|2,1:2|1:3,0:0:0:0:
254,379,117417,1,0,0:0:0:0:
338,345,117595,2,0,L|320:263,1,76.1249951734545,10|0,2:2|0:0,0:0:0:0:
391,170,117951,2,0,L|409:252,1,76.1249951734545,2|0,1:3|0:0,0:0:0:0:
301,182,118308,2,0,L|149:150,2,152.249990346909,2|2|14,1:2|1:3|2:2,0:0:0:0:
412,18,119376,2,0,P|418:53|427:85,1,61.6249991488457
483,127,119732,1,4,2:2:0:0:
256,192,139685,12,2,141823,0:0:0:0:
79,158,142524,6,0,B|70:104|70:104|68:101|68:101|58:37,2,115.999996185303,2|2|2,2:2|2:2|2:2,0:0:0:0:
21,297,143592,2,0,P|30:283|68:267,1,57.9999980926514,2|0,2:2|0:0,0:0:0:0:
121,319,143949,2,0,P|111:350|32:369,2,115.999996185303,2|2|2,2:2|2:3|2:2,0:0:0:0:
422,345,145374,6,0,B|368:336|368:336|365:334|365:334|301:324,2,115.999996185303,2|2|2,2:2|2:2|2:2,0:0:0:0:
503,217,146443,2,0,P|495:188|489:160,1,57.9999980926514,2|0,2:2|0:0,0:0:0:0:
403,148,146799,2,0,P|419:210|432:272,1,115.999996185303,2|2,2:2|2:3,0:0:0:0:
236,73,147512,6,0,L|246:13,2,57.9999980926514,2|2|2,2:2|2:2|2:2,0:0:0:0:
173,125,148046,1,0,0:0:0:0:
173,125,148224,2,0,P|154:98|68:78,2,115.999996185303,2|2|0,2:2|2:3|0:0,0:0:0:0:
325,69,149293,2,0,P|381:60|420:19,2,115.999996185303,2|2|2,2:2|2:2|2:2,0:0:0:0:
291,186,150362,2,0,B|308:237|277:236|297:296,1,101.499993564606,2|0,2:2|0:0,0:0:0:0:
175,359,151075,6,0,B|132:320|132:320|76:338,2,115.999996185303,2|2|0,2:2|2:3|0:0,0:0:0:0:
85,252,152143,2,0,L|71:191,1,57.9999980926514,2|0,2:2|0:0,0:0:0:0:
138,147,152500,2,0,L|165:265,1,115.999996185303,2|0,2:2|0:0,0:0:0:0:
339,62,153925,6,0,B|412:47|412:47|415:43|415:43|514:24,2,152.249990346909,6|2|10,1:2|1:2|2:2,0:0:0:0:
259,154,154816,1,2,2:2:0:0:
169,134,154994,2,0,P|164:155|187:211,1,76.1249951734545,2|0,1:2|0:0,0:0:0:0:
269,264,155350,2,0,P|205:253|143:308,1,152.249990346909,2|2,1:2|2:3,0:0:0:0:
347,368,156063,6,0,P|381:359|421:350,1,76.1249951734545,10|2,2:2|2:2,0:0:0:0:
504,370,156419,1,2,2:2:0:0:
504,370,156597,1,0,0:0:0:0:
436,262,156775,6,0,P|358:282|266:303,1,152.249990346909,2|2,1:2|1:2,0:0:0:0:
214,377,157310,1,2,2:2:0:0:
136,354,157488,2,0,P|119:330|127:270,1,76.1249951734545,10|0,2:2|0:0,0:0:0:0:
187,208,157844,1,2,1:2:0:0:
158,129,158022,1,2,2:2:0:0:
270,143,158200,2,0,P|304:137|330:33,2,152.249990346909,2|2|10,1:2|1:3|2:2,0:0:0:0:
187,208,159091,5,2,2:2:0:0:
158,129,159269,1,2,2:2:0:0:
158,129,159447,1,0,0:0:0:0:
37,161,159626,6,0,P|51:229|65:316,1,152.249990346909,6|2,1:2|1:3,0:0:0:0:
175,384,160160,1,2,2:2:0:0:
238,332,160338,2,0,P|257:336|305:374,1,76.1249951734545,10|0,2:2|0:0,0:0:0:0:
361,275,160695,2,0,P|342:271|294:233,1,76.1249951734545,2|0,1:2|0:0,0:0:0:0:
176,221,161051,2,0,B|183:142|213:153|223:64,1,152.249990346909,2|2,1:2|2:2,0:0:0:0:
191,6,161585,1,0,0:0:0:0:
92,88,161763,1,10,2:2:0:0:
507,204,162476,6,0,P|465:192|378:253,1,152.249990346909,6|2,1:2|1:3,0:0:0:0:
335,172,163010,1,2,2:2:0:0:
266,229,163189,2,0,P|259:191|248:150,1,76.1249951734545,10|0,2:2|0:0,0:0:0:0:
140,100,163545,2,0,P|147:138|158:179,1,76.1249951734545,2|0,1:2|0:0,0:0:0:0:
126,288,163901,2,0,P|84:300|-3:239,1,152.249990346909,2|2,1:2|1:3,0:0:0:0:
151,367,164614,2,0,P|193:379|280:318,1,137.749991791725,14|2,2:2|2:2,0:0:0:0:
466,367,165326,6,0,B|471:346|491:330|491:330|467:215,1,152.249990346909,6|2,1:2|1:3,0:0:0:0:
338,175,165861,1,2,2:2:0:0:
368,99,166039,2,0,P|394:109|420:153,1,76.1249951734545,10|0,2:2|0:0,0:0:0:0:
388,238,166395,2,0,P|366:255|315:256,1,76.1249951734545,2|0,1:2|0:0,0:0:0:0:
227,180,166752,2,0,L|251:23,2,152.249990346909,2|2|10,1:2|2:3|2:2,0:0:0:0:
6,369,168177,6,0,B|59:357|59:357|83:325|83:325|146:311,1,152.249990346909,6|2,1:2|1:3,0:0:0:0:
216,231,168711,1,0,0:0:0:0:
283,285,168889,2,0,P|288:256|300:209,1,76.1249951734545,10|0,2:2|0:0,0:0:0:0:
226,117,169246,2,0,P|189:126|151:133,1,76.1249951734545,2|0,1:3|0:0,0:0:0:0:
33,80,169602,2,0,P|26:50|128:10,2,152.249990346909,2|2|10,1:2|1:2|2:2,0:0:0:0:
79,149,170493,1,0,0:0:0:0:
79,149,170671,2,0,B|72:186|72:186|73:188|73:188|65:228,1,76.1249951734545
0,312,171027,6,0,P|41:275|136:286,1,152.249990346909,6|2,1:2|1:3,0:0:0:0:
215,357,171562,1,2,2:2:0:0:
279,305,171740,2,0,L|357:289,1,76.1249951734545,10|0,2:2|0:0,0:0:0:0:
461,313,172096,2,0,P|448:290|447:236,1,76.1249951734545,2|0,1:2|0:0,0:0:0:0:
355,137,172452,2,0,P|367:159|368:213,1,76.1249951734545,2|0,1:2|0:0,0:0:0:0:
268,195,172809,2,0,P|183:169|107:139,2,152.249990346909,2|10|2,2:3|2:2|2:2,0:0:0:0:
512,0,173877,6,0,P|485:71|463:144,1,152.249990346909,6|2,1:2|1:3,0:0:0:0:
410,260,174412,1,0,0:0:0:0:
329,246,174590,2,0,P|338:216|390:184,1,76.1249951734545,10|0,2:2|0:0,0:0:0:0:
283,119,174946,2,0,P|274:149|222:181,1,76.1249951734545,2|0,1:3|0:0,0:0:0:0:
147,252,175303,2,0,P|121:222|150:109,2,152.249990346909,2|2|10,1:2|1:2|2:2,0:0:0:0:
125,337,176193,1,0,0:0:0:0:
125,337,176371,2,0,B|154:329|154:329|156:330|156:330|187:322,1,61.6249991488457
252,358,176728,1,4,2:2:0:0:
