osu file format v14

[General]
AudioFilename: audio.mp3
AudioLeadIn: 0
PreviewTime: -1
Countdown: 0
SampleSet: Soft
StackLeniency: 0.7
Mode: 0
LetterboxInBreaks: 0
WidescreenStoryboard: 0

[Editor]
Bookmarks: 24815,90800,138735
DistanceSpacing: 1.4
BeatDivisor: 4
GridSize: 32
TimelineZoom: 2

[Metadata]
Title:Makeshift Chemistry
TitleUnicode:Makeshift Chemistry
Artist:Crown The Empire
ArtistUnicode:Crown The Empire
Creator:Fanteer
Version:no title
Source:
Tags:
BeatmapID:1493410
BeatmapSetID:706202

[Difficulty]
HPDrainRate:4.5
CircleSize:4
OverallDifficulty:9
ApproachRate:9.7
SliderMultiplier:2.2
SliderTickRate:1

[Events]
//Background and Video events
0,0,"gicTOoY.jpg",0,0
//Break Periods
2,67000,72291
//Storyboard Layer 0 (Background)
//Storyboard Layer 1 (Fail)
//Storyboard Layer 2 (Pass)
//Storyboard Layer 3 (Foreground)
//Storyboard Sound Samples

[TimingPoints]
815,500,4,2,0,20,1,0
815,-125,4,2,0,5,0,0
4815,-90.9090909090909,4,2,0,100,0,0
8815,-71.4285714285714,4,2,0,100,0,0
24815,-66.6666666666667,4,2,0,100,0,0
40315,-125,4,2,0,100,0,0
40815,-55.5555555555556,4,2,0,100,0,1
42315,-83.3333333333333,4,2,0,100,0,1
42565,-83.3333333333333,4,2,0,100,0,1
42815,-33.3333333333333,4,2,0,100,0,1
43065,-55.5555555555556,4,2,0,100,0,1
46315,-100,4,2,0,100,0,1
46565,-50,4,2,0,100,0,1
46815,-33.3333333333333,4,2,0,100,0,1
47065,-55.5555555555556,4,2,0,100,0,1
47925,500,4,2,0,100,1,1
48800,500,4,2,0,100,1,1
48800,-55.5555555555556,4,2,0,100,0,1
50300,-50,4,2,0,100,0,1
50800,-33.3333333333333,4,2,0,100,0,1
51050,-55.5555555555556,4,2,0,100,0,1
54300,-100,4,2,0,100,0,1
54550,-50,4,2,0,100,0,1
54800,-33.3333333333333,4,2,0,100,0,1
55050,-55.5555555555556,4,2,0,100,0,1
56800,-55.5555555555556,4,2,0,100,0,0
58800,-71.4285714285714,4,2,0,100,0,0
72786,500,4,2,0,100,1,0
72786,-71.4285714285714,4,2,0,100,0,0
74786,-66.6666666666667,4,2,0,100,0,0
76517,500,4,2,0,100,1,0
76517,-66.6666666666667,4,2,0,100,0,0
76767,500,4,2,0,100,1,0
76767,-66.6666666666667,4,2,0,100,0,0
90517,-66.6666666666667,4,2,0,100,0,0
90767,500,4,2,0,100,1,0
90767,-66.6666666666667,4,2,0,100,0,0
106000,500,4,2,0,100,1,0
106250,-125,4,2,0,100,0,0
106750,500,4,2,0,100,1,0
106750,-55.5555555555556,4,2,0,100,0,1
108250,-83.3333333333333,4,2,0,100,0,1
108500,-83.3333333333333,4,2,0,100,0,1
108750,-33.3333333333333,4,2,0,100,0,1
109000,-55.5555555555556,4,2,0,100,0,1
112250,-100,4,2,0,100,0,1
112500,-50,4,2,0,100,0,1
112750,-33.3333333333333,4,2,0,100,0,1
113000,-55.5555555555556,4,2,0,100,0,1
113860,500,4,2,0,100,1,1
114735,500,4,2,0,100,1,1
114735,-55.5555555555556,4,2,0,100,0,1
116235,-50,4,2,0,100,0,1
116735,-33.3333333333333,4,2,0,100,0,1
116985,-55.5555555555556,4,2,0,100,0,1
120235,-100,4,2,0,100,0,1
120485,-50,4,2,0,100,0,1
120735,-33.3333333333333,4,2,0,100,0,1
120985,-55.5555555555556,4,2,0,100,0,1
122735,-55.5555555555556,4,2,0,100,0,0

[HitObjects]
59,286,815,6,0,P|27:280|-3:278,1,44
141,198,1065,2,0,P|109:203|78:205,1,44
292,321,1440,6,0,L|288:374,2,44
358,229,1815,2,0,P|362:253|364:276,1,44
238,204,2065,2,0,P|234:225|232:247,1,44
440,97,2440,6,0,L|486:102,2,44
275,31,2815,2,0,P|278:54|281:86,3,44
341,167,3315,6,0,P|337:188|335:210,3,44
246,166,3815,6,0,P|223:168|202:170,1,44
132,226,4065,2,0,P|109:224|88:221,1,44
203,43,4315,6,0,L|207:86,1,44
103,83,4565,2,0,L|98:126,1,44
307,342,4815,6,0,L|312:269,1,60.5000018463135
434,240,5065,2,0,L|438:300,1,60.5000018463135
300,95,5440,6,0,L|225:86,2,60.5000018463135
435,80,5815,2,0,P|431:50|421:20,1,60.5000018463135
370,145,6065,2,0,P|360:173|356:203,1,60.5000018463135
124,260,6440,6,0,L|127:327,2,60.5000018463135
57,196,6815,2,0,L|60:135,3,60.5000018463135
221,291,7315,6,0,P|252:284|290:279,3,60.5000018463135
124,260,7815,1,0,0:0:0:0:
411,295,8815,6,0,P|416:334|419:387,1,76.9999976501466
221,291,9065,1,0,0:0:0:0:
382,175,9190,1,0,0:0:0:0:
396,190,9440,1,0,0:0:0:0:
262,91,9565,2,0,L|186:101,1,76.9999976501466
93,276,9815,5,0,0:0:0:0:
15,176,9940,2,0,L|21:91,1,76.9999976501466
109,289,10190,1,0,0:0:0:0:
125,300,10440,1,0,0:0:0:0:
228,247,10565,1,0,0:0:0:0:
342,265,10690,1,0,0:0:0:0:
402,123,10815,6,0,L|391:33,1,76.9999976501466
237,170,11065,2,0,L|227:246,1,76.9999976501466
44,50,11440,1,0,0:0:0:0:
110,188,11565,1,0,0:0:0:0:
181,29,11690,1,0,0:0:0:0:
31,131,11815,6,0,P|16:167|12:214,1,76.9999976501466
147,306,12065,1,0,0:0:0:0:
110,188,12190,1,0,0:0:0:0:
129,319,12315,2,0,L|209:306,1,76.9999976501466
350,263,12565,1,0,0:0:0:0:
285,377,12690,1,0,0:0:0:0:
208,193,12815,6,0,P|210:152|214:116,1,76.9999976501466
366,15,13065,1,0,0:0:0:0:
333,107,13190,1,0,0:0:0:0:
314,95,13440,1,0,0:0:0:0:
423,193,13565,2,0,P|429:232|433:269,1,76.9999976501466
285,377,13815,5,0,0:0:0:0:
356,263,13940,2,0,L|441:269,1,76.9999976501466
264,356,14190,1,0,0:0:0:0:
240,338,14440,1,0,0:0:0:0:
211,235,14565,1,0,0:0:0:0:
128,304,14690,1,0,0:0:0:0:
26,165,14815,6,0,P|64:159|102:155,1,76.9999976501466
311,172,15065,1,0,0:0:0:0:
211,235,15190,1,0,0:0:0:0:
306,15,15315,2,0,P|316:51|327:98,1,76.9999976501466
310,284,15565,1,0,0:0:0:0:
211,235,15690,1,0,0:0:0:0:
411,216,15815,6,0,P|448:223|486:227,1,76.9999976501466
311,172,16065,1,0,0:0:0:0:
310,284,16190,1,0,0:0:0:0:
479,123,16315,2,0,P|475:81|470:40,1,76.9999976501466
398,224,16565,1,0,0:0:0:0:
400,250,16627,1,0,0:0:0:0:
403,277,16690,1,0,0:0:0:0:
406,304,16752,1,0,0:0:0:0:
408,331,16815,6,0,P|371:335|332:347,1,76.9999976501466
211,235,17065,1,0,0:0:0:0:
229,364,17190,1,0,0:0:0:0:
81,187,17815,5,0,0:0:0:0:
211,235,17940,1,0,0:0:0:0:
60,384,18065,1,0,0:0:0:0:
229,364,18190,1,0,0:0:0:0:
170,121,19065,5,0,0:0:0:0:
170,121,19127,1,0,0:0:0:0:
170,121,19190,1,0,0:0:0:0:
326,96,19315,1,0,0:0:0:0:
191,26,19440,1,0,0:0:0:0:
239,220,19565,1,0,0:0:0:0:
345,79,19690,1,0,0:0:0:0:
440,255,19815,2,0,P|364:263|342:190,1,153.999995300293
486,78,20315,5,0,0:0:0:0:
486,78,20377,1,0,0:0:0:0:
486,78,20440,1,0,0:0:0:0:
269,28,20565,1,0,0:0:0:0:
412,143,20690,1,0,0:0:0:0:
174,275,20815,6,0,L|180:373,1,76.9999976501466
269,247,21065,2,0,L|264:323,1,76.9999976501466
192,169,21315,1,0,0:0:0:0:
192,169,21440,1,0,0:0:0:0:
360,331,21565,1,0,0:0:0:0:
360,331,21690,1,0,0:0:0:0:
178,351,21815,6,0,L|93:341,1,76.9999976501466
269,247,22065,2,0,L|354:237,1,76.9999976501466
277,20,22315,1,0,0:0:0:0:
277,20,22440,1,0,0:0:0:0:
111,126,22565,1,0,0:0:0:0:
111,126,22690,1,0,0:0:0:0:
334,155,22815,5,0,0:0:0:0:
190,18,22940,1,0,0:0:0:0:
269,247,23065,1,0,0:0:0:0:
362,75,23190,1,0,0:0:0:0:
184,194,23315,2,0,P|174:232|169:274,1,76.9999976501466
396,328,23565,2,0,P|391:289|381:252,1,76.9999976501466
109,42,23815,5,0,0:0:0:0:
344,160,23940,1,0,0:0:0:0:
134,193,24065,1,0,0:0:0:0:
362,75,24190,1,0,0:0:0:0:
76,118,24315,2,0,P|32:115|-11:109,1,76.9999976501466
344,160,24565,2,0,P|382:155|420:152,1,76.9999976501466
166,354,24815,6,0,P|155:267|132:188,1,165.000006294251
344,160,25315,2,0,P|339:201|336:244,1,82.5000031471254
207,86,25565,1,0,0:0:0:0:
207,86,25690,1,0,0:0:0:0:
365,28,25815,2,0,P|405:33|446:36,1,82.5000031471254
336,242,26065,1,0,0:0:0:0:
207,86,26190,2,0,P|166:80|125:77,1,82.5000031471254
345,253,26440,2,0,L|430:242,1,82.5000031471254
192,343,26690,6,0,P|136:262|80:268,1,165.000006294251
112,341,27065,1,0,0:0:0:0:
289,81,27315,1,0,0:0:0:0:
181,108,27440,2,0,P|173:151|167:196,1,82.5000031471254
311,96,27690,1,0,0:0:0:0:
133,32,27815,2,0,P|90:35|45:43,1,82.5000031471254
151,275,28065,1,0,0:0:0:0:
327,176,28190,2,0,P|319:133|310:95,1,82.5000031471254
142,287,28440,2,0,P|133:327|125:367,1,82.5000031471254
412,223,28690,6,0,L|246:195,1,165.000006294251
181,108,29065,1,0,0:0:0:0:
171,102,29315,2,0,P|173:58|176:13,1,82.5000031471254
47,159,29565,2,0,P|49:200|51:241,1,82.5000031471254
344,368,29940,1,0,0:0:0:0:
420,305,30065,2,0,P|415:262|409:207,1,82.5000031471254
247,143,30315,2,0,P|242:183|238:225,1,82.5000031471254
362,94,30565,6,0,P|321:44|185:33,1,165.000006294251
109,112,30940,1,0,0:0:0:0:
109,112,31065,2,0,P|113:151|114:201,1,82.5000031471254
96,341,31315,1,0,0:0:0:0:
6,247,31440,1,0,0:0:0:0:
185,279,31565,2,0,P|199:313|205:361,1,82.5000031471254
0,338,31815,1,0,0:0:0:0:
0,338,31940,1,0,0:0:0:0:
217,185,32065,2,0,P|256:190|305:193,1,82.5000031471254
109,112,32315,2,0,P|67:114|26:119,1,82.5000031471254
290,47,32565,2,0,P|302:86|312:170,1,123.750004720688
299,192,32815,6,0,P|282:251|276:313,1,123.750004720688
299,333,33065,2,0,P|342:334|404:323,1,82.5000031471254
426,162,33315,1,0,0:0:0:0:
426,162,33440,1,0,0:0:0:0:
289,47,33565,2,0,P|208:65|126:72,1,165.000006294251
23,21,33940,1,0,0:0:0:0:
167,177,34065,2,0,P|173:216|179:265,1,82.5000031471254
7,352,34315,2,0,P|12:311|18:270,1,82.5000031471254
262,148,34565,2,0,P|305:152|359:158,1,82.5000031471254
246,343,34815,6,0,P|185:294|96:320,1,165.000006294251
275,229,35190,2,0,P|268:184|259:139,1,82.5000031471254
432,91,35440,2,0,P|423:131|418:172,1,82.5000031471254
208,77,35690,1,0,0:0:0:0:
426,277,35815,2,0,P|466:268|507:264,1,82.5000031471254
303,144,36065,1,0,0:0:0:0:
303,144,36190,1,0,0:0:0:0:
246,343,36315,2,0,P|204:339|164:330,1,82.5000031471254
307,151,36565,2,0,L|321:235,1,82.5000031471254
177,41,36815,5,0,0:0:0:0:
400,129,36940,1,0,0:0:0:0:
140,142,37065,5,0,0:0:0:0:
338,66,37190,1,0,0:0:0:0:
163,300,37315,6,0,L|171:213,1,82.5000031471254
400,129,37565,2,0,L|407:211,1,82.5000031471254
241,334,37815,5,0,0:0:0:0:
310,93,37940,1,0,0:0:0:0:
342,352,38065,5,0,0:0:0:0:
239,145,38190,1,0,0:0:0:0:
455,281,38315,6,0,P|413:273|368:268,1,82.5000031471254
79,199,38565,2,0,P|119:194|160:186,1,82.5000031471254
338,66,38815,1,0,0:0:0:0:
338,66,40065,5,0,0:0:0:0:
335,104,40127,1,0,0:0:0:0:
332,141,40190,1,0,0:0:0:0:
329,178,40252,1,0,0:0:0:0:
327,215,40315,6,0,P|360:170|460:187,1,154
402,238,40815,6,0,P|396:200|388:117,1,98.9999969787599
232,254,41065,2,0,P|224:302|219:352,1,98.9999969787599
40,180,41315,2,0,P|124:196|194:118,1,197.99999395752
42,304,41690,1,0,0:0:0:0:
101,108,41815,2,0,P|97:57|91:5,1,98.9999969787599
232,254,42065,2,0,P|183:262|134:272,1,98.9999969787599
291,184,42315,6,0,P|317:222|322:279,1,98.9999969787599
269,338,42565,6,0,P|321:338|370:376,1,98.9999969787599
431,384,42815,6,0,B|451:342|480:313|480:313|447:236|447:236|462:193|464:140,1,247.500009441376
459,57,43065,6,0,P|412:72|372:107,1,98.9999969787599
144,230,43315,2,0,P|87:221|35:215,1,98.9999969787599
196,106,43565,2,0,P|240:134|258:293,1,197.99999395752
104,134,43940,1,0,0:0:0:0:
320,52,44065,2,0,P|371:56|419:62,1,98.9999969787599
144,230,44315,2,0,P|94:235|45:239,1,98.9999969787599
321,343,44565,2,0,P|370:346|419:352,1,98.9999969787599
447,362,44752,1,0,0:0:0:0:
475,369,44815,6,0,P|480:320|492:248,1,98.9999969787599
311,123,45065,2,0,P|318:171|323:221,1,98.9999969787599
490,68,45315,2,0,B|414:44|414:44|365:59|365:59|333:40|280:39,1,197.99999395752
136,136,45690,1,0,0:0:0:0:
323,221,45815,2,0,P|371:211|420:205,1,98.9999969787599
146,133,46065,2,0,P|96:127|48:117,1,98.9999969787599
264,287,46315,6,0,P|277:325|287:370,1,82.5
373,378,46565,6,0,P|382:296|401:215,1,165
356,151,46815,6,0,P|409:177|455:30,1,247.500009441376
376,14,47065,6,0,P|322:16|254:24,1,98.9999969787599
52,137,47315,2,0,P|101:142|151:145,1,98.9999969787599
384,293,47565,2,0,P|394:211|416:88,1,197.99999395752
171,48,47925,1,0,0:0:0:0:
201,238,48050,1,0,0:0:0:0:
277,21,48175,1,0,0:0:0:0:
52,137,48300,1,0,0:0:0:0:
59,160,48550,1,0,0:0:0:0:
314,112,48675,1,0,0:0:0:0:
182,334,48800,6,0,P|131:327|77:320,1,98.9999969787599
302,213,49050,2,0,P|351:206|400:199,1,98.9999969787599
227,44,49300,2,0,B|215:83|210:112|210:112|180:169|180:169|179:209|171:252,1,197.99999395752
314,112,49675,1,0,0:0:0:0:
112,12,49800,2,0,B|72:12|72:12|11:22,1,98.9999969787599
175,232,50050,2,0,B|215:232|215:232|276:222,1,98.9999969787599
435,58,50300,6,0,P|384:32|351:124,1,165
241,152,50550,6,0,P|311:178|340:109,1,165
252,67,50800,6,0,B|226:70|199:81|177:101|177:101|92:71|92:71|59:83|8:90,1,247.500009441376
81,164,51050,6,0,L|184:202,1,98.9999969787599
390,299,51300,2,0,P|398:247|410:195,1,98.9999969787599
105,282,51550,2,0,P|115:330|123:379,1,98.9999969787599
295,153,51800,2,0,P|210:182|165:83,1,197.99999395752
379,115,52175,1,0,0:0:0:0:
203,293,52300,2,0,B|154:285|154:285|86:280,1,98.9999969787599
364,205,52550,1,0,0:0:0:0:
388,206,52612,1,0,0:0:0:0:
413,209,52675,1,0,0:0:0:0:
437,213,52737,1,0,0:0:0:0:
462,219,52800,6,0,P|464:166|471:104,1,98.9999969787599
290,274,53050,2,0,P|294:323|296:372,1,98.9999969787599
128,154,53300,2,0,B|167:159|198:168|198:168|243:141|289:134|289:134|340:148,1,197.99999395752
143,253,53675,1,0,0:0:0:0:
35,104,53800,2,0,P|38:59|46:2,1,98.9999969787599
155,268,54050,2,0,P|161:317|165:366,1,98.9999969787599
316,141,54300,6,0,P|354:156|343:112,1,82.5
305,125,54550,6,0,P|350:173|359:108,1,165
299,50,54800,6,0,L|51:35,1,247.500009441376
22,113,55050,5,0,0:0:0:0:
140,195,55175,1,0,0:0:0:0:
156,338,55300,1,0,0:0:0:0:
161,191,55425,1,0,0:0:0:0:
235,64,55550,1,0,0:0:0:0:
309,192,55675,1,0,0:0:0:0:
314,339,55800,1,0,0:0:0:0:
330,196,55925,1,0,0:0:0:0:
449,114,56050,1,0,0:0:0:0:
458,257,56175,1,0,0:0:0:0:
333,39,56300,5,0,0:0:0:0:
505,187,56425,1,0,0:0:0:0:
257,269,56550,2,0,P|208:258|159:254,1,98.9999969787599
482,369,56800,5,0,0:0:0:0:
127,201,58800,6,0,P|88:203|50:208,1,76.9999976501466
214,122,59050,1,0,0:0:0:0:
182,297,59175,1,0,0:0:0:0:
171,317,59425,1,0,0:0:0:0:
327,354,59550,2,0,L|403:344,1,76.9999976501466
499,155,59800,5,0,0:0:0:0:
414,267,59925,2,0,P|407:302|403:345,1,76.9999976501466
336,164,60175,1,0,0:0:0:0:
312,143,60425,1,0,0:0:0:0:
499,155,60550,1,0,0:0:0:0:
298,126,60675,1,0,0:0:0:0:
215,278,60800,6,0,L|224:354,1,76.9999976501466
93,225,61050,2,0,L|83:301,1,76.9999976501466
90,320,61425,1,0,0:0:0:0:
181,169,61550,1,0,0:0:0:0:
9,240,61675,1,0,0:0:0:0:
275,187,61800,6,0,P|270:148|255:113,1,76.9999976501466
70,73,62050,1,0,0:0:0:0:
180,43,62175,1,0,0:0:0:0:
21,164,62300,2,0,P|14:200|8:244,1,76.9999976501466
195,65,62550,1,0,0:0:0:0:
59,55,62675,1,0,0:0:0:0:
201,245,62800,6,0,P|205:283|206:321,1,76.9999976501466
60,81,63050,1,0,0:0:0:0:
205,47,63175,1,0,0:0:0:0:
222,62,63425,1,0,0:0:0:0:
49,157,63550,2,0,P|53:118|59:80,1,76.9999976501466
205,47,63800,1,0,0:0:0:0:
277,195,63925,2,0,L|271:280,1,76.9999976501466
222,62,64175,1,0,0:0:0:0:
205,47,64425,1,0,0:0:0:0:
322,108,64550,1,0,0:0:0:0:
178,206,64675,1,0,0:0:0:0:
356,332,64800,6,0,P|394:325|432:321,1,76.9999976501466
465,124,65050,1,0,0:0:0:0:
465,124,65175,1,0,0:0:0:0:
270,181,65300,2,0,P|280:218|289:255,1,76.9999976501466
323,14,65550,1,0,0:0:0:0:
323,14,65675,1,0,0:0:0:0:
465,124,65800,6,0,P|457:161|453:200,1,76.9999976501466
504,376,66050,1,0,0:0:0:0:
504,376,66175,1,0,0:0:0:0:
314,187,66300,5,0,0:0:0:0:
360,347,66425,1,0,0:0:0:0:
458,106,66550,1,0,0:0:0:0:
443,292,66675,1,0,0:0:0:0:
309,54,66800,1,0,0:0:0:0:
288,58,72786,5,0,0:0:0:0:
217,256,72911,1,0,0:0:0:0:
184,29,73036,1,0,0:0:0:0:
295,199,73161,1,0,0:0:0:0:
102,114,73286,1,0,0:0:0:0:
288,58,73411,1,0,0:0:0:0:
127,233,73536,1,0,0:0:0:0:
87,35,73661,1,0,0:0:0:0:
27,268,73786,5,0,0:0:0:0:
27,268,73911,1,0,0:0:0:0:
117,309,74036,5,0,0:0:0:0:
117,309,74161,2,0,L|127:227,4,76.9999976501466
213,361,74786,5,0,0:0:0:0:
206,179,74911,1,0,0:0:0:0:
332,276,75036,2,0,P|326:314|320:367,1,82.5000031471254
220,161,75286,1,0,0:0:0:0:
207,151,75536,1,0,0:0:0:0:
334,85,75661,2,0,P|376:87|433:94,1,82.5000031471254
197,28,75911,1,0,0:0:0:0:
197,28,76036,2,0,P|156:32|114:34,1,82.5000031471254
147,354,76517,2,0,L|141:271,1,82.5000031471254
250,133,76767,5,0,0:0:0:0:
250,133,76892,1,0,0:0:0:0:
81,199,77017,2,0,P|33:193|-10:185,1,82.5000031471254
232,318,77267,1,0,0:0:0:0:
232,318,77392,2,0,P|308:305|400:307,1,165.000006294251
265,52,77767,2,0,P|256:88|249:138,1,82.5000031471254
396,188,78017,1,0,0:0:0:0:
412,189,78517,1,0,0:0:0:0:
439,189,78767,5,0,0:0:0:0:
202,142,78892,1,0,0:0:0:0:
328,82,79017,1,0,0:0:0:0:
290,272,79142,1,0,0:0:0:0:
182,153,79267,2,0,P|185:112|192:57,1,82.5000031471254
301,292,79517,1,0,0:0:0:0:
308,308,80017,1,0,0:0:0:0:
315,325,80517,1,0,0:0:0:0:
327,343,80767,5,0,0:0:0:0:
154,253,80892,1,0,0:0:0:0:
251,384,81017,1,0,0:0:0:0:
281,160,81142,1,0,0:0:0:0:
133,242,81267,2,0,P|122:285|118:329,1,82.5000031471254
61,110,81517,1,0,0:0:0:0:
53,93,82017,1,0,0:0:0:0:
43,77,82517,1,0,0:0:0:0:
33,62,82767,5,0,0:0:0:0:
200,91,82892,1,0,0:0:0:0:
43,77,83017,1,0,0:0:0:0:
218,185,83142,1,0,0:0:0:0:
30,158,83267,2,0,P|36:112|45:67,1,82.5000031471254
113,295,83517,1,0,0:0:0:0:
117,326,84017,1,0,0:0:0:0:
117,349,84517,1,0,0:0:0:0:
124,372,84767,5,0,0:0:0:0:
158,138,84892,1,0,0:0:0:0:
57,303,85017,1,0,0:0:0:0:
57,303,85142,1,0,0:0:0:0:
243,221,85267,2,0,P|284:216|334:212,1,82.5000031471254
89,84,85517,1,0,0:0:0:0:
74,86,86017,1,0,0:0:0:0:
52,86,86517,1,0,0:0:0:0:
30,85,86767,5,0,0:0:0:0:
270,79,86892,1,0,0:0:0:0:
133,179,87017,1,0,0:0:0:0:
180,22,87142,1,0,0:0:0:0:
277,226,87267,2,0,P|284:268|291:324,1,82.5000031471254
190,109,87517,1,0,0:0:0:0:
196,98,88017,1,0,0:0:0:0:
205,82,88517,1,0,0:0:0:0:
215,66,88767,5,0,0:0:0:0:
202,192,88892,1,0,0:0:0:0:
291,24,89017,1,0,0:0:0:0:
304,150,89142,1,0,0:0:0:0:
122,117,89267,2,0,P|80:107|40:103,1,82.5000031471254
360,82,89517,2,0,P|400:77|441:68,1,82.5000031471254
331,275,89767,5,0,0:0:0:0:
304,150,89892,1,0,0:0:0:0:
425,295,90017,1,0,0:0:0:0:
243,231,90142,1,0,0:0:0:0:
442,181,90267,5,0,0:0:0:0:
349,354,90392,1,0,0:0:0:0:
456,193,90517,2,0,P|453:147|449:99,1,82.5000031471254
349,354,90767,6,0,P|269:331|187:321,1,165.000006294251
320,155,91267,2,0,P|325:196|328:239,1,82.5000031471254
460,348,91517,1,0,0:0:0:0:
465,353,91642,1,0,0:0:0:0:
468,184,91767,2,0,P|470:142|476:101,1,82.5000031471254
349,26,92017,1,0,0:0:0:0:
227,128,92142,2,0,P|186:122|145:119,1,82.5000031471254
386,194,92392,2,0,L|471:183,1,82.5000031471254
230,291,92642,6,0,B|228:236|228:236|218:176|218:176|224:148|228:118,1,165.000006294251
355,38,93017,1,0,0:0:0:0:
372,43,93267,1,0,0:0:0:0:
145,119,93392,2,0,P|102:111|57:105,1,82.5000031471254
309,185,93642,1,0,0:0:0:0:
127,302,93767,2,0,P|85:299|45:292,1,82.5000031471254
242,370,94017,1,0,0:0:0:0:
309,185,94142,2,0,P|301:142|292:104,1,82.5000031471254
144,221,94392,2,0,P|135:261|127:301,1,82.5000031471254
388,207,94642,6,0,P|372:122|349:42,1,165.000006294251
218,230,95017,1,0,0:0:0:0:
214,244,95267,2,0,P|232:277|249:318,1,82.5000031471254
48,221,95517,2,0,L|57:139,1,82.5000031471254
51,118,95892,1,0,0:0:0:0:
157,41,96017,2,0,P|198:45|238:50,1,82.5000031471254
295,235,96267,2,0,P|253:238|213:243,1,82.5000031471254
297,144,96517,6,0,P|360:170|371:288,1,165.000006294251
137,372,96892,1,0,0:0:0:0:
137,372,97017,2,0,P|138:330|142:289,1,82.5000031471254
211,113,97267,1,0,0:0:0:0:
295,235,97392,1,0,0:0:0:0:
119,143,97517,2,0,P|78:149|38:159,1,82.5000031471254
137,372,97767,1,0,0:0:0:0:
137,372,97892,1,0,0:0:0:0:
295,235,98017,2,0,P|337:241|379:249,1,82.5000031471254
265,44,98267,2,0,P|224:48|182:50,1,82.5000031471254
339,152,98517,2,0,P|420:163|466:115,1,123.750004720688
463,117,98767,6,0,L|479:266,1,123.750004720688
464,259,99017,2,0,L|456:341,1,82.5000031471254
246,300,99267,1,0,0:0:0:0:
246,300,99392,1,0,0:0:0:0:
358,378,99517,1,0,0:0:0:0:
238,204,99642,2,0,P|198:218|166:243,1,82.5000031471254
273,384,99892,1,0,0:0:0:0:
375,223,100017,2,0,P|368:182|363:141,1,82.5000031471254
186,30,100267,2,0,P|180:70|175:111,1,82.5000031471254
393,41,100517,2,0,P|434:36|475:32,1,82.5000031471254
261,162,100767,6,0,P|200:211|108:188,1,165.000006294251
305,288,101142,2,0,P|312:328|319:369,1,82.5000031471254
175,111,101392,2,0,P|179:70|189:29,1,82.5000031471254
336,110,101642,1,0,0:0:0:0:
164,313,101767,2,0,P|124:304|83:300,1,82.5000031471254
58,70,102017,1,0,0:0:0:0:
58,70,102142,1,0,0:0:0:0:
254,118,102267,1,0,0:0:0:0:
274,116,102329,1,0,0:0:0:0:
295,114,102392,1,0,0:0:0:0:
315,112,102454,1,0,0:0:0:0:
336,110,102517,1,0,0:0:0:0:
398,39,102767,5,0,0:0:0:0:
362,261,102892,1,0,0:0:0:0:
140,225,103017,5,0,0:0:0:0:
373,274,103142,1,0,0:0:0:0:
209,77,103267,2,0,P|213:115|216:159,1,82.5000031471254
265,379,103517,2,0,P|268:337|272:296,1,82.5000031471254
379,122,103767,5,0,0:0:0:0:
113,25,103892,1,0,0:0:0:0:
265,18,104017,5,0,0:0:0:0:
216,159,104142,1,0,0:0:0:0:
402,42,104267,6,0,P|442:34|483:29,1,82.5000031471254
113,137,104517,2,0,P|72:131|31:123,1,82.5000031471254
323,219,104767,1,0,0:0:0:0:
261,344,106000,5,0,0:0:0:0:
264,306,106062,1,0,0:0:0:0:
267,269,106125,1,0,0:0:0:0:
270,232,106187,1,0,0:0:0:0:
272,195,106250,6,0,P|252:202|279:186,1,154
341,251,106750,6,0,P|379:245|462:237,1,98.9999969787599
184,358,107000,2,0,P|134:353|85:344,1,98.9999969787599
242,218,107250,2,0,P|301:144|395:157,1,197.99999395752
143,267,107625,1,0,0:0:0:0:
176,115,107750,2,0,P|180:64|186:12,1,98.9999969787599
341,251,108000,2,0,P|348:299|358:348,1,98.9999969787599
321,167,108250,6,0,P|369:171|410:198,1,98.9999969787599
480,159,108500,6,0,P|474:102|468:53,1,98.9999969787599
398,26,108750,6,0,B|341:35|313:50|313:50|269:29|269:29|225:32|193:20|193:20|147:32,1,247.500009441376
176,101,109000,6,0,B|195:96|195:96|221:103|250:103|250:103|273:114,1,98.9999969787599
323,249,109250,2,0,P|314:306|308:358,1,98.9999969787599
178,196,109500,2,0,P|272:276|343:206,1,197.99999395752
398,26,109875,1,0,0:0:0:0:
176,101,110000,2,0,P|126:94|77:91,1,98.9999969787599
386,164,110250,2,0,P|435:159|484:155,1,98.9999969787599
219,296,110500,2,0,P|169:302|120:305,1,98.9999969787599
97,292,110687,1,0,0:0:0:0:
81,269,110750,6,0,P|86:220|114:157,1,98.9999969787599
311,256,111000,2,0,P|318:304|323:354,1,98.9999969787599
472,220,111250,2,0,B|483:157|499:102|499:102|442:26,1,197.99999395752
319,131,111625,1,0,0:0:0:0:
415,326,111750,2,0,P|463:316|512:310,1,98.9999969787599
311,256,112000,2,0,P|261:250|213:240,1,98.9999969787599
89,39,112250,6,0,L|96:121,1,82.5
112,285,112500,6,0,L|95:120,1,165
99,29,112750,6,0,L|125:281,1,247.500009441376
190,339,113000,6,0,L|287:326,1,98.9999969787599
463,210,113250,2,0,L|364:202,1,98.9999969787599
226,19,113500,2,0,P|262:85|391:36,1,197.99999395752
221,230,113860,1,0,0:0:0:0:
463,210,113985,1,0,0:0:0:0:
309,13,114110,1,0,0:0:0:0:
348,291,114235,1,0,0:0:0:0:
360,312,114485,1,0,0:0:0:0:
475,70,114610,1,0,0:0:0:0:
201,144,114735,6,0,P|150:137|96:130,1,98.9999969787599
360,312,114985,2,0,P|409:305|458:298,1,98.9999969787599
156,328,115235,2,0,B|147:261|147:261|161:222|189:189|189:189|192:167|200:143,1,197.99999395752
380,24,115610,1,0,0:0:0:0:
159,59,115735,2,0,B|99:56|60:49,1,98.9999969787599
276,179,115985,2,0,B|334:169|374:169,1,98.9999969787599
156,328,116235,6,0,B|108:343|74:360|74:360|42:331|3:302,1,165
20,228,116485,6,0,B|55:244|89:274|89:274|132:253|197:242,1,165
231,162,116735,6,0,B|162:170|102:190|102:190|55:159|-9:132,1,247.500009441376
121,104,116985,6,0,P|172:93|239:83,1,98.9999969787599
376,224,117235,2,0,P|386:272|394:321,1,98.9999969787599
212,259,117485,2,0,P|219:210|230:161,1,98.9999969787599
450,88,117735,2,0,P|365:117|320:18,1,197.99999395752
485,208,118110,1,0,0:0:0:0:
303,366,118235,2,0,B|254:358|254:358|186:353,1,98.9999969787599
152,184,118485,1,0,0:0:0:0:
153,160,118547,1,0,0:0:0:0:
156,135,118610,1,0,0:0:0:0:
160,111,118672,1,0,0:0:0:0:
166,86,118735,6,0,P|208:102|256:151,1,98.9999969787599
143,289,118985,2,0,P|88:294|25:304,1,98.9999969787599
303,366,119235,2,0,B|358:252|358:252|351:221|342:171,1,197.99999395752
152,182,119610,1,0,0:0:0:0:
396,360,119735,2,0,P|444:350|493:345,1,98.9999969787599
234,144,119985,2,0,L|248:244,1,98.9999969787599
376,102,120235,6,0,P|383:55|399:5,1,82.5
416,171,120485,6,0,P|340:134|252:118,1,165
461,99,120735,6,0,P|483:175|511:348,1,247.500009441376
287,366,120985,5,0,0:0:0:0:
343,224,121110,1,0,0:0:0:0:
399,366,121235,1,0,0:0:0:0:
254,272,121360,1,0,0:0:0:0:
310,130,121485,1,0,0:0:0:0:
167,38,121610,1,0,0:0:0:0:
223,180,121735,1,0,0:0:0:0:
82,268,121860,1,0,0:0:0:0:
138,126,121985,1,0,0:0:0:0:
0,96,122110,1,0,0:0:0:0:
98,293,122235,5,0,0:0:0:0:
284,103,122360,1,0,0:0:0:0:
207,268,122485,2,0,P|196:316|192:365,1,98.9999969787599
482,369,122735,5,0,0:0:0:0:
