osu file format v14

[General]
AudioFilename: audio.mp3
AudioLeadIn: 0
PreviewTime: -1
Countdown: 0
SampleSet: Soft
StackLeniency: 0.4
Mode: 0
LetterboxInBreaks: 0
WidescreenStoryboard: 1

[Editor]
DistanceSpacing: 0.5
BeatDivisor: 4
GridSize: 16
TimelineZoom: 5.799997

[Metadata]
Title:crank thxt
TitleUnicode:crank thxt
Artist:CrotchOnFire
ArtistUnicode:CrotchOnFire
Creator:Azers Mom
Version:handzome
Source:Soulja Boy
Tags:soundclown crank that soulja boy thx
BeatmapID:1864510
BeatmapSetID:891877

[Difficulty]
HPDrainRate:0
CircleSize:4.5
OverallDifficulty:8.3
ApproachRate:9.7
SliderMultiplier:2
SliderTickRate:1

[Events]
//Background and Video events
0,0,"maxresdefault.jpg",0,0
//Break Periods
//Storyboard Layer 0 (Background)
//Storyboard Layer 1 (Fail)
//Storyboard Layer 2 (Pass)
//Storyboard Layer 3 (Foreground)
//Storyboard Sound Samples

[TimingPoints]
2110,250,4,2,1,60,1,0
2110,-1000,4,2,1,5,0,0
2360,-500,4,2,1,5,0,0
2610,-333.333333333333,4,2,1,5,0,0
2860,-250,4,2,1,5,0,0
3110,-200,4,2,1,5,0,0
3360,-166.666666666667,4,2,1,5,0,0
3610,-142.857142857143,4,2,1,5,0,0
3860,-125,4,2,1,5,0,0
4110,-111.111111111111,4,2,1,5,0,0
4360,-100,4,2,1,5,0,0
4610,-90.9090909090909,4,2,1,5,0,0
4860,-83.3333333333333,4,2,1,5,0,0
5110,-76.9230769230769,4,2,1,5,0,0
5360,-71.4285714285714,4,2,1,5,0,0
5610,-66.6666666666667,4,2,1,5,0,0
5860,-62.5,4,2,1,5,0,0
6110,-58.8235294117647,4,2,1,5,0,0
6360,-55.5555555555556,4,2,1,5,0,0
6610,-52.6315789473684,4,2,1,5,0,0
6860,-50,4,2,1,5,0,0
7110,-47.6190476190476,4,2,1,5,0,0
7360,-45.4545454545455,4,2,1,5,0,0
7610,-43.4782608695652,4,2,1,5,0,0
7860,-41.6666666666667,4,2,1,5,0,0
8110,-40,4,2,1,5,0,0
8360,-38.4615384615385,4,2,1,5,0,0
8610,-37.037037037037,4,2,1,5,0,0
8860,-35.7142857142857,4,2,1,5,0,0
9110,-34.4827586206897,4,2,1,5,0,0
9360,-33.3333333333333,4,2,1,5,0,0
9610,-32.258064516129,4,2,1,10,0,0
9860,-31.25,4,2,1,15,0,0
10110,-30.3030303030303,4,2,1,20,0,0
10360,-29.4117647058824,4,2,1,25,0,0
10610,-28.5714285714286,4,2,1,30,0,0
10860,-27.7777777777778,4,2,1,35,0,0
11110,-27.027027027027,4,2,1,40,0,0

[HitObjects]
151,199,2110,6,0,L|150:212,1,10
225,189,2360,2,0,L|223:210,1,20
284,143,2610,2,0,L|300:176,1,29.9999990844727
312,73,2860,2,0,L|358:104,1,40
77,179,3110,6,0,L|71:112,1,50
151,189,3360,2,0,L|144:109,1,59.9999981689454
210,235,3610,2,0,L|242:167,1,69.9999978637696
238,305,3860,2,0,L|303:260,1,80
105,248,4110,5,0,0:0:0:0:
151,189,4235,1,0,0:0:0:0:
161,114,4360,1,0,0:0:0:0:
132,44,4485,1,0,0:0:0:0:
134,318,4610,5,0,0:0:0:0:
105,248,4735,1,0,0:0:0:0:
151,189,4860,1,0,0:0:0:0:
225,199,4985,1,0,0:0:0:0:
315,79,5110,6,0,P|289:45|205:22,1,129.999994049073
397,138,5360,2,0,P|414:96|391:8,1,139.999995727539
386,238,5610,2,0,P|433:231|503:162,1,150.000005722046
293,278,5860,2,0,P|324:319|426:347,1,160
163,181,6110,5,0,0:0:0:0:
121,173,6172,1,0,0:0:0:0:
80,187,6235,1,0,0:0:0:0:
44,278,6360,1,0,0:0:0:0:
242,218,6485,5,0,0:0:0:0:
249,174,6547,1,0,0:0:0:0:
235,134,6610,1,0,0:0:0:0:
201,105,6672,1,0,0:0:0:0:
160,97,6735,1,0,0:0:0:0:
80,187,6860,1,0,0:0:0:0:
23,14,6985,1,0,0:0:0:0:
160,97,7110,6,0,B|229:118|362:32|231:-51|134:32|224:109|319:121|369:67|369:67|392:112|472:108,1,419.999987182618
345,167,7485,2,0,P|330:200|333:236,2,55.0000016784668
215,267,7610,6,0,P|198:289|174:301,3,28.7500005483627
240,273,7672,2,0,P|251:298|249:325,3,28.7500005483627
258,254,7735,2,0,P|285:256|308:272,3,28.7500005483627
251,228,7797,2,0,P|267:205|291:193,3,28.7500005483627
224,221,7860,6,0,P|121:186|-29:189,1,239.999992675781
218,374,8110,2,0,P|324:352|453:275,1,250
345,167,8360,5,0,0:0:0:0:
218,374,8485,1,0,0:0:0:0:
102,160,8610,1,0,0:0:0:0:
315,43,8735,1,0,0:0:0:0:
432,256,8860,1,0,0:0:0:0:
225,131,8985,1,0,0:0:0:0:
13,247,9110,5,0,0:0:0:0:
32,179,9172,1,0,0:0:0:0:
102,160,9235,1,0,0:0:0:0:
255,313,9360,1,0,0:0:0:0:
408,160,9485,1,0,0:0:0:0:
478,179,9547,1,0,0:0:0:0:
497,247,9609,1,0,0:0:0:0:
255,313,9735,1,0,0:0:0:0:
255,7,9860,6,0,B|278:67|239:150|239:150|260:140|260:140|212:216|255:314|255:314|253:355,1,320
10,135,10110,2,0,B|50:85|141:77|141:77|122:64|122:64|212:67|275:-18|275:-18|312:-37,1,330.000003147125
243,283,10360,2,0,B|179:272|127:197|127:197|125:220|125:220|83:141|-22:129|-22:129|-57:107,1,340.000006484985
254,6,10610,5,0,0:0:0:0:
243,283,10735,1,0,0:0:0:0:
11,135,10860,1,0,0:0:0:0:
138,381,10985,1,0,0:0:0:0:
408,200,11110,6,0,P|356:195|320:171,1,92.4999996471405
340,221,11172,2,0,P|298:191|279:152,1,92.4999996471405
271,206,11235,2,0,P|250:159|253:116,1,92.4999996471405
219,159,11297,2,0,P|225:107|249:71,1,92.4999996471405
198,93,11360,6,0,P|230:51|268:32,1,92.4999996471405
151,144,11422,2,0,P|158:92|181:57,1,92.4999996471405
136,212,11485,2,0,P|116:164|118:121,1,92.4999996471405
158,279,11547,2,0,P|116:248|97:210,1,92.4999996471405
211,327,11610,6,0,P|159:321|124:297,15,92.4999996471405
281,343,12110,6,0,P|233:364|190:362,15,92.4999996471405
350,322,12610,6,0,P|319:365|281:384,1,92.4999996471405
400,270,12673,2,0,P|394:322|370:358,1,92.4999996471405
418,200,12735,2,0,P|439:249|437:292,1,92.4999996471405
398,131,12798,2,0,P|441:163|460:201,1,92.4999996471405
347,81,12860,2,0,P|399:88|435:112,1,92.4999996471405
277,64,12922,2,0,P|325:43|368:45,1,92.4999996471405
208,84,12984,2,0,P|239:41|278:21,1,92.4999996471405
158,135,13047,2,0,P|164:81|187:46,1,92.4999996471405
140,205,13109,6,0,P|120:156|122:113,15,92.4999996471405
159,274,13610,6,0,P|117:241|98:203,15,92.4999996471405
209,324,14110,6,0,P|157:317|121:293,1,92.4999996471405
228,256,14172,2,0,P|179:275|136:273,1,92.4999996471405
210,187,14235,2,0,P|177:228|139:247,1,92.4999996471405
160,136,14297,2,0,P|152:187|128:224,1,92.4999996471405
91,117,14360,6,0,P|110:165|108:208,1,92.4999996471405
141,66,14422,2,0,P|133:118|110:154,1,92.4999996471405
209,46,14485,2,0,P|176:87|138:106,1,92.4999996471405
278,63,14547,2,0,P|229:82|186:80,1,92.4999996471405
329,112,14610,6,0,P|277:104|240:81,15,92.4999996471405
348,179,15110,6,0,P|306:146|287:108,15,92.4999996471405
330,246,15610,6,0,P|310:197|312:154,1,92.4999996471405
280,295,15672,2,0,P|287:243|311:206,1,92.4999996471405
212,312,15735,2,0,P|244:270|282:251,1,92.4999996471405
144,293,15797,2,0,P|192:273|235:275,1,92.4999996471405
95,242,15860,2,0,P|147:249|183:273,1,92.4999996471405
77,174,15922,2,0,P|118:206|137:244,1,92.4999996471405
96,106,15985,2,0,P|115:154|113:197,1,92.4999996471405
147,57,16047,2,0,P|139:108|116:145,1,92.4999996471405
215,40,16110,6,0,B|308:91|400:8|400:8|303:33|332:169|332:169|407:75|497:124|497:124|395:182|451:331|451:331|356:191|179:271|179:271|163:171|51:147|51:147|116:203|65:313,3,1479.99999435425
73,292,17860,6,0,L|-28:332,1,92.4999996471405
91,308,17922,2,0,L|-10:348,1,92.4999996471405
109,324,17985,2,0,L|8:364,1,92.4999996471405
127,340,18047,2,0,L|26:380,1,92.4999996471405
145,356,18110,6,0,L|236:342,1,92.4999996471405
152,333,18173,2,0,L|243:319,1,92.4999996471405
160,310,18235,2,0,L|251:296,1,92.4999996471405
167,287,18297,2,0,L|258:273,1,92.4999996471405
174,264,18360,6,0,B|278:282|399:230|399:230|345:219|345:219|444:137|398:35|398:35|291:56|284:150|284:150|298:103|335:85,2,739.999997177124
121,205,18985,1,0,0:0:0:0:
320,93,19110,6,0,B|283:192|178:271|178:271|195:218|195:218|75:263|9:172|9:172|81:90|166:132|166:132|118:119|84:142,2,739.999997177124
378,23,19735,5,0,0:0:0:0:
411,108,19797,1,0,0:0:0:0:
444,193,19860,1,0,0:0:0:0:
353,179,19922,1,0,0:0:0:0:
263,165,19985,1,0,0:0:0:0:
320,93,20047,1,0,0:0:0:0:
378,23,20110,1,0,0:0:0:0:
