osu file format v14

[General]
AudioFilename: audio.mp3
AudioLeadIn: 0
PreviewTime: -1
Countdown: 1
SampleSet: Normal
StackLeniency: 0.7
Mode: 0
LetterboxInBreaks: 0
WidescreenStoryboard: 0

[Editor]
DistanceSpacing: 2.2
BeatDivisor: 2
GridSize: 4
TimelineZoom: 1

[Metadata]
Title:Cross Days [ Opening ]
TitleUnicode:Cross Days(クロスデイズ) OP ファースト・ノート Full
Artist:Cross Days Opening
ArtistUnicode:Cross Days Opening
Creator:xUnknownWeaboo
Version:
Source:
Tags:
BeatmapID:1699811
BeatmapSetID:810118

[Difficulty]
HPDrainRate:5
CircleSize:5
OverallDifficulty:5
ApproachRate:5
SliderMultiplier:1.4
SliderTickRate:1

[Events]
//Background and Video events
0,0,"r1280-960.jpg",0,0
//Break Periods
2,9793,20918
2,122511,162762
//Storyboard Layer 0 (Background)
//Storyboard Layer 1 (Fail)
//Storyboard Layer 2 (Pass)
//Storyboard Layer 3 (Foreground)
//Storyboard Sound Samples

[TimingPoints]
856,582.52427184466,4,1,0,100,1,0

[HitObjects]
299,62,856,5,0,0:0:0:0:
161,103,1147,1,0,0:0:0:0:
254,131,1438,2,0,P|323:158|312:216,1,140
182,202,3186,1,0,0:0:0:0:
102,115,3477,1,0,0:0:0:0:
172,73,3768,2,0,P|247:68|269:137,10,140
332,69,22118,5,0,0:0:0:0:
271,104,22409,1,0,0:0:0:0:
407,104,22700,2,0,L|286:190,1,140
385,207,23574,1,0,0:0:0:0:
183,227,24448,1,0,0:0:0:0:
129,174,24739,1,0,0:0:0:0:
159,96,25030,2,0,L|279:230,1,140
275,112,25904,1,0,0:0:0:0:
180,98,26778,1,0,0:0:0:0:
260,62,27069,1,0,0:0:0:0:
346,83,27360,2,0,L|167:191,1,210
374,165,28525,2,0,L|302:207,1,70
236,233,29108,1,0,0:0:0:0:
307,181,29690,2,0,L|365:134,1,70
213,228,31438,2,0,L|174:126,1,70
171,90,32021,2,0,L|276:70,1,70
307,144,32603,1,0,0:0:0:0:
211,228,32894,1,0,0:0:0:0:
159,224,33768,2,0,L|147:129,1,70
156,117,34351,2,0,L|241:95,1,70
281,94,34933,1,0,0:0:0:0:
228,209,35224,1,0,0:0:0:0:
119,106,36098,2,0,L|208:80,1,70
274,41,36681,2,0,L|402:120,1,140
293,179,37555,1,8,0:0:0:0:
196,305,37846,2,0,L|108:172,1,140
79,119,38720,1,8,0:0:0:0:
178,80,39011,2,0,L|334:65,1,140
207,92,41050,1,0,0:0:0:0:
288,92,41341,2,0,L|388:89,1,70
389,184,41923,1,0,0:0:0:0:
305,199,42215,2,0,L|151:180,1,140
212,89,43089,2,0,L|283:84,1,70
305,199,43671,2,0,L|151:180,1,140
212,89,45710,2,0,L|283:84,1,70
388,153,46292,1,0,0:0:0:0:
302,228,46584,1,0,0:0:0:0:
138,284,46875,2,0,P|79:136|269:87,1,350,8|8,0:0|0:0,0:0:0:0:
188,107,50370,1,0,0:0:0:0:
327,82,50661,1,0,0:0:0:0:
398,143,50953,2,0,P|271:225|149:184,1,280
234,100,52700,1,0,0:0:0:0:
340,181,53283,1,0,0:0:0:0:
272,258,53865,2,0,P|116:266|64:160,1,280
210,76,59108,1,0,0:0:0:0:
264,101,59399,1,0,0:0:0:0:
306,141,59690,1,0,0:0:0:0:
333,189,59982,1,0,0:0:0:0:
319,245,60273,1,0,0:0:0:0:
272,85,61438,1,0,0:0:0:0:
223,118,61729,1,0,0:0:0:0:
175,154,62021,1,0,0:0:0:0:
150,207,62312,1,0,0:0:0:0:
172,257,62603,1,0,0:0:0:0:
177,112,64059,1,0,0:0:0:0:
251,82,64351,1,0,0:0:0:0:
166,29,64642,2,0,L|88:71,1,70
96,144,65224,1,0,0:0:0:0:
65,217,65516,1,0,0:0:0:0:
132,254,65807,1,0,0:0:0:0:
227,252,66098,2,0,L|385:192,1,140
337,121,66972,2,0,L|203:75,1,140
317,114,68428,2,0,L|258:74,1,70
184,101,69011,1,0,0:0:0:0:
154,158,69302,1,0,0:0:0:0:
206,197,69593,1,0,0:0:0:0:
106,77,70467,1,0,0:0:0:0:
185,77,70758,1,0,0:0:0:0:
143,131,71050,1,0,0:0:0:0:
205,209,71341,1,0,0:0:0:0:
308,217,71632,2,0,L|407:60,1,140
63,72,73380,1,0,0:0:0:0:
121,100,73671,1,0,0:0:0:0:
62,175,73962,1,0,0:0:0:0:
112,204,74254,1,0,0:0:0:0:
253,150,74545,1,0,0:0:0:0:
314,293,74836,2,0,L|153:279,1,140
205,210,75710,2,0,L|356:118,1,140
256,192,77749,12,0,87360,0:0:0:0:
119,54,89690,5,0,0:0:0:0:
167,89,89982,1,0,0:0:0:0:
194,142,90273,1,0,0:0:0:0:
155,188,90564,1,0,0:0:0:0:
133,244,90855,1,0,0:0:0:0:
156,298,91147,1,0,0:0:0:0:
232,266,92021,1,0,0:0:0:0:
282,239,92312,1,0,0:0:0:0:
312,187,92603,1,0,0:0:0:0:
316,130,92894,1,0,0:0:0:0:
298,75,93186,1,0,0:0:0:0:
241,52,93477,1,0,0:0:0:0:
147,98,94351,1,0,0:0:0:0:
208,81,94642,1,0,0:0:0:0:
169,211,94933,1,0,0:0:0:0:
230,187,95224,2,0,L|296:150,1,70
322,220,95807,1,0,0:0:0:0:
243,274,96098,1,0,0:0:0:0:
157,290,96389,2,0,L|62:155,1,140
64,99,97263,2,0,L|207:28,1,140
164,80,99011,1,0,0:0:0:0:
221,65,99302,1,0,0:0:0:0:
335,151,99593,2,0,L|261:178,1,70
209,194,100176,1,0,0:0:0:0:
152,172,100467,1,0,0:0:0:0:
91,196,101341,1,0,0:0:0:0:
171,223,101632,1,0,0:0:0:0:
132,121,101923,2,0,L|246:160,1,70
287,166,102506,1,0,0:0:0:0:
307,79,102797,1,0,0:0:0:0:
222,67,103671,1,0,0:0:0:0:
137,82,103962,1,0,0:0:0:0:
197,147,104254,1,0,0:0:0:0:
282,131,104545,2,0,L|394:63,1,70
424,104,105127,1,0,0:0:0:0:
420,198,105419,1,0,0:0:0:0:
334,209,105710,2,0,L|239:221,1,70
182,223,106292,1,0,0:0:0:0:
188,142,106584,2,0,L|302:136,1,70
270,103,108622,2,0,L|386:214,1,140
348,270,109496,1,0,0:0:0:0:
256,232,109788,1,0,0:0:0:0:
164,256,110079,1,0,0:0:0:0:
192,180,110370,2,0,P|190:84|229:52,1,140
167,157,113283,1,0,0:0:0:0:
219,103,113574,2,0,L|352:45,1,140
424,106,114448,1,0,0:0:0:0:
377,179,114739,1,0,0:0:0:0:
308,217,115030,2,0,L|171:176,1,140
123,134,117943,1,0,0:0:0:0:
182,85,118234,1,0,0:0:0:0:
253,86,118525,1,0,0:0:0:0:
322,128,118817,2,0,L|399:217,1,70
331,251,119399,1,0,0:0:0:0:
261,273,119690,2,0,L|239:193,1,70
332,178,120273,1,0,0:0:0:0:
334,92,120855,2,0,L|241:97,1,70
195,160,121438,1,0,0:0:0:0:
264,206,121729,2,0,L|433:251,1,140
153,110,163962,6,0,L|270:93,1,70
288,184,164545,1,0,0:0:0:0:
235,233,164836,1,0,0:0:0:0:
282,290,165127,1,0,0:0:0:0:
245,316,166292,1,0,0:0:0:0:
246,256,166584,1,0,0:0:0:0:
247,194,166875,1,0,0:0:0:0:
247,132,167166,1,0,0:0:0:0:
246,69,167457,1,0,0:0:0:0:
109,323,168914,1,0,0:0:0:0:
224,75,169205,1,0,0:0:0:0:
303,83,169496,1,0,0:0:0:0:
347,128,169788,1,0,0:0:0:0:
357,189,170079,1,0,0:0:0:0:
341,249,170370,1,0,0:0:0:0:
315,306,170661,1,0,0:0:0:0:
274,351,170953,1,0,0:0:0:0:
225,315,171244,1,0,0:0:0:0:
256,243,171826,2,0,L|322:180,2,70
239,70,173283,1,0,0:0:0:0:
291,122,173574,1,0,0:0:0:0:
166,134,173865,1,0,0:0:0:0:
219,184,174156,1,0,0:0:0:0:
146,204,174448,2,8,L|89:251,1,70,8|4,0:0|0:0,0:0:0:0:
88,284,175322,2,0,L|142:167,1,70
123,136,175904,2,0,L|207:106,1,70
261,104,176487,1,0,0:0:0:0:
326,129,176778,1,0,0:0:0:0:
333,198,177069,1,0,0:0:0:0:
296,252,177360,1,0,0:0:0:0:
242,283,177652,1,0,0:0:0:0:
189,228,178234,2,0,L|159:157,1,70
144,106,178817,1,0,0:0:0:0:
209,83,179108,1,0,0:0:0:0:
271,120,179399,1,0,0:0:0:0:
203,155,179690,2,0,L|126:186,1,70
154,258,180273,1,0,0:0:0:0:
231,215,180855,1,0,0:0:0:0:
252,244,182603,2,0,P|172:212|202:86,1,210
234,55,183768,1,0,0:0:0:0:
296,251,184933,2,0,P|395:195|374:89,1,210
324,67,186098,1,0,0:0:0:0:
243,280,187555,2,0,L|247:159,1,70
245,137,188137,1,0,0:0:0:0:
245,63,188428,1,0,0:0:0:0:
172,64,188720,2,0,L|122:116,1,70
319,60,189302,2,0,L|383:129,1,70
255,155,190176,1,0,0:0:0:0:
253,222,190467,2,0,L|254:297,3,70
188,283,191923,2,0,L|148:213,1,70
328,285,192506,2,0,L|368:218,3,70
113,113,193962,1,0,0:0:0:0:
179,112,194254,1,0,0:0:0:0:
246,115,194545,2,0,P|340:121|310:323,1,350
284,259,196875,1,0,0:0:0:0:
257,189,197166,1,0,0:0:0:0:
257,189,197457,1,0,0:0:0:0:
257,189,197749,1,0,0:0:0:0:
240,111,198040,1,0,0:0:0:0:
172,136,198331,2,0,L|149:222,1,70
197,262,198914,1,0,0:0:0:0:
197,262,199496,1,0,0:0:0:0:
161,223,201244,1,0,0:0:0:0:
152,135,201535,1,0,0:0:0:0:
148,52,201826,2,0,P|264:96|289:214,1,210
298,276,203574,1,0,0:0:0:0:
382,226,203865,1,0,0:0:0:0:
376,145,204156,2,0,P|308:43|177:115,1,280
256,192,205613,12,0,209399,0:0:0:0:
189,178,210564,5,0,0:0:0:0:
257,129,210855,1,0,0:0:0:0:
324,155,211147,2,0,L|422:255,1,140
340,297,212894,1,0,0:0:0:0:
256,192,213186,12,0,216389,0:0:0:0:
