osu file format v14

[General]
AudioFilename: Minus2.mp3
AudioLeadIn: 0
PreviewTime: 25238
Countdown: 0
SampleSet: Soft
StackLeniency: 0.7
Mode: 3
LetterboxInBreaks: 0
SpecialStyle: 0
WidescreenStoryboard: 0

[Editor]
DistanceSpacing: 0.8
BeatDivisor: 4
GridSize: 32
TimelineZoom: 1.600001

[Metadata]
Title:Minus 2
TitleUnicode:Minus 2
Artist:Croove
ArtistUnicode:Croove
Creator:MEGAtive
Version:NM
Source:EZ2DJ 3rd TraX -Absolute Pitch-
Tags:EZ2AC EZ2ON Death Techno reykuroki Eldergleam
BeatmapID:1199771
BeatmapSetID:566381

[Difficulty]
HPDrainRate:7.6
CircleSize:4
OverallDifficulty:7.6
ApproachRate:5
SliderMultiplier:1.4
SliderTickRate:1

[Events]
//Background and Video events
0,0,"minus2.jpg",0,0
//Break Periods
//Storyboard Layer 0 (Background)
//Storyboard Layer 1 (Fail)
//Storyboard Layer 2 (Pass)
//Storyboard Layer 3 (Foreground)
//Storyboard Sound Samples
Sample,38246,0,"drum-hitfinish.wav",50
Sample,39010,0,"drum-hitfinish.wav",50
Sample,39775,0,"drum-hitfinish.wav",50
Sample,40539,0,"drum-hitfinish.wav",50
Sample,41303,0,"drum-hitfinish.wav",50
Sample,42068,0,"drum-hitfinish.wav",50
Sample,42832,0,"drum-hitfinish.wav",50
Sample,43596,0,"drum-hitfinish.wav",50
Sample,44361,0,"drum-hitfinish.wav",50
Sample,45125,0,"drum-hitfinish.wav",50
Sample,45889,0,"drum-hitfinish.wav",50
Sample,46654,0,"drum-hitfinish.wav",50
Sample,47418,0,"drum-hitfinish.wav",50
Sample,48182,0,"drum-hitfinish.wav",50
Sample,71399,0,"drum-hitfinish.wav",8
Sample,71495,0,"drum-hitfinish.wav",10
Sample,71590,0,"drum-hitfinish.wav",12
Sample,71686,0,"drum-hitfinish.wav",14
Sample,71781,0,"drum-hitfinish.wav",16
Sample,71877,0,"drum-hitfinish.wav",18
Sample,71972,0,"drum-hitfinish.wav",20
Sample,72068,0,"drum-hitfinish.wav",22
Sample,72163,0,"drum-hitfinish.wav",24
Sample,72259,0,"drum-hitfinish.wav",26
Sample,72354,0,"drum-hitfinish.wav",28
Sample,72450,0,"drum-hitfinish.wav",30
Sample,72545,0,"drum-hitfinish.wav",32
Sample,72641,0,"drum-hitfinish.wav",34
Sample,72737,0,"drum-hitfinish.wav",36
Sample,72832,0,"drum-hitfinish.wav",38
Sample,73023,0,"drum-hitfinish.wav",42
Sample,73214,0,"drum-hitfinish.wav",46
Sample,73405,0,"drum-hitfinish.wav",50
Sample,73596,0,"drum-hitfinish.wav",54
Sample,73788,0,"drum-hitfinish.wav",58
Sample,73979,0,"drum-hitfinish.wav",62
Sample,74170,0,"drum-hitfinish.wav",66
Sample,74361,0,"drum-hitfinish.wav",70
Sample,77323,0,"drum-hitfinish.wav",50
Sample,78756,0,"drum-hitfinish.wav",50
Sample,79042,0,"drum-hitfinish.wav",50
Sample,79329,0,"drum-hitfinish.wav",50
Sample,79616,0,"drum-hitfinish.wav",50
Sample,79902,0,"drum-hitfinish.wav",50
Sample,80189,0,"drum-hitfinish.wav",50
Sample,80666,0,"drum-hitfinish.wav",50
Sample,80953,0,"drum-hitfinish.wav",50
Sample,81335,0,"drum-hitfinish.wav",50
Sample,81717,0,"drum-hitfinish.wav",50
Sample,82004,0,"drum-hitfinish.wav",50
Sample,82482,0,"drum-hitfinish.wav",50
Sample,82768,0,"drum-hitfinish.wav",50
Sample,83055,0,"drum-hitfinish.wav",50
Sample,83342,0,"drum-hitfinish.wav",50
Sample,86877,0,"drum-hitwhistle.wav",70
Sample,87259,0,"drum-hitwhistle.wav",70
Sample,87641,0,"drum-hitwhistle.wav",70
Sample,88119,0,"drum-hitwhistle.wav",50
Sample,88501,0,"drum-hitwhistle.wav",50
Sample,88979,0,"drum-hitwhistle.wav",50
Sample,89361,0,"drum-hitwhistle.wav",50
Sample,89552,0,"drum-hitfinish.wav",50
Sample,89934,0,"drum-hitwhistle.wav",70
Sample,90316,0,"drum-hitwhistle.wav",70
Sample,90698,0,"drum-hitwhistle.wav",70
Sample,90985,0,"drum-hitwhistle.wav",50
Sample,91463,0,"drum-hitwhistle.wav",70
Sample,91845,0,"drum-hitwhistle.wav",70
Sample,92227,0,"drum-hitwhistle.wav",70
Sample,92991,0,"drum-hitwhistle.wav",70
Sample,93373,0,"drum-hitwhistle.wav",70
Sample,93756,0,"drum-hitwhistle.wav",70
Sample,94233,0,"drum-hitwhistle.wav",50
Sample,95093,0,"drum-hitwhistle.wav",50
Sample,95475,0,"drum-hitwhistle.wav",50
Sample,96049,0,"drum-hitwhistle.wav",70
Sample,96431,0,"drum-hitwhistle.wav",70
Sample,96813,0,"drum-hitwhistle.wav",70
Sample,97100,0,"drum-hitwhistle.wav",50
Sample,97386,0,"drum-hitfinish.wav",10
Sample,97482,0,"drum-hitfinish.wav",14
Sample,97577,0,"drum-hitfinish.wav",18
Sample,97577,0,"drum-hitwhistle.wav",50
Sample,97673,0,"drum-hitfinish.wav",22
Sample,97768,0,"drum-hitfinish.wav",26
Sample,97864,0,"drum-hitfinish.wav",30
Sample,97959,0,"drum-hitwhistle.wav",50
Sample,97959,0,"drum-hitfinish.wav",34
Sample,98055,0,"drum-hitfinish.wav",38
Sample,98151,0,"drum-hitfinish.wav",42
Sample,98246,0,"drum-hitfinish.wav",46
Sample,98342,0,"drum-hitfinish.wav",50
Sample,98342,0,"drum-hitwhistle.wav",50
Sample,98437,0,"drum-hitfinish.wav",54
Sample,98533,0,"drum-hitfinish.wav",58
Sample,98628,0,"drum-hitfinish.wav",62
Sample,98724,0,"drum-hitfinish.wav",66
Sample,98724,0,"drum-hitwhistle.wav",50
Sample,98819,0,"drum-hitfinish.wav",70

[TimingPoints]
1074,382.043935052531,4,2,1,50,1,0
25524,-100,4,2,1,50,0,1
30968,-100,4,2,1,50,0,0
31637,-100,4,2,1,50,0,1
37750,-100,4,2,1,50,0,0
49975,-100,4,2,1,50,0,1
62201,-100,4,2,1,50,0,0
74426,-100,4,2,1,50,0,1
86651,-100,4,2,1,50,0,0

[HitObjects]
448,192,1074,5,0,0:0:0:0:
448,192,1838,1,0,0:0:0:0:
448,192,2602,1,0,0:0:0:0:
448,192,3366,1,0,0:0:0:0:
64,192,3939,1,0,0:0:0:0:
448,192,4130,1,0,0:0:0:0:
448,192,4894,1,0,0:0:0:0:
448,192,5658,1,0,0:0:0:0:
448,192,6422,1,0,0:0:0:0:
64,192,6995,5,8,0:0:0:50:
192,192,7091,1,8,0:0:0:0:
320,192,7186,1,8,0:0:0:50:
448,192,7186,1,4,0:0:0:50:
448,192,7473,1,0,0:0:0:0:
448,192,7759,1,0,0:0:0:0:
448,192,7950,1,0,0:0:0:0:
448,192,8237,1,0,0:0:0:0:
64,192,8428,1,8,0:0:0:0:
448,192,8523,1,8,0:0:0:50:
448,192,8714,1,8,0:0:0:50:
64,192,8714,1,4,0:0:0:50:
448,192,9001,1,0,0:0:0:0:
448,192,9287,1,0,0:0:0:0:
448,192,9478,1,0,0:0:0:0:
448,192,9765,1,0,0:0:0:0:
320,192,9861,1,8,0:0:0:0:
192,192,9956,1,8,0:0:0:0:
64,192,10052,1,8,0:0:0:0:
320,192,10147,1,8,0:0:0:0:
448,192,10243,1,8,0:0:0:50:
64,192,10243,1,4,0:0:0:50:
448,192,10529,1,0,0:0:0:0:
448,192,10816,1,0,0:0:0:0:
448,192,11007,1,0,0:0:0:0:
448,192,11293,1,8,0:0:0:50:
64,192,11389,1,8,0:0:0:0:
192,192,11484,1,8,0:0:0:0:
320,192,11580,1,8,0:0:0:0:
448,192,11675,1,8,0:0:0:0:
64,192,11771,1,12,0:0:0:50:
320,192,11962,1,8,0:0:0:0:
64,192,12057,1,8,0:0:0:0:
320,192,12248,1,8,0:0:0:0:
64,192,12344,1,8,0:0:0:50:
448,192,12535,1,8,0:0:0:50:
64,192,12535,1,4,0:0:0:50:
192,192,12726,1,8,0:0:0:0:
448,192,12821,1,8,0:0:0:0:
192,192,13012,1,8,0:0:0:0:
448,192,13108,1,8,0:0:0:0:
320,192,13299,1,10,0:0:0:50:
192,192,13299,1,4,0:0:0:0:
320,192,13585,1,10,0:0:0:50:
320,192,13872,1,14,0:0:0:50:
64,192,14063,1,8,0:0:0:50:
448,192,14063,1,2,0:0:0:50:
64,192,14350,1,10,0:0:0:50:
64,192,14636,1,10,0:0:0:50:
448,192,14827,1,8,0:0:0:50:
192,192,14827,1,2,0:0:0:50:
448,192,15114,1,10,0:0:0:50:
448,192,15400,1,14,0:0:0:50:
192,192,15591,1,8,0:0:0:50:
320,192,15591,1,2,0:0:0:50:
192,192,15878,1,10,0:0:0:50:
448,192,16164,128,10,16355:0:0:0:50:
320,192,16355,1,8,0:0:0:50:
64,192,16355,1,2,0:0:0:50:
320,192,16642,1,10,0:0:0:50:
320,192,16928,1,14,0:0:0:50:
64,192,17119,1,8,0:0:0:50:
448,192,17119,1,2,0:0:0:50:
64,192,17406,1,10,0:0:0:50:
64,192,17692,1,10,0:0:0:50:
448,192,17883,1,8,0:0:0:50:
192,192,17883,1,2,0:0:0:50:
448,192,18170,1,10,0:0:0:50:
448,192,18456,1,14,0:0:0:50:
192,192,18648,1,8,0:0:0:50:
320,192,18648,1,2,0:0:0:50:
192,192,18934,1,10,0:0:0:50:
64,192,19221,128,10,19412:0:0:0:50:
448,192,19412,1,8,0:0:0:50:
192,192,19412,1,2,0:0:0:50:
64,192,19603,1,0,0:0:0:0:
320,192,19698,1,10,0:0:0:50:
64,192,19889,1,0,0:0:0:0:
320,192,19985,1,14,0:0:0:50:
64,192,20176,1,8,0:0:0:50:
448,192,20176,1,2,0:0:0:50:
320,192,20367,1,0,0:0:0:0:
192,192,20462,1,10,0:0:0:50:
320,192,20653,1,0,0:0:0:0:
192,192,20749,1,10,0:0:0:50:
448,192,20940,1,8,0:0:0:50:
64,192,20940,1,2,0:0:0:50:
192,192,21131,1,0,0:0:0:0:
448,192,21226,1,10,0:0:0:50:
192,192,21417,1,0,0:0:0:0:
448,192,21513,1,14,0:0:0:50:
192,192,21704,1,8,0:0:0:50:
320,192,21704,1,2,0:0:0:50:
448,192,21895,1,0,0:0:0:0:
64,192,21990,1,10,0:0:0:50:
64,192,22181,1,0,0:0:0:0:
448,192,22277,128,10,22468:0:0:0:50:
320,192,22468,1,8,0:0:0:50:
64,192,22468,1,2,0:0:0:50:
192,192,22659,1,0,0:0:0:0:
448,192,22754,1,10,0:0:0:50:
192,192,22946,1,0,0:0:0:0:
448,192,23041,1,14,0:0:0:50:
64,192,23232,1,8,0:0:0:50:
320,192,23232,1,2,0:0:0:50:
448,192,23423,1,0,0:0:0:0:
64,192,23519,1,10,0:0:0:50:
448,192,23710,1,0,0:0:0:0:
64,192,23805,1,10,0:0:0:50:
448,192,23996,1,8,0:0:0:50:
320,192,23996,1,2,0:0:0:50:
192,192,24092,1,0,0:0:0:0:
448,192,24283,1,10,0:0:0:50:
192,192,24378,1,0,0:0:0:0:
320,192,24569,1,14,0:0:0:50:
64,192,24760,1,8,0:0:0:50:
192,192,24760,1,2,0:0:0:50:
448,192,24951,1,0,0:0:0:0:
64,192,25047,1,14,0:0:0:50:
448,192,25333,1,10,0:0:0:50:
320,192,25429,1,10,0:0:0:50:
192,192,25524,1,10,0:0:0:50:
64,192,25524,1,4,0:0:0:50:
448,192,25811,1,10,0:0:0:50:
320,192,26097,1,10,0:0:0:50:
192,192,26384,1,10,0:0:0:50:
64,192,26670,1,10,0:0:0:50:
320,192,26861,1,10,0:0:0:50:
64,192,27052,1,4,0:0:0:50:
192,192,27052,1,10,0:0:0:50:
448,192,27339,1,10,0:0:0:50:
320,192,27626,1,10,0:0:0:50:
192,192,27912,1,10,0:0:0:50:
64,192,28199,1,10,0:0:0:50:
320,192,28390,1,10,0:0:0:50:
64,192,28581,1,4,0:0:0:50:
192,192,28581,1,10,0:0:0:50:
448,192,28867,1,10,0:0:0:50:
320,192,29154,1,10,0:0:0:50:
192,192,29440,1,10,0:0:0:50:
64,192,29727,1,10,0:0:0:50:
320,192,29918,1,10,0:0:0:50:
64,192,30109,1,10,0:0:0:50:
448,192,30109,1,4,0:0:0:50:
192,192,30395,1,10,0:0:0:50:
320,192,30682,1,10,0:0:0:50:
64,192,30968,1,8,0:0:0:50:
448,192,30968,128,2,31637:0:0:0:50:
192,192,31637,1,4,0:0:0:50:
64,192,31637,1,10,0:0:0:50:
448,192,31924,1,10,0:0:0:50:
320,192,32210,1,10,0:0:0:50:
192,192,32497,1,10,0:0:0:50:
64,192,32783,1,10,0:0:0:50:
320,192,32974,1,10,0:0:0:50:
64,192,33165,1,4,0:0:0:50:
192,192,33165,1,10,0:0:0:50:
448,192,33452,1,10,0:0:0:50:
320,192,33738,1,10,0:0:0:50:
192,192,34025,1,10,0:0:0:50:
64,192,34311,1,10,0:0:0:50:
320,192,34502,1,10,0:0:0:50:
64,192,34693,1,4,0:0:0:50:
192,192,34693,1,10,0:0:0:50:
448,192,34980,1,10,0:0:0:50:
320,192,35266,1,10,0:0:0:50:
192,192,35553,1,10,0:0:0:50:
64,192,35839,1,10,0:0:0:50:
320,192,36031,1,10,0:0:0:50:
64,192,36222,1,4,0:0:0:50:
192,192,36222,1,10,0:0:0:50:
448,192,36508,1,10,0:0:0:50:
192,192,36795,1,10,0:0:0:50:
320,192,36986,1,10,0:0:0:50:
64,192,37272,1,10,0:0:0:50:
448,192,37559,1,10,0:0:0:50:
64,192,37750,1,4,0:0:0:50:
448,192,37750,1,10,0:0:0:50:
192,192,37941,1,0,0:0:0:70:drum-hitwhistle.wav
320,192,38132,1,8,0:0:0:50:
64,192,38323,1,0,0:0:0:50:drum-hitwhistle.wav
448,192,38514,1,8,0:0:0:50:
320,192,38705,1,0,0:0:0:50:drum-hitwhistle.wav
192,192,38896,1,8,0:0:0:50:
448,192,39087,1,0,0:0:0:50:drum-hitwhistle.wav
64,192,39278,1,8,0:0:0:50:
192,192,39469,1,0,0:0:0:50:drum-hitwhistle.wav
320,192,39660,1,8,0:0:0:50:
64,192,39851,1,0,0:0:0:50:drum-hitwhistle.wav
320,192,40042,1,8,0:0:0:50:
320,192,40233,1,0,0:0:0:50:drum-hitwhistle.wav
192,192,40424,1,8,0:0:0:50:
192,192,40615,1,0,0:0:0:50:drum-hitwhistle.wav
448,192,40806,1,8,0:0:0:50:
64,192,40997,1,0,0:0:0:50:drum-hitwhistle.wav
192,192,41188,1,8,0:0:0:50:
320,192,41379,1,0,0:0:0:50:drum-hitwhistle.wav
64,192,41570,1,8,0:0:0:50:
448,192,41761,1,0,0:0:0:50:drum-hitwhistle.wav
320,192,41952,1,8,0:0:0:50:
192,192,42143,1,0,0:0:0:50:drum-hitwhistle.wav
448,192,42334,1,8,0:0:0:50:
64,192,42525,1,0,0:0:0:50:drum-hitwhistle.wav
192,192,42716,1,8,0:0:0:50:
320,192,42907,1,0,0:0:0:50:drum-hitwhistle.wav
64,192,43098,1,8,0:0:0:50:
64,192,43289,1,0,0:0:0:50:drum-hitwhistle.wav
320,192,43480,1,8,0:0:0:50:
448,192,43671,1,0,0:0:0:50:drum-hitwhistle.wav
192,192,43862,1,4,0:0:0:50:
64,192,43862,1,8,0:0:0:50:
320,192,44053,1,0,0:0:0:50:drum-hitwhistle.wav
448,192,44244,1,8,0:0:0:50:
192,192,44435,1,0,0:0:0:50:drum-hitwhistle.wav
64,192,44627,1,8,0:0:0:50:
448,192,44818,1,0,0:0:0:50:drum-hitwhistle.wav
320,192,45009,1,8,0:0:0:50:
64,192,45200,1,0,0:0:0:50:drum-hitwhistle.wav
192,192,45391,1,8,0:0:0:50:
320,192,45582,1,0,0:0:0:50:drum-hitwhistle.wav
448,192,45773,1,8,0:0:0:50:
192,192,45964,1,0,0:0:0:50:drum-hitwhistle.wav
64,192,46155,1,8,0:0:0:50:
64,192,46346,1,0,0:0:0:50:drum-hitwhistle.wav
448,192,46537,1,8,0:0:0:50:
448,192,46728,1,0,0:0:0:50:drum-hitwhistle.wav
192,192,46919,1,8,0:0:0:50:
64,192,47110,1,0,0:0:0:50:drum-hitwhistle.wav
448,192,47301,1,8,0:0:0:50:
320,192,47492,1,0,0:0:0:50:drum-hitwhistle.wav
64,192,47683,1,8,0:0:0:50:
192,192,47874,1,0,0:0:0:50:drum-hitwhistle.wav
320,192,48065,1,8,0:0:0:50:
448,192,48256,1,0,0:0:0:50:drum-hitwhistle.wav
192,192,48447,128,8,49975:0:0:0:50:
64,192,49975,1,10,0:0:0:50:
448,192,49975,1,4,0:0:0:50:
192,192,50262,1,10,0:0:0:50:
320,192,50548,1,10,0:0:0:50:
64,192,50835,1,10,0:0:0:50:
448,192,51121,1,10,0:0:0:50:
192,192,51312,1,10,0:0:0:50:
448,192,51503,1,4,0:0:0:50:
64,192,51503,1,10,0:0:0:50:
192,192,51790,1,10,0:0:0:50:
320,192,52076,1,10,0:0:0:50:
64,192,52363,1,10,0:0:0:50:
448,192,52649,1,10,0:0:0:50:
192,192,52840,1,10,0:0:0:50:
448,192,53031,1,4,0:0:0:50:
64,192,53031,1,10,0:0:0:50:
192,192,53318,1,10,0:0:0:50:
320,192,53605,1,10,0:0:0:50:
64,192,53891,1,10,0:0:0:50:
448,192,54178,1,10,0:0:0:50:
192,192,54369,1,10,0:0:0:50:
448,192,54560,1,4,0:0:0:50:
64,192,54560,1,10,0:0:0:50:
192,192,54846,1,10,0:0:0:50:
320,192,55133,1,10,0:0:0:50:
64,192,55419,1,10,0:0:0:50:
448,192,55706,1,10,0:0:0:50:
192,192,55897,1,10,0:0:0:50:
448,192,56088,1,4,0:0:0:50:
64,192,56088,1,10,0:0:0:50:
192,192,56374,1,10,0:0:0:50:
320,192,56661,1,10,0:0:0:50:
64,192,56947,1,10,0:0:0:50:
448,192,57234,1,10,0:0:0:50:
192,192,57425,1,10,0:0:0:50:
448,192,57616,1,4,0:0:0:50:
64,192,57616,1,10,0:0:0:50:
192,192,57903,1,10,0:0:0:50:
320,192,58189,1,10,0:0:0:50:
64,192,58476,1,10,0:0:0:50:
448,192,58762,1,10,0:0:0:50:
192,192,58953,1,10,0:0:0:50:
448,192,59144,1,4,0:0:0:50:
64,192,59144,1,10,0:0:0:50:
192,192,59431,1,10,0:0:0:50:
320,192,59717,1,10,0:0:0:50:
64,192,60004,1,10,0:0:0:50:
448,192,60290,1,10,0:0:0:50:
192,192,60481,1,10,0:0:0:50:
448,192,60672,1,10,0:0:0:50:
64,192,60672,1,4,0:0:0:50:
320,192,60959,1,10,0:0:0:50:
192,192,61245,1,10,0:0:0:50:
192,192,61436,1,10,0:0:0:50:
320,192,61723,1,10,0:0:0:50:
64,192,62010,1,10,0:0:0:50:
448,192,62201,1,10,0:0:0:50:
448,192,62965,1,0,0:0:0:0:
448,192,63729,1,0,0:0:0:0:
448,192,64493,1,0,0:0:0:0:
448,192,65257,1,0,0:0:0:0:
448,192,66021,1,0,0:0:0:0:
448,192,66785,1,0,0:0:0:0:
448,192,67263,1,0,0:0:0:0:
192,192,67454,128,0,67645:0:0:0:0:
448,192,67645,1,0,0:0:0:0:
448,192,67931,1,0,0:0:0:0:
64,192,68122,1,0,0:0:0:0:
448,192,68313,1,0,0:0:0:0:
448,192,68600,1,0,0:0:0:0:
448,192,68886,1,0,0:0:0:0:
448,192,69173,1,0,0:0:0:0:
448,192,69459,1,0,0:0:0:0:
448,192,69746,1,0,0:0:0:0:
448,192,70032,1,0,0:0:0:0:
448,192,70319,1,0,0:0:0:0:
448,192,70605,1,0,0:0:0:0:
448,192,70892,1,0,0:0:0:0:
192,192,71179,1,0,0:0:0:0:
448,192,71370,1,0,0:0:0:0:
64,192,71561,1,0,0:0:0:0:
448,192,71656,1,0,0:0:0:0:
64,192,71847,1,0,0:0:0:0:
448,192,71943,1,0,0:0:0:0:
64,192,72134,128,0,72325:0:0:0:0:
448,192,72325,1,0,0:0:0:0:
64,192,72516,1,0,0:0:0:0:
448,192,72611,1,0,0:0:0:0:
64,192,72898,1,0,0:0:0:0:
320,192,72898,1,0,0:0:0:40:drum-hitfinish.wav
448,192,73089,1,0,0:0:0:44:drum-hitfinish.wav
192,192,73280,1,0,0:0:0:0:
320,192,73280,1,0,0:0:0:48:drum-hitfinish.wav
64,192,73471,1,0,0:0:0:52:drum-hitfinish.wav
448,192,73662,1,0,0:0:0:0:
192,192,73662,1,0,0:0:0:56:drum-hitfinish.wav
320,192,73853,1,0,0:0:0:60:drum-hitfinish.wav
448,192,74044,1,0,0:0:0:64:drum-hitfinish.wav
64,192,74044,1,0,0:0:0:0:
192,192,74235,1,0,0:0:0:68:drum-hitfinish.wav
448,192,74426,1,4,0:0:0:50:
64,192,74426,1,10,0:0:0:50:
320,192,74617,1,10,0:0:0:50:
64,192,74808,1,10,0:0:0:50:
320,192,74999,1,10,0:0:0:50:
192,192,75190,1,10,0:0:0:50:
448,192,75286,1,0,0:0:0:50:drum-hitfinish.wav
448,192,75477,1,10,0:0:0:50:
192,192,75572,1,0,0:0:0:50:drum-hitfinish.wav
64,192,75763,1,10,0:0:0:50:
448,192,75954,1,0,0:0:0:50:drum-hitfinish.wav
192,192,75954,1,2,0:0:0:0:
448,192,76241,1,0,0:0:0:50:drum-hitfinish.wav
64,192,76241,1,2,0:0:0:0:
192,192,76527,1,0,0:0:0:50:drum-hitfinish.wav
320,192,76527,1,2,0:0:0:0:
192,192,76814,1,0,0:0:0:50:drum-hitfinish.wav
320,192,76814,1,2,0:0:0:0:
320,192,77100,1,0,0:0:0:50:drum-hitfinish.wav
448,192,77100,1,10,0:0:0:0:
64,192,77291,1,10,0:0:0:0:
192,192,77387,1,0,0:0:0:50:drum-hitfinish.wav
448,192,77482,1,8,0:0:0:50:
320,192,77482,1,6,0:0:0:0:
64,192,77673,1,10,0:0:0:50:
448,192,77864,1,10,0:0:0:50:
64,192,78055,1,10,0:0:0:50:
192,192,78246,1,10,0:0:0:50:
448,192,78437,1,10,0:0:0:50:
64,192,78628,1,2,0:0:0:0:
448,192,78724,1,8,0:0:0:0:
448,192,78915,1,2,0:0:0:0:
192,192,79010,1,8,0:0:0:0:
192,192,79201,1,2,0:0:0:0:
320,192,79297,1,8,0:0:0:0:
320,192,79488,1,2,0:0:0:0:
64,192,79584,1,8,0:0:0:0:
64,192,79775,1,2,0:0:0:0:
448,192,79870,1,8,0:0:0:0:
448,192,80061,1,2,0:0:0:0:
192,192,80157,1,8,0:0:0:0:
320,192,80348,1,10,0:0:0:0:
448,192,80539,1,8,0:0:0:50:
64,192,80539,1,4,0:0:0:50:
192,192,80634,1,8,0:0:0:50:
448,192,80921,1,8,0:0:0:0:
192,192,81112,1,10,0:0:0:50:
320,192,81303,1,8,0:0:0:0:
192,192,81494,1,10,0:0:0:50:
448,192,81494,1,0,0:0:0:0:
64,192,81685,1,8,0:0:0:0:
448,192,81876,1,2,0:0:0:0:
64,192,81971,1,8,0:0:0:0:
192,192,82258,1,8,0:0:0:50:
320,192,82353,1,2,0:0:0:0:
448,192,82449,1,8,0:0:0:0:
448,192,82640,1,2,0:0:0:0:
64,192,82735,1,8,0:0:0:0:
64,192,82926,1,2,0:0:0:0:
320,192,83022,1,8,0:0:0:0:
320,192,83213,1,2,0:0:0:0:
448,192,83308,1,8,0:0:0:0:
448,192,83499,1,2,0:0:0:0:
192,192,83595,1,12,0:0:0:50:
64,192,83595,1,0,0:0:0:50:drum-hitfinish.wav
320,192,83786,1,2,0:0:0:0:
64,192,83977,1,0,0:0:0:50:drum-hitfinish.wav
320,192,83977,1,8,0:0:0:0:
448,192,84264,1,0,0:0:0:50:drum-hitfinish.wav
64,192,84264,1,0,0:0:0:0:
192,192,84550,1,0,0:0:0:50:drum-hitfinish.wav
448,192,84550,1,0,0:0:0:0:
192,192,84837,1,0,0:0:0:50:drum-hitfinish.wav
64,192,84837,1,0,0:0:0:0:
64,192,85123,1,0,0:0:0:50:drum-hitfinish.wav
320,192,85123,1,0,0:0:0:0:
448,192,85410,1,0,0:0:0:50:drum-hitfinish.wav
192,192,85410,1,0,0:0:0:0:
320,192,85696,1,0,0:0:0:50:drum-hitfinish.wav
64,192,85696,1,0,0:0:0:0:
192,192,85983,1,0,0:0:0:50:drum-hitfinish.wav
448,192,85983,1,0,0:0:0:0:
64,192,86269,1,8,0:0:0:50:
192,192,86269,1,0,0:0:0:50:drum-hitfinish.wav
320,192,86460,1,10,0:0:0:50:
448,192,86460,1,0,0:0:0:50:drum-hitfinish.wav
64,192,86651,1,8,0:0:0:50:
448,192,86651,1,4,0:0:0:50:
320,192,86842,1,2,0:0:0:0:
64,192,86938,1,2,0:0:0:0:
320,192,87129,1,2,0:0:0:0:
64,192,87224,1,2,0:0:0:0:
320,192,87415,1,10,0:0:0:50:
448,192,87606,1,2,0:0:0:0:
64,192,87797,1,10,0:0:0:50:
64,192,88084,1,10,0:0:0:50:
448,192,88275,1,2,0:0:0:0:
192,192,88371,1,2,0:0:0:0:
448,192,88562,1,2,0:0:0:0:
192,192,88657,1,2,0:0:0:0:
320,192,88944,1,10,0:0:0:50:
192,192,89135,1,2,0:0:0:0:
64,192,89326,1,10,0:0:0:50:
64,192,89708,1,8,0:0:0:50:
448,192,89708,1,4,0:0:0:0:
192,192,89899,1,2,0:0:0:0:
448,192,89994,1,2,0:0:0:0:
192,192,90185,1,2,0:0:0:0:
448,192,90281,1,2,0:0:0:0:
64,192,90472,1,2,0:0:0:0:
320,192,90663,1,2,0:0:0:0:
192,192,90949,1,10,0:0:0:50:
448,192,91236,1,10,0:0:0:50:
448,192,91427,1,2,0:0:0:0:
64,192,91618,1,10,0:0:0:50:
320,192,91713,1,2,0:0:0:0:
320,192,91904,1,2,0:0:0:0:
64,192,92095,1,2,0:0:0:0:
320,192,92191,1,2,0:0:0:0:
192,192,92382,1,10,0:0:0:50:
448,192,92573,1,0,0:0:0:50:drum-hitfinish.wav
192,192,92764,1,8,0:0:0:50:
64,192,92764,1,4,0:0:0:0:
448,192,92955,1,2,0:0:0:0:
64,192,93051,1,2,0:0:0:0:
448,192,93242,1,2,0:0:0:0:
64,192,93337,1,2,0:0:0:0:
320,192,93528,1,10,0:0:0:0:
448,192,93719,1,2,0:0:0:0:
192,192,93910,1,10,0:0:0:50:
192,192,94197,1,10,0:0:0:50:
320,192,94388,1,2,0:0:0:0:
64,192,94483,1,2,0:0:0:0:
320,192,94674,1,2,0:0:0:0:
64,192,94770,1,2,0:0:0:0:
320,192,95056,1,10,0:0:0:50:
448,192,95247,1,2,0:0:0:0:
192,192,95438,1,8,0:0:0:50:
64,192,95820,1,8,0:0:0:50:
320,192,95820,1,4,0:0:0:0:
192,192,96011,1,2,0:0:0:0:
448,192,96107,1,2,0:0:0:0:
192,192,96298,1,2,0:0:0:0:
448,192,96393,1,2,0:0:0:0:
192,192,96584,1,10,0:0:0:50:
64,192,96776,1,2,0:0:0:0:
320,192,97062,1,10,0:0:0:50:
448,192,97349,1,8,0:0:0:50:
192,192,97540,1,0,0:0:0:0:
320,192,97635,1,0,0:0:0:0:
192,192,97826,1,0,0:0:0:0:
320,192,97922,1,0,0:0:0:0:
64,192,98113,1,0,0:0:0:0:
64,192,98304,1,0,0:0:0:0:
448,192,98495,1,0,0:0:0:0:
192,192,98590,1,0,0:0:0:0:
192,192,98781,1,8,0:0:0:50:
448,192,98781,1,0,0:0:0:70:drum-hitfinish.wav
