osu file format v14

[General]
AudioFilename: Minus2.mp3
AudioLeadIn: 0
PreviewTime: 25238
Countdown: 0
SampleSet: Soft
StackLeniency: 0.7
Mode: 3
LetterboxInBreaks: 0
SpecialStyle: 0
WidescreenStoryboard: 0

[Editor]
Bookmarks: 53676
DistanceSpacing: 0.8
BeatDivisor: 4
GridSize: 32
TimelineZoom: 2.7

[Metadata]
Title:Minus 2
TitleUnicode:Minus 2
Artist:Croove
ArtistUnicode:Croove
Creator:MEGAtive
Version:MX
Source:EZ2DJ 3rd TraX -Absolute Pitch-
Tags:EZ2AC EZ2ON Death Techno reykuroki Eldergleam
BeatmapID:1199770
BeatmapSetID:566381

[Difficulty]
HPDrainRate:8.8
CircleSize:4
OverallDifficulty:8.8
ApproachRate:5
SliderMultiplier:1.4
SliderTickRate:1

[Events]
//Background and Video events
0,0,"minus2.jpg",0,0
//Break Periods
//Storyboard Layer 0 (Background)
//Storyboard Layer 1 (Fail)
//Storyboard Layer 2 (Pass)
//Storyboard Layer 3 (Foreground)
//Storyboard Sound Samples
Sample,98724,0,"drum-hitwhistle.wav",50

[TimingPoints]
1074,382.043935052531,4,2,1,50,1,0
25524,-57.1428571428571,4,2,1,65,0,1
25572,-71.4285714285714,4,2,1,65,0,1
25620,-90.9090909090909,4,2,1,65,0,1
25667,-111.111111111111,4,2,1,65,0,1
25715,-166.666666666667,4,2,1,65,0,1
25763,-400,4,2,1,65,0,1
25811,-57.1428571428571,4,2,1,65,0,1
25859,-71.4285714285714,4,2,1,65,0,1
25907,-90.9090909090909,4,2,1,65,0,1
25954,-111.111111111111,4,2,1,65,0,1
26002,-166.666666666667,4,2,1,65,0,1
26050,-400,4,2,1,65,0,1
26098,-57.1428571428571,4,2,1,65,0,1
26146,-71.4285714285714,4,2,1,65,0,1
26194,-90.9090909090909,4,2,1,65,0,1
26241,-111.111111111111,4,2,1,65,0,1
26289,-166.666666666667,4,2,1,65,0,1
26337,-400,4,2,1,65,0,1
26384,-57.1428571428571,4,2,1,65,0,1
26433,-71.4285714285714,4,2,1,65,0,1
26481,-90.9090909090909,4,2,1,65,0,1
26528,-111.111111111111,4,2,1,65,0,1
26576,-166.666666666667,4,2,1,65,0,1
26624,-400,4,2,1,65,0,1
26671,-57.1428571428571,4,2,1,65,0,1
26718,-76.9230769230769,4,2,1,65,0,1
26766,-142.857142857143,4,2,1,65,0,1
26814,-400,4,2,1,65,0,1
26862,-57.1428571428571,4,2,1,65,0,1
26909,-76.9230769230769,4,2,1,65,0,1
26957,-142.857142857143,4,2,1,65,0,1
27005,-400,4,2,1,65,0,1
27053,-57.1428571428571,4,2,1,65,0,1
27101,-71.4285714285714,4,2,1,65,0,1
27149,-90.9090909090909,4,2,1,65,0,1
27196,-111.111111111111,4,2,1,65,0,1
27244,-166.666666666667,4,2,1,65,0,1
27292,-400,4,2,1,65,0,1
27340,-57.1428571428571,4,2,1,65,0,1
27388,-71.4285714285714,4,2,1,65,0,1
27436,-90.9090909090909,4,2,1,65,0,1
27483,-111.111111111111,4,2,1,65,0,1
27531,-166.666666666667,4,2,1,65,0,1
27579,-400,4,2,1,65,0,1
27627,-57.1428571428571,4,2,1,65,0,1
27675,-71.4285714285714,4,2,1,65,0,1
27723,-90.9090909090909,4,2,1,65,0,1
27770,-111.111111111111,4,2,1,65,0,1
27818,-166.666666666667,4,2,1,65,0,1
27866,-400,4,2,1,65,0,1
27914,-57.1428571428571,4,2,1,65,0,1
27962,-71.4285714285714,4,2,1,65,0,1
28010,-90.9090909090909,4,2,1,65,0,1
28057,-111.111111111111,4,2,1,65,0,1
28105,-166.666666666667,4,2,1,65,0,1
28153,-400,4,2,1,65,0,1
28200,-57.1428571428571,4,2,1,65,0,1
28247,-76.9230769230769,4,2,1,65,0,1
28295,-142.857142857143,4,2,1,65,0,1
28343,-400,4,2,1,65,0,1
28391,-57.1428571428571,4,2,1,65,0,1
28438,-76.9230769230769,4,2,1,65,0,1
28486,-142.857142857143,4,2,1,65,0,1
28534,-400,4,2,1,65,0,1
28582,-57.1428571428571,4,2,1,65,0,1
28630,-71.4285714285714,4,2,1,65,0,1
28678,-90.9090909090909,4,2,1,65,0,1
28725,-111.111111111111,4,2,1,65,0,1
28773,-166.666666666667,4,2,1,65,0,1
28821,-400,4,2,1,65,0,1
28869,-57.1428571428571,4,2,1,65,0,1
28917,-71.4285714285714,4,2,1,65,0,1
28965,-90.9090909090909,4,2,1,65,0,1
29012,-111.111111111111,4,2,1,65,0,1
29060,-166.666666666667,4,2,1,65,0,1
29108,-400,4,2,1,65,0,1
29156,-57.1428571428571,4,2,1,65,0,1
29204,-71.4285714285714,4,2,1,65,0,1
29252,-90.9090909090909,4,2,1,65,0,1
29299,-111.111111111111,4,2,1,65,0,1
29347,-166.666666666667,4,2,1,65,0,1
29395,-400,4,2,1,65,0,1
29443,-57.1428571428571,4,2,1,65,0,1
29491,-71.4285714285714,4,2,1,65,0,1
29539,-90.9090909090909,4,2,1,65,0,1
29586,-111.111111111111,4,2,1,65,0,1
29634,-166.666666666667,4,2,1,65,0,1
29682,-400,4,2,1,65,0,1
29729,-57.1428571428571,4,2,1,65,0,1
29776,-76.9230769230769,4,2,1,65,0,1
29824,-142.857142857143,4,2,1,65,0,1
29872,-400,4,2,1,65,0,1
29919,-57.1428571428571,4,2,1,65,0,1
29967,-76.9230769230769,4,2,1,65,0,1
30015,-142.857142857143,4,2,1,65,0,1
30062,-400,4,2,1,65,0,1
30110,-57.1428571428571,4,2,1,65,0,1
30158,-71.4285714285714,4,2,1,65,0,1
30206,-90.9090909090909,4,2,1,65,0,1
30253,-111.111111111111,4,2,1,65,0,1
30301,-166.666666666667,4,2,1,65,0,1
30349,-400,4,2,1,65,0,1
30397,-57.1428571428571,4,2,1,65,0,1
30445,-71.4285714285714,4,2,1,65,0,1
30493,-90.9090909090909,4,2,1,65,0,1
30540,-111.111111111111,4,2,1,65,0,1
30588,-166.666666666667,4,2,1,65,0,1
30636,-400,4,2,1,65,0,1
30683,-57.1428571428571,4,2,1,65,0,1
30732,-71.4285714285714,4,2,1,65,0,1
30780,-90.9090909090909,4,2,1,65,0,1
30827,-111.111111111111,4,2,1,65,0,1
30875,-166.666666666667,4,2,1,65,0,1
30923,-400,4,2,1,65,0,1
30968,-100,4,2,1,65,0,0
31637,-57.1428571428571,4,2,1,65,0,1
31685,-71.4285714285714,4,2,1,65,0,1
31733,-90.9090909090909,4,2,1,65,0,1
31780,-111.111111111111,4,2,1,65,0,1
31828,-166.666666666667,4,2,1,65,0,1
31876,-400,4,2,1,65,0,1
31924,-57.1428571428571,4,2,1,65,0,1
31972,-71.4285714285714,4,2,1,65,0,1
32020,-90.9090909090909,4,2,1,65,0,1
32067,-111.111111111111,4,2,1,65,0,1
32115,-166.666666666667,4,2,1,65,0,1
32163,-400,4,2,1,65,0,1
32211,-57.1428571428571,4,2,1,65,0,1
32259,-71.4285714285714,4,2,1,65,0,1
32307,-90.9090909090909,4,2,1,65,0,1
32354,-111.111111111111,4,2,1,65,0,1
32402,-166.666666666667,4,2,1,65,0,1
32450,-400,4,2,1,65,0,1
32497,-57.1428571428571,4,2,1,65,0,1
32546,-71.4285714285714,4,2,1,65,0,1
32594,-90.9090909090909,4,2,1,65,0,1
32641,-111.111111111111,4,2,1,65,0,1
32689,-166.666666666667,4,2,1,65,0,1
32737,-400,4,2,1,65,0,1
32784,-57.1428571428571,4,2,1,65,0,1
32831,-76.9230769230769,4,2,1,65,0,1
32879,-142.857142857143,4,2,1,65,0,1
32927,-400,4,2,1,65,0,1
32975,-57.1428571428571,4,2,1,65,0,1
33022,-76.9230769230769,4,2,1,65,0,1
33070,-142.857142857143,4,2,1,65,0,1
33118,-400,4,2,1,65,0,1
33166,-57.1428571428571,4,2,1,65,0,1
33214,-71.4285714285714,4,2,1,65,0,1
33262,-90.9090909090909,4,2,1,65,0,1
33309,-111.111111111111,4,2,1,65,0,1
33357,-166.666666666667,4,2,1,65,0,1
33405,-400,4,2,1,65,0,1
33453,-57.1428571428571,4,2,1,65,0,1
33501,-71.4285714285714,4,2,1,65,0,1
33549,-90.9090909090909,4,2,1,65,0,1
33596,-111.111111111111,4,2,1,65,0,1
33644,-166.666666666667,4,2,1,65,0,1
33692,-400,4,2,1,65,0,1
33740,-57.1428571428571,4,2,1,65,0,1
33788,-71.4285714285714,4,2,1,65,0,1
33836,-90.9090909090909,4,2,1,65,0,1
33883,-111.111111111111,4,2,1,65,0,1
33931,-166.666666666667,4,2,1,65,0,1
33979,-400,4,2,1,65,0,1
34027,-57.1428571428571,4,2,1,65,0,1
34075,-71.4285714285714,4,2,1,65,0,1
34123,-90.9090909090909,4,2,1,65,0,1
34170,-111.111111111111,4,2,1,65,0,1
34218,-166.666666666667,4,2,1,65,0,1
34266,-400,4,2,1,65,0,1
34313,-57.1428571428571,4,2,1,65,0,1
34360,-76.9230769230769,4,2,1,65,0,1
34408,-142.857142857143,4,2,1,65,0,1
34456,-400,4,2,1,65,0,1
34504,-57.1428571428571,4,2,1,65,0,1
34551,-76.9230769230769,4,2,1,65,0,1
34599,-142.857142857143,4,2,1,65,0,1
34647,-400,4,2,1,65,0,1
34695,-57.1428571428571,4,2,1,65,0,1
34743,-71.4285714285714,4,2,1,65,0,1
34791,-90.9090909090909,4,2,1,65,0,1
34838,-111.111111111111,4,2,1,65,0,1
34886,-166.666666666667,4,2,1,65,0,1
34934,-400,4,2,1,65,0,1
34982,-57.1428571428571,4,2,1,65,0,1
35030,-71.4285714285714,4,2,1,65,0,1
35078,-90.9090909090909,4,2,1,65,0,1
35125,-111.111111111111,4,2,1,65,0,1
35173,-166.666666666667,4,2,1,65,0,1
35221,-400,4,2,1,65,0,1
35269,-57.1428571428571,4,2,1,65,0,1
35317,-71.4285714285714,4,2,1,65,0,1
35365,-90.9090909090909,4,2,1,65,0,1
35412,-111.111111111111,4,2,1,65,0,1
35460,-166.666666666667,4,2,1,65,0,1
35508,-400,4,2,1,65,0,1
35556,-57.1428571428571,4,2,1,65,0,1
35604,-71.4285714285714,4,2,1,65,0,1
35652,-90.9090909090909,4,2,1,65,0,1
35699,-111.111111111111,4,2,1,65,0,1
35747,-166.666666666667,4,2,1,65,0,1
35795,-400,4,2,1,65,0,1
35842,-57.1428571428571,4,2,1,65,0,1
35889,-76.9230769230769,4,2,1,65,0,1
35937,-142.857142857143,4,2,1,65,0,1
35985,-400,4,2,1,65,0,1
36032,-57.1428571428571,4,2,1,65,0,1
36080,-76.9230769230769,4,2,1,65,0,1
36128,-142.857142857143,4,2,1,65,0,1
36175,-400,4,2,1,65,0,1
36223,-57.1428571428571,4,2,1,65,0,1
36271,-71.4285714285714,4,2,1,65,0,1
36319,-90.9090909090909,4,2,1,65,0,1
36366,-111.111111111111,4,2,1,65,0,1
36414,-166.666666666667,4,2,1,65,0,1
36462,-400,4,2,1,65,0,1
36510,-57.1428571428571,4,2,1,65,0,1
36558,-71.4285714285714,4,2,1,65,0,1
36606,-90.9090909090909,4,2,1,65,0,1
36653,-111.111111111111,4,2,1,65,0,1
36701,-166.666666666667,4,2,1,65,0,1
36749,-400,4,2,1,65,0,1
36796,-57.1428571428571,4,2,1,65,0,1
36844,-76.9230769230769,4,2,1,65,0,1
36892,-142.857142857143,4,2,1,65,0,1
36939,-400,4,2,1,65,0,1
36987,-57.1428571428571,4,2,1,65,0,1
37035,-71.4285714285714,4,2,1,65,0,1
37083,-90.9090909090909,4,2,1,65,0,1
37130,-111.111111111111,4,2,1,65,0,1
37178,-166.666666666667,4,2,1,65,0,1
37226,-400,4,2,1,65,0,1
37274,-57.1428571428571,4,2,1,65,0,1
37321,-71.4285714285714,4,2,1,65,0,1
37369,-90.9090909090909,4,2,1,65,0,1
37417,-111.111111111111,4,2,1,65,0,1
37465,-166.666666666667,4,2,1,65,0,1
37513,-400,4,2,1,65,0,1
37560,-57.1428571428571,4,2,1,65,0,1
37608,-76.9230769230769,4,2,1,65,0,1
37656,-142.857142857143,4,2,1,65,0,1
37704,-400,4,2,1,65,0,1
37750,-100,4,2,1,50,0,0
49975,-400,4,2,1,65,0,1
50022,-200,4,2,1,65,0,1
50070,-117.647058823529,4,2,1,65,0,1
50118,-86.9565217391304,4,2,1,65,0,1
50166,-66.6666666666667,4,2,1,65,0,1
50214,-57.1428571428571,4,2,1,65,0,1
50261,-400,4,2,1,65,0,1
50309,-200,4,2,1,65,0,1
50357,-117.647058823529,4,2,1,65,0,1
50405,-86.9565217391304,4,2,1,65,0,1
50452,-66.6666666666667,4,2,1,65,0,1
50500,-57.1428571428571,4,2,1,65,0,1
50548,-400,4,2,1,65,0,1
50596,-200,4,2,1,65,0,1
50643,-117.647058823529,4,2,1,65,0,1
50691,-86.9565217391304,4,2,1,65,0,1
50739,-66.6666666666667,4,2,1,65,0,1
50787,-57.1428571428571,4,2,1,65,0,1
50835,-400,4,2,1,65,0,1
50882,-200,4,2,1,65,0,1
50930,-117.647058823529,4,2,1,65,0,1
50978,-86.9565217391304,4,2,1,65,0,1
51026,-66.6666666666667,4,2,1,65,0,1
51073,-57.1428571428571,4,2,1,65,0,1
51121,-250,4,2,1,65,0,1
51169,-125,4,2,1,65,0,1
51217,-83.3333333333333,4,2,1,65,0,1
51265,-62.5,4,2,1,65,0,1
51312,-250,4,2,1,65,0,1
51360,-125,4,2,1,65,0,1
51408,-83.3333333333333,4,2,1,65,0,1
51456,-62.5,4,2,1,65,0,1
51503,-400,4,2,1,65,0,1
51551,-200,4,2,1,65,0,1
51599,-117.647058823529,4,2,1,65,0,1
51647,-86.9565217391304,4,2,1,65,0,1
51694,-66.6666666666667,4,2,1,65,0,1
51742,-57.1428571428571,4,2,1,65,0,1
51790,-400,4,2,1,65,0,1
51838,-200,4,2,1,65,0,1
51886,-117.647058823529,4,2,1,65,0,1
51933,-86.9565217391304,4,2,1,65,0,1
51981,-66.6666666666667,4,2,1,65,0,1
52029,-57.1428571428571,4,2,1,65,0,1
52077,-400,4,2,1,65,0,1
52124,-200,4,2,1,65,0,1
52172,-117.647058823529,4,2,1,65,0,1
52220,-86.9565217391304,4,2,1,65,0,1
52268,-66.6666666666667,4,2,1,65,0,1
52315,-57.1428571428571,4,2,1,65,0,1
52363,-400,4,2,1,65,0,1
52411,-200,4,2,1,65,0,1
52457,-117.647058823529,4,2,1,65,0,1
52507,-86.9565217391304,4,2,1,65,0,1
52554,-66.6666666666667,4,2,1,65,0,1
52602,-57.1428571428571,4,2,1,65,0,1
52650,-250,4,2,1,65,0,1
52698,-125,4,2,1,65,0,1
52745,-83.3333333333333,4,2,1,65,0,1
52793,-62.5,4,2,1,65,0,1
52841,-250,4,2,1,65,0,1
52889,-125,4,2,1,65,0,1
52936,-83.3333333333333,4,2,1,65,0,1
52984,-62.5,4,2,1,65,0,1
53032,-400,4,2,1,65,0,1
53080,-200,4,2,1,65,0,1
53128,-117.647058823529,4,2,1,65,0,1
53175,-86.9565217391304,4,2,1,65,0,1
53223,-66.6666666666667,4,2,1,65,0,1
53271,-57.1428571428571,4,2,1,65,0,1
53319,-400,4,2,1,65,0,1
53366,-200,4,2,1,65,0,1
53414,-117.647058823529,4,2,1,65,0,1
53462,-86.9565217391304,4,2,1,65,0,1
53510,-66.6666666666667,4,2,1,65,0,1
53557,-57.1428571428571,4,2,1,65,0,1
53605,-400,4,2,1,65,0,1
53653,-200,4,2,1,65,0,1
53700,-117.647058823529,4,2,1,65,0,1
53748,-86.9565217391304,4,2,1,65,0,1
53796,-66.6666666666667,4,2,1,65,0,1
53844,-57.1428571428571,4,2,1,65,0,1
53891,-400,4,2,1,65,0,1
53938,-200,4,2,1,65,0,1
53986,-117.647058823529,4,2,1,65,0,1
54034,-86.9565217391304,4,2,1,65,0,1
54082,-66.6666666666667,4,2,1,65,0,1
54130,-57.1428571428571,4,2,1,65,0,1
54179,-250,4,2,1,65,0,1
54227,-125,4,2,1,65,0,1
54275,-83.3333333333333,4,2,1,65,0,1
54323,-62.5,4,2,1,65,0,1
54370,-250,4,2,1,65,0,1
54418,-125,4,2,1,65,0,1
54466,-83.3333333333333,4,2,1,65,0,1
54514,-62.5,4,2,1,65,0,1
54561,-400,4,2,1,65,0,1
54608,-200,4,2,1,65,0,1
54656,-117.647058823529,4,2,1,65,0,1
54704,-86.9565217391304,4,2,1,65,0,1
54752,-66.6666666666667,4,2,1,65,0,1
54800,-57.1428571428571,4,2,1,65,0,1
54847,-400,4,2,1,65,0,1
54894,-200,4,2,1,65,0,1
54942,-117.647058823529,4,2,1,65,0,1
54990,-86.9565217391304,4,2,1,65,0,1
55038,-66.6666666666667,4,2,1,65,0,1
55086,-57.1428571428571,4,2,1,65,0,1
55133,-400,4,2,1,65,0,1
55180,-200,4,2,1,65,0,1
55228,-117.647058823529,4,2,1,65,0,1
55276,-86.9565217391304,4,2,1,65,0,1
55324,-66.6666666666667,4,2,1,65,0,1
55372,-57.1428571428571,4,2,1,65,0,1
55419,-400,4,2,1,65,0,1
55466,-200,4,2,1,65,0,1
55514,-117.647058823529,4,2,1,65,0,1
55562,-86.9565217391304,4,2,1,65,0,1
55610,-66.6666666666667,4,2,1,65,0,1
55658,-57.1428571428571,4,2,1,65,0,1
55707,-250,4,2,1,65,0,1
55755,-125,4,2,1,65,0,1
55803,-83.3333333333333,4,2,1,65,0,1
55851,-62.5,4,2,1,65,0,1
55898,-250,4,2,1,65,0,1
55946,-125,4,2,1,65,0,1
55994,-83.3333333333333,4,2,1,65,0,1
56042,-62.5,4,2,1,65,0,1
56089,-400,4,2,1,65,0,1
56136,-200,4,2,1,65,0,1
56184,-117.647058823529,4,2,1,65,0,1
56232,-86.9565217391304,4,2,1,65,0,1
56280,-66.6666666666667,4,2,1,65,0,1
56328,-57.1428571428571,4,2,1,65,0,1
56375,-400,4,2,1,65,0,1
56422,-200,4,2,1,65,0,1
56470,-117.647058823529,4,2,1,65,0,1
56518,-86.9565217391304,4,2,1,65,0,1
56566,-66.6666666666667,4,2,1,65,0,1
56614,-57.1428571428571,4,2,1,65,0,1
56661,-400,4,2,1,65,0,1
56708,-200,4,2,1,65,0,1
56756,-117.647058823529,4,2,1,65,0,1
56804,-86.9565217391304,4,2,1,65,0,1
56852,-66.6666666666667,4,2,1,65,0,1
56900,-57.1428571428571,4,2,1,65,0,1
56947,-400,4,2,1,65,0,1
56994,-200,4,2,1,65,0,1
57042,-117.647058823529,4,2,1,65,0,1
57090,-86.9565217391304,4,2,1,65,0,1
57138,-66.6666666666667,4,2,1,65,0,1
57186,-57.1428571428571,4,2,1,65,0,1
57235,-250,4,2,1,65,0,1
57283,-125,4,2,1,65,0,1
57331,-83.3333333333333,4,2,1,65,0,1
57379,-62.5,4,2,1,65,0,1
57426,-250,4,2,1,65,0,1
57474,-125,4,2,1,65,0,1
57522,-83.3333333333333,4,2,1,65,0,1
57570,-62.5,4,2,1,65,0,1
57619,-400,4,2,1,65,0,1
57666,-200,4,2,1,65,0,1
57714,-117.647058823529,4,2,1,65,0,1
57762,-86.9565217391304,4,2,1,65,0,1
57810,-66.6666666666667,4,2,1,65,0,1
57858,-57.1428571428571,4,2,1,65,0,1
57905,-400,4,2,1,65,0,1
57952,-200,4,2,1,65,0,1
58000,-117.647058823529,4,2,1,65,0,1
58048,-86.9565217391304,4,2,1,65,0,1
58096,-66.6666666666667,4,2,1,65,0,1
58144,-57.1428571428571,4,2,1,65,0,1
58191,-400,4,2,1,65,0,1
58238,-200,4,2,1,65,0,1
58286,-117.647058823529,4,2,1,65,0,1
58334,-86.9565217391304,4,2,1,65,0,1
58382,-66.6666666666667,4,2,1,65,0,1
58430,-57.1428571428571,4,2,1,65,0,1
58477,-400,4,2,1,65,0,1
58524,-200,4,2,1,65,0,1
58572,-117.647058823529,4,2,1,65,0,1
58620,-86.9565217391304,4,2,1,65,0,1
58668,-66.6666666666667,4,2,1,65,0,1
58716,-57.1428571428571,4,2,1,65,0,1
58765,-250,4,2,1,65,0,1
58813,-125,4,2,1,65,0,1
58861,-83.3333333333333,4,2,1,65,0,1
58909,-62.5,4,2,1,65,0,1
58956,-250,4,2,1,65,0,1
59004,-125,4,2,1,65,0,1
59052,-83.3333333333333,4,2,1,65,0,1
59100,-62.5,4,2,1,65,0,1
59147,-400,4,2,1,65,0,1
59194,-200,4,2,1,65,0,1
59242,-117.647058823529,4,2,1,65,0,1
59290,-86.9565217391304,4,2,1,65,0,1
59338,-66.6666666666667,4,2,1,65,0,1
59386,-57.1428571428571,4,2,1,65,0,1
59433,-400,4,2,1,65,0,1
59480,-200,4,2,1,65,0,1
59528,-117.647058823529,4,2,1,65,0,1
59576,-86.9565217391304,4,2,1,65,0,1
59624,-66.6666666666667,4,2,1,65,0,1
59672,-57.1428571428571,4,2,1,65,0,1
59719,-400,4,2,1,65,0,1
59766,-200,4,2,1,65,0,1
59814,-117.647058823529,4,2,1,65,0,1
59862,-86.9565217391304,4,2,1,65,0,1
59910,-66.6666666666667,4,2,1,65,0,1
59958,-57.1428571428571,4,2,1,65,0,1
60005,-400,4,2,1,65,0,1
60052,-200,4,2,1,65,0,1
60100,-117.647058823529,4,2,1,65,0,1
60148,-86.9565217391304,4,2,1,65,0,1
60196,-66.6666666666667,4,2,1,65,0,1
60244,-57.1428571428571,4,2,1,65,0,1
60293,-250,4,2,1,65,0,1
60341,-125,4,2,1,65,0,1
60389,-83.3333333333333,4,2,1,65,0,1
60437,-62.5,4,2,1,65,0,1
60484,-250,4,2,1,65,0,1
60532,-125,4,2,1,65,0,1
60580,-83.3333333333333,4,2,1,65,0,1
60628,-62.5,4,2,1,65,0,1
60675,-400,4,2,1,65,0,1
60722,-200,4,2,1,65,0,1
60770,-117.647058823529,4,2,1,65,0,1
60818,-86.9565217391304,4,2,1,65,0,1
60866,-66.6666666666667,4,2,1,65,0,1
60914,-57.1428571428571,4,2,1,65,0,1
60961,-400,4,2,1,65,0,1
61008,-200,4,2,1,65,0,1
61056,-117.647058823529,4,2,1,65,0,1
61104,-86.9565217391304,4,2,1,65,0,1
61152,-66.6666666666667,4,2,1,65,0,1
61200,-57.1428571428571,4,2,1,65,0,1
61249,-250,4,2,1,65,0,1
61296,-125,4,2,1,65,0,1
61344,-83.3333333333333,4,2,1,65,0,1
61392,-62.5,4,2,1,65,0,1
61440,-400,4,2,1,65,0,1
61487,-200,4,2,1,65,0,1
61535,-117.647058823529,4,2,1,65,0,1
61583,-86.9565217391304,4,2,1,65,0,1
61631,-66.6666666666667,4,2,1,65,0,1
61679,-400,4,2,1,65,0,1
61726,-400,4,2,1,65,0,1
61774,-200,4,2,1,65,0,1
61822,-117.647058823529,4,2,1,65,0,1
61870,-86.9565217391304,4,2,1,65,0,1
61917,-66.6666666666667,4,2,1,65,0,1
61965,-250,4,2,1,65,0,1
62013,-250,4,2,1,65,0,1
62061,-125,4,2,1,65,0,1
62108,-83.3333333333333,4,2,1,65,0,1
62156,-62.5,4,2,1,65,0,1
62201,-100,4,2,1,50,0,0
74426,-100,4,2,1,50,0,1
86651,-100,4,2,1,50,0,0

[HitObjects]
64,192,1074,5,0,0:0:0:0:
448,192,1074,1,0,0:0:0:0:
192,192,1265,1,0,0:0:0:0:
448,192,1360,1,0,0:0:0:0:
192,192,1551,1,0,0:0:0:0:
448,192,1647,1,0,0:0:0:0:
448,192,1838,1,0,0:0:0:0:
64,192,1838,1,0,0:0:0:0:
192,192,2029,1,0,0:0:0:0:
448,192,2124,1,0,0:0:0:0:
192,192,2315,1,0,0:0:0:0:
448,192,2411,1,0,0:0:0:0:
448,192,2602,1,0,0:0:0:0:
64,192,2602,1,0,0:0:0:0:
192,192,2793,1,0,0:0:0:0:
448,192,2888,1,0,0:0:0:0:
192,192,3079,1,0,0:0:0:0:
448,192,3175,1,0,0:0:0:0:
448,192,3366,1,0,0:0:0:0:
64,192,3366,1,0,0:0:0:0:
192,192,3557,1,0,0:0:0:0:
448,192,3652,1,0,0:0:0:0:
64,192,3843,1,0,0:0:0:0:
320,192,3939,128,0,4130:0:0:0:0:
64,192,4130,1,0,0:0:0:0:
448,192,4130,1,0,0:0:0:0:
192,192,4321,1,0,0:0:0:0:
448,192,4416,1,0,0:0:0:0:
192,192,4607,1,0,0:0:0:0:
448,192,4703,1,0,0:0:0:0:
448,192,4894,1,0,0:0:0:0:
64,192,4894,1,0,0:0:0:0:
192,192,5085,1,0,0:0:0:0:
448,192,5180,1,0,0:0:0:0:
192,192,5371,1,0,0:0:0:0:
448,192,5467,1,0,0:0:0:0:
448,192,5658,1,0,0:0:0:0:
64,192,5658,1,0,0:0:0:0:
192,192,5849,1,0,0:0:0:0:
448,192,5945,1,0,0:0:0:0:
192,192,6136,1,0,0:0:0:0:
448,192,6231,1,0,0:0:0:0:
448,192,6422,1,0,0:0:0:0:
64,192,6422,1,0,0:0:0:0:
192,192,6613,1,0,0:0:0:0:
448,192,6709,1,0,0:0:0:0:
192,192,6900,1,0,0:0:0:0:
448,192,6995,5,8,0:0:0:50:
64,192,6995,1,0,0:0:0:0:
448,192,7091,1,8,0:0:0:50:
320,192,7186,1,8,0:0:0:50:
192,192,7186,1,4,0:0:0:50:
64,192,7186,1,0,0:0:0:0:
448,192,7377,1,0,0:0:0:0:
320,192,7473,1,0,0:0:0:0:
64,192,7473,128,0,7664:0:0:0:0:
448,192,7664,1,0,0:0:0:0:
320,192,7759,1,0,0:0:0:0:
64,192,7759,128,0,7950:0:0:0:0:
192,192,7950,1,0,0:0:0:0:
448,192,7950,128,0,8141:0:0:0:0:
64,192,8141,1,0,0:0:0:0:
192,192,8237,1,0,0:0:0:0:
448,192,8237,128,0,8428:0:0:0:0:
64,192,8428,1,8,0:0:0:50:
320,192,8428,1,0,0:0:0:0:
192,192,8523,1,8,0:0:0:50:
448,192,8523,128,0,8619:0:0:0:0:
320,192,8619,1,8,0:0:0:50:
192,192,8714,1,8,0:0:0:50:
64,192,8714,1,4,0:0:0:50:
448,192,8714,1,0,0:0:0:0:
320,192,8905,1,0,0:0:0:0:
448,192,9001,1,0,0:0:0:0:
64,192,9001,128,0,9192:0:0:0:0:
320,192,9192,1,0,0:0:0:0:
448,192,9287,1,0,0:0:0:0:
64,192,9287,128,0,9478:0:0:0:0:
320,192,9478,1,0,0:0:0:0:
448,192,9478,128,0,9669:0:0:0:0:
192,192,9669,1,0,0:0:0:0:
64,192,9765,1,0,0:0:0:0:
448,192,9765,128,0,9956:0:0:0:0:
320,192,9861,1,8,0:0:0:50:
64,192,9956,1,8,0:0:0:50:
192,192,9956,1,0,0:0:0:0:
320,192,10052,1,8,0:0:0:50:
448,192,10052,128,0,10147:0:0:0:0:
64,192,10147,1,8,0:0:0:50:
320,192,10243,1,8,0:0:0:50:
192,192,10243,1,4,0:0:0:50:
448,192,10243,1,0,0:0:0:0:
64,192,10434,1,0,0:0:0:0:
192,192,10529,1,0,0:0:0:0:
448,192,10529,128,0,10720:0:0:0:0:
64,192,10720,1,0,0:0:0:0:
192,192,10816,1,0,0:0:0:0:
448,192,10816,128,0,11007:0:0:0:0:
320,192,11007,1,0,0:0:0:0:
64,192,11007,128,0,11198:0:0:0:0:
448,192,11198,1,0,0:0:0:0:
64,192,11293,128,0,11484:0:0:0:50:
192,192,11293,1,8,0:0:0:0:
448,192,11389,1,8,0:0:0:50:
192,192,11484,1,8,0:0:0:50:
320,192,11484,1,0,0:0:0:0:
64,192,11580,128,0,11675:0:0:0:50:
448,192,11580,1,8,0:0:0:0:
192,192,11675,1,8,0:0:0:50:
320,192,11771,1,8,0:0:0:50:
448,192,11771,1,4,0:0:0:50:
64,192,11771,1,0,0:0:0:0:
192,192,11962,1,8,0:0:0:50:
64,192,12057,1,8,0:0:0:50:
448,192,12057,128,0,12248:0:0:0:0:
320,192,12153,1,8,0:0:0:50:
192,192,12248,1,8,0:0:0:50:
64,192,12344,1,8,0:0:0:50:
448,192,12344,128,0,12439:0:0:0:0:
320,192,12439,1,8,0:0:0:50:
192,192,12535,1,8,0:0:0:50:
64,192,12535,128,0,12726:0:0:0:50:
448,192,12535,1,4,0:0:0:0:
320,192,12630,1,8,0:0:0:50:
448,192,12726,1,8,0:0:0:50:
192,192,12821,1,8,0:0:0:50:
64,192,12821,1,0,0:0:0:0:
320,192,12917,1,8,0:0:0:50:
448,192,13012,1,8,0:0:0:50:
64,192,13012,1,0,0:0:0:0:
320,192,13108,1,8,0:0:0:50:
192,192,13108,1,0,0:0:0:0:
448,192,13203,1,8,0:0:0:50:
192,192,13299,1,8,0:0:0:50:
320,192,13299,1,4,0:0:0:50:
64,192,13299,1,2,0:0:0:50:
448,192,13490,1,0,0:0:0:0:
320,192,13585,1,8,0:0:0:50:
192,192,13585,1,2,0:0:0:50:
64,192,13585,1,0,0:0:0:0:
448,192,13776,1,0,0:0:0:0:
192,192,13872,1,8,0:0:0:50:
320,192,13872,1,2,0:0:0:50:
64,192,13872,1,4,0:0:0:0:
320,192,14063,1,8,0:0:0:50:
64,192,14063,1,2,0:0:0:50:
448,192,14063,1,0,0:0:0:0:
192,192,14254,1,0,0:0:0:0:
64,192,14350,1,8,0:0:0:50:
320,192,14350,1,2,0:0:0:50:
448,192,14350,1,0,0:0:0:0:
192,192,14541,1,0,0:0:0:0:
320,192,14636,1,8,0:0:0:50:
448,192,14636,1,2,0:0:0:50:
64,192,14636,1,0,0:0:0:0:
448,192,14827,1,8,0:0:0:50:
64,192,14827,1,2,0:0:0:50:
192,192,14827,1,0,0:0:0:0:
320,192,15018,1,0,0:0:0:0:
448,192,15114,1,8,0:0:0:50:
192,192,15114,1,2,0:0:0:50:
64,192,15114,1,0,0:0:0:0:
320,192,15305,1,0,0:0:0:0:
192,192,15400,1,8,0:0:0:50:
448,192,15400,1,2,0:0:0:50:
64,192,15400,1,4,0:0:0:0:
192,192,15591,1,8,0:0:0:50:
448,192,15591,1,2,0:0:0:50:
320,192,15591,1,0,0:0:0:0:
64,192,15782,1,0,0:0:0:0:
192,192,15878,1,8,0:0:0:50:
448,192,15878,1,2,0:0:0:50:
320,192,15878,1,0,0:0:0:0:
320,192,16069,1,0,0:0:0:0:
192,192,16164,1,8,0:0:0:50:
64,192,16164,1,2,0:0:0:50:
448,192,16164,1,0,0:0:0:0:
192,192,16355,1,8,0:0:0:50:
320,192,16355,1,2,0:0:0:50:
64,192,16355,1,0,0:0:0:0:
448,192,16546,1,0,0:0:0:0:
320,192,16642,1,8,0:0:0:50:
192,192,16642,1,2,0:0:0:50:
64,192,16642,1,0,0:0:0:0:
448,192,16833,1,0,0:0:0:0:
192,192,16928,1,8,0:0:0:50:
320,192,16928,1,2,0:0:0:50:
64,192,16928,1,4,0:0:0:0:
320,192,17119,1,8,0:0:0:50:
64,192,17119,1,2,0:0:0:50:
448,192,17119,1,0,0:0:0:0:
192,192,17310,1,0,0:0:0:0:
64,192,17406,1,8,0:0:0:50:
320,192,17406,1,2,0:0:0:50:
448,192,17406,1,0,0:0:0:0:
192,192,17597,1,0,0:0:0:0:
320,192,17692,1,8,0:0:0:50:
448,192,17692,1,2,0:0:0:50:
64,192,17692,1,0,0:0:0:0:
448,192,17883,1,8,0:0:0:50:
64,192,17883,1,2,0:0:0:50:
192,192,17883,1,0,0:0:0:0:
320,192,18074,1,0,0:0:0:0:
448,192,18170,1,8,0:0:0:50:
192,192,18170,1,2,0:0:0:50:
64,192,18170,1,0,0:0:0:0:
320,192,18361,1,0,0:0:0:0:
192,192,18456,1,8,0:0:0:50:
448,192,18456,1,2,0:0:0:50:
64,192,18456,1,4,0:0:0:0:
192,192,18648,1,8,0:0:0:50:
448,192,18648,1,2,0:0:0:50:
320,192,18648,1,0,0:0:0:0:
64,192,18839,1,0,0:0:0:0:
192,192,18934,1,8,0:0:0:50:
448,192,18934,1,2,0:0:0:50:
320,192,18934,1,0,0:0:0:0:
192,192,19125,1,0,0:0:0:0:
320,192,19221,1,8,0:0:0:50:
64,192,19221,1,2,0:0:0:50:
448,192,19221,1,0,0:0:0:0:
64,192,19412,1,8,0:0:0:50:
320,192,19412,1,2,0:0:0:50:
192,192,19412,1,0,0:0:0:0:
448,192,19603,1,0,0:0:0:0:
320,192,19603,1,0,0:0:0:0:
64,192,19698,1,8,0:0:0:50:
192,192,19698,1,2,0:0:0:50:
448,192,19698,1,0,0:0:0:0:
448,192,19889,1,0,0:0:0:0:
320,192,19889,1,0,0:0:0:0:
64,192,19985,1,8,0:0:0:50:
192,192,19985,1,2,0:0:0:50:
448,192,19985,1,4,0:0:0:0:
448,192,20176,1,8,0:0:0:50:
320,192,20176,1,2,0:0:0:50:
192,192,20176,1,0,0:0:0:0:
192,192,20367,1,0,0:0:0:0:
64,192,20367,1,0,0:0:0:0:
448,192,20462,1,8,0:0:0:50:
320,192,20462,1,2,0:0:0:50:
64,192,20462,1,0,0:0:0:0:
192,192,20653,1,0,0:0:0:0:
64,192,20653,1,0,0:0:0:0:
64,192,20749,1,0,0:0:0:50:
448,192,20749,1,2,0:0:0:50:
320,192,20749,1,8,0:0:0:0:
192,192,20940,1,8,0:0:0:50:
64,192,20940,1,2,0:0:0:50:
448,192,20940,1,0,0:0:0:0:
320,192,21131,1,0,0:0:0:0:
448,192,21131,1,0,0:0:0:0:
64,192,21226,1,8,0:0:0:50:
192,192,21226,1,2,0:0:0:50:
320,192,21226,1,0,0:0:0:0:
320,192,21417,1,0,0:0:0:0:
448,192,21417,1,0,0:0:0:0:
64,192,21513,1,8,0:0:0:50:
192,192,21513,1,2,0:0:0:50:
320,192,21513,1,4,0:0:0:0:
320,192,21704,1,8,0:0:0:50:
448,192,21704,1,2,0:0:0:50:
64,192,21704,1,0,0:0:0:0:
64,192,21895,1,0,0:0:0:0:
192,192,21895,1,0,0:0:0:0:
320,192,21990,1,8,0:0:0:50:
448,192,21990,1,2,0:0:0:50:
192,192,21990,1,0,0:0:0:0:
448,192,22181,1,0,0:0:0:0:
320,192,22181,1,0,0:0:0:0:
448,192,22277,1,8,0:0:0:50:
64,192,22277,1,2,0:0:0:50:
192,192,22277,1,0,0:0:0:0:
64,192,22468,1,8,0:0:0:50:
192,192,22468,1,2,0:0:0:50:
320,192,22468,1,0,0:0:0:0:
448,192,22659,1,0,0:0:0:0:
320,192,22659,1,0,0:0:0:0:
192,192,22754,1,8,0:0:0:50:
64,192,22754,1,2,0:0:0:50:
448,192,22754,1,0,0:0:0:0:
320,192,22946,1,0,0:0:0:0:
448,192,22946,1,0,0:0:0:0:
448,192,23041,1,8,0:0:0:50:
192,192,23041,1,2,0:0:0:50:
64,192,23041,1,4,0:0:0:0:
320,192,23232,1,8,0:0:0:50:
448,192,23232,1,2,0:0:0:50:
192,192,23232,1,0,0:0:0:0:
192,192,23423,1,0,0:0:0:0:
64,192,23423,1,0,0:0:0:0:
64,192,23519,1,8,0:0:0:50:
320,192,23519,1,2,0:0:0:50:
448,192,23519,1,0,0:0:0:0:
192,192,23710,1,0,0:0:0:0:
64,192,23710,1,0,0:0:0:0:
64,192,23805,1,8,0:0:0:50:
448,192,23805,1,2,0:0:0:50:
320,192,23805,1,0,0:0:0:0:
320,192,23996,1,8,0:0:0:50:
448,192,23996,1,2,0:0:0:50:
192,192,23996,1,0,0:0:0:0:
320,192,24092,1,0,0:0:0:0:
448,192,24092,1,0,0:0:0:0:
448,192,24283,1,8,0:0:0:50:
64,192,24283,1,2,0:0:0:50:
192,192,24283,1,0,0:0:0:0:
192,192,24378,1,0,0:0:0:0:
64,192,24378,1,0,0:0:0:0:
320,192,24569,1,8,0:0:0:50:
448,192,24569,1,2,0:0:0:50:
64,192,24569,1,4,0:0:0:0:
320,192,24665,1,0,0:0:0:0:
64,192,24760,1,8,0:0:0:50:
448,192,24760,1,2,0:0:0:50:
192,192,24760,1,0,0:0:0:0:
64,192,24951,1,0,0:0:0:0:
192,192,24951,1,0,0:0:0:0:
64,192,25047,1,8,0:0:0:50:
448,192,25047,1,2,0:0:0:50:
320,192,25047,1,4,0:0:0:0:
320,192,25238,1,0,0:0:0:0:
192,192,25238,1,0,0:0:0:0:
448,192,25333,1,8,0:0:0:50:
64,192,25333,1,2,0:0:0:50:
448,192,25429,1,8,0:0:0:50:
64,192,25429,1,2,0:0:0:50:
448,192,25524,1,8,0:0:0:50:
192,192,25524,1,2,0:0:0:50:
320,192,25524,1,4,0:0:0:50:
320,192,25811,1,2,0:0:0:50:
448,192,25811,1,8,0:0:0:50:
64,192,25811,1,0,0:0:0:0:
192,192,26097,1,2,0:0:0:50:
320,192,26097,1,8,0:0:0:50:
448,192,26097,1,0,0:0:0:0:
320,192,26384,1,8,0:0:0:50:
192,192,26384,1,0,0:0:0:50:
64,192,26384,1,2,0:0:0:0:
64,192,26670,1,8,0:0:0:50:
320,192,26670,1,0,0:0:0:50:
448,192,26670,1,2,0:0:0:0:
192,192,26861,1,0,0:0:0:50:
64,192,26861,1,8,0:0:0:50:
448,192,26861,1,2,0:0:0:0:
320,192,27052,1,8,0:0:0:50:
192,192,27052,1,2,0:0:0:50:
64,192,27052,1,4,0:0:0:50:
448,192,27339,1,8,0:0:0:50:
192,192,27339,1,2,0:0:0:50:
64,192,27339,1,0,0:0:0:0:
320,192,27626,1,2,0:0:0:50:
448,192,27626,1,8,0:0:0:50:
64,192,27626,1,0,0:0:0:0:
192,192,27912,1,2,0:0:0:50:
320,192,27912,1,8,0:0:0:50:
448,192,27912,1,0,0:0:0:0:
64,192,28199,1,0,0:0:0:50:
192,192,28199,1,2,0:0:0:50:
448,192,28199,1,8,0:0:0:0:
320,192,28390,1,0,0:0:0:50:
448,192,28390,1,8,0:0:0:50:
64,192,28390,1,2,0:0:0:0:
192,192,28581,1,8,0:0:0:50:
320,192,28581,1,2,0:0:0:50:
448,192,28581,1,4,0:0:0:50:
64,192,28867,1,8,0:0:0:50:
320,192,28867,1,2,0:0:0:50:
448,192,28867,1,0,0:0:0:0:
192,192,29154,1,2,0:0:0:50:
64,192,29154,1,8,0:0:0:50:
448,192,29154,1,0,0:0:0:0:
320,192,29440,1,8,0:0:0:50:
192,192,29440,1,2,0:0:0:50:
64,192,29440,1,0,0:0:0:0:
64,192,29727,1,8,0:0:0:50:
320,192,29727,1,0,0:0:0:50:
448,192,29727,1,2,0:0:0:0:
64,192,29918,1,8,0:0:0:50:
192,192,29918,1,0,0:0:0:50:
448,192,29918,1,2,0:0:0:0:
320,192,30109,1,2,0:0:0:50:
192,192,30109,1,8,0:0:0:50:
64,192,30109,1,4,0:0:0:50:
192,192,30395,1,0,0:0:0:50:
320,192,30395,1,8,0:0:0:50:
448,192,30395,1,0,0:0:0:0:
448,192,30682,1,8,0:0:0:50:
192,192,30682,1,0,0:0:0:50:
64,192,30682,1,2,0:0:0:0:
320,192,30968,1,8,0:0:0:50:
448,192,30968,1,2,0:0:0:50:
64,192,30968,128,0,31446:0:0:0:0:
192,192,31064,1,8,0:0:0:50:
448,192,31159,1,8,0:0:0:50:
320,192,31255,1,8,0:0:0:50:
448,192,31350,1,8,0:0:0:50:
192,192,31446,1,8,0:0:0:50:
320,192,31542,1,8,0:0:0:50:
448,192,31637,1,2,0:0:0:50:
192,192,31637,1,8,0:0:0:50:
64,192,31637,1,4,0:0:0:50:
320,192,31924,1,2,0:0:0:50:
448,192,31924,1,8,0:0:0:50:
64,192,31924,1,0,0:0:0:0:
192,192,32210,1,2,0:0:0:50:
320,192,32210,1,8,0:0:0:50:
448,192,32210,1,0,0:0:0:0:
320,192,32497,1,0,0:0:0:50:
192,192,32497,1,8,0:0:0:50:
64,192,32497,1,2,0:0:0:0:
64,192,32783,1,8,0:0:0:50:
320,192,32783,1,0,0:0:0:50:
448,192,32783,1,2,0:0:0:0:
192,192,32974,1,0,0:0:0:50:
64,192,32974,1,8,0:0:0:50:
448,192,32974,1,2,0:0:0:0:
320,192,33165,1,8,0:0:0:50:
192,192,33165,1,2,0:0:0:50:
64,192,33165,1,4,0:0:0:50:
448,192,33452,1,8,0:0:0:50:
192,192,33452,1,2,0:0:0:50:
64,192,33452,1,0,0:0:0:0:
320,192,33738,1,0,0:0:0:50:
448,192,33738,1,8,0:0:0:50:
64,192,33738,1,2,0:0:0:0:
192,192,34025,1,8,0:0:0:50:
320,192,34025,1,2,0:0:0:50:
448,192,34025,1,0,0:0:0:0:
64,192,34311,1,8,0:0:0:50:
192,192,34311,1,2,0:0:0:50:
448,192,34311,1,0,0:0:0:0:
320,192,34502,1,2,0:0:0:50:
448,192,34502,1,8,0:0:0:50:
64,192,34502,1,0,0:0:0:0:
192,192,34693,1,8,0:0:0:50:
320,192,34693,1,2,0:0:0:50:
448,192,34693,1,4,0:0:0:50:
64,192,34980,1,8,0:0:0:50:
320,192,34980,1,2,0:0:0:50:
448,192,34980,1,0,0:0:0:0:
192,192,35266,1,0,0:0:0:50:
64,192,35266,1,8,0:0:0:50:
448,192,35266,1,2,0:0:0:0:
320,192,35553,1,8,0:0:0:50:
192,192,35553,1,2,0:0:0:50:
64,192,35553,1,0,0:0:0:0:
64,192,35839,1,8,0:0:0:50:
320,192,35839,1,2,0:0:0:50:
448,192,35839,1,0,0:0:0:0:
64,192,36031,1,8,0:0:0:50:
192,192,36031,1,0,0:0:0:50:
448,192,36031,1,2,0:0:0:0:
320,192,36222,1,8,0:0:0:50:
192,192,36222,1,2,0:0:0:50:
64,192,36222,1,4,0:0:0:50:
192,192,36508,1,0,0:0:0:50:
320,192,36508,1,8,0:0:0:50:
448,192,36508,1,2,0:0:0:0:
448,192,36795,1,0,0:0:0:50:
192,192,36795,1,8,0:0:0:50:
64,192,36795,1,2,0:0:0:0:
64,192,36986,1,8,0:0:0:50:
320,192,36986,1,2,0:0:0:50:
448,192,36986,1,0,0:0:0:0:
192,192,37272,1,2,0:0:0:50:
320,192,37272,1,8,0:0:0:50:
448,192,37272,1,0,0:0:0:0:
192,192,37559,1,8,0:0:0:50:
64,192,37559,1,2,0:0:0:50:
320,192,37559,1,0,0:0:0:0:
448,192,37750,1,4,0:0:0:50:
192,192,37750,1,8,0:0:0:50:
64,192,37750,1,2,0:0:0:0:
320,192,37941,1,0,0:0:0:50:drum-hitwhistle.wav
64,192,37941,1,0,0:0:0:0:
448,192,38036,1,0,0:0:0:0:
192,192,38132,1,8,0:0:0:50:
320,192,38227,1,0,0:0:0:50:drum-hitfinish.wav
64,192,38227,1,0,0:0:0:0:
448,192,38323,1,0,0:0:0:50:drum-hitwhistle.wav
192,192,38323,1,0,0:0:0:0:
448,192,38514,1,8,0:0:0:50:
64,192,38514,1,0,0:0:0:0:
320,192,38705,1,0,0:0:0:50:drum-hitwhistle.wav
192,192,38705,1,0,0:0:0:0:
448,192,38800,1,0,0:0:0:0:
64,192,38896,1,8,0:0:0:50:
320,192,38991,1,0,0:0:0:50:drum-hitfinish.wav
192,192,38991,1,0,0:0:0:0:
448,192,39087,1,0,0:0:0:50:drum-hitwhistle.wav
64,192,39087,1,0,0:0:0:0:
448,192,39278,1,8,0:0:0:50:
64,192,39278,1,0,0:0:0:0:
320,192,39469,1,0,0:0:0:50:drum-hitwhistle.wav
64,192,39469,1,0,0:0:0:0:
448,192,39564,1,0,0:0:0:0:
192,192,39660,1,8,0:0:0:50:
320,192,39755,1,0,0:0:0:50:drum-hitfinish.wav
64,192,39755,1,0,0:0:0:0:
448,192,39851,1,0,0:0:0:50:drum-hitwhistle.wav
192,192,39851,1,0,0:0:0:0:
448,192,40042,1,8,0:0:0:50:
64,192,40042,1,0,0:0:0:0:
192,192,40233,1,0,0:0:0:50:drum-hitwhistle.wav
448,192,40233,1,0,0:0:0:0:
64,192,40424,1,8,0:0:0:50:
320,192,40424,1,0,0:0:0:0:
320,192,40520,1,0,0:0:0:50:drum-hitfinish.wav
448,192,40615,1,0,0:0:0:50:drum-hitwhistle.wav
192,192,40615,1,0,0:0:0:0:
448,192,40806,1,8,0:0:0:50:
64,192,40806,1,0,0:0:0:0:
192,192,40997,1,0,0:0:0:50:drum-hitwhistle.wav
320,192,40997,1,0,0:0:0:0:
64,192,41093,1,0,0:0:0:0:
448,192,41188,1,8,0:0:0:50:
192,192,41284,1,0,0:0:0:50:drum-hitfinish.wav
320,192,41284,1,0,0:0:0:0:
64,192,41379,1,0,0:0:0:50:drum-hitwhistle.wav
448,192,41379,1,0,0:0:0:0:
64,192,41570,1,8,0:0:0:50:
448,192,41570,1,0,0:0:0:0:
192,192,41761,1,0,0:0:0:50:drum-hitwhistle.wav
448,192,41761,1,0,0:0:0:0:
64,192,41857,1,0,0:0:0:0:
320,192,41952,1,8,0:0:0:50:
192,192,42048,1,0,0:0:0:50:drum-hitfinish.wav
448,192,42048,1,0,0:0:0:0:
64,192,42143,1,0,0:0:0:50:drum-hitwhistle.wav
320,192,42143,1,0,0:0:0:0:
64,192,42334,1,8,0:0:0:50:
448,192,42334,1,0,0:0:0:0:
192,192,42525,1,0,0:0:0:50:drum-hitwhistle.wav
320,192,42525,1,0,0:0:0:0:
64,192,42621,1,0,0:0:0:0:
448,192,42716,1,8,0:0:0:50:
192,192,42812,1,0,0:0:0:50:drum-hitfinish.wav
320,192,42812,1,0,0:0:0:0:
64,192,42907,1,0,0:0:0:50:drum-hitwhistle.wav
448,192,42907,1,0,0:0:0:0:
64,192,43098,1,8,0:0:0:50:
448,192,43098,1,0,0:0:0:0:
192,192,43289,1,0,0:0:0:50:drum-hitwhistle.wav
448,192,43289,1,0,0:0:0:0:
64,192,43385,1,0,0:0:0:0:
320,192,43480,1,8,0:0:0:50:
192,192,43576,1,0,0:0:0:50:drum-hitfinish.wav
448,192,43576,1,0,0:0:0:0:
64,192,43671,1,0,0:0:0:50:drum-hitwhistle.wav
320,192,43671,1,0,0:0:0:0:
192,192,43767,1,0,0:0:0:0:
64,192,43862,1,4,0:0:0:50:
448,192,43862,1,8,0:0:0:50:
192,192,43862,1,0,0:0:0:0:
320,192,43958,1,0,0:0:0:0:
320,192,44053,1,0,0:0:0:50:drum-hitwhistle.wav
192,192,44053,1,0,0:0:0:0:
448,192,44244,1,8,0:0:0:50:
64,192,44244,1,0,0:0:0:0:
320,192,44340,1,0,0:0:0:50:drum-hitfinish.wav
192,192,44340,1,0,0:0:0:0:
448,192,44435,1,0,0:0:0:50:drum-hitwhistle.wav
192,192,44531,1,0,0:0:0:0:
448,192,44627,1,8,0:0:0:50:
64,192,44627,1,0,0:0:0:0:
320,192,44818,1,0,0:0:0:50:drum-hitwhistle.wav
64,192,44818,1,0,0:0:0:0:
192,192,44913,1,0,0:0:0:0:
448,192,45009,1,8,0:0:0:50:
320,192,45104,1,0,0:0:0:50:drum-hitfinish.wav
64,192,45104,1,0,0:0:0:0:
448,192,45200,1,0,0:0:0:50:drum-hitwhistle.wav
192,192,45200,1,0,0:0:0:0:
448,192,45391,1,8,0:0:0:50:
64,192,45391,1,0,0:0:0:0:
192,192,45582,1,0,0:0:0:50:drum-hitwhistle.wav
320,192,45582,1,0,0:0:0:0:
64,192,45677,1,0,0:0:0:0:
448,192,45773,1,8,0:0:0:50:
192,192,45868,1,0,0:0:0:50:drum-hitfinish.wav
320,192,45868,1,0,0:0:0:0:
64,192,45964,1,0,0:0:0:50:drum-hitwhistle.wav
448,192,45964,1,0,0:0:0:0:
64,192,46155,1,8,0:0:0:50:
448,192,46155,1,0,0:0:0:0:
192,192,46346,1,0,0:0:0:50:drum-hitwhistle.wav
448,192,46346,1,0,0:0:0:0:
320,192,46537,1,8,0:0:0:50:
64,192,46537,1,0,0:0:0:0:
64,192,46632,1,0,0:0:0:50:drum-hitfinish.wav
192,192,46728,1,0,0:0:0:50:drum-hitwhistle.wav
448,192,46728,1,0,0:0:0:0:
64,192,46919,1,8,0:0:0:50:
448,192,46919,1,0,0:0:0:0:
320,192,47110,1,0,0:0:0:50:drum-hitwhistle.wav
192,192,47110,1,0,0:0:0:0:
448,192,47205,1,0,0:0:0:0:
64,192,47301,1,8,0:0:0:50:
320,192,47396,1,0,0:0:0:50:drum-hitfinish.wav
192,192,47396,1,0,0:0:0:0:
448,192,47492,1,0,0:0:0:50:drum-hitwhistle.wav
64,192,47492,1,0,0:0:0:0:
448,192,47683,1,8,0:0:0:50:
64,192,47683,1,0,0:0:0:0:
320,192,47874,1,0,0:0:0:50:drum-hitwhistle.wav
64,192,47874,1,0,0:0:0:0:
192,192,48065,1,8,0:0:0:50:
448,192,48065,1,0,0:0:0:0:
320,192,48160,1,0,0:0:0:50:drum-hitfinish.wav
64,192,48160,1,0,0:0:0:0:
448,192,48256,1,0,0:0:0:50:drum-hitwhistle.wav
192,192,48256,1,0,0:0:0:0:
320,192,48351,1,0,0:0:0:0:
448,192,48447,1,8,0:0:0:50:
64,192,48447,128,0,49211:0:0:0:0:
192,192,48590,1,0,0:0:0:0:
320,192,48638,1,0,0:0:0:0:
448,192,48686,128,0,49211:0:0:0:0:
320,192,49020,128,0,49211:0:0:0:0:
192,192,49211,128,0,49402:0:0:0:0:
320,192,49402,128,0,49593:0:0:0:0:
192,192,49593,128,0,49784:0:0:0:0:
320,192,49975,1,2,0:0:0:50:
64,192,49975,1,4,0:0:0:50:
448,192,49975,1,8,0:0:0:50:
192,192,50262,1,2,0:0:0:50:
64,192,50262,1,8,0:0:0:50:
448,192,50262,1,0,0:0:0:0:
320,192,50548,1,2,0:0:0:50:
448,192,50548,1,8,0:0:0:50:
64,192,50548,1,0,0:0:0:0:
192,192,50835,1,8,0:0:0:50:
320,192,50835,1,2,0:0:0:50:
448,192,50835,1,0,0:0:0:0:
64,192,51121,1,8,0:0:0:50:
192,192,51121,1,2,0:0:0:50:
320,192,51121,1,0,0:0:0:0:
448,192,51312,1,8,0:0:0:50:
192,192,51312,1,2,0:0:0:50:
64,192,51312,1,0,0:0:0:0:
320,192,51503,1,8,0:0:0:50:
64,192,51503,1,2,0:0:0:50:
448,192,51503,1,4,0:0:0:50:
192,192,51790,1,2,0:0:0:50:
64,192,51790,1,8,0:0:0:50:
448,192,51790,1,0,0:0:0:0:
320,192,52076,1,2,0:0:0:50:
448,192,52076,1,8,0:0:0:50:
64,192,52076,1,0,0:0:0:0:
192,192,52363,1,2,0:0:0:50:
320,192,52363,1,8,0:0:0:50:
448,192,52363,1,0,0:0:0:0:
64,192,52649,1,8,0:0:0:50:
192,192,52649,1,2,0:0:0:50:
320,192,52649,1,0,0:0:0:0:
448,192,52840,1,8,0:0:0:50:
192,192,52840,1,2,0:0:0:50:
64,192,52840,1,0,0:0:0:0:
448,192,53031,1,2,0:0:0:50:
64,192,53031,1,8,0:0:0:50:
320,192,53031,1,4,0:0:0:50:
448,192,53318,1,0,0:0:0:50:
64,192,53318,1,8,0:0:0:50:
192,192,53318,1,2,0:0:0:0:
64,192,53605,1,8,0:0:0:50:
448,192,53605,1,0,0:0:0:50:
320,192,53605,1,2,0:0:0:0:
448,192,53891,1,2,0:0:0:50:
320,192,53891,1,8,0:0:0:50:
192,192,53891,1,0,0:0:0:0:
320,192,54178,1,0,0:0:0:50:
192,192,54178,1,2,0:0:0:50:
64,192,54178,1,8,0:0:0:0:
64,192,54369,1,8,0:0:0:50:
192,192,54369,1,0,0:0:0:50:
448,192,54369,1,2,0:0:0:0:
320,192,54560,1,2,0:0:0:50:
64,192,54560,1,8,0:0:0:50:
448,192,54560,1,4,0:0:0:50:
192,192,54846,1,2,0:0:0:50:
64,192,54846,1,8,0:0:0:50:
448,192,54846,1,0,0:0:0:0:
320,192,55133,1,2,0:0:0:50:
448,192,55133,1,8,0:0:0:50:
64,192,55133,1,0,0:0:0:0:
192,192,55419,1,2,0:0:0:50:
320,192,55419,1,8,0:0:0:50:
448,192,55419,1,0,0:0:0:0:
64,192,55706,1,2,0:0:0:50:
192,192,55706,1,8,0:0:0:50:
320,192,55706,1,0,0:0:0:0:
448,192,55897,1,2,0:0:0:50:
192,192,55897,1,8,0:0:0:50:
64,192,55897,1,0,0:0:0:0:
448,192,56088,1,2,0:0:0:50:
320,192,56088,1,8,0:0:0:50:
64,192,56088,1,4,0:0:0:50:
192,192,56374,1,2,0:0:0:50:
64,192,56374,1,8,0:0:0:50:
320,192,56374,1,0,0:0:0:0:
448,192,56661,1,8,0:0:0:50:
320,192,56661,1,2,0:0:0:50:
64,192,56661,1,0,0:0:0:0:
192,192,56947,1,8,0:0:0:50:
320,192,56947,1,2,0:0:0:50:
448,192,56947,1,0,0:0:0:0:
320,192,57234,1,8,0:0:0:50:
192,192,57234,1,2,0:0:0:50:
64,192,57234,1,0,0:0:0:0:
64,192,57425,1,8,0:0:0:50:
192,192,57425,1,0,0:0:0:50:
448,192,57425,1,2,0:0:0:0:
448,192,57616,1,8,0:0:0:50:
320,192,57616,1,2,0:0:0:50:
64,192,57616,1,4,0:0:0:50:
192,192,57903,1,2,0:0:0:50:
64,192,57903,1,8,0:0:0:50:
320,192,57903,1,0,0:0:0:0:
448,192,58189,1,8,0:0:0:50:
320,192,58189,1,2,0:0:0:50:
64,192,58189,1,0,0:0:0:0:
192,192,58476,1,2,0:0:0:50:
320,192,58476,1,8,0:0:0:50:
448,192,58476,1,0,0:0:0:0:
320,192,58762,1,8,0:0:0:50:
192,192,58762,1,0,0:0:0:50:
64,192,58762,1,2,0:0:0:0:
64,192,58953,1,8,0:0:0:50:
192,192,58953,1,0,0:0:0:50:
448,192,58953,1,2,0:0:0:0:
64,192,59144,1,8,0:0:0:50:
320,192,59144,1,2,0:0:0:50:
448,192,59144,1,4,0:0:0:50:
320,192,59431,1,0,0:0:0:50:
64,192,59431,1,8,0:0:0:50:
192,192,59431,1,2,0:0:0:0:
64,192,59717,1,8,0:0:0:50:
320,192,59717,1,2,0:0:0:50:
448,192,59717,1,0,0:0:0:0:
448,192,60004,1,8,0:0:0:50:
320,192,60004,1,0,0:0:0:50:
192,192,60004,1,2,0:0:0:0:
64,192,60290,1,8,0:0:0:50:
192,192,60290,1,0,0:0:0:50:
320,192,60290,1,2,0:0:0:0:
448,192,60481,1,8,0:0:0:50:
192,192,60481,1,2,0:0:0:50:
64,192,60481,1,0,0:0:0:0:
448,192,60672,1,8,0:0:0:50:
320,192,60672,1,2,0:0:0:50:
64,192,60672,1,4,0:0:0:50:
192,192,60959,1,0,0:0:0:50:
64,192,60959,1,8,0:0:0:50:
320,192,60959,1,2,0:0:0:0:
448,192,61245,1,8,0:0:0:50:
192,192,61245,1,2,0:0:0:50:
64,192,61245,1,0,0:0:0:0:
64,192,61436,1,8,0:0:0:50:
320,192,61436,1,2,0:0:0:50:
448,192,61436,1,0,0:0:0:0:
320,192,61723,1,8,0:0:0:50:
192,192,61723,1,2,0:0:0:50:
64,192,61723,1,0,0:0:0:0:
64,192,62010,1,8,0:0:0:50:
192,192,62010,1,2,0:0:0:50:
448,192,62010,1,0,0:0:0:0:
448,192,62201,1,8,0:0:0:50:
64,192,62201,1,2,0:0:0:0:
192,192,62392,1,0,0:0:0:0:
448,192,62487,1,0,0:0:0:0:
192,192,62678,1,0,0:0:0:0:
448,192,62774,1,0,0:0:0:0:
448,192,62965,1,0,0:0:0:0:
64,192,62965,1,0,0:0:0:0:
192,192,63156,1,0,0:0:0:0:
448,192,63251,1,0,0:0:0:0:
192,192,63442,1,0,0:0:0:0:
448,192,63538,1,0,0:0:0:0:
448,192,63729,1,0,0:0:0:0:
64,192,63729,1,0,0:0:0:0:
192,192,63920,1,0,0:0:0:0:
448,192,64015,1,0,0:0:0:0:
192,192,64206,1,0,0:0:0:0:
448,192,64302,1,0,0:0:0:0:
64,192,64493,1,0,0:0:0:0:
448,192,64493,1,0,0:0:0:0:
192,192,64684,1,0,0:0:0:0:
448,192,64779,1,0,0:0:0:0:
192,192,64970,1,0,0:0:0:0:
448,192,65066,1,0,0:0:0:0:
448,192,65257,1,0,0:0:0:0:
64,192,65257,1,0,0:0:0:0:
192,192,65448,1,0,0:0:0:0:
448,192,65543,1,0,0:0:0:0:
192,192,65734,1,0,0:0:0:0:
448,192,65830,1,0,0:0:0:0:
64,192,66021,1,0,0:0:0:0:
448,192,66021,1,0,0:0:0:0:
192,192,66212,1,0,0:0:0:0:
448,192,66308,1,0,0:0:0:0:
192,192,66499,1,0,0:0:0:0:
448,192,66594,1,0,0:0:0:0:
448,192,66785,1,0,0:0:0:0:
64,192,66785,1,0,0:0:0:0:
320,192,66976,1,0,0:0:0:0:
64,192,66976,1,0,0:0:0:0:
192,192,67167,1,0,0:0:0:0:
448,192,67263,1,0,0:0:0:0:
192,192,67454,1,0,0:0:0:0:
192,192,67549,1,0,0:0:0:0:
448,192,67645,1,0,0:0:0:0:
192,192,67836,1,0,0:0:0:0:
448,192,67931,1,0,0:0:0:0:
448,192,68122,1,0,0:0:0:0:
64,192,68122,1,0,0:0:0:0:
192,192,68313,1,0,0:0:0:0:
448,192,68409,1,0,0:0:0:0:
192,192,68600,1,0,0:0:0:0:
448,192,68695,1,0,0:0:0:0:
192,192,68886,1,0,0:0:0:0:
448,192,68982,1,0,0:0:0:0:
192,192,69173,1,0,0:0:0:0:
448,192,69268,1,0,0:0:0:0:
192,192,69459,1,0,0:0:0:0:
448,192,69555,1,0,0:0:0:0:
192,192,69746,1,0,0:0:0:0:
448,192,69841,1,0,0:0:0:0:
192,192,70032,1,0,0:0:0:0:
448,192,70128,1,0,0:0:0:0:
192,192,70319,1,0,0:0:0:0:
448,192,70414,1,0,0:0:0:0:
192,192,70605,1,0,0:0:0:0:
448,192,70701,1,0,0:0:0:0:
192,192,70892,1,0,0:0:0:0:
448,192,70988,1,0,0:0:0:0:
448,192,71179,1,0,0:0:0:0:
64,192,71179,1,0,0:0:0:0:
192,192,71370,1,0,0:0:0:8:drum-hitfinish.wav
64,192,71370,1,0,0:0:0:0:
320,192,71465,1,0,0:0:0:10:drum-hitfinish.wav
192,192,71561,1,0,0:0:0:12:drum-hitfinish.wav
64,192,71561,1,0,0:0:0:0:
320,192,71656,1,0,0:0:0:14:drum-hitfinish.wav
448,192,71656,1,0,0:0:0:0:
192,192,71752,1,0,0:0:0:16:drum-hitfinish.wav
448,192,71847,1,0,0:0:0:18:drum-hitfinish.wav
320,192,71847,1,0,0:0:0:0:
192,192,71943,1,0,0:0:0:20:drum-hitfinish.wav
64,192,71943,1,0,0:0:0:0:
448,192,72038,1,0,0:0:0:22:drum-hitfinish.wav
192,192,72134,1,0,0:0:0:24:drum-hitfinish.wav
64,192,72134,1,0,0:0:0:0:
320,192,72229,1,0,0:0:0:26:drum-hitfinish.wav
448,192,72229,1,0,0:0:0:0:
192,192,72325,1,0,0:0:0:28:drum-hitfinish.wav
64,192,72325,1,0,0:0:0:0:
320,192,72420,1,0,0:0:0:30:drum-hitfinish.wav
192,192,72516,1,0,0:0:0:32:drum-hitfinish.wav
64,192,72516,1,0,0:0:0:0:
448,192,72611,1,0,0:0:0:34:drum-hitfinish.wav
320,192,72611,1,0,0:0:0:0:
64,192,72707,1,0,0:0:0:36:drum-hitfinish.wav
320,192,72802,1,0,0:0:0:38:drum-hitfinish.wav
448,192,72802,1,0,0:0:0:0:
64,192,72898,1,0,0:0:0:40:drum-hitfinish.wav
192,192,72898,1,0,0:0:0:0:
320,192,72993,1,0,0:0:0:42:drum-hitfinish.wav
448,192,72993,1,0,0:0:0:0:
192,192,73089,1,0,0:0:0:44:drum-hitfinish.wav
64,192,73184,1,0,0:0:0:46:drum-hitfinish.wav
448,192,73184,1,0,0:0:0:0:
320,192,73280,1,0,0:0:0:48:drum-hitfinish.wav
192,192,73280,1,0,0:0:0:0:
64,192,73375,1,0,0:0:0:50:drum-hitfinish.wav
448,192,73375,1,0,0:0:0:0:
320,192,73471,1,0,0:0:0:52:drum-hitfinish.wav
192,192,73471,1,0,0:0:0:0:
448,192,73566,1,0,0:0:0:54:drum-hitfinish.wav
64,192,73662,1,0,0:0:0:56:drum-hitfinish.wav
192,192,73662,1,0,0:0:0:0:
64,192,73757,1,0,0:0:0:58:drum-hitfinish.wav
192,192,73757,1,0,0:0:0:0:
320,192,73853,1,0,0:0:0:60:drum-hitfinish.wav
448,192,73853,1,0,0:0:0:0:
320,192,73948,1,0,0:0:0:62:drum-hitfinish.wav
448,192,73948,1,0,0:0:0:0:
192,192,74044,1,0,0:0:0:64:drum-hitfinish.wav
64,192,74044,1,0,0:0:0:0:
192,192,74139,1,0,0:0:0:66:drum-hitfinish.wav
64,192,74139,1,0,0:0:0:0:
448,192,74235,1,0,0:0:0:68:drum-hitfinish.wav
320,192,74235,1,0,0:0:0:0:
448,192,74330,1,0,0:0:0:70:drum-hitfinish.wav
320,192,74330,1,0,0:0:0:0:
64,192,74426,1,4,0:0:0:50:
192,192,74426,1,8,0:0:0:50:
320,192,74426,1,2,0:0:0:0:
64,192,74617,1,8,0:0:0:50:
320,192,74617,1,0,0:0:0:0:
448,192,74617,1,2,0:0:0:0:
192,192,74808,1,8,0:0:0:50:
320,192,74808,1,2,0:0:0:0:
448,192,74808,1,0,0:0:0:0:
192,192,74999,1,8,0:0:0:50:
448,192,74999,1,2,0:0:0:0:
64,192,74999,1,0,0:0:0:0:
320,192,75190,1,8,0:0:0:50:
64,192,75190,1,2,0:0:0:0:
192,192,75286,1,0,0:0:0:50:drum-hitfinish.wav
448,192,75286,1,0,0:0:0:0:
64,192,75477,1,8,0:0:0:50:
320,192,75477,1,2,0:0:0:0:
448,192,75572,1,0,0:0:0:0:
192,192,75572,1,0,0:0:0:50:drum-hitfinish.wav
448,192,75763,1,8,0:0:0:50:
64,192,75763,1,0,0:0:0:0:
320,192,75763,1,2,0:0:0:0:
448,192,75954,1,8,0:0:0:0:
192,192,75954,1,0,0:0:0:50:drum-hitfinish.wav
64,192,76145,1,8,0:0:0:50:
320,192,76145,1,2,0:0:0:0:
448,192,76241,1,0,0:0:0:50:drum-hitfinish.wav
192,192,76241,1,10,0:0:0:0:
448,192,76432,1,0,0:0:0:0:
192,192,76432,1,2,0:0:0:0:
64,192,76527,1,10,0:0:0:0:
320,192,76527,1,0,0:0:0:50:drum-hitfinish.wav
192,192,76718,1,2,0:0:0:0:
448,192,76718,1,0,0:0:0:0:
64,192,76814,1,10,0:0:0:50:
320,192,76814,1,0,0:0:0:50:drum-hitfinish.wav
448,192,76909,1,0,0:0:0:0:
320,192,77005,1,0,0:0:0:0:
64,192,77005,1,2,0:0:0:0:
448,192,77100,1,10,0:0:0:0:
192,192,77100,1,0,0:0:0:50:drum-hitfinish.wav
448,192,77291,1,8,0:0:0:50:
192,192,77291,1,2,0:0:0:0:
64,192,77291,1,0,0:0:0:50:drum-hitfinish.wav
64,192,77387,1,0,0:0:0:50:drum-hitfinish.wav
320,192,77482,1,8,0:0:0:50:
448,192,77482,1,4,0:0:0:50:
192,192,77482,1,2,0:0:0:0:
64,192,77673,1,8,0:0:0:50:
448,192,77673,1,0,0:0:0:0:
320,192,77673,1,2,0:0:0:0:
192,192,77864,1,8,0:0:0:50:
64,192,77864,1,0,0:0:0:0:
320,192,77864,1,2,0:0:0:0:
64,192,78055,1,8,0:0:0:50:
448,192,78055,1,0,0:0:0:0:
192,192,78055,1,2,0:0:0:0:
320,192,78246,1,8,0:0:0:50:
448,192,78246,1,2,0:0:0:0:
192,192,78246,1,0,0:0:0:0:
320,192,78437,1,8,0:0:0:50:
448,192,78437,1,0,0:0:0:0:
64,192,78437,1,2,0:0:0:0:
192,192,78628,1,2,0:0:0:0:
64,192,78628,1,0,0:0:0:0:
320,192,78724,1,8,0:0:0:50:
448,192,78724,1,0,0:0:0:50:drum-hitfinish.wav
448,192,78915,1,0,0:0:0:0:
320,192,78915,1,2,0:0:0:0:
192,192,79010,1,8,0:0:0:50:
64,192,79010,1,0,0:0:0:50:drum-hitfinish.wav
320,192,79201,1,0,0:0:0:0:
64,192,79201,1,2,0:0:0:0:
192,192,79297,1,8,0:0:0:50:
448,192,79297,1,0,0:0:0:50:drum-hitfinish.wav
448,192,79488,1,0,0:0:0:0:
320,192,79488,1,2,0:0:0:0:
192,192,79584,1,8,0:0:0:50:
64,192,79584,1,0,0:0:0:50:drum-hitfinish.wav
192,192,79775,1,2,0:0:0:0:
64,192,79775,1,0,0:0:0:0:
320,192,79870,1,8,0:0:0:50:
448,192,79870,1,0,0:0:0:50:drum-hitfinish.wav
64,192,80061,1,0,0:0:0:0:
320,192,80061,1,2,0:0:0:0:
448,192,80157,1,8,0:0:0:50:
192,192,80157,1,0,0:0:0:50:drum-hitfinish.wav
64,192,80348,1,8,0:0:0:50:
448,192,80348,1,2,0:0:0:0:
448,192,80443,1,0,0:0:0:0:
64,192,80539,1,8,0:0:0:50:
320,192,80539,1,4,0:0:0:50:
192,192,80539,1,0,0:0:0:0:
448,192,80634,1,8,0:0:0:50:
64,192,80634,1,0,0:0:0:50:drum-hitfinish.wav
320,192,80825,1,2,0:0:0:0:
64,192,80825,1,0,0:0:0:0:
192,192,80921,1,8,0:0:0:50:
448,192,80921,1,0,0:0:0:50:drum-hitfinish.wav
448,192,81112,1,8,0:0:0:50:
64,192,81112,1,0,0:0:0:0:
320,192,81112,1,2,0:0:0:0:
192,192,81303,1,8,0:0:0:50:
64,192,81303,1,0,0:0:0:50:drum-hitfinish.wav
448,192,81303,1,0,0:0:0:0:
192,192,81494,1,8,0:0:0:50:
64,192,81494,1,0,0:0:0:0:
320,192,81494,1,2,0:0:0:0:
192,192,81685,1,8,0:0:0:50:
320,192,81685,1,0,0:0:0:50:drum-hitfinish.wav
448,192,81685,1,0,0:0:0:0:
448,192,81876,1,0,0:0:0:0:
64,192,81876,1,2,0:0:0:0:
192,192,81971,1,8,0:0:0:50:
320,192,81971,1,0,0:0:0:50:drum-hitfinish.wav
192,192,82162,1,2,0:0:0:0:
448,192,82162,1,0,0:0:0:0:
320,192,82258,1,8,0:0:0:50:
64,192,82353,1,0,0:0:0:0:
192,192,82353,1,2,0:0:0:0:
320,192,82449,1,8,0:0:0:50:
448,192,82449,1,0,0:0:0:50:drum-hitfinish.wav
192,192,82640,1,0,0:0:0:0:
448,192,82640,1,2,0:0:0:0:
320,192,82735,1,8,0:0:0:50:
64,192,82735,1,0,0:0:0:50:drum-hitfinish.wav
320,192,82926,1,0,0:0:0:0:
448,192,82926,1,2,0:0:0:0:
192,192,83022,1,8,0:0:0:50:
64,192,83022,1,0,0:0:0:50:drum-hitfinish.wav
64,192,83213,1,0,0:0:0:0:
320,192,83213,1,2,0:0:0:0:
192,192,83308,1,8,0:0:0:50:
448,192,83308,1,0,0:0:0:50:drum-hitfinish.wav
192,192,83499,1,8,0:0:0:50:
64,192,83499,1,2,0:0:0:0:
192,192,83595,1,8,0:0:0:50:
448,192,83595,1,0,0:0:0:50:drum-hitfinish.wav
64,192,83595,1,4,0:0:0:0:
320,192,83691,1,8,0:0:0:50:
448,192,83691,1,0,0:0:0:50:drum-hitfinish.wav
64,192,83786,1,2,0:0:0:0:
192,192,83882,1,8,0:0:0:50:
320,192,83977,1,0,0:0:0:50:drum-hitfinish.wav
448,192,83977,1,8,0:0:0:0:
64,192,83977,1,0,0:0:0:0:
192,192,84168,1,8,0:0:0:50:
64,192,84168,1,2,0:0:0:0:
320,192,84264,1,0,0:0:0:50:drum-hitfinish.wav
448,192,84264,1,0,0:0:0:0:
64,192,84455,1,8,0:0:0:50:
320,192,84455,1,2,0:0:0:0:
448,192,84550,1,0,0:0:0:50:drum-hitfinish.wav
192,192,84550,1,0,0:0:0:0:
64,192,84741,1,8,0:0:0:50:
192,192,84741,1,2,0:0:0:0:
320,192,84837,1,0,0:0:0:50:drum-hitfinish.wav
448,192,84837,1,0,0:0:0:0:
448,192,85028,1,8,0:0:0:50:
320,192,85028,1,2,0:0:0:0:
192,192,85123,1,0,0:0:0:50:drum-hitfinish.wav
64,192,85123,1,0,0:0:0:0:
448,192,85314,1,8,0:0:0:50:
64,192,85314,1,2,0:0:0:0:
192,192,85410,1,0,0:0:0:50:drum-hitfinish.wav
320,192,85410,1,0,0:0:0:0:
192,192,85601,1,8,0:0:0:50:
448,192,85601,1,2,0:0:0:0:
64,192,85696,1,0,0:0:0:50:drum-hitfinish.wav
320,192,85696,1,0,0:0:0:0:
448,192,85887,1,8,0:0:0:50:
320,192,85887,1,2,0:0:0:0:
192,192,85983,1,0,0:0:0:50:drum-hitfinish.wav
64,192,85983,1,0,0:0:0:0:
320,192,86174,1,8,0:0:0:0:
64,192,86174,1,2,0:0:0:0:
192,192,86269,1,8,0:0:0:50:
448,192,86269,1,0,0:0:0:50:drum-hitfinish.wav
448,192,86460,1,8,0:0:0:50:
64,192,86460,1,0,0:0:0:50:drum-hitfinish.wav
320,192,86460,1,2,0:0:0:0:
192,192,86651,1,8,0:0:0:50:
64,192,86651,1,4,0:0:0:50:
448,192,86651,1,0,0:0:0:50:
320,192,86747,1,0,0:0:0:0:
192,192,86842,1,0,0:0:0:50:drum-hitwhistle.wav
64,192,86842,1,2,0:0:0:0:
320,192,86938,1,2,0:0:0:0:
448,192,86938,1,0,0:0:0:0:
64,192,87033,1,8,0:0:0:50:
448,192,87129,1,0,0:0:0:0:
320,192,87129,1,2,0:0:0:0:
64,192,87224,1,0,0:0:0:50:drum-hitwhistle.wav
192,192,87224,1,2,0:0:0:0:
320,192,87320,1,2,0:0:0:0:
192,192,87415,1,8,0:0:0:50:
448,192,87415,1,2,0:0:0:0:
448,192,87606,1,0,0:0:0:50:drum-hitwhistle.wav
64,192,87606,1,2,0:0:0:0:
192,192,87797,1,8,0:0:0:50:
320,192,87797,1,0,0:0:0:0:
64,192,87797,1,2,0:0:0:0:
320,192,88084,1,8,0:0:0:50:
448,192,88084,1,0,0:0:0:50:drum-hitwhistle.wav
192,192,88084,1,2,0:0:0:0:
64,192,88180,1,0,0:0:0:0:
320,192,88275,1,2,0:0:0:0:
448,192,88275,1,0,0:0:0:0:
192,192,88371,1,2,0:0:0:0:
64,192,88371,1,0,0:0:0:0:
448,192,88466,1,8,0:0:0:50:
192,192,88562,1,2,0:0:0:0:
64,192,88562,1,0,0:0:0:0:
320,192,88657,1,2,0:0:0:0:
448,192,88657,1,0,0:0:0:0:
448,192,88848,1,0,0:0:0:0:
64,192,88848,1,2,0:0:0:0:
192,192,88944,1,10,0:0:0:50:
448,192,88944,1,0,0:0:0:50:drum-hitwhistle.wav
64,192,89039,1,2,0:0:0:0:
192,192,89135,1,2,0:0:0:0:
320,192,89135,1,0,0:0:0:0:
448,192,89230,1,0,0:0:0:0:
320,192,89326,1,10,0:0:0:50:
64,192,89326,1,0,0:0:0:50:drum-hitwhistle.wav
192,192,89517,1,0,0:0:0:0:
448,192,89517,1,0,0:0:0:50:drum-hitfinish.wav
320,192,89708,1,8,0:0:0:50:
448,192,89708,1,4,0:0:0:0:
64,192,89708,1,0,0:0:0:0:
192,192,89803,1,0,0:0:0:0:
448,192,89899,1,0,0:0:0:50:drum-hitwhistle.wav
64,192,89899,1,2,0:0:0:0:
192,192,89994,1,2,0:0:0:0:
320,192,89994,1,0,0:0:0:0:
448,192,90090,1,8,0:0:0:50:
192,192,90185,1,2,0:0:0:0:
320,192,90185,1,0,0:0:0:0:
448,192,90281,1,0,0:0:0:50:drum-hitwhistle.wav
64,192,90281,1,2,0:0:0:0:
320,192,90376,1,2,0:0:0:0:
192,192,90472,1,8,0:0:0:50:
64,192,90472,1,2,0:0:0:0:
64,192,90663,1,0,0:0:0:50:drum-hitwhistle.wav
448,192,90663,1,2,0:0:0:0:
192,192,90949,5,2,0:0:0:0:
320,192,90949,1,8,0:0:0:50:
448,192,90949,1,0,0:0:0:50:drum-hitwhistle.wav
448,192,91236,1,8,0:0:0:50:
64,192,91236,1,2,0:0:0:0:
320,192,91331,1,2,0:0:0:0:
192,192,91427,1,0,0:0:0:50:drum-hitwhistle.wav
64,192,91427,1,2,0:0:0:0:
448,192,91522,1,0,0:0:0:0:
320,192,91618,1,8,0:0:0:50:
64,192,91618,1,2,0:0:0:0:
192,192,91713,1,2,0:0:0:0:
448,192,91713,1,0,0:0:0:0:
320,192,91809,1,0,0:0:0:50:drum-hitwhistle.wav
64,192,91904,1,2,0:0:0:0:
448,192,91904,1,0,0:0:0:0:
192,192,92000,1,8,0:0:0:50:
448,192,92095,1,2,0:0:0:0:
64,192,92095,1,0,0:0:0:0:
192,192,92191,1,0,0:0:0:50:drum-hitwhistle.wav
320,192,92191,1,2,0:0:0:0:
448,192,92286,1,2,0:0:0:0:
320,192,92382,1,8,0:0:0:50:
64,192,92382,1,2,0:0:0:0:
64,192,92573,1,0,0:0:0:0:
448,192,92573,1,0,0:0:0:50:drum-hitfinish.wav
192,192,92764,1,8,0:0:0:50:
64,192,92764,1,4,0:0:0:0:
448,192,92764,1,0,0:0:0:0:
320,192,92860,1,0,0:0:0:0:
192,192,92955,1,0,0:0:0:50:drum-hitwhistle.wav
64,192,92955,1,2,0:0:0:0:
320,192,93051,1,0,0:0:0:0:
448,192,93051,1,2,0:0:0:0:
192,192,93146,1,8,0:0:0:50:
320,192,93242,1,0,0:0:0:0:
448,192,93242,1,2,0:0:0:0:
192,192,93337,1,0,0:0:0:50:drum-hitwhistle.wav
64,192,93337,1,2,0:0:0:0:
448,192,93433,1,0,0:0:0:0:
192,192,93528,1,8,0:0:0:50:
64,192,93528,1,2,0:0:0:0:
448,192,93719,1,0,0:0:0:50:drum-hitwhistle.wav
64,192,93719,1,2,0:0:0:0:
192,192,93910,1,8,0:0:0:50:
320,192,93910,1,2,0:0:0:0:
448,192,93910,1,0,0:0:0:0:
320,192,94197,1,8,0:0:0:50:
448,192,94197,1,0,0:0:0:50:drum-hitwhistle.wav
192,192,94197,1,2,0:0:0:0:
64,192,94292,1,0,0:0:0:0:
448,192,94388,1,0,0:0:0:0:
320,192,94388,1,2,0:0:0:0:
192,192,94483,1,2,0:0:0:0:
64,192,94483,1,0,0:0:0:0:
448,192,94579,1,8,0:0:0:50:
192,192,94674,1,2,0:0:0:0:
64,192,94674,1,0,0:0:0:0:
320,192,94770,1,2,0:0:0:0:
448,192,94770,1,0,0:0:0:0:
448,192,94961,1,0,0:0:0:0:
64,192,94961,1,2,0:0:0:0:
192,192,95056,1,10,0:0:0:50:
448,192,95056,1,0,0:0:0:50:drum-hitwhistle.wav
64,192,95152,1,2,0:0:0:0:
192,192,95247,1,2,0:0:0:0:
320,192,95247,1,0,0:0:0:0:
448,192,95343,1,0,0:0:0:0:
320,192,95438,1,8,0:0:0:50:
64,192,95438,1,0,0:0:0:50:drum-hitwhistle.wav
192,192,95629,1,0,0:0:0:0:
448,192,95629,1,0,0:0:0:50:drum-hitfinish.wav
64,192,95820,1,0,0:0:0:0:
320,192,95820,1,8,0:0:0:50:
448,192,95820,1,4,0:0:0:0:
192,192,95916,1,0,0:0:0:0:
448,192,96011,1,0,0:0:0:50:drum-hitwhistle.wav
64,192,96011,1,2,0:0:0:0:
192,192,96107,1,2,0:0:0:0:
320,192,96107,1,0,0:0:0:0:
448,192,96202,1,8,0:0:0:50:
320,192,96298,1,2,0:0:0:0:
192,192,96298,1,0,0:0:0:0:
64,192,96393,1,0,0:0:0:50:drum-hitwhistle.wav
448,192,96393,1,2,0:0:0:0:
320,192,96489,1,0,0:0:0:0:
192,192,96584,1,8,0:0:0:50:
64,192,96584,1,2,0:0:0:0:
448,192,96776,1,2,0:0:0:0:
64,192,96776,1,0,0:0:0:50:drum-hitwhistle.wav
448,192,97062,1,8,0:0:0:50:
320,192,97062,1,0,0:0:0:50:drum-hitwhistle.wav
192,192,97062,1,2,0:0:0:0:
448,192,97349,1,8,0:0:0:50:
64,192,97349,1,0,0:0:0:10:drum-hitfinish.wav
192,192,97444,1,0,0:0:0:14:drum-hitfinish.wav
64,192,97540,1,0,0:0:0:50:drum-hitwhistle.wav
320,192,97540,1,0,0:0:0:18:drum-hitfinish.wav
448,192,97635,1,0,0:0:0:22:drum-hitfinish.wav
192,192,97635,1,0,0:0:0:0:
320,192,97731,1,8,0:0:0:50:
64,192,97826,1,0,0:0:0:30:drum-hitfinish.wav
192,192,97826,1,0,0:0:0:0:
448,192,97922,1,0,0:0:0:50:drum-hitwhistle.wav
320,192,97922,1,0,0:0:0:34:drum-hitfinish.wav
64,192,98017,1,0,0:0:0:38:drum-hitfinish.wav
320,192,98113,1,8,0:0:0:50:
448,192,98113,1,0,0:0:0:42:drum-hitfinish.wav
192,192,98208,1,0,0:0:0:46:drum-hitfinish.wav
448,192,98304,1,0,0:0:0:50:drum-hitwhistle.wav
64,192,98304,1,0,0:0:0:50:drum-hitfinish.wav
320,192,98399,1,0,0:0:0:54:drum-hitfinish.wav
192,192,98495,1,8,0:0:0:50:
64,192,98495,1,0,0:0:0:58:drum-hitfinish.wav
320,192,98590,1,0,0:0:0:62:drum-hitfinish.wav
448,192,98590,1,0,0:0:0:0:
192,192,98686,1,0,0:0:0:68:drum-hitfinish.wav
64,192,98781,1,8,0:0:0:50:
448,192,98781,1,0,0:0:0:0:
320,192,98781,1,0,0:0:0:70:drum-hitfinish.wav
