osu file format v14

[General]
AudioFilename: audio.mp3
AudioLeadIn: 0
PreviewTime: 9791
Countdown: 0
SampleSet: Soft
StackLeniency: 0.7
Mode: 0
LetterboxInBreaks: 0
WidescreenStoryboard: 0

[Editor]
Bookmarks: 16561,22407,45791,49099,54714,56484,90253,96714,134407,143022,150253,163484,179791
DistanceSpacing: 1
BeatDivisor: 3
GridSize: 32
TimelineZoom: 2.6

[Metadata]
Title:Wie ich bin
TitleUnicode:Wie ich bin
Artist:Cro
ArtistUnicode:Cro
Creator:Cacturne
Version:Trust
Source:
Tags:german deutsch Raop hip pop rap male Maske vocalist panda mask sirmirai mirai takakin Ryaldin kuki1537 muya-
BeatmapID:2917786
BeatmapSetID:1415788

[Difficulty]
HPDrainRate:5
CircleSize:5
OverallDifficulty:8
ApproachRate:9
SliderMultiplier:1.7
SliderTickRate:1

[Events]
//Background and Video events
0,0,"wie ich bin.jpg",0,0
//Break Periods
//Storyboard Layer 0 (Background)
//Storyboard Layer 1 (Fail)
//Storyboard Layer 2 (Pass)
//Storyboard Layer 3 (Foreground)
//Storyboard Layer 4 (Overlay)
//Storyboard Sound Samples

[TimingPoints]
2561,461.538461538462,4,2,1,85,1,0
9484,-200,4,2,1,85,0,0
9945,-100,4,2,1,95,0,0
16253,-100,4,2,2,95,0,0
16714,-100,4,2,1,95,0,0
24714,-100,4,2,1,80,0,0
31022,-100,4,2,2,80,0,0
31176,-142.857142857143,4,2,2,80,0,0
31484,-142.857142857143,4,2,1,80,0,0
32099,-100,4,2,1,80,0,0
48253,-142.857142857143,4,2,1,80,0,0
48714,-100,4,2,1,80,0,0
54253,-100,4,2,1,85,0,0
57945,-100,4,2,1,85,0,0
60561,-100,4,2,2,85,0,0
61022,-100,4,2,1,85,0,0
75330,-100,4,2,2,85,0,0
75791,-100,4,2,1,85,0,0
76407,-100,4,2,1,70,0,0
83330,-200,4,2,1,70,0,0
83791,-100,4,2,1,95,0,0
90099,-100,4,2,2,95,0,0
90561,-100,4,2,1,95,0,0
104868,-100,4,2,2,95,0,0
105330,-100,4,2,1,95,0,0
113330,-100,4,2,1,80,0,0
119637,-100,4,2,2,80,0,0
119791,-142.857142857143,4,2,2,80,0,0
120099,-142.857142857143,4,2,1,80,0,0
120714,-100,4,2,1,80,0,0
127637,-142.857142857143,4,2,1,80,0,0
128099,-100,4,2,1,85,0,0
134407,-100,4,2,2,85,0,0
134868,-100,4,2,1,85,0,0
142407,-133.333333333333,4,2,1,85,0,0
142868,-133.333333333333,4,2,1,70,0,0
146561,-100,4,2,1,70,0,0
149791,-200,4,2,1,70,0,0
150252,-100,4,2,1,95,0,0
156561,-100,4,2,2,95,0,0
157022,-100,4,2,1,95,0,0
171330,-100,4,2,2,95,0,0
171791,-100,4,2,1,95,0,0
179791,-100,4,2,1,70,0,0
181637,-100,4,2,1,60,0,0
183484,-100,4,2,1,50,0,0
185330,-100,4,2,1,40,0,0

[Colours]
Combo1 : 0,74,90
Combo2 : 0,123,126
Combo3 : 85,227,131

[HitObjects]
116,217,9484,6,0,P|102:172|94:157,1,56.6666666666667,12|0,0:0|0:0,0:0:0:0:
112,142,9945,2,0,B|183:114|125:92|210:51,1,113.333333333333,2|2,1:2|0:0,0:0:0:0:
220,58,10407,2,0,B|261:101|261:101|227:164,1,113.333333333333,10|0,0:0|3:2,0:0:0:0:
371,308,10868,2,0,P|292:317|227:334,1,113.333333333333,2|0,3:2|1:2,0:0:0:0:
231,314,11330,2,0,P|209:282|253:220,1,113.333333333333,10|2,0:0|0:2,0:0:0:0:
475,181,11791,6,0,B|437:202|437:202|343:159,1,113.333333333333,2|0,1:2|0:0,0:0:0:0:
350,145,12253,2,0,B|388:77,1,56.6666666666667,10|0,0:0|0:0,0:0:0:0:
451,76,12561,1,2,3:2:0:0:
281,201,12714,2,0,B|208:183|257:145|160:132,1,113.333333333333,2|0,3:2|1:2,0:0:0:0:
152,148,13176,2,0,B|124:200|124:200|162:250,1,113.333333333333,10|10,0:0|0:0,0:0:0:0:
258,372,13637,6,0,P|302:354|298:269,1,113.333333333333,2|0,1:2|0:0,0:0:0:0:
252,170,14099,2,0,P|245:217|304:268,1,113.333333333333,10|0,0:0|3:2,0:0:0:0:
367,235,14561,2,0,P|396:227|441:240,1,56.6666666666667,2|0,3:2|3:2,0:0:0:0:
459,153,14868,2,0,P|482:171|499:215,1,56.6666666666667,2|8,1:2|0:0,0:0:0:0:
367,235,15330,1,2,0:0:0:0:
459,153,15484,6,0,B|468:89|420:87|436:13,1,113.333333333333,0|0,1:0|0:0,0:0:0:0:
370,132,15945,2,0,B|314:144|314:144|259:109,1,113.333333333333,8|4,0:0|0:0,0:0:0:0:
171,53,16407,1,4,0:0:0:0:
76,89,16561,1,4,0:0:0:0:
128,230,16714,1,0,1:2:0:0:
47,206,16868,2,0,P|84:164|139:155,1,113.333333333333,10|10,0:0|0:0,0:0:0:0:
263,214,17330,6,0,P|231:284|210:331,1,113.333333333333,2|0,1:2|0:0,0:0:0:0:
232,347,17791,2,0,P|288:376|345:341,1,113.333333333333,10|2,0:0|0:0,0:0:0:0:
469,186,18253,2,0,B|398:201|443:254|349:290,1,113.333333333333,2|0,0:2|1:2,0:0:0:0:
368,273,18714,2,0,B|336:273|336:273|310:239,1,56.6666666666667,10|0,0:0|0:0,0:0:0:0:
314,151,19022,1,2,0:0:0:0:
444,117,19176,6,0,P|407:118|355:58,1,113.333333333333,2|0,1:2|0:0,0:0:0:0:
396,1,19637,2,0,P|435:5|462:27,1,56.6666666666667,10|0,0:0|0:0,0:0:0:0:
281,45,19945,2,0,B|217:41|243:17|159:8,1,113.333333333333,2|0,3:2|0:2,0:0:0:0:
148,29,20407,1,2,1:2:0:0:
97,94,20561,2,0,B|87:124|87:124|107:148,1,56.6666666666667,10|0,0:0|0:0,0:0:0:0:
182,166,20868,1,10,0:0:0:0:
170,297,21022,6,0,P|94:279|27:265,1,113.333333333333,2|0,1:2|0:0,0:0:0:0:
30,287,21484,2,0,P|8:323|62:374,1,113.333333333333,10|0,0:0|3:2,0:0:0:0:
282,346,21945,2,0,B|349:332|298:299|393:274,1,113.333333333333,2|2,3:2|1:2,0:0:0:0:
393,293,22407,1,8,0:0:0:0:
393,293,22714,1,2,0:0:0:0:
490,197,22868,6,0,B|481:143|481:143|406:137,1,113.333333333333,2|0,1:2|0:0,0:0:0:0:
256,192,23330,2,0,P|290:210|355:167,1,113.333333333333,2|0,0:0|0:0,0:0:0:0:
348,91,23791,2,0,P|289:103|200:106,1,113.333333333333,2|0,0:0|0:0,0:0:0:0:
219,103,24253,1,2,0:0:0:0:
127,23,24561,1,2,0:0:0:0:
68,176,24714,6,0,P|74:240|78:268,1,56.6666666666667,0|0,1:2|0:0,0:0:0:0:
31,339,25022,1,2,0:0:0:0:
37,355,25176,2,0,P|73:374|103:369,1,56.6666666666667,10|0,0:0|0:0,0:0:0:0:
190,272,25484,1,2,3:2:0:0:
174,278,25638,2,0,P|155:314|160:344,1,56.6666666666667,2|0,3:2|0:2,0:0:0:0:
227,363,25945,1,2,1:2:0:0:
309,323,26099,2,0,P|379:303|442:294,1,113.333333333333,10|2,0:0|0:0,0:0:0:0:
390,96,26561,6,0,P|412:114|425:151,1,56.6666666666667,2|0,1:2|0:0,0:0:0:0:
357,206,26868,1,2,0:0:0:0:
331,192,27022,2,0,B|287:189|287:189|270:175|270:175|194:166,1,113.333333333333,10|2,0:0|0:0,0:0:0:0:
163,121,27484,2,0,L|164:51,1,56.6666666666667,2|0,0:0|3:2,0:0:0:0:
228,21,27791,1,2,1:2:0:0:
228,21,28407,6,0,P|188:46|107:18,1,113.333333333333,2|2,1:2|0:0,0:0:0:0:
58,80,28868,2,0,P|50:47|38:12,1,56.6666666666667,10|0,0:0|0:0,0:0:0:0:
123,109,29176,1,2,3:2:0:0:
117,173,29331,2,0,P|109:199|103:227,1,56.6666666666667,2|0,3:2|0:0,0:0:0:0:
138,300,29637,1,2,1:2:0:0:
223,272,29791,2,0,P|206:243|166:225,1,56.6666666666667,10|0,0:0|0:0,0:0:0:0:
138,300,30099,1,2,0:0:0:0:
278,362,30253,6,0,B|338:340|308:310|378:282,1,113.333333333333,2|2,1:2|0:0,0:0:0:0:
385,274,30714,2,0,B|390:248|390:248|373:223,1,56.6666666666667,10|0,0:0|0:0,0:0:0:0:
308,189,31022,1,6,0:0:0:0:
324,108,31176,2,0,P|342:117|358:129,2,39.6666654561361,6|4|2,0:0|0:0|1:2,0:0:0:0:
324,108,32099,6,0,P|358:117|392:140,1,56.6666666666667,2|0,1:2|0:0,0:0:0:0:
390,11,32407,1,2,0:0:0:0:
378,32,32561,2,0,P|337:39|304:22,1,56.6666666666667,10|0,0:0|0:0,0:0:0:0:
238,17,32868,1,2,3:2:0:0:
116,12,33022,2,0,B|143:15|161:26|171:51|170:39|172:58|176:77|161:104,1,113.333333333333,2|2,3:2|1:2,0:0:0:0:
116,161,33484,2,0,L|50:157,1,56.6666666666667,10|0,0:0|0:0,0:0:0:0:
141,179,33791,1,2,0:0:0:0:
200,308,33945,6,0,B|270:290|226:253|333:249,1,113.333333333333,2|2,1:2|0:0,0:0:0:0:
342,306,34407,1,10,0:0:0:0:
125,257,34714,1,2,3:2:0:0:
109,243,34868,2,0,P|85:178|123:110,1,113.333333333333,2|2,3:2|1:2,0:0:0:0:
148,75,35330,2,0,L|129:11,1,56.6666666666667,10|0,0:0|0:0,0:0:0:0:
68,66,35637,1,10,0:0:0:0:
239,141,35791,6,0,P|303:149|376:169,1,113.333333333333,2|0,1:2|0:0,0:0:0:0:
376,189,36253,2,0,P|390:220|375:259,1,56.6666666666667,10|0,0:0|0:0,0:0:0:0:
324,284,36561,1,2,3:2:0:0:
214,350,36714,2,0,P|284:354|349:363,1,113.333333333333,2|2,3:2|1:2,0:0:0:0:
368,357,37176,2,0,P|398:328|393:284,1,56.6666666666667,10|0,0:0|0:0,0:0:0:0:
454,276,37484,1,2,0:0:0:0:
396,150,37637,6,0,B|348:158|348:158|343:165|343:165|284:175,1,113.333333333333,2|0,1:2|0:0,0:0:0:0:
277,194,38099,2,0,L|302:305,1,113.333333333333,2|0,0:0|0:0,0:0:0:0:
270,326,38561,1,2,0:0:0:0:
248,334,38714,1,2,0:0:0:0:
226,327,38868,1,2,0:0:0:0:
209,310,39022,1,2,0:0:0:0:
202,288,39176,1,2,0:0:0:0:
206,265,39330,1,2,0:0:0:0:
209,242,39484,6,0,B|163:205|203:179|122:131,1,113.333333333333,2|0,1:2|0:0,0:0:0:0:
118,68,39945,1,10,0:0:0:0:
36,199,40253,1,2,3:2:0:0:
92,259,40407,2,0,B|41:236|41:236|-7:295,1,113.333333333333,2|0,3:2|1:2,0:0:0:0:
22,299,40868,1,10,0:0:0:0:
152,363,41022,2,0,P|160:336|151:310,1,56.6666666666667,0|2,0:0|0:0,0:0:0:0:
105,187,41330,6,0,B|173:198|148:243|196:249,1,113.333333333333,2|0,1:2|0:0,0:0:0:0:
241,325,41791,1,10,0:0:0:0:
288,183,42099,1,2,3:2:0:0:
381,243,42253,2,0,B|355:185|355:185|400:128,1,113.333333333333,0|2,3:2|1:2,0:0:0:0:
414,140,42714,2,0,L|495:162,1,56.6666666666667,10|0,0:0|0:0,0:0:0:0:
461,81,43022,1,10,0:0:0:0:
314,42,43176,6,0,P|259:71|255:152,1,113.333333333333,2|2,1:2|0:0,0:0:0:0:
248,194,43637,1,10,0:0:0:0:
54,288,43945,1,2,3:2:0:0:
44,218,44099,2,0,P|77:222|124:295,1,113.333333333333,2|0,3:2|1:2,0:0:0:0:
99,366,44561,1,10,0:0:0:0:
99,366,44714,2,0,L|20:357,1,56.6666666666667,0|2,0:0|0:0,0:0:0:0:
208,285,45022,6,0,B|271:293|245:334|314:359,1,113.333333333333,2|2,1:2|0:0,0:0:0:0:
356,273,45484,1,10,0:0:0:0:
191,360,45791,1,2,0:0:0:0:
191,360,46407,1,10,0:0:0:0:
353,258,46714,1,10,0:0:0:0:
316,185,46868,6,0,B|261:168|261:168|261:161|261:161|204:141,1,113.333333333333,2|2,1:2|0:0,0:0:0:0:
163,101,47330,2,0,L|162:24,1,56.6666666666667,10|0,0:0|0:0,0:0:0:0:
235,67,47637,1,2,3:2:0:0:
144,173,47791,1,2,3:2:0:0:
349,313,48099,1,2,1:2:0:0:
348,246,48253,2,0,B|351:210|386:213|379:143,1,79.3333309122722,10|0,0:0|0:0,0:0:0:0:
454,117,48714,6,0,B|478:65|478:65|443:20,1,113.333333333333,2|2,1:2|0:0,0:0:0:0:
379,174,49176,1,10,0:0:0:0:
379,174,49484,1,2,3:2:0:0:
232,186,49637,1,2,3:2:0:0:
424,106,49945,1,2,1:2:0:0:
378,173,50099,2,0,P|327:142|276:103,1,113.333333333333,10|8,0:0|0:0,0:0:0:0:
173,158,50561,6,0,P|168:212|206:260,1,113.333333333333,2|2,1:2|0:0,0:0:0:0:
280,329,51022,2,0,P|270:273|187:266,1,113.333333333333,10|2,0:0|3:2,0:0:0:0:
144,283,51484,2,0,L|81:302,1,56.6666666666667,2|0,3:2|0:2,0:0:0:0:
41,235,51791,1,2,1:2:0:0:
59,105,51945,2,0,P|87:120|177:133,1,113.333333333333,10|2,0:0|0:0,0:0:0:0:
272,105,52407,6,0,P|266:70|179:45,1,113.333333333333,2|2,1:2|0:0,0:0:0:0:
255,197,52868,2,0,B|317:227|295:254|355:290,1,113.333333333333,2|2,0:0|0:0,0:0:0:0:
366,281,53330,2,0,B|413:242|413:242|379:165,1,113.333333333333,2|2,0:0|0:0,0:0:0:0:
364,186,53791,1,2,0:0:0:0:
247,384,54099,1,2,0:0:0:0:
213,305,54253,6,0,B|163:316|163:316|155:313|155:313|102:325,1,113.333333333333,2|0,1:2|0:0,0:0:0:0:
3,373,54714,1,8,0:0:0:0:
99,237,55022,1,2,3:2:0:0:
30,295,55176,2,0,L|-6:161,1,113.333333333333,2|0,3:2|1:2,0:0:0:0:
0,185,55637,2,0,P|32:191|77:175,1,56.6666666666667,10|0,0:0|0:0,0:0:0:0:
113,125,55945,1,2,0:0:0:0:
233,13,56099,6,0,P|216:78|203:157,1,113.333333333333,2|0,1:2|0:0,0:0:0:0:
284,219,56561,1,10,0:0:0:0:
421,87,56868,1,2,3:2:0:0:
342,154,57022,2,0,P|384:151|438:209,1,113.333333333333,2|0,3:2|1:2,0:0:0:0:
504,189,57484,2,0,P|504:225|425:267,1,113.333333333333,2|2,0:0|0:0,0:0:0:0:
377,369,57945,6,0,B|312:354|354:322|265:306,1,113.333333333333,2|2,1:2|0:0,0:0:0:0:
245,312,58407,2,0,B|228:337|228:337|239:371,1,56.6666666666667,8|0,0:0|0:0,0:0:0:0:
387,306,58714,1,2,3:2:0:0:
295,220,58868,2,0,P|237:220|210:149,1,113.333333333333,2|2,3:2|1:2,0:0:0:0:
41,178,59330,2,0,P|70:127|144:139,1,113.333333333333,10|2,0:0|0:0,0:0:0:0:
202,47,59791,5,2,1:2:0:0:
326,173,60099,1,0,0:0:0:0:
260,112,60253,2,0,P|312:101|382:98,1,113.333333333333,8|6,0:0|0:0,0:0:0:0:
476,150,60714,1,6,0:0:0:0:
408,242,60867,1,4,0:0:0:0:
498,353,61021,1,0,1:2:0:0:
392,323,61176,2,0,B|341:331|341:331|337:338|337:338|272:349,1,113.333333333333,10|10,0:0|0:0,0:0:0:0:
274,100,61637,5,2,1:2:0:0:
286,164,61790,1,2,0:0:0:0:
247,222,61945,1,2,0:0:0:0:
183,240,62099,2,0,L|51:210,1,113.333333333333,10|2,0:0|3:2,0:0:0:0:
0,272,62561,1,2,3:2:0:0:
56,345,62714,2,0,P|80:318|93:283,1,56.6666666666667,2|2,0:2|1:2,0:0:0:0:
72,214,63022,2,0,P|50:158|74:65,1,113.333333333333,10|0,0:0|0:0,0:0:0:0:
2,1,63484,5,2,1:2:0:0:
60,36,63637,1,2,0:0:0:0:
126,40,63791,1,2,0:0:0:0:
190,19,63945,2,0,P|185:76|183:97,1,56.6666666666667,10|0,0:0|0:0,0:0:0:0:
226,175,64253,1,2,3:2:0:0:
279,212,64407,2,0,P|311:213|338:193,1,56.6666666666667,2|2,3:2|3:2,0:0:0:0:
362,141,64714,1,2,1:2:0:0:
505,133,64868,2,0,P|472:149|458:229,1,113.333333333333,10|8,0:0|0:0,0:0:0:0:
390,352,65330,6,0,B|330:333|372:296|297:283,1,113.333333333333,2|2,1:2|0:0,0:0:0:0:
270,295,65791,2,0,B|259:321|259:321|272:345,1,56.6666666666667,10|0,0:0|0:0,0:0:0:0:
406,289,66098,1,2,3:2:0:0:
370,194,66253,1,2,3:2:0:0:
347,171,66407,2,0,P|355:139|335:105,1,56.6666666666667,2|2,0:2|1:2,0:0:0:0:
274,73,66714,2,0,P|195:92|145:98,1,113.333333333333,10|2,0:0|0:0,0:0:0:0:
18,160,67176,5,2,1:2:0:0:
24,185,67330,2,0,P|52:192|96:214,1,56.6666666666667,2|2,0:0|0:0,0:0:0:0:
116,293,67637,2,0,P|142:281|234:273,1,113.333333333333,2|2,0:0|0:0,0:0:0:0:
307,361,68099,1,2,0:0:0:0:
295,340,68253,2,0,P|287:306|295:278,1,56.6666666666667,0|2,0:0|0:0,0:0:0:0:
323,201,68561,2,0,P|390:262|430:253,1,113.333333333333,2|2,0:0|0:0,0:0:0:0:
502,39,69022,5,2,1:2:0:0:
483,104,69175,1,2,0:0:0:0:
424,137,69330,1,2,0:0:0:0:
374,93,69484,2,0,B|321:78|321:78|311:83|311:83|252:68,1,113.333333333333,10|2,0:0|3:2,0:0:0:0:
259,88,69945,1,2,3:2:0:0:
185,56,70099,2,0,L|188:-10,1,56.6666666666667,2|2,0:2|1:2,0:0:0:0:
190,136,70407,2,0,P|112:167|72:193,1,113.333333333333,10|0,0:0|0:0,0:0:0:0:
0,368,70869,5,2,1:2:0:0:
56,336,71022,1,2,0:0:0:0:
73,273,71176,1,2,0:0:0:0:
17,233,71330,2,0,L|1:158,1,56.6666666666667,10|0,0:0|0:0,0:0:0:0:
39,94,71638,1,2,3:2:0:0:
79,147,71791,2,0,P|101:117|101:83,1,56.6666666666667,2|2,3:2|3:2,0:0:0:0:
139,182,72099,1,2,1:2:0:0:
188,257,72253,2,0,B|188:322,1,56.6666666666667,10|0,0:0|0:0,0:0:0:0:
235,180,72561,1,8,0:0:0:0:
358,275,72714,6,0,B|401:259|401:259|413:242|413:242|470:217,1,113.333333333333,2|2,1:2|0:0,0:0:0:0:
485,221,73176,2,0,L|498:276,1,56.6666666666667,10|0,0:0|0:0,0:0:0:0:
443,327,73483,1,2,3:2:0:0:
335,195,73638,1,2,3:2:0:0:
346,179,73792,2,0,P|354:147|334:113,1,56.6666666666667,2|2,0:2|1:2,0:0:0:0:
274,73,74099,2,0,P|195:92|145:98,1,113.333333333333,10|2,0:0|0:0,0:0:0:0:
30,250,74561,5,2,1:2:0:0:
58,244,74714,2,0,P|73:211|59:172,1,56.6666666666667,2|2,0:0|0:0,0:0:0:0:
164,309,75022,1,10,0:0:0:0:
155,336,75176,2,0,P|176:365|216:372,1,56.6666666666667,2|6,0:0|0:0,0:0:0:0:
319,341,75484,1,6,0:0:0:0:
367,301,75637,2,0,L|356:228,1,56.6666666666667,6|2,0:0|1:2,0:0:0:0:
228,187,75945,1,10,0:0:0:0:
155,137,76099,2,0,L|166:64,1,56.6666666666667,2|10,0:0|0:0,0:0:0:0:
246,80,76407,6,0,B|165:94|188:-25|82:11,1,170,2|2,0:0|0:0,0:0:0:0:
256,192,77022,12,2,80099,0:0:0:0:
6,78,80561,6,0,P|-12:102|23:193,1,113.333333333333,2|2,0:0|0:0,0:0:0:0:
69,215,81022,2,0,L|127:207,1,56.6666666666667,2|0,0:0|0:0,0:0:0:0:
194,196,81330,1,2,0:0:0:0:
316,303,81484,2,0,P|330:270|305:188,1,113.333333333333,2|2,0:0|0:0,0:0:0:0:
269,355,81945,6,0,P|324:343|380:337,1,113.333333333333,2|2,0:0|0:0,0:0:0:0:
454,297,82407,2,0,P|470:267|421:200,1,113.333333333333,2|2,0:0|0:0,0:0:0:0:
180,198,82868,2,0,B|244:214|220:252|279:279,1,113.333333333333,2|2,0:0|0:0,0:0:0:0:
370,347,83330,2,0,B|396:334|396:334|423:350,1,56.6666666666667,10|0,0:0|0:0,0:0:0:0:
438,341,83791,6,0,B|449:306|417:281|457:281|423:305|435:265|449:306|417:281|399:256|410:214,1,113.333333333333,2|2,1:2|0:0,0:0:0:0:
510,145,84253,2,0,P|455:155|419:103,1,113.333333333333,10|0,0:0|3:2,0:0:0:0:
208,21,84714,2,0,B|217:73|217:73|214:81|214:81|225:143,1,113.333333333333,2|0,3:2|1:2,0:0:0:0:
183,198,85176,2,0,L|48:171,1,113.333333333333,10|2,0:0|0:2,0:0:0:0:
176,348,85637,6,0,B|241:336|202:291|306:277,1,113.333333333333,2|0,1:2|0:0,0:0:0:0:
342,309,86099,2,0,B|359:336|359:336|343:370,1,56.6666666666667,10|0,0:0|0:0,0:0:0:0:
164,274,86407,1,2,3:2:0:0:
321,231,86561,2,0,P|379:220|479:210,1,113.333333333333,2|0,3:2|1:2,0:0:0:0:
461,81,87022,2,0,P|470:153|505:177,1,113.333333333333,10|10,0:0|0:0,0:0:0:0:
250,206,87484,6,0,P|303:156|345:160,1,113.333333333333,2|0,1:2|0:0,0:0:0:0:
78,123,87945,2,0,P|131:172|173:168,1,113.333333333333,10|0,0:0|3:2,0:0:0:0:
230,109,88407,2,0,L|222:33,1,56.6666666666667,2|0,3:2|0:2,0:0:0:0:
314,220,88714,2,0,L|308:276,1,56.6666666666667,2|8,1:2|0:0,0:0:0:0:
427,311,89176,1,2,0:0:0:0:
363,336,89330,6,0,B|310:310|310:310|247:348,1,113.333333333333,0|0,1:0|0:0,0:0:0:0:
147,369,89791,2,0,P|105:323|113:265,1,113.333333333333,8|4,0:0|0:0,0:0:0:0:
206,209,90253,1,4,0:0:0:0:
185,304,90407,1,4,0:0:0:0:
99,189,90560,1,0,1:2:0:0:
195,118,90714,2,0,P|269:102|315:90,1,113.333333333333,10|10,0:0|0:0,0:0:0:0:
454,169,91176,6,0,P|391:208|394:252,1,113.333333333333,2|0,1:2|0:0,0:0:0:0:
489,332,91637,2,0,P|453:266|410:266,1,113.333333333333,10|2,0:0|0:0,0:0:0:0:
315,372,92099,2,0,B|247:356|293:327|202:307,1,113.333333333333,2|0,0:2|1:2,0:0:0:0:
189,320,92561,2,0,B|175:340|175:340|190:368,1,56.6666666666667,10|0,0:0|0:0,0:0:0:0:
325,300,92868,1,2,0:0:0:0:
215,195,93022,6,0,P|141:219|74:224,1,113.333333333333,2|0,1:2|0:0,0:0:0:0:
22,159,93484,2,0,P|27:134|58:109,1,56.6666666666667,10|0,0:0|0:0,0:0:0:0:
76,290,93791,2,0,P|66:332|-18:349,1,113.333333333333,2|0,3:2|0:2,0:0:0:0:
7,288,94253,1,2,1:2:0:0:
140,283,94407,2,0,P|167:286|196:315,1,56.6666666666667,10|0,0:0|0:0,0:0:0:0:
253,373,94714,1,10,0:0:0:0:
376,247,94868,6,0,P|417:230|479:276,1,113.333333333333,2|0,1:2|0:0,0:0:0:0:
256,295,95330,2,0,P|233:219|217:168,1,113.333333333333,10|0,0:0|3:2,0:0:0:0:
51,245,95791,2,0,P|111:268|156:257,1,113.333333333333,2|2,3:2|1:2,0:0:0:0:
222,186,96253,1,8,0:0:0:0:
222,186,96560,1,2,3:2:0:0:
341,143,96714,6,0,P|328:107|264:66,1,113.333333333333,2|0,1:2|0:0,0:0:0:0:
202,305,97176,2,0,B|253:290|246:305|262:317|267:298|253:290|312:275,1,113.333333333333,2|0,0:0|0:0,0:0:0:0:
132,98,97637,2,0,P|108:126|103:203,1,113.333333333333,2|0,0:0|0:0,0:0:0:0:
156,256,98099,1,2,0:0:0:0:
156,256,98407,1,2,0:0:0:0:
235,253,98561,6,0,B|295:235|268:191|338:167,1,113.333333333333,2|2,1:2|0:0,0:0:0:0:
386,160,99022,2,0,B|414:109|414:109|384:63,1,113.333333333333,10|0,0:0|3:2,0:0:0:0:
366,234,99484,2,0,P|440:251|500:270,1,113.333333333333,2|0,3:2|1:2,0:0:0:0:
445,341,99945,2,0,P|390:349|351:294,1,113.333333333333,10|2,0:0|0:2,0:0:0:0:
185,336,100407,6,0,P|188:280|250:253,1,113.333333333333,2|0,1:2|0:0,0:0:0:0:
213,159,100868,2,0,P|246:159|288:181,1,56.6666666666667,10|0,0:0|0:0,0:0:0:0:
323,248,101176,1,2,3:2:0:0:
142,207,101329,2,0,B|69:189|118:151|21:138,1,113.333333333333,2|0,3:2|1:2,0:0:0:0:
32,212,101791,2,0,B|4:264|4:264|42:314,1,113.333333333333,10|10,0:0|0:0,0:0:0:0:
265,325,102253,6,0,P|309:307|305:222,1,113.333333333333,2|0,1:2|0:0,0:0:0:0:
228,121,102714,2,0,P|221:168|280:219,1,113.333333333333,10|0,0:0|3:2,0:0:0:0:
351,176,103176,2,0,P|386:168|416:150,1,56.6666666666667,2|0,3:2|0:2,0:0:0:0:
480,80,103484,2,0,P|454:67|426:62,1,56.6666666666667,2|8,1:2|0:0,0:0:0:0:
358,105,103945,1,2,0:0:0:0:
339,274,104099,6,0,P|411:252|461:245,1,113.333333333333,0|0,1:0|0:0,0:0:0:0:
512,166,104561,2,0,P|472:174|397:117,1,113.333333333333,8|4,0:0|0:0,0:0:0:0:
489,48,105022,1,4,0:0:0:0:
379,80,105176,1,4,0:0:0:0:
224,22,105329,1,0,1:2:0:0:
211,128,105484,2,0,P|230:192|247:247,1,113.333333333333,10|10,0:0|0:0,0:0:0:0:
104,344,105945,6,0,P|188:324|217:350,1,113.333333333333,2|0,1:2|0:0,0:0:0:0:
312,352,106407,2,0,P|396:372|425:346,1,113.333333333333,10|2,0:0|0:0,0:0:0:0:
400,178,106868,2,0,P|374:260|360:315,1,113.333333333333,2|0,0:2|1:2,0:0:0:0:
441,298,107330,2,0,P|468:297|494:268,1,56.6666666666667,10|0,0:0|0:0,0:0:0:0:
325,176,107637,1,2,0:0:0:0:
160,255,107791,6,0,P|64:266|15:278,1,113.333333333333,2|0,1:2|0:0,0:0:0:0:
29,184,108253,2,0,P|14:155|44:114,1,56.6666666666667,10|0,0:0|0:0,0:0:0:0:
218,309,108561,2,0,P|237:271|214:185,1,113.333333333333,2|0,3:2|0:2,0:0:0:0:
152,176,109022,1,2,1:2:0:0:
106,243,109176,2,0,P|141:261|185:251,1,56.6666666666667,10|0,0:0|0:0,0:0:0:0:
227,202,109483,1,10,0:0:0:0:
341,257,109637,6,0,P|401:241|401:198,1,113.333333333333,2|0,1:2|0:0,0:0:0:0:
292,74,110099,2,0,P|299:126|352:132,1,113.333333333333,10|0,0:0|3:2,0:0:0:0:
460,14,110561,2,0,P|444:66|429:132,1,113.333333333333,2|2,3:2|1:2,0:0:0:0:
476,188,111022,1,8,0:0:0:0:
476,188,111329,1,2,0:0:0:0:
469,174,111484,6,0,P|443:143|366:160,1,113.333333333333,2|0,1:2|0:0,0:0:0:0:
263,218,111945,2,0,P|300:230|356:175,1,113.333333333333,2|0,0:0|0:0,0:0:0:0:
325,104,112406,2,0,B|321:106|314:108|306:111|299:113|295:119|291:115|289:115|284:117|278:119|271:120|268:123|264:123|260:125|256:127|251:126|242:128|236:129|230:132|225:133|218:138|213:141|209:142|192:147,1,113.333333333333,2|0,0:0|0:0,0:0:0:0:
201,156,112868,1,2,0:0:0:0:
201,156,113176,1,2,0:0:0:0:
119,258,113330,6,0,P|110:230|16:234,1,113.333333333333,0|2,1:2|0:0,0:0:0:0:
28,338,113791,2,0,P|63:324|102:323,1,56.6666666666667,10|0,0:0|0:0,0:0:0:0:
186,337,114100,1,2,3:2:0:0:
197,360,114253,2,0,P|232:374|271:375,1,56.6666666666667,2|0,3:2|0:2,0:0:0:0:
323,343,114561,1,2,1:2:0:0:
435,359,114714,2,0,B|433:303|402:305|404:221,1,113.333333333333,10|2,0:0|0:0,0:0:0:0:
454,146,115177,6,0,B|411:182|411:182|343:166,1,113.333333333333,2|2,1:2|0:0,0:0:0:0:
290,90,115637,2,0,P|233:82|177:77,1,113.333333333333,8|2,0:0|3:2,0:0:0:0:
99,64,116099,2,0,L|121:188,1,113.333333333333,2|0,3:2|1:2,0:0:0:0:
110,244,116561,1,2,0:0:0:0:
110,244,117022,6,0,P|68:222|61:137,1,113.333333333333,2|0,1:2|0:0,0:0:0:0:
75,81,117484,2,0,P|115:55|192:92,1,113.333333333333,10|2,0:0|3:2,0:0:0:0:
334,189,117945,1,2,3:2:0:0:
335,170,118099,1,0,3:2:0:0:
361,136,118253,1,0,1:2:0:0:
449,157,118407,2,0,B|441:223,1,56.6666666666667,10|0,0:0|0:0,0:0:0:0:
334,189,118715,1,2,0:0:0:0:
309,199,118868,6,0,P|262:174|270:93,1,113.333333333333,2|2,1:2|0:0,0:0:0:0:
198,46,119330,2,0,P|229:24|275:24,1,56.6666666666667,10|0,0:0|0:0,0:0:0:0:
165,127,119637,1,6,0:0:0:0:
165,127,119791,2,0,P|166:151|183:187,2,39.6666654561361,6|4|0,0:0|0:0|1:2,0:0:0:0:
198,46,120253,1,10,0:0:0:0:
198,46,120561,1,8,0:0:0:0:
48,109,120714,6,0,P|36:78|63:44,1,56.6666666666667,2|0,0:0|0:0,0:0:0:0:
140,206,121023,1,2,0:0:0:0:
129,232,121176,2,0,L|46:224,1,56.6666666666667,10|0,0:0|0:0,0:0:0:0:
153,334,121484,1,2,3:2:0:0:
172,338,121637,2,0,P|242:328|294:325,1,113.333333333333,2|2,3:2|1:2,0:0:0:0:
392,373,122099,1,10,0:0:0:0:
417,368,122253,2,0,P|427:341|411:289,1,56.6666666666667,0|2,0:0|0:0,0:0:0:0:
328,224,122561,6,0,B|258:206|302:169|195:165,1,113.333333333333,2|2,1:2|0:0,0:0:0:0:
170,226,123023,1,10,0:0:0:0:
99,190,123177,2,0,B|81:162|81:162|110:121,1,56.6666666666667,0|2,0:0|3:2,0:0:0:0:
103,269,123484,2,0,P|45:300|-21:276,1,113.333333333333,2|2,3:2|1:2,0:0:0:0:
99,190,123946,1,10,0:0:0:0:
125,196,124100,2,0,P|149:207|170:237,1,56.6666666666667,0|10,0:0|0:0,0:0:0:0:
263,352,124407,6,0,B|324:336|282:276|393:266,1,113.333333333333,2|2,1:2|0:2,0:0:0:0:
414,308,124869,2,0,B|418:341|418:341|387:369,1,56.6666666666667,10|0,0:0|0:0,0:0:0:0:
233,280,125177,1,2,0:0:0:0:
204,305,125330,2,0,P|134:309|69:318,1,113.333333333333,2|2,0:0|1:2,0:0:0:0:
29,262,125792,2,0,P|29:234|36:203,1,56.6666666666667,10|0,0:0|0:0,0:0:0:0:
115,167,126100,1,2,0:0:0:0:
258,258,126253,6,0,B|306:250|306:250|311:243|311:243|366:233,1,113.333333333333,2|2,1:2|0:0,0:0:0:0:
377,212,126714,2,0,L|374:143,1,56.6666666666667,2|0,0:0|0:0,0:0:0:0:
434,118,127022,1,2,0:0:0:0:
434,118,127176,2,0,P|466:117|491:100,2,56.6666666666667,2|0|2,0:0|0:0|0:0,0:0:0:0:
375,44,127637,2,0,P|328:29|275:17,1,79.3333309122722,2|2,0:0|0:0,0:0:0:0:
126,35,128099,5,2,1:2:0:0:
99,97,128252,1,2,0:0:0:0:
120,162,128407,1,2,0:0:0:0:
174,202,128561,2,0,L|306:172,1,113.333333333333,10|2,0:0|3:2,0:0:0:0:
384,258,129023,1,2,3:2:0:0:
324,286,129176,2,0,P|315:259|323:232,1,56.6666666666667,2|2,0:2|1:2,0:0:0:0:
376,188,129484,2,0,P|386:126|356:62,1,113.333333333333,10|2,0:0|0:0,0:0:0:0:
79,60,129946,5,2,1:2:0:0:
144,42,130099,1,2,0:0:0:0:
209,25,130253,1,2,0:0:0:0:
276,13,130407,2,0,L|269:91,1,56.6666666666667,10|0,0:0|0:0,0:0:0:0:
338,181,130715,1,2,3:2:0:0:
385,125,130869,2,0,P|353:113|331:111,1,56.6666666666667,2|2,3:2|3:2,0:0:0:0:
262,137,131176,1,2,1:2:0:0:
216,218,131330,2,0,P|219:273|257:313,1,113.333333333333,10|10,0:0|0:0,0:0:0:0:
470,336,131792,6,0,B|410:317|452:280|377:267,1,113.333333333333,2|2,1:2|0:0,0:0:0:0:
365,286,132253,2,0,B|350:311|350:311|369:342,1,56.6666666666667,10|0,0:0|0:0,0:0:0:0:
491,267,132560,1,2,3:2:0:0:
409,142,132715,1,2,3:2:0:0:
378,138,132869,2,0,L|388:193,1,56.6666666666667,2|2,0:2|1:2,0:0:0:0:
315,217,133176,2,0,P|305:152|298:79,1,113.333333333333,10|2,0:0|0:0,0:0:0:0:
121,29,133638,5,2,1:2:0:0:
126,51,133791,2,0,P|108:78|70:95,1,56.6666666666667,2|2,0:0|0:0,0:0:0:0:
44,222,134099,2,0,P|123:184|184:186,1,113.333333333333,10|6,0:0|0:0,0:0:0:0:
265,43,134561,1,6,0:0:0:0:
255,63,134714,2,0,P|253:90|282:121,1,56.6666666666667,6|2,0:0|1:2,0:0:0:0:
387,287,135023,2,0,P|454:226|494:235,1,113.333333333333,10|10,0:0|0:0,0:0:0:0:
275,186,135484,5,2,1:2:0:0:
305,246,135637,1,2,0:0:0:0:
305,314,135792,1,2,0:0:0:0:
254,359,135946,2,0,B|132:334,1,113.333333333333,10|2,0:0|3:2,0:0:0:0:
111,253,136407,1,2,3:2:0:0:
65,322,136561,2,0,P|62:352|83:384,1,56.6666666666667,2|2,0:2|1:2,0:0:0:0:
209,287,136868,2,0,P|240:241|239:185,1,113.333333333333,10|2,0:0|0:0,0:0:0:0:
77,103,137331,5,2,1:2:0:0:
143,90,137484,1,2,0:0:0:0:
209,75,137638,1,2,0:0:0:0:
276,54,137792,2,0,L|260:-21,1,56.6666666666667,10|0,0:0|0:0,0:0:0:0:
264,127,138100,1,2,3:2:0:0:
276,148,138253,2,0,P|308:148|337:128,1,56.6666666666667,2|2,3:2|3:2,0:0:0:0:
263,263,138561,1,2,1:2:0:0:
250,283,138714,2,0,P|183:288|141:238,1,113.333333333333,10|10,0:0|0:0,0:0:0:0:
13,175,139176,5,2,1:2:0:0:
26,160,139330,2,0,P|49:147|94:140,1,56.6666666666667,2|2,0:0|0:0,0:0:0:0:
193,82,139638,1,10,0:0:0:0:
168,87,139792,2,0,P|138:63|124:29,1,56.6666666666667,0|2,0:0|3:2,0:0:0:0:
323,90,140099,1,2,3:2:0:0:
303,113,140253,2,0,L|293:173,1,56.6666666666667,2|2,0:2|1:2,0:0:0:0:
197,247,140561,1,10,0:0:0:0:
173,274,140715,2,0,L|183:334,1,56.6666666666667,0|2,0:0|0:0,0:0:0:0:
48,358,141022,6,0,P|75:344|129:350,1,56.6666666666667,2|2,1:2|0:0,0:0:0:0:
213,228,141330,1,2,0:0:0:0:
197,247,141484,2,0,P|145:223|91:206,1,113.333333333333,10|2,0:0|3:2,0:0:0:0:
22,179,141945,2,0,L|12:123,1,56.6666666666667,2|0,3:2|3:2,0:0:0:0:
75,70,142253,1,2,1:2:0:0:
177,138,142407,2,0,P|200:150|238:153,1,42.5000016212464,10|0,0:0|0:0,0:0:0:0:
284,151,142714,1,8,0:0:0:0:
320,91,142868,5,2,0:0:0:0:
256,192,143022,12,2,146099,0:0:0:0:
476,289,146561,6,0,P|412:281|327:268,1,113.333333333333,2|2,0:0|0:0,0:0:0:0:
294,300,147022,2,0,P|275:328|280:371,1,56.6666666666667,2|0,0:0|0:0,0:0:0:0:
351,354,147330,1,2,0:0:0:0:
304,230,147484,2,0,B|235:221|275:182|176:175,1,113.333333333333,2|2,0:0|0:0,0:0:0:0:
146,136,147945,2,0,B|114:87|114:87|143:40,1,113.333333333333,2|2,0:0|0:0,0:0:0:0:
317,16,148407,6,0,P|367:56|443:38,1,113.333333333333,2|2,0:0|0:0,0:0:0:0:
261,212,148868,2,0,P|285:162|335:138,1,113.333333333333,2|2,0:0|0:0,0:0:0:0:
178,303,149330,2,0,P|164:224|149:146,1,113.333333333333,2|2,0:0|0:0,0:0:0:0:
52,59,149791,2,0,P|55:85|50:60,1,56.6666666666667,10|0,0:0|0:0,0:0:0:0:
31,95,150253,6,0,B|105:96|62:41|159:36,1,113.333333333333,2|2,1:2|0:0,0:0:0:0:
194,0,150714,2,0,B|227:45|227:45|191:92,1,113.333333333333,10|0,0:0|3:2,0:0:0:0:
74,261,151176,2,0,P|133:233|208:269,1,113.333333333333,2|0,3:2|1:2,0:0:0:0:
358,371,151637,2,0,P|306:349|278:301,1,113.333333333333,10|2,0:0|0:2,0:0:0:0:
271,121,152099,6,0,B|319:134|319:134|326:140|326:140|396:158,1,113.333333333333,2|0,1:2|0:0,0:0:0:0:
430,109,152561,2,0,L|451:49,1,56.6666666666667,10|0,0:0|0:0,0:0:0:0:
384,0,152868,1,2,3:2:0:0:
246,42,153022,2,0,P|197:90|212:169,1,113.333333333333,2|0,3:2|1:2,0:0:0:0:
126,235,153484,2,0,P|175:283|160:362,1,113.333333333333,10|10,0:0|0:0,0:0:0:0:
370,343,153945,6,0,P|306:353|256:293,1,113.333333333333,2|0,1:2|0:0,0:0:0:0:
470,204,154407,2,0,P|408:225|392:301,1,113.333333333333,10|0,0:0|3:2,0:0:0:0:
496,360,154868,2,0,P|484:317|478:293,1,56.6666666666667,2|0,3:2|0:2,0:0:0:0:
343,197,155176,2,0,P|347:127|351:50,1,113.333333333333,2|0,1:2|0:0,0:0:0:0:
404,41,155637,1,2,0:0:0:0:
220,121,155791,6,0,B|152:105|191:65|95:53,1,113.333333333333,0|0,1:0|0:0,0:0:0:0:
47,120,156253,2,0,B|9:72|9:72|60:2,1,113.333333333333,8|4,0:0|0:0,0:0:0:0:
115,122,156714,1,4,0:0:0:0:
148,251,156868,1,4,0:0:0:0:
10,274,157021,1,0,1:2:0:0:
101,202,157176,2,0,P|162:186|208:217,1,113.333333333333,10|10,0:0|0:0,0:0:0:0:
327,360,157637,6,0,P|315:306|352:267,1,113.333333333333,2|0,1:2|0:0,0:0:0:0:
331,131,158099,2,0,P|382:147|398:199,1,113.333333333333,10|2,0:0|0:0,0:0:0:0:
481,383,158560,2,0,B|413:367|459:338|368:318,1,113.333333333333,2|0,0:2|1:2,0:0:0:0:
323,309,159022,2,0,B|313:341|313:341|340:378,1,56.6666666666667,10|0,0:0|0:0,0:0:0:0:
488,317,159329,1,2,0:0:0:0:
429,241,159484,6,0,P|418:167|406:98,1,113.333333333333,2|0,1:2|0:0,0:0:0:0:
450,64,159945,2,0,P|468:52|513:67,1,56.6666666666667,10|0,0:0|0:0,0:0:0:0:
319,136,160253,2,0,B|259:122|259:122|256:117|256:117|177:95,1,113.333333333333,2|0,3:2|3:2,0:0:0:0:
147,144,160714,1,2,1:2:0:0:
79,77,160868,2,0,L|97:6,1,56.6666666666667,10|0,0:0|0:0,0:0:0:0:
59,165,161175,1,10,0:0:0:0:
178,271,161330,6,0,P|116:278|78:351,1,113.333333333333,2|0,1:2|0:0,0:0:0:0:
280,356,161791,2,0,P|288:277|294:223,1,113.333333333333,10|0,0:0|3:2,0:0:0:0:
462,360,162253,2,0,P|406:356|367:316,1,113.333333333333,2|2,3:2|1:2,0:0:0:0:
361,200,162714,1,8,0:0:0:0:
440,287,163021,1,2,0:0:0:0:
280,356,163176,6,0,P|218:345|154:333,1,113.333333333333,2|0,1:2|0:0,0:0:0:0:
74,114,163637,2,0,P|114:158|51:214,1,113.333333333333,2|0,0:0|0:0,0:0:0:0:
1,382,164099,2,0,P|21:332|75:328,1,113.333333333333,2|0,0:0|0:0,0:0:0:0:
168,335,164560,1,2,0:0:0:0:
168,335,164868,1,2,0:0:0:0:
76,172,165022,6,0,P|138:158|206:141,1,113.333333333333,2|2,1:2|0:0,0:0:0:0:
249,106,165484,2,0,P|264:50|191:-2,1,113.333333333333,10|0,0:0|3:2,0:0:0:0:
250,266,165945,2,0,P|258:208|345:189,1,113.333333333333,2|0,3:2|1:2,0:0:0:0:
222,348,166407,2,0,B|157:331|192:296|97:289,1,113.333333333333,10|2,0:0|0:2,0:0:0:0:
5,173,166868,6,0,B|71:161|36:126|101:109,1,113.333333333333,2|0,1:2|0:0,0:0:0:0:
137,31,167330,2,0,B|164:48|164:48|173:91,1,56.6666666666667,10|0,0:0|0:0,0:0:0:0:
163,161,167637,1,2,3:2:0:0:
36,307,167791,2,0,B|96:303|96:303|125:358,1,113.333333333333,2|0,3:2|1:2,0:0:0:0:
243,369,168253,2,0,P|309:368|331:318,1,113.333333333333,10|10,0:0|0:0,0:0:0:0:
286,158,168714,6,0,P|267:250|258:286,1,113.333333333333,2|0,1:2|0:0,0:0:0:0:
438,274,169176,2,0,P|373:238|328:280,1,113.333333333333,10|0,0:0|3:2,0:0:0:0:
152,290,169637,2,0,P|188:308|227:297,1,56.6666666666667,2|0,3:2|0:2,0:0:0:0:
48,228,169945,2,0,P|84:210|123:221,1,56.6666666666667,2|8,1:2|0:0,0:0:0:0:
262,268,170406,1,2,0:0:0:0:
339,274,170560,6,0,P|411:252|461:245,1,113.333333333333,0|0,1:0|0:0,0:0:0:0:
512,166,171022,2,0,P|472:174|397:117,1,113.333333333333,8|4,0:0|0:0,0:0:0:0:
329,145,171483,1,4,0:0:0:0:
249,69,171637,1,4,0:0:0:0:
179,206,171790,1,0,1:2:0:0:
111,146,171945,2,0,P|51:151|32:207,1,113.333333333333,10|10,0:0|0:0,0:0:0:0:
19,318,172407,6,0,P|92:300|160:291,1,113.333333333333,2|0,1:2|0:0,0:0:0:0:
191,347,172868,2,0,P|259:371|320:339,1,113.333333333333,10|2,0:0|0:0,0:0:0:0:
347,204,173330,2,0,P|321:266|352:305,1,113.333333333333,2|0,0:2|1:2,0:0:0:0:
422,333,173791,2,0,P|449:332|491:343,1,56.6666666666667,10|0,0:0|0:0,0:0:0:0:
456,266,174098,1,2,0:0:0:0:
248,300,174253,6,0,P|238:234|224:153,1,113.333333333333,2|0,1:2|0:0,0:0:0:0:
109,184,174714,2,0,P|143:188|179:158,1,56.6666666666667,10|0,0:0|0:0,0:0:0:0:
246,94,175022,2,0,B|315:91|277:39|388:37,1,113.333333333333,2|0,3:2|3:2,0:0:0:0:
391,92,175483,1,2,1:2:0:0:
479,56,175637,2,0,B|492:28|492:28|466:-5,1,56.6666666666667,10|0,0:0|0:0,0:0:0:0:
469,166,175944,1,10,0:0:0:0:
296,194,176099,6,0,P|390:209|390:252,1,113.333333333333,2|0,1:2|0:0,0:0:0:0:
93,225,176560,2,0,P|172:247|205:205,1,113.333333333333,10|0,0:0|3:2,0:0:0:0:
232,156,177022,2,0,P|238:88|240:20,1,113.333333333333,2|2,3:2|1:2,0:0:0:0:
188,7,177483,1,8,0:0:0:0:
188,7,177790,1,2,0:0:0:0:
170,23,177945,6,0,P|128:43|49:13,1,113.333333333333,2|0,1:2|0:0,0:0:0:0:
232,156,178407,2,0,P|285:140|336:161,1,113.333333333333,2|0,0:0|0:0,0:0:0:0:
248,359,178868,2,0,P|222:294|202:251,1,113.333333333333,2|0,0:0|0:0,0:0:0:0:
284,207,179330,1,2,0:0:0:0:
177,357,179637,1,2,0:0:0:0:
256,192,179791,12,0,187176,0:0:0:0:
