osu file format v14

[General]
AudioFilename: audio.mp3
AudioLeadIn: 0
PreviewTime: 9791
Countdown: 0
SampleSet: Soft
StackLeniency: 0.3
Mode: 0
LetterboxInBreaks: 0
WidescreenStoryboard: 1

[Editor]
Bookmarks: 39484,59022
DistanceSpacing: 1.3
BeatDivisor: 3
GridSize: 16
TimelineZoom: 2.6

[Metadata]
Title:Wie ich bin
TitleUnicode:Wie ich bin
Artist:Cro
ArtistUnicode:Cro
Creator:Cacturne
Version:Ryaldin's Hard
Source:
Tags:german deutsch Raop hip pop rap male Maske vocalist panda mask sirmirai mirai takakin Ryaldin kuki1537 muya-
BeatmapID:2964477
BeatmapSetID:1415788

[Difficulty]
HPDrainRate:5
CircleSize:3.2
OverallDifficulty:6.5
ApproachRate:7.8
SliderMultiplier:1.5
SliderTickRate:1

[Events]
//Background and Video events
0,0,"wie ich bin.jpg",0,0
//Break Periods
2,80299,81945
2,146299,148407
//Storyboard Layer 0 (Background)
//Storyboard Layer 1 (Fail)
//Storyboard Layer 2 (Pass)
//Storyboard Layer 3 (Foreground)
//Storyboard Layer 4 (Overlay)
//Storyboard Sound Samples

[TimingPoints]
2561,461.538461538462,4,2,1,85,1,0
9484,-200,4,2,1,85,0,0
9945,-83.3333333333333,4,2,1,95,0,0
16253,-83.3333333333333,4,2,2,95,0,0
16714,-83.3333333333333,4,2,1,95,0,0
24714,-83.3333333333333,4,2,1,80,0,0
31022,-83.3333333333333,4,2,2,80,0,0
31484,-83.3333333333333,4,2,1,80,0,0
54253,-83.3333333333333,4,2,1,85,0,0
57484,-125,4,2,1,85,0,0
57945,-83.3333333333333,4,2,1,85,0,0
60561,-83.3333333333333,4,2,2,85,0,0
61022,-83.3333333333333,4,2,1,85,0,0
75330,-83.3333333333333,4,2,2,85,0,0
75791,-83.3333333333333,4,2,1,85,0,0
76407,-142.857142857143,4,2,1,70,0,0
83330,-200,4,2,1,70,0,0
83791,-83.3333333333333,4,2,1,95,0,0
90099,-83.3333333333333,4,2,2,95,0,0
90561,-83.3333333333333,4,2,1,95,0,0
104868,-83.3333333333333,4,2,2,95,0,0
105330,-83.3333333333333,4,2,1,95,0,0
113330,-83.3333333333333,4,2,1,80,0,0
117022,-111.111111111111,4,2,1,80,0,0
117330,-83.3333333333333,4,2,1,80,0,0
119637,-83.3333333333333,4,2,2,80,0,0
120099,-83.3333333333333,4,2,1,80,0,0
120714,-111.111111111111,4,2,1,80,0,0
121022,-83.3333333333333,4,2,1,80,0,0
127637,-125,4,2,1,80,0,0
128099,-83.3333333333333,4,2,1,85,0,0
134407,-83.3333333333333,4,2,2,85,0,0
134868,-83.3333333333333,4,2,1,85,0,0
141945,-111.111111111111,4,2,1,85,0,0
142868,-111.111111111111,4,2,1,70,0,0
146561,-100,4,2,1,70,0,0
149791,-200,4,2,1,70,0,0
150252,-83.3333333333333,4,2,1,95,0,0
156561,-83.3333333333333,4,2,2,95,0,0
157022,-83.3333333333333,4,2,1,95,0,0
165022,-142.857142857143,4,2,1,95,0,0
165330,-83.3333333333333,4,2,1,95,0,0
171330,-83.3333333333333,4,2,2,95,0,0
171791,-83.3333333333333,4,2,1,95,0,0
179791,-100,4,2,1,70,0,0
181637,-100,4,2,1,60,0,0
183484,-100,4,2,1,50,0,0
185330,-100,4,2,1,40,0,0

[Colours]
Combo1 : 0,74,90
Combo2 : 0,123,126
Combo3 : 85,227,131

[HitObjects]
135,213,9484,6,0,L|65:221,1,50,12|0,0:0|0:0,0:0:0:0:
60,202,9945,2,0,L|230:180,1,119.999996337891,2|2,1:2|0:0,0:0:0:0:
257,177,10407,2,0,L|427:155,1,119.999996337891,10|0,0:0|3:2,0:0:0:0:
455,147,10868,2,0,L|468:52,1,59.9999981689454,2|0,3:2|3:0,0:0:0:0:
376,161,11176,1,0,1:2:0:0:
376,161,11330,2,0,L|350:324,1,119.999996337891,10|2,0:0|0:2,0:0:0:0:
291,329,11791,6,0,L|63:357,2,179.999994506836,2|10|2,1:2|0:0|3:2,0:0:0:0:
445,309,13022,1,0,1:2:0:0:
445,309,13176,2,0,L|460:198,1,59.9999981689454,10|0,0:0|0:0,0:0:0:0:
466,172,13484,1,10,0:0:0:0:
376,113,13637,6,0,L|348:341,2,179.999994506836,2|10|2,1:2|0:0|3:2,0:0:0:0:
268,172,14868,1,2,1:2:0:0:
268,172,15022,2,0,L|247:337,1,119.999996337891,8|2,0:0|0:0,0:0:0:0:
214,359,15484,2,0,L|235:180,1,179.999994506836,0|8,1:0|0:0,0:0:0:0:
142,55,16253,5,4,0:0:0:0:
218,69,16407,2,0,L|329:84,2,59.9999981689454,4|4|0,0:0|0:0|1:2,0:0:0:0:
142,55,16868,1,10,0:0:0:0:
354,112,17176,5,10,0:0:0:0:
354,112,17330,2,0,L|126:140,2,179.999994506836,2|10|2,1:2|0:0|0:2,0:0:0:0:
231,208,18561,1,0,1:2:0:0:
231,208,18714,2,0,L|88:226,1,119.999996337891,10|2,0:0|0:0,0:0:0:0:
44,263,19176,2,0,L|222:241,2,179.999994506836,2|10|2,1:2|0:0|3:2,0:0:0:0:
208,360,20407,5,2,1:2:0:0:
208,360,20561,2,0,L|227:198,1,119.999996337891,10|10,0:0|0:0,0:0:0:0:
298,224,21022,2,0,L|319:45,2,179.999994506836,2|10|2,1:2|0:0|3:2,0:0:0:0:
164,304,22253,1,2,1:2:0:0:
164,304,22407,2,0,L|326:323,1,119.999996337891,8|2,0:0|0:0,0:0:0:0:
360,328,22868,2,0,L|381:149,3,179.999994506836,2|2|2|2,1:2|0:0|0:0|0:0,0:0:0:0:
280,28,24561,5,2,0:0:0:0:
280,28,24714,1,0,1:2:0:0:
182,149,25022,6,0,L|71:164,1,59.9999981689454,2|10,0:0|0:0,0:0:0:0:
301,129,25484,2,0,L|412:114,1,59.9999981689454,2|2,3:2|3:2,0:0:0:0:
243,223,25945,1,2,1:2:0:0:
243,223,26099,2,0,L|369:206,1,119.999996337891,10|2,0:0|0:0,0:0:0:0:
443,281,26561,6,0,L|458:170,1,59.9999981689454,2|0,1:2|0:0,0:0:0:0:
463,144,26868,1,2,0:0:0:0:
463,144,27022,2,0,L|478:33,2,59.9999981689454,10|0|2,0:0|0:0|0:0,0:0:0:0:
443,281,27484,5,2,0:0:0:0:
443,281,27791,1,2,1:2:0:0:
443,281,28407,2,0,L|455:192,1,59.9999981689454,2|0,1:2|0:0,0:0:0:0:
386,119,28714,5,2,0:0:0:0:
386,119,28868,2,0,L|267:138,1,119.999996337891,10|2,0:0|3:2,0:0:0:0:
238,211,29330,2,0,L|139:226,1,59.9999981689454,2|0,3:2|0:0,0:0:0:0:
116,173,29637,1,2,1:2:0:0:
116,173,29791,1,10,0:0:0:0:
133,299,30099,5,2,0:0:0:0:
133,299,30253,2,0,L|305:314,1,119.999996337891,2|2,1:2|0:0,0:0:0:0:
330,318,30714,1,10,0:0:0:0:
407,176,31022,1,6,0:0:0:0:
407,176,31176,2,0,L|395:87,1,59.9999981689454,6|4,0:0|0:0,0:0:0:0:
319,114,31484,2,0,L|307:25,1,59.9999981689454,2|0,1:2|0:0,0:0:0:0:
310,54,32099,6,0,L|157:71,1,119.999996337891,2|2,1:2|0:0,0:0:0:0:
112,78,32561,1,10,0:0:0:0:
212,218,32868,1,2,3:2:0:0:
236,143,33022,1,2,3:2:0:0:
189,291,33330,1,2,1:2:0:0:
189,291,33484,2,0,L|70:310,1,119.999996337891,10|2,0:0|0:0,0:0:0:0:
145,332,33945,2,0,L|356:300,1,179.999994506836,2|10,1:2|0:0,0:0:0:0:
368,155,34714,5,2,3:2:0:0:
368,155,34868,2,0,L|252:170,1,59.9999981689454,2|0,3:2|3:2,0:0:0:0:
230,172,35176,1,2,1:2:0:0:
230,172,35330,2,0,L|170:179,1,59.9999981689454,10|0,0:0|0:0,0:0:0:0:
92,189,35637,1,10,0:0:0:0:
92,189,35791,2,0,L|73:351,1,119.999996337891,2|0,1:2|0:0,0:0:0:0:
151,335,36253,5,10,0:0:0:0:
307,208,36561,1,2,3:2:0:0:
232,231,36714,1,2,3:2:0:0:
369,298,37022,1,2,1:2:0:0:
441,269,37176,2,0,L|460:107,1,119.999996337891,10|2,0:0|0:0,0:0:0:0:
390,100,37637,6,0,L|378:11,1,59.9999981689454,2|0,1:2|0:0,0:0:0:0:
315,267,38099,6,0,L|303:178,1,59.9999981689454,2|0,0:0|0:0,0:0:0:0:
193,192,38561,6,0,L|181:103,2,59.9999981689454,2|2|2,0:0|0:0|0:0,0:0:0:0:
122,239,39022,6,0,L|134:328,2,59.9999981689454,2|2|2,0:0|0:0|0:0,0:0:0:0:
211,327,39484,6,0,L|389:349,2,179.999994506836,2|10|2,1:2|0:0|3:2,0:0:0:0:
56,306,40714,1,0,1:2:0:0:
56,306,40868,2,0,L|37:187,1,119.999996337891,10|2,0:0|0:0,0:0:0:0:
55,111,41330,6,0,L|84:291,2,179.999994506836,2|10|0,1:2|0:0|3:2,0:0:0:0:
186,27,42561,5,2,1:2:0:0:
256,59,42714,2,0,L|375:40,1,119.999996337891,10|10,0:0|0:0,0:0:0:0:
306,130,43176,2,0,L|95:162,1,179.999994506836,2|10,1:2|0:0,0:0:0:0:
272,335,43945,1,2,3:2:0:0:
272,335,44099,2,0,L|291:216,1,119.999996337891,2|0,3:2|1:2,0:0:0:0:
364,189,44561,6,0,L|378:102,2,59.9999981689454,10|0|2,0:0|0:0|0:0,0:0:0:0:
439,207,45022,2,0,L|458:88,1,119.999996337891,2|2,1:2|0:0,0:0:0:0:
457,88,45484,1,10,0:0:0:0:
313,28,45791,2,0,L|253:36,1,59.9999981689454,2|0,0:0|0:0,0:0:0:0:
98,57,46253,5,2,0:0:0:0:
98,57,46407,1,10,0:0:0:0:
188,195,46714,1,10,0:0:0:0:
188,195,46868,2,0,L|321:173,1,119.999996337891,2|2,1:2|0:0,0:0:0:0:
321,252,47330,2,0,L|188:274,1,119.999996337891,10|2,0:0|3:2,0:0:0:0:
148,350,47791,2,0,L|166:170,2,179.999994506836,2|10|2,3:2|0:0|1:2,0:0:0:0:
339,237,49022,5,2,0:0:0:0:
339,237,49176,1,10,0:0:0:0:
268,341,49484,1,2,3:2:0:0:
268,341,49637,2,0,L|112:353,1,119.999996337891,2|2,3:2|1:2,0:0:0:0:
76,319,50099,2,0,L|232:307,1,119.999996337891,10|8,0:0|0:0,0:0:0:0:
273,302,50561,6,0,L|287:215,1,59.9999981689454,2|0,1:2|0:0,0:0:0:0:
296,165,50868,1,2,0:0:0:0:
307,85,51022,2,0,L|127:103,2,179.999994506836,10|2|10,0:0|3:2|0:0,0:0:0:0:
451,67,52253,1,2,0:0:0:0:
451,67,52407,1,2,1:2:0:0:
206,293,54253,6,0,L|384:315,1,179.999994506836,2|8,1:2|0:0,0:0:0:0:
246,349,55022,1,2,3:2:0:0:
246,349,55176,2,0,L|121:360,1,119.999996337891,2|0,3:2|1:2,0:0:0:0:
73,281,55637,6,0,L|92:162,1,119.999996337891,10|2,0:0|0:0,0:0:0:0:
110,86,56099,2,0,L|129:205,1,119.999996337891,2|0,1:2|0:0,0:0:0:0:
152,324,56561,1,10,0:0:0:0:
152,324,56868,5,2,3:2:0:0:
229,312,57022,2,0,L|301:302,2,59.9999981689454,2|0|0,3:2|3:2|1:2,0:0:0:0:
304,331,57484,6,0,L|404:315,1,80,2|2,0:0|0:0,0:0:0:0:
459,303,57945,2,0,L|478:145,1,119.999996337891,2|2,1:2|0:0,0:0:0:0:
482,105,58407,1,8,0:0:0:0:
482,105,58714,1,2,3:2:0:0:
405,121,58868,2,0,L|345:129,1,59.9999981689454,2|0,3:2|3:2,0:0:0:0:
271,144,59176,1,2,1:2:0:0:
271,144,59330,2,0,L|98:166,1,119.999996337891,10|2,0:0|0:0,0:0:0:0:
57,195,59791,2,0,L|235:217,1,179.999994506836,2|8,1:2|0:0,0:0:0:0:
422,276,60561,5,6,0:0:0:0:
422,276,60714,2,0,L|436:189,2,59.9999981689454,6|4|0,0:0|0:0|1:2,0:0:0:0:
367,171,61176,2,0,L|381:84,1,59.9999981689454,10|0,0:0|0:0,0:0:0:0:
390,34,61484,1,10,0:0:0:0:
248,53,61637,6,0,L|188:61,1,59.9999981689454,2|2,1:2|0:0,0:0:0:0:
110,73,61945,1,2,0:0:0:0:
185,92,62099,2,0,L|12:114,1,119.999996337891,10|2,0:0|3:2,0:0:0:0:
12,218,62561,6,0,L|72:226,1,59.9999981689454,2|2,3:2|0:2,0:0:0:0:
150,238,62869,1,2,1:2:0:0:
75,257,63023,2,0,L|248:279,1,119.999996337891,10|0,0:0|0:0,0:0:0:0:
329,358,63484,6,0,L|343:271,1,59.9999981689454,2|2,1:2|0:0,0:0:0:0:
354,225,63791,1,2,0:0:0:0:
354,225,63945,2,0,L|375:68,1,119.999996337891,10|2,0:0|3:2,0:0:0:0:
423,48,64407,6,0,L|418:112,1,59.9999981689454,2|2,3:2|3:2,0:0:0:0:
461,179,64714,1,2,1:2:0:0:
461,179,64868,2,0,L|454:249,1,59.9999981689454,10|0,0:0|0:0,0:0:0:0:
447,316,65176,1,8,0:0:0:0:
273,346,65330,6,0,L|380:327,2,59.9999981689454,2|2|2,1:2|0:0|0:0,0:0:0:0:
194,355,65791,2,0,L|215:198,1,119.999996337891,10|2,0:0|3:2,0:0:0:0:
163,120,66253,6,0,L|153:60,2,59.9999981689454,2|2|2,3:2|0:2|1:2,0:0:0:0:
197,189,66714,2,0,L|181:316,1,119.999996337891,10|2,0:0|0:0,0:0:0:0:
274,349,67176,5,2,1:2:0:0:
274,349,67330,2,0,L|373:331,1,59.9999981689454,2|2,0:0|0:0,0:0:0:0:
398,294,67637,2,0,L|246:325,1,119.999996337891,2|2,0:0|0:0,0:0:0:0:
202,331,68099,6,0,L|192:271,2,59.9999981689454,2|0|2,0:0|0:0|0:0,0:0:0:0:
232,183,68561,2,0,L|115:206,1,119.999996337891,2|2,0:0|0:0,0:0:0:0:
60,89,69022,6,0,L|1:100,2,59.9999981689454,2|2|2,1:2|0:0|0:0,0:0:0:0:
136,72,69484,2,0,L|194:60,1,59.9999981689454,10|0,0:0|0:0,0:0:0:0:
81,9,69791,5,2,3:2:0:0:
65,103,69945,2,0,L|6:114,2,59.9999981689454,2|2|2,3:2|0:2|1:2,0:0:0:0:
142,115,70407,2,0,L|296:85,1,119.999996337891,10|0,0:0|0:0,0:0:0:0:
354,171,70868,6,0,L|344:231,2,59.9999981689454,2|2|2,1:2|0:0|0:0,0:0:0:0:
331,310,71330,1,10,0:0:0:0:
331,310,71637,1,2,3:2:0:0:
407,293,71791,2,0,L|506:275,1,59.9999981689454,2|2,3:2|3:2,0:0:0:0:
451,208,72099,1,2,1:2:0:0:
451,208,72253,2,0,L|333:230,1,119.999996337891,10|8,0:0|0:0,0:0:0:0:
219,316,72714,6,0,L|120:334,1,59.9999981689454,2|2,1:2|0:0,0:0:0:0:
86,341,73022,1,2,0:0:0:0:
86,341,73176,1,10,0:0:0:0:
176,170,73484,5,2,3:2:0:0:
251,188,73637,2,0,L|350:206,1,59.9999981689454,2|2,3:2|0:2,0:0:0:0:
391,214,73945,1,2,1:2:0:0:
391,214,74099,1,10,0:0:0:0:
341,62,74407,5,2,0:0:0:0:
341,62,74561,2,0,L|331:122,1,59.9999981689454,2|2,1:2|0:0,0:0:0:0:
190,257,74868,5,2,0:0:0:0:
174,180,75022,2,0,L|164:120,1,59.9999981689454,10|2,0:0|0:0,0:0:0:0:
74,27,75330,5,6,0:0:0:0:
150,42,75484,2,0,L|210:52,1,59.9999981689454,6|6,0:0|0:0,0:0:0:0:
250,165,75791,5,2,1:2:0:0:
174,180,75945,2,0,L|114:190,1,59.9999981689454,10|2,0:0|0:0,0:0:0:0:
41,206,76253,1,10,0:0:0:0:
41,206,76407,1,2,0:0:0:0:
256,192,76868,12,2,80099,0:0:0:0:
51,279,83330,6,0,L|45:328,1,50,10|0,0:0|0:0,0:0:0:0:
71,359,83791,2,0,L|93:189,1,119.999996337891,2|2,1:2|0:0,0:0:0:0:
114,166,84253,2,0,L|129:285,1,119.999996337891,10|0,0:0|3:2,0:0:0:0:
182,342,84714,2,0,L|241:333,1,59.9999981689454,2|0,3:2|3:0,0:0:0:0:
322,321,85022,1,0,1:2:0:0:
322,321,85176,2,0,L|340:202,1,119.999996337891,10|2,0:0|0:2,0:0:0:0:
356,74,85637,6,0,L|128:102,2,179.999994506836,2|10|2,1:2|0:0|3:2,0:0:0:0:
445,309,86868,1,0,1:2:0:0:
445,309,87022,2,0,L|460:198,1,59.9999981689454,10|0,0:0|0:0,0:0:0:0:
466,172,87330,1,10,0:0:0:0:
338,282,87483,6,0,L|159:303,2,179.999994506836,2|10|2,1:2|0:0|3:2,0:0:0:0:
174,184,88714,1,2,1:2:0:0:
174,184,88868,2,0,L|153:349,1,119.999996337891,8|2,0:0|0:0,0:0:0:0:
115,368,89330,2,0,L|136:189,1,179.999994506836,0|8,1:0|0:0,0:0:0:0:
156,49,90099,5,4,0:0:0:0:
156,49,90253,2,0,L|267:64,2,59.9999981689454,4|4|0,0:0|0:0|1:2,0:0:0:0:
79,32,90714,1,10,0:0:0:0:
311,157,91022,5,10,0:0:0:0:
233,169,91176,2,0,L|5:197,2,179.999994506836,2|10|2,1:2|0:0|0:2,0:0:0:0:
385,245,92407,1,0,1:2:0:0:
385,245,92560,2,0,L|242:263,1,119.999996337891,10|2,0:0|0:0,0:0:0:0:
193,304,93022,2,0,L|371:282,2,179.999994506836,2|10|2,1:2|0:0|3:2,0:0:0:0:
44,205,94253,5,2,1:2:0:0:
44,205,94407,2,0,L|63:367,1,119.999996337891,10|10,0:0|0:0,0:0:0:0:
152,350,94868,2,0,L|330:328,2,179.999994506836,2|10|2,1:2|0:0|3:2,0:0:0:0:
66,183,96099,1,2,1:2:0:0:
66,183,96253,2,0,L|228:202,1,119.999996337891,8|2,0:0|3:2,0:0:0:0:
371,297,96714,2,0,L|192:318,3,179.999994506836,2|2|2|2,1:2|0:0|0:0|0:0,0:0:0:0:
196,343,98561,6,0,L|321:330,1,119.999996337891,2|2,1:2|0:0,0:0:0:0:
376,282,99022,2,0,L|251:295,1,119.999996337891,10|0,0:0|3:2,0:0:0:0:
178,299,99484,2,0,L|163:188,1,59.9999981689454,2|0,3:2|3:0,0:0:0:0:
162,164,99792,1,0,1:2:0:0:
162,164,99946,2,0,L|281:182,1,119.999996337891,10|2,0:0|0:2,0:0:0:0:
234,64,100407,6,0,L|55:85,2,179.999994506836,2|10|2,1:2|0:0|3:2,0:0:0:0:
394,124,101638,1,0,1:2:0:0:
394,124,101792,2,0,L|282:139,1,59.9999981689454,10|0,0:0|0:0,0:0:0:0:
256,145,102100,1,10,0:0:0:0:
156,269,102253,6,0,L|335:290,2,179.999994506836,2|10|2,1:2|0:0|3:2,0:0:0:0:
369,299,103484,1,2,1:2:0:0:
369,299,103638,2,0,L|390:134,1,119.999996337891,8|2,0:0|0:0,0:0:0:0:
435,117,104100,2,0,L|414:296,1,179.999994506836,0|8,1:0|0:0,0:0:0:0:
185,353,104868,6,0,L|170:242,2,59.9999981689454,4|4|4,0:0|0:0|0:0,0:0:0:0:
262,339,105330,1,0,1:2:0:0:
339,326,105484,1,10,0:0:0:0:
233,169,105791,5,10,0:0:0:0:
233,169,105945,2,0,L|5:197,2,179.999994506836,2|10|2,1:2|0:0|0:2,0:0:0:0:
137,269,107176,1,0,1:2:0:0:
137,269,107329,2,0,L|-6:287,1,119.999996337891,10|2,0:0|0:0,0:0:0:0:
202,335,107791,2,0,L|380:313,1,179.999994506836,2|10,1:2|0:0,0:0:0:0:
437,161,108561,1,2,3:2:0:0:
437,161,108714,1,2,3:2:0:0:
276,65,109022,5,2,1:2:0:0:
276,65,109176,2,0,L|295:227,1,119.999996337891,10|10,0:0|0:0,0:0:0:0:
336,251,109637,2,0,L|314:73,2,179.999994506836,2|10|2,1:2|0:0|3:2,0:0:0:0:
204,177,110868,1,2,1:2:0:0:
204,177,111022,2,0,L|42:196,1,119.999996337891,8|2,0:0|0:0,0:0:0:0:
21,237,111483,2,0,L|200:216,3,179.999994506836,2|2|2|2,1:2|0:0|0:0|0:0,0:0:0:0:
280,28,113176,5,2,0:0:0:0:
280,28,113329,1,0,1:2:0:0:
396,177,113637,6,0,L|381:66,1,59.9999981689454,2|10,0:0|0:0,0:0:0:0:
315,285,114099,2,0,L|330:396,1,59.9999981689454,2|2,3:2|3:2,0:0:0:0:
211,276,114560,1,2,1:2:0:0:
211,276,114714,2,0,L|92:295,1,119.999996337891,10|2,0:0|0:0,0:0:0:0:
15,278,115176,6,0,L|74:269,1,59.9999981689454,2|0,1:2|0:0,0:0:0:0:
155,258,115483,1,2,0:0:0:0:
155,258,115637,2,0,L|168:138,1,119.999996337891,8|2,0:0|3:2,0:0:0:0:
178,60,116099,5,2,3:2:0:0:
178,60,116406,1,0,1:2:0:0:
257,72,117022,6,0,L|375:88,1,89.999997253418,2|0,1:2|0:0,0:0:0:0:
343,90,117484,2,0,L|224:109,1,119.999996337891,10|2,0:0|3:2,0:0:0:0:
148,126,117945,2,0,L|133:27,2,59.9999981689454,2|0|0,3:2|3:2|1:2,0:0:0:0:
162,202,118406,1,10,0:0:0:0:
294,257,118714,5,2,0:0:0:0:
294,257,118868,2,0,L|413:238,1,119.999996337891,2|2,1:2|0:0,0:0:0:0:
488,220,119329,1,10,0:0:0:0:
311,337,119637,1,6,0:0:0:0:
311,337,119791,2,0,L|200:352,2,59.9999981689454,6|4|0,0:0|0:0|1:2,0:0:0:0:
174,354,120253,1,10,0:0:0:0:
174,354,120561,5,8,0:0:0:0:
108,312,120714,2,0,L|94:206,1,89.999997253418,2|2,0:0|0:0,0:0:0:0:
41,133,121176,6,0,L|54:252,1,119.999996337891,10|2,0:0|3:2,0:0:0:0:
108,312,121637,2,0,L|186:301,1,59.9999981689454,2|0,3:2|3:2,0:0:0:0:
240,345,121945,1,2,1:2:0:0:
240,345,122099,2,0,L|359:331,1,119.999996337891,10|2,0:0|0:0,0:0:0:0:
461,314,122561,6,0,L|483:136,1,179.999994506836,2|10,1:2|0:0,0:0:0:0:
360,39,123330,1,2,3:2:0:0:
360,39,123484,2,0,L|373:158,1,119.999996337891,2|2,3:2|1:2,0:0:0:0:
325,249,123945,2,0,L|385:241,2,59.9999981689454,10|0|10,0:0|0:0|0:0,0:0:0:0:
254,282,124407,6,0,L|373:268,1,119.999996337891,2|2,1:2|0:2,0:0:0:0:
450,257,124868,1,10,0:0:0:0:
357,131,125176,1,2,0:0:0:0:
357,131,125330,2,0,L|237:144,1,119.999996337891,2|2,0:0|1:2,0:0:0:0:
160,154,125791,1,10,0:0:0:0:
23,79,126099,5,2,0:0:0:0:
23,79,126253,1,2,1:2:0:0:
140,337,127637,2,0,L|148:257,1,80,2|2,0:0|0:0,0:0:0:0:
167,129,128099,6,0,L|227:121,1,59.9999981689454,2|2,1:2|0:0,0:0:0:0:
305,109,128407,1,2,0:0:0:0:
230,90,128561,2,0,L|110:105,1,119.999996337891,10|2,0:0|3:2,0:0:0:0:
12,218,129023,6,0,L|72:226,1,59.9999981689454,2|2,3:2|0:2,0:0:0:0:
150,238,129331,1,2,1:2:0:0:
75,257,129485,2,0,L|248:279,1,119.999996337891,10|2,0:0|0:0,0:0:0:0:
329,358,129946,6,0,L|343:271,1,59.9999981689454,2|2,1:2|0:0,0:0:0:0:
352,222,130253,1,2,0:0:0:0:
366,145,130407,2,0,L|387:-12,1,119.999996337891,10|2,0:0|3:2,0:0:0:0:
249,86,130869,6,0,L|190:95,2,59.9999981689454,2|2|2,3:2|3:2|1:2,0:0:0:0:
248,164,131330,2,0,L|75:191,1,119.999996337891,10|10,0:0|0:0,0:0:0:0:
3,62,131792,6,0,L|22:169,1,59.9999981689454,2|2,1:2|0:0,0:0:0:0:
35,195,132099,1,2,0:0:0:0:
45,117,132253,2,0,L|69:250,1,119.999996337891,10|2,0:0|3:2,0:0:0:0:
138,342,132715,6,0,L|148:282,2,59.9999981689454,2|2|2,3:2|0:2|1:2,0:0:0:0:
162,205,133176,2,0,L|181:324,1,119.999996337891,10|2,0:0|0:0,0:0:0:0:
274,349,133638,5,2,1:2:0:0:
350,338,133791,2,0,L|409:329,1,59.9999981689454,2|2,0:0|0:0,0:0:0:0:
485,287,134099,2,0,L|312:314,1,119.999996337891,10|6,0:0|0:0,0:0:0:0:
229,188,134561,6,0,L|239:248,2,59.9999981689454,6|6|2,0:0|0:0|1:2,0:0:0:0:
153,115,135022,2,0,L|326:88,1,119.999996337891,10|10,0:0|0:0,0:0:0:0:
126,209,135484,6,0,L|66:199,2,59.9999981689454,2|2|2,1:2|0:0|0:0,0:0:0:0:
203,200,135945,2,0,L|84:181,1,119.999996337891,10|2,0:0|3:2,0:0:0:0:
125,329,136407,6,0,L|185:319,1,59.9999981689454,2|2,3:2|0:2,0:0:0:0:
264,308,136714,1,2,1:2:0:0:
264,308,136868,2,0,L|437:281,1,119.999996337891,10|2,0:0|0:0,0:0:0:0:
251,341,137330,6,0,L|311:331,2,59.9999981689454,2|2|2,1:2|0:0|0:0,0:0:0:0:
173,352,137791,2,0,L|157:230,1,119.999996337891,10|2,0:0|3:2,0:0:0:0:
36,134,138253,6,0,L|96:124,1,59.9999981689454,2|2,3:2|3:2,0:0:0:0:
172,108,138561,1,2,1:2:0:0:
250,93,138714,2,0,L|265:211,1,119.999996337891,10|10,0:0|0:0,0:0:0:0:
386,272,139176,6,0,L|396:212,2,59.9999981689454,2|2|2,1:2|0:0|0:0,0:0:0:0:
412,137,139637,1,10,0:0:0:0:
126,272,139945,5,2,3:2:0:0:
126,272,140099,2,0,L|116:212,2,59.9999981689454,2|2|2,3:2|0:2|1:2,0:0:0:0:
142,348,140560,1,10,0:0:0:0:
217,88,140868,5,2,0:0:0:0:
217,88,141022,2,0,L|277:78,2,59.9999981689454,2|2|2,1:2|0:0|0:0,0:0:0:0:
217,88,141483,1,10,0:0:0:0:
126,272,141791,5,2,3:2:0:0:
126,272,141945,2,0,L|64:283,2,44.999998626709,2|0|2,3:2|3:2|1:2,0:0:0:0:
166,264,142407,1,10,0:0:0:0:
245,247,142714,1,8,0:0:0:0:
256,192,142868,12,2,146099,0:0:0:0:
341,108,149791,6,0,L|271:116,1,50,10|0,0:0|0:0,0:0:0:0:
213,121,150253,2,0,L|334:134,1,119.999996337891,2|2,1:2|0:0,0:0:0:0:
408,154,150714,2,0,L|281:172,1,119.999996337891,10|0,0:0|3:2,0:0:0:0:
164,192,151176,2,0,L|181:296,1,59.9999981689454,2|0,3:2|3:0,0:0:0:0:
151,327,151483,1,0,1:2:0:0:
151,327,151637,2,0,L|125:164,1,119.999996337891,10|2,0:0|0:2,0:0:0:0:
86,134,152099,6,0,L|120:361,2,179.999994506836,2|10|2,1:2|0:0|3:2,0:0:0:0:
186,349,153329,1,0,1:2:0:0:
186,349,153483,2,0,L|297:334,1,59.9999981689454,10|0,0:0|0:0,0:0:0:0:
323,328,153791,1,10,0:0:0:0:
458,305,153945,6,0,L|489:123,2,179.999994506836,2|10|2,1:2|0:0|3:2,0:0:0:0:
277,97,155175,1,2,1:2:0:0:
277,97,155329,2,0,L|442:76,1,119.999996337891,8|2,0:0|0:0,0:0:0:0:
464,43,155791,2,0,L|285:64,1,179.999994506836,0|8,1:0|0:0,0:0:0:0:
185,146,156560,5,4,0:0:0:0:
261,162,156714,2,0,L|372:177,2,59.9999981689454,4|4|0,0:0|0:0|1:2,0:0:0:0:
185,146,157176,1,10,0:0:0:0:
258,325,157483,5,10,0:0:0:0:
258,325,157637,2,0,L|30:353,2,179.999994506836,2|10|2,1:2|0:0|0:2,0:0:0:0:
375,222,158868,1,0,1:2:0:0:
375,222,159022,2,0,L|255:236,1,119.999996337891,10|2,0:0|0:0,0:0:0:0:
182,209,159483,2,0,L|360:187,2,179.999994506836,2|10|2,1:2|0:0|3:2,0:0:0:0:
24,298,160714,5,2,1:2:0:0:
35,220,160868,2,0,L|54:58,1,119.999996337891,10|10,0:0|0:0,0:0:0:0:
65,22,161329,2,0,L|86:201,2,179.999994506836,2|10|2,1:2|0:0|3:2,0:0:0:0:
169,229,162560,1,2,1:2:0:0:
169,229,162714,2,0,L|331:248,1,119.999996337891,8|2,0:0|0:0,0:0:0:0:
365,346,163176,2,0,L|386:167,3,179.999994506836,2|2|2|2,1:2|0:0|0:0|0:0,0:0:0:0:
197,338,164868,5,2,0:0:0:0:
197,338,165022,2,0,L|118:347,1,69.9999978637696,2|2,1:2|0:0,0:0:0:0:
50,328,165484,2,0,L|204:309,1,119.999996337891,10|0,0:0|3:2,0:0:0:0:
246,301,165945,1,2,3:2:0:0:
321,85,166253,1,0,1:2:0:0:
321,85,166407,2,0,L|336:196,1,59.9999981689454,10|0,0:0|0:0,0:0:0:0:
342,221,166714,1,2,0:2:0:0:
243,102,166868,2,0,L|64:130,2,179.999994506836,2|10|2,1:2|0:0|3:2,0:0:0:0:
25,277,168099,5,0,1:2:0:0:
25,277,168253,2,0,L|10:166,2,59.9999981689454,10|0|10,0:0|0:0|0:0,0:0:0:0:
47,351,168714,2,0,L|73:157,1,179.999994506836,2|10,1:2|0:0,0:0:0:0:
220,127,169484,1,0,3:2:0:0:
220,127,169637,1,2,3:2:0:0:
27,44,169945,1,2,1:2:0:0:
27,44,170099,1,8,0:0:0:0:
153,230,170407,1,2,0:0:0:0:
153,230,170561,2,0,L|330:202,1,179.999994506836,0|8,1:0|0:0,0:0:0:0:
135,325,171330,5,4,0:0:0:0:
135,325,171484,2,0,L|248:308,2,59.9999981689454,4|4|0,0:0|0:0|1:2,0:0:0:0:
273,302,171945,2,0,L|386:285,1,59.9999981689454,10|0,0:0|0:0,0:0:0:0:
409,278,172253,1,10,0:0:0:0:
323,162,172407,6,0,L|145:189,1,179.999994506836,2|10,1:2|0:0,0:0:0:0:
49,331,173176,5,2,0:0:0:0:
49,331,173330,2,0,L|23:171,1,119.999996337891,2|0,0:2|1:2,0:0:0:0:
69,143,173791,2,0,L|52:30,2,59.9999981689454,10|0|2,0:0|0:0|0:0,0:0:0:0:
130,191,174253,6,0,L|307:158,1,179.999994506836,2|10,1:2|0:0,0:0:0:0:
227,30,175022,1,2,3:2:0:0:
227,30,175176,1,2,3:2:0:0:
117,232,175484,5,2,1:2:0:0:
117,232,175637,2,0,L|232:214,2,59.9999981689454,10|0|10,0:0|0:0|0:0,0:0:0:0:
129,309,176099,2,0,L|310:286,1,179.999994506836,2|10,1:2|0:0,0:0:0:0:
360,67,177022,1,2,3:2:0:0:
130,136,177330,1,2,1:2:0:0:
130,136,177484,2,0,L|292:155,1,119.999996337891,8|2,0:0|0:0,0:0:0:0:
335,204,177945,2,0,L|153:182,3,179.999994506836,2|2|2|2,1:2|0:0|0:0|0:0,0:0:0:0:
63,254,179637,5,2,0:0:0:0:
256,192,179791,12,0,187176,0:0:0:0:
