osu file format v14

[General]
AudioFilename: audio.mp3
AudioLeadIn: 0
PreviewTime: 9791
Countdown: 0
SampleSet: Soft
StackLeniency: 0.3
Mode: 0
LetterboxInBreaks: 0
WidescreenStoryboard: 1

[Editor]
Bookmarks: 39484,54253,69022,128099,187176
DistanceSpacing: 1
BeatDivisor: 3
GridSize: 16
TimelineZoom: 2.6

[Metadata]
Title:Wie ich bin
TitleUnicode:Wie ich bin
Artist:Cro
ArtistUnicode:Cro
Creator:Cacturne
Version:Kuki's Normal
Source:
Tags:german deutsch Raop hip pop rap male Maske vocalist panda mask sirmirai mirai takakin Ryaldin kuki1537 muya-
BeatmapID:2965085
BeatmapSetID:1415788

[Difficulty]
HPDrainRate:4
CircleSize:3.5
OverallDifficulty:4
ApproachRate:6
SliderMultiplier:1.4
SliderTickRate:1

[Events]
//Background and Video events
0,0,"wie ich bin.jpg",0,0
//Break Periods
2,76606,82280
2,143068,148741
//Storyboard Layer 0 (Background)
//Storyboard Layer 1 (Fail)
//Storyboard Layer 2 (Pass)
//Storyboard Layer 3 (Foreground)
//Storyboard Layer 4 (Overlay)
//Storyboard Sound Samples

[TimingPoints]
2561,461.538461538462,4,2,1,85,1,0
9945,-100,4,2,1,95,0,1
16253,-100,4,2,2,95,0,1
16714,-100,4,2,1,95,0,1
22868,-100,4,2,1,95,0,0
24714,-100,4,2,1,80,0,0
31022,-100,4,2,2,80,0,0
31484,-100,4,2,1,80,0,0
54253,-100,4,2,1,85,0,0
60561,-100,4,2,2,85,0,0
61022,-100,4,2,1,85,0,0
75330,-100,4,2,2,85,0,0
75791,-100,4,2,1,85,0,0
76407,-100,4,2,1,70,0,0
83791,-100,4,2,1,95,0,1
90099,-100,4,2,2,95,0,1
90561,-100,4,2,1,95,0,1
96714,-100,4,2,1,95,0,0
98561,-100,4,2,1,95,0,1
104868,-100,4,2,2,95,0,1
105330,-100,4,2,1,95,0,1
111484,-100,4,2,1,95,0,0
113330,-100,4,2,1,80,0,0
119637,-100,4,2,2,80,0,0
120099,-100,4,2,1,80,0,0
128099,-100,4,2,1,85,0,0
134407,-100,4,2,2,85,0,0
134868,-100,4,2,1,85,0,0
142868,-100,4,2,1,70,0,0
150253,-100,4,2,1,95,0,1
156561,-100,4,2,2,95,0,1
157022,-100,4,2,1,95,0,1
163176,-100,4,2,1,95,0,0
165022,-100,4,2,1,95,0,1
171330,-100,4,2,2,95,0,1
171791,-100,4,2,1,95,0,1
177945,-100,4,2,1,95,0,0
179791,-100,4,2,1,70,0,0
181637,-100,4,2,1,60,0,0
183484,-100,4,2,1,50,0,0
185330,-100,4,2,1,40,0,0

[Colours]
Combo1 : 0,74,90
Combo2 : 0,123,126
Combo3 : 85,227,131

[HitObjects]
21,115,9484,5,12,0:0:0:0:
126,207,9945,6,0,P|178:196|237:187,1,93.3333333333333,2|2,1:2|0:0,0:0:0:0:
255,160,10407,2,0,P|314:171|385:180,1,93.3333333333333,10|0,0:0|3:2,0:0:0:0:
387,153,10868,1,2,3:2:0:0:
467,210,11176,1,0,1:2:0:0:
467,210,11330,2,0,P|492:255|472:325,1,93.3333333333333,10|2,0:0|0:2,0:0:0:0:
451,322,11791,2,0,B|376:302|395:360|307:340,1,140,2|10,1:2|0:0,0:0:0:0:
256,270,12561,2,0,P|182:257|126:311,1,140,2|0,3:2|1:2,0:0:0:0:
128,342,13176,1,10,0:0:0:0:
49,302,13484,5,10,0:0:0:0:
49,302,13637,2,0,P|41:240|33:180,1,93.3333333333333,2|0,1:2|0:0,0:0:0:0:
14,168,14099,2,0,P|65:143|134:169,1,93.3333333333333,10|0,0:0|3:2,0:0:0:0:
141,167,14561,1,2,3:2:0:0:
216,230,14868,1,2,1:2:0:0:
216,230,15022,2,0,P|247:220|318:205,1,93.3333333333333,8|2,0:0|0:0,0:0:0:0:
348,227,15484,2,0,P|390:259|490:250,1,140,0|8,1:0|0:0,0:0:0:0:
506,174,16253,1,4,0:0:0:0:
506,174,16407,2,0,P|493:116|486:74,1,93.3333333333333,4|0,0:0|1:2,0:0:0:0:
482,36,16868,1,10,0:0:0:0:
398,5,17176,5,10,0:0:0:0:
398,5,17330,2,0,P|362:37|297:39,1,93.3333333333333,2|0,1:2|0:0,0:0:0:0:
278,68,17791,2,0,P|217:58|163:52,1,93.3333333333333,10|2,0:0|0:0,0:0:0:0:
144,31,18253,1,2,0:2:0:0:
68,83,18561,1,0,1:2:0:0:
68,83,18714,2,0,P|90:129|84:186,1,93.3333333333333,10|2,0:0|0:0,0:0:0:0:
58,206,19176,2,0,B|138:182|114:250|202:227,1,140,2|10,1:2|0:0,0:0:0:0:
271,185,19945,2,0,P|282:245|300:348,1,140,2|2,3:2|1:2,0:0:0:0:
307,368,20561,1,10,0:0:0:0:
392,326,20868,5,10,0:0:0:0:
392,326,21022,2,0,P|440:285|514:293,2,140,2|10|2,1:2|0:0|3:2,0:0:0:0:
313,285,22253,1,2,1:2:0:0:
313,285,22407,2,0,P|252:299|203:307,1,93.3333333333333,8|2,0:0|0:0,0:0:0:0:
175,311,22868,1,2,1:2:0:0:
417,110,24714,6,0,P|363:94|291:156,1,140,0|10,1:2|0:0,0:0:0:0:
204,242,25637,2,0,P|150:234|108:230,1,93.3333333333333,2|2,3:2|1:2,0:0:0:0:
64,235,26099,1,10,0:0:0:0:
14,104,26561,2,0,B|98:79|70:139|156:117,1,140,2|10,1:2|0:0,0:0:0:0:
226,67,27330,1,2,0:0:0:0:
226,67,27484,2,0,P|234:119|238:161,1,93.3333333333333,2|2,0:0|1:2,0:0:0:0:
173,335,28407,6,0,P|241:320|332:310,1,140,2|10,1:2|0:0,0:0:0:0:
440,365,29330,2,0,P|482:319|483:271,1,93.3333333333333,2|2,3:2|1:2,0:0:0:0:
479,243,29791,1,10,0:0:0:0:
403,197,30099,1,2,0:0:0:0:
403,197,30253,2,0,P|392:114|386:55,1,140,2|10,1:2|0:0,0:0:0:0:
472,17,31022,1,6,0:0:0:0:
472,17,31176,2,0,P|479:50|483:78,2,46.6666666666667,6|4|2,0:0|0:0|1:2,0:0:0:0:
293,70,32099,6,0,P|221:84|153:84,1,140,2|10,1:2|0:0,0:0:0:0:
20,43,33022,2,0,P|26:96|35:150,1,93.3333333333333,2|2,3:2|1:2,0:0:0:0:
38,182,33484,1,10,0:0:0:0:
173,217,33945,2,0,B|225:210|225:210|249:225|249:225|315:213,1,140,2|10,1:2|0:0,0:0:0:0:
400,109,34868,2,0,P|447:95|501:118,1,93.3333333333333,2|2,3:2|1:2,0:0:0:0:
512,147,35330,1,10,0:0:0:0:
512,243,35637,5,10,0:0:0:0:
512,243,35791,2,0,P|457:253|353:276,1,140,2|10,1:2|0:0,0:0:0:0:
269,363,36714,2,0,P|217:350|173:343,1,93.3333333333333,2|2,3:2|1:2,0:0:0:0:
142,312,37176,1,10,0:0:0:0:
24,239,37637,2,0,P|8:315|-2:388,2,140,2|2|2,1:2|0:0|0:0,0:0:0:0:
3,93,39484,6,0,P|64:83|153:76,1,140,2|10,1:2|0:0,0:0:0:0:
231,117,40253,1,2,3:2:0:0:
231,117,40407,2,0,P|274:146|342:140,1,93.3333333333333,2|0,3:2|1:2,0:0:0:0:
357,131,40868,1,10,0:0:0:0:
495,149,41330,2,0,P|484:227|474:307,1,140,2|10,1:2|0:0,0:0:0:0:
413,357,42099,2,0,P|383:320|285:311,1,140,2|2,3:2|1:2,0:0:0:0:
257,333,42714,1,10,0:0:0:0:
176,296,43022,5,10,0:0:0:0:
176,296,43176,2,0,P|166:217|162:160,1,93.3333333333333,2|2,1:2|0:0,0:0:0:0:
188,163,43637,2,0,P|196:109|202:70,1,93.3333333333333,10|2,0:0|3:2,0:0:0:0:
185,26,44099,1,2,3:2:0:0:
98,5,44407,1,0,1:2:0:0:
98,5,44561,2,0,P|42:25|22:57,1,93.3333333333333,10|2,0:0|0:0,0:0:0:0:
9,95,45022,2,0,P|21:167|30:256,1,140,2|10,1:2|0:0,0:0:0:0:
50,324,45791,1,2,0:0:0:0:
194,205,46407,6,0,P|241:183|291:187,1,93.3333333333333,10|10,0:0|0:0,0:0:0:0:
321,209,46868,2,0,P|315:263|306:359,2,140,2|10|2,1:2|0:0|3:2,0:0:0:0:
384,141,48099,1,2,1:2:0:0:
384,141,48253,2,0,P|376:88|371:48,1,93.3333333333333,10|0,0:0|0:0,0:0:0:0:
405,16,48714,2,0,P|456:4|528:62,1,140,2|10,1:2|0:0,0:0:0:0:
499,144,49484,1,2,3:2:0:0:
499,144,49637,2,0,P|490:202|485:252,1,93.3333333333333,2|2,3:2|1:2,0:0:0:0:
484,283,50099,1,10,0:0:0:0:
430,360,50407,5,8,0:0:0:0:
430,360,50561,2,0,B|350:339|367:384|288:367,1,140,2|10,1:2|0:0,0:0:0:0:
233,303,51330,1,2,3:2:0:0:
233,303,51484,2,0,P|244:245|248:208,1,93.3333333333333,2|2,3:2|1:2,0:0:0:0:
266,168,51945,2,0,P|211:187|163:177,1,93.3333333333333,10|2,0:0|0:0,0:0:0:0:
137,157,52407,1,2,1:2:0:0:
19,33,54253,6,0,P|32:88|47:202,1,140,2|8,1:2|0:0,0:0:0:0:
32,266,55022,1,2,3:2:0:0:
32,266,55176,2,0,P|77:252|134:248,1,93.3333333333333,2|0,3:2|1:2,0:0:0:0:
162,272,55637,2,0,P|208:290|266:295,1,93.3333333333333,10|2,0:0|0:0,0:0:0:0:
293,274,56099,2,0,P|284:210|271:117,1,140,2|10,1:2|0:0,0:0:0:0:
263,46,56868,1,2,3:2:0:0:
263,46,57022,2,0,P|338:29|403:85,1,140,2|2,3:2|0:0,0:0:0:0:
471,173,57945,6,0,P|421:197|373:192,1,93.3333333333333,2|2,1:2|0:0,0:0:0:0:
347,225,58407,2,0,P|297:217|245:211,1,93.3333333333333,8|2,0:0|3:2,0:0:0:0:
210,228,58868,1,2,3:2:0:0:
131,177,59176,1,2,1:2:0:0:
131,177,59330,2,0,P|66:175|28:198,1,93.3333333333333,10|2,0:0|0:0,0:0:0:0:
10,221,59791,2,0,P|22:297|33:382,1,140,2|8,1:2|0:0,0:0:0:0:
127,352,60561,1,6,0:0:0:0:
127,352,60714,2,0,P|167:325|240:333,1,93.3333333333333,6|0,0:0|1:2,0:0:0:0:
252,343,61176,1,10,0:0:0:0:
340,306,61484,5,10,0:0:0:0:
340,306,61637,2,0,P|384:338|434:340,1,93.3333333333333,2|2,1:2|0:0,0:0:0:0:
464,322,62099,1,10,0:0:0:0:
488,184,62561,2,0,P|444:152|394:150,1,93.3333333333333,2|2,3:2|1:2,0:0:0:0:
364,168,63023,1,10,0:0:0:0:
231,213,63484,2,0,P|236:244|240:268,2,46.6666666666667,2|2|2,1:2|0:0|0:0,0:0:0:0:
199,179,63945,1,10,0:0:0:0:
64,138,64407,2,0,P|69:107|73:83,2,46.6666666666667,2|2|2,3:2|3:2|1:2,0:0:0:0:
30,172,64868,1,10,0:0:0:0:
13,267,65176,5,8,0:0:0:0:
13,267,65330,2,0,P|65:271|101:307,1,93.3333333333333,2|2,1:2|0:0,0:0:0:0:
98,343,65791,2,0,P|165:332|226:327,1,93.3333333333333,10|2,0:0|3:2,0:0:0:0:
237,325,66253,1,2,3:2:0:0:
290,249,66561,1,2,1:2:0:0:
290,249,66714,2,0,P|272:202|259:114,1,140,10|2,0:0|1:2,0:0:0:0:
32,185,69022,6,0,P|87:157|142:163,1,93.3333333333333,2|2,1:2|0:0,0:0:0:0:
160,175,69484,1,10,0:0:0:0:
271,259,69945,2,0,P|265:293|263:311,2,46.6666666666667,2|2|2,3:2|0:2|1:2,0:0:0:0:
301,223,70407,2,0,P|346:202|399:212,1,93.3333333333333,10|0,0:0|0:0,0:0:0:0:
427,232,70868,2,0,P|420:164|416:124,1,93.3333333333333,2|2,1:2|0:0,0:0:0:0:
431,94,71330,1,10,0:0:0:0:
294,62,71791,2,0,P|299:33|303:11,2,46.6666666666667,2|2|2,3:2|3:2|1:2,0:0:0:0:
269,101,72253,2,0,P|211:111|175:149,1,93.3333333333333,10|8,0:0|0:0,0:0:0:0:
194,179,72714,6,0,P|201:234|213:307,1,93.3333333333333,2|2,1:2|0:0,0:0:0:0:
214,317,73176,1,10,0:0:0:0:
86,373,73637,2,0,P|79:318|67:245,1,93.3333333333333,2|2,3:2|1:2,0:0:0:0:
66,235,74099,1,10,0:0:0:0:
12,105,74561,6,0,P|58:79|114:88,1,93.3333333333333,2|2,1:2|0:0,0:0:0:0:
129,114,75022,2,0,P|175:88|231:97,1,93.3333333333333,10|6,0:0|0:0,0:0:0:0:
255,111,75484,2,0,P|251:149|251:171,2,46.6666666666667,6|6|2,0:0|0:0|1:2,0:0:0:0:
296,89,75945,2,0,B|355:95|355:95|371:112|371:112|446:120,1,140,10|2,0:0|0:0,0:0:0:0:
346,18,83330,5,10,0:0:0:0:
451,109,83791,6,0,P|442:165|432:233,1,93.3333333333333,2|2,1:2|0:0,0:0:0:0:
450,245,84253,2,0,P|388:250|345:299,1,93.3333333333333,10|0,0:0|3:2,0:0:0:0:
337,305,84714,1,2,3:2:0:0:
258,353,85022,1,0,1:2:0:0:
258,353,85176,2,0,P|250:301|242:250,1,93.3333333333333,10|2,0:0|0:2,0:0:0:0:
207,231,85637,2,0,P|216:164|230:50,1,140,2|10,1:2|0:0,0:0:0:0:
173,13,86407,2,0,P|102:9|48:81,1,140,2|0,3:2|1:2,0:0:0:0:
47,100,87022,1,10,0:0:0:0:
12,186,87330,5,10,0:0:0:0:
12,186,87484,2,0,P|20:235|29:304,1,93.3333333333333,2|0,1:2|0:0,0:0:0:0:
18,324,87945,2,0,P|81:309|151:327,1,93.3333333333333,10|0,0:0|3:2,0:0:0:0:
147,338,88407,1,2,3:2:0:0:
240,316,88714,1,2,1:2:0:0:
240,316,88868,2,0,P|244:278|256:222,1,93.3333333333333,8|2,0:0|0:0,0:0:0:0:
209,212,89330,2,0,P|201:155|186:65,1,140,0|8,1:0|0:0,0:0:0:0:
264,15,90099,1,4,0:0:0:0:
264,15,90253,2,0,P|300:46|376:49,1,93.3333333333333,4|0,0:0|1:2,0:0:0:0:
389,46,90714,1,10,0:0:0:0:
479,85,91022,5,10,0:0:0:0:
479,85,91176,2,0,P|469:138|459:202,1,93.3333333333333,2|0,1:2|0:0,0:0:0:0:
434,214,91637,2,0,P|443:261|451:309,1,93.3333333333333,10|2,0:0|0:0,0:0:0:0:
437,350,92099,1,2,0:2:0:0:
348,365,92407,1,0,1:2:0:0:
348,365,92561,2,0,P|289:343|252:348,1,93.3333333333333,10|2,0:0|0:0,0:0:0:0:
221,318,93022,2,0,P|166:360|66:338,1,140,2|10,1:2|0:0,0:0:0:0:
69,268,93791,2,0,P|124:226|224:248,1,140,2|2,3:2|1:2,0:0:0:0:
237,215,94407,1,10,0:0:0:0:
330,192,94714,5,10,0:0:0:0:
330,192,94868,2,0,P|398:207|475:223,2,140,2|10|2,1:2|0:0|3:2,0:0:0:0:
263,134,96099,1,2,1:2:0:0:
263,134,96253,2,0,P|270:80|275:38,1,93.3333333333333,8|2,0:0|3:2,0:0:0:0:
252,0,96714,1,2,1:2:0:0:
31,192,98561,6,0,P|75:169|134:174,1,93.3333333333333,2|2,1:2|0:0,0:0:0:0:
158,192,99022,2,0,P|152:249|146:306,1,93.3333333333333,10|0,0:0|3:2,0:0:0:0:
141,331,99484,1,2,3:2:0:0:
228,375,99791,1,0,1:2:0:0:
228,375,99945,2,0,P|234:324|240:280,1,93.3333333333333,10|2,0:0|0:2,0:0:0:0:
272,249,100407,2,0,P|262:168|252:83,1,140,2|10,1:2|0:0,0:0:0:0:
313,36,101176,2,0,P|369:15|446:57,1,140,2|0,3:2|1:2,0:0:0:0:
464,85,101791,1,10,0:0:0:0:
427,172,102099,5,10,0:0:0:0:
427,172,102253,2,0,P|436:232|440:269,1,93.3333333333333,2|0,1:2|0:0,0:0:0:0:
460,305,102714,2,0,P|397:314|363:318,1,93.3333333333333,10|0,0:0|3:2,0:0:0:0:
322,332,103176,1,2,3:2:0:0:
228,336,103484,1,2,1:2:0:0:
228,336,103637,2,0,P|236:289|244:239,1,93.3333333333333,8|2,0:0|0:0,0:0:0:0:
236,197,104099,2,0,B|157:169|179:238|80:209,2,140,0|8|4,1:0|0:0|0:0,0:0:0:0:
317,149,105330,1,0,1:2:0:0:
317,149,105484,2,0,P|354:157|423:168,1,93.3333333333333,10|10,0:0|0:0,0:0:0:0:
449,189,105945,6,0,P|440:134|462:64,1,93.3333333333333,2|0,1:2|0:0,0:0:0:0:
472,58,106407,2,0,P|415:60|365:42,1,93.3333333333333,10|2,0:0|0:0,0:0:0:0:
342,22,106868,1,2,0:2:0:0:
251,43,107176,1,0,1:2:0:0:
251,43,107330,2,0,P|197:27|148:37,1,93.3333333333333,10|2,0:0|0:0,0:0:0:0:
114,26,107791,2,0,P|127:119|135:191,1,140,2|10,1:2|0:0,0:0:0:0:
54,217,108561,2,0,P|104:254|204:228,1,140,2|2,3:2|1:2,0:0:0:0:
213,216,109176,1,10,0:0:0:0:
287,159,109484,5,10,0:0:0:0:
287,159,109637,2,0,P|324:191|386:199,1,93.3333333333333,2|0,1:2|0:0,0:0:0:0:
411,189,110099,2,0,P|404:235|397:281,1,93.3333333333333,10|0,0:0|3:2,0:0:0:0:
394,328,110561,1,2,3:2:0:0:
310,363,110868,1,2,1:2:0:0:
310,363,111022,2,0,P|265:334|213:330,1,93.3333333333333,8|2,0:0|0:0,0:0:0:0:
181,341,111484,1,2,1:2:0:0:
15,189,113330,6,0,P|68:180|167:167,1,140,0|10,1:2|0:0,0:0:0:0:
266,250,114253,2,0,P|329:259|374:264,1,93.3333333333333,2|2,3:2|1:2,0:0:0:0:
404,271,114714,1,10,0:0:0:0:
492,162,115176,2,0,P|445:116|365:125,1,140,2|8,1:2|0:0,0:0:0:0:
293,161,115945,1,2,3:2:0:0:
293,161,116099,2,0,P|230:152|185:149,1,93.3333333333333,2|0,3:2|1:2,0:0:0:0:
45,254,117022,6,0,P|35:184|24:115,1,140,2|10,1:2|0:0,0:0:0:0:
111,6,117945,2,0,P|143:45|201:53,1,93.3333333333333,2|0,3:2|1:2,0:0:0:0:
229,47,118407,1,10,0:0:0:0:
316,10,118714,1,2,0:0:0:0:
316,10,118868,2,0,P|324:67|338:171,1,140,2|10,1:2|0:0,0:0:0:0:
287,230,119637,1,6,0:0:0:0:
287,230,119791,2,0,P|238:224|211:222,2,46.6666666666667,6|4|0,0:0|0:0|1:2,0:0:0:0:
315,267,120253,2,0,P|380:257|442:252,1,93.3333333333333,10|8,0:0|0:0,0:0:0:0:
451,268,120714,1,2,0:0:0:0:
360,375,121176,6,0,P|305:366|244:361,1,93.3333333333333,10|2,0:0|3:2,0:0:0:0:
237,327,121637,2,0,P|182:336|121:341,1,93.3333333333333,2|2,3:2|1:2,0:0:0:0:
102,318,122099,1,10,0:0:0:0:
1,219,122561,2,0,P|-3:286|-11:368,2,140,2|10|2,1:2|0:0|3:2,0:0:0:0:
39,137,123791,1,2,1:2:0:0:
39,137,123945,2,0,P|79:107|122:104,1,93.3333333333333,10|10,0:0|0:0,0:0:0:0:
152,139,124407,6,0,P|218:149|301:161,1,140,2|10,1:2|0:0,0:0:0:0:
428,181,125330,2,0,P|421:134|413:88,1,93.3333333333333,2|2,0:0|1:2,0:0:0:0:
433,46,125791,2,0,P|382:40|325:31,1,93.3333333333333,10|2,0:0|0:0,0:0:0:0:
294,23,126253,1,2,1:2:0:0:
252,127,128099,6,0,P|204:153|159:156,1,93.3333333333333,2|2,1:2|0:0,0:0:0:0:
120,147,128561,1,10,0:0:0:0:
5,231,129022,2,0,P|14:282|23:328,1,93.3333333333333,2|2,3:2|1:2,0:0:0:0:
33,368,129484,1,10,0:0:0:0:
172,381,129945,2,0,P|220:355|265:352,1,93.3333333333333,2|2,1:2|0:0,0:0:0:0:
304,361,130407,1,10,0:0:0:0:
422,286,130868,2,0,P|413:235|404:189,1,93.3333333333333,2|2,3:2|1:2,0:0:0:0:
394,149,131330,1,10,0:0:0:0:
414,62,131637,5,10,0:0:0:0:
414,62,131791,2,0,B|333:42|357:95|275:75,1,140,2|10,1:2|0:0,0:0:0:0:
161,0,132714,2,0,P|155:49|150:97,1,93.3333333333333,2|2,3:2|1:2,0:0:0:0:
145,139,133176,1,10,0:0:0:0:
99,222,133484,1,2,0:0:0:0:
99,222,133637,2,0,P|161:216|262:216,1,140,2|10,1:2|0:0,0:0:0:0:
307,280,134407,1,6,0:0:0:0:
307,280,134561,2,0,P|344:277|366:279,2,46.6666666666667,6|6|2,0:0|0:0|1:2,0:0:0:0:
277,316,135022,2,0,P|245:353|194:357,1,93.3333333333333,10|10,0:0|0:0,0:0:0:0:
161,336,135484,6,0,P|98:344|0:357,1,140,2|10,1:2|0:0,0:0:0:0:
77,225,136407,2,0,P|142:214|193:209,1,93.3333333333333,2|2,3:2|1:2,0:0:0:0:
215,208,136868,1,10,0:0:0:0:
280,141,137176,1,2,0:0:0:0:
280,141,137330,2,0,P|321:112|379:110,1,93.3333333333333,2|2,1:2|0:0,0:0:0:0:
406,123,137791,1,10,0:0:0:0:
497,229,138253,2,0,P|482:283|484:324,1,93.3333333333333,2|2,3:2|1:2,0:0:0:0:
490,366,138714,1,10,0:0:0:0:
402,348,139022,1,10,0:0:0:0:
402,348,139176,6,0,P|341:357|307:361,1,93.3333333333333,2|2,1:2|0:0,0:0:0:0:
263,366,139637,1,10,0:0:0:0:
146,288,140099,2,0,P|85:297|51:301,1,93.3333333333333,2|2,3:2|1:2,0:0:0:0:
7,306,140560,1,10,0:0:0:0:
47,171,141022,2,0,P|108:180|142:184,1,93.3333333333333,2|2,1:2|0:0,0:0:0:0:
186,189,141483,1,10,0:0:0:0:
303,111,141945,2,0,P|364:120|446:130,2,140,2|10|2,3:2|0:0|0:0,0:0:0:0:
161,18,149791,5,10,0:0:0:0:
67,122,150253,2,0,P|77:176|90:247,1,93.3333333333333,2|2,1:2|0:0,0:0:0:0:
61,254,150714,2,0,P|115:264|186:277,1,93.3333333333333,10|0,0:0|3:2,0:0:0:0:
187,302,151176,1,2,3:2:0:0:
268,253,151484,1,0,1:2:0:0:
268,253,151637,2,0,P|312:232|361:235,1,93.3333333333333,10|2,0:0|0:2,0:0:0:0:
391,203,152099,2,0,P|400:267|411:351,1,140,2|10,1:2|0:0,0:0:0:0:
502,328,152868,2,0,P|492:258|483:189,1,140,2|0,3:2|1:2,0:0:0:0:
474,143,153484,1,10,0:0:0:0:
426,68,153791,5,10,0:0:0:0:
426,68,153945,2,0,P|369:88|327:83,1,93.3333333333333,2|0,1:2|0:0,0:0:0:0:
302,53,154407,2,0,P|254:37|202:49,1,93.3333333333333,10|0,0:0|3:2,0:0:0:0:
177,74,154868,1,2,3:2:0:0:
222,161,155176,1,2,1:2:0:0:
222,161,155330,2,0,P|231:219|240:277,1,93.3333333333333,8|2,0:0|0:0,0:0:0:0:
258,294,155791,2,0,B|182:283|201:340|114:326,1,140,0|8,1:0|0:0,0:0:0:0:
43,296,156561,1,4,0:0:0:0:
43,296,156714,2,0,P|38:331|36:353,2,46.6666666666667,4|4|0,0:0|0:0|1:2,0:0:0:0:
25,252,157176,2,0,P|16:197|10:149,1,93.3333333333333,10|10,0:0|0:0,0:0:0:0:
27,116,157637,6,0,P|82:86|124:88,1,93.3333333333333,2|0,1:2|0:0,0:0:0:0:
142,120,158099,1,10,0:0:0:0:
279,149,158561,1,2,0:2:0:0:
349,81,158868,1,0,1:2:0:0:
349,81,159022,2,0,P|402:88|456:96,1,93.3333333333333,10|2,0:0|0:0,0:0:0:0:
482,71,159484,6,0,P|491:137|504:233,1,140,2|10,1:2|0:0,0:0:0:0:
444,284,160253,2,0,P|402:255|315:274,1,140,2|2,3:2|1:2,0:0:0:0:
289,307,160868,1,10,0:0:0:0:
217,367,161176,1,10,0:0:0:0:
217,367,161330,6,0,P|165:356|67:347,2,140,2|10|2,1:2|0:0|3:2,0:0:0:0:
293,311,162561,1,2,1:2:0:0:
293,311,162714,2,0,P|281:253|277:215,1,93.3333333333333,8|2,0:0|0:0,0:0:0:0:
285,172,163176,1,2,1:2:0:0:
455,61,165022,6,0,P|448:119|441:164,1,93.3333333333333,2|2,1:2|0:0,0:0:0:0:
458,197,165484,2,0,P|406:193|356:222,1,93.3333333333333,10|0,0:0|3:2,0:0:0:0:
339,245,165945,1,2,3:2:0:0:
281,319,166253,1,0,1:2:0:0:
281,319,166407,2,0,P|227:307|161:301,1,93.3333333333333,10|2,0:0|0:2,0:0:0:0:
159,338,166868,2,0,P|142:248|133:193,1,140,2|10,1:2|0:0,0:0:0:0:
42,181,167637,2,0,P|59:91|68:36,1,140,2|0,3:2|1:2,0:0:0:0:
86,0,168253,1,10,0:0:0:0:
177,36,168561,5,10,0:0:0:0:
177,36,168714,2,0,P|187:90|195:141,1,93.3333333333333,2|0,1:2|0:0,0:0:0:0:
229,157,169176,2,0,P|219:215|211:267,1,93.3333333333333,10|0,0:0|3:2,0:0:0:0:
187,287,169637,1,2,3:2:0:0:
256,356,169945,1,2,1:2:0:0:
256,356,170099,2,0,P|299:332|358:335,1,93.3333333333333,8|2,0:0|0:0,0:0:0:0:
383,353,170561,2,0,P|374:288|365:207,1,140,0|8,1:0|0:0,0:0:0:0:
409,133,171330,1,4,0:0:0:0:
409,133,171484,2,0,P|445:138|470:139,2,46.6666666666667,4|4|0,0:0|0:0|1:2,0:0:0:0:
372,104,171945,2,0,P|322:80|259:94,1,93.3333333333333,10|10,0:0|0:0,0:0:0:0:
270,126,172407,6,0,P|205:137|164:147,1,93.3333333333333,2|0,1:2|0:0,0:0:0:0:
157,184,172868,1,10,0:0:0:0:
16,186,173330,1,2,0:2:0:0:
24,284,173637,1,0,1:2:0:0:
24,284,173791,2,0,P|68:308|123:310,1,93.3333333333333,10|2,0:0|0:0,0:0:0:0:
125,344,174253,6,0,B|201:322|187:383|267:365,1,140,2|10,1:2|0:0,0:0:0:0:
317,294,175022,2,0,P|306:219|293:128,1,140,2|2,3:2|1:2,0:0:0:0:
285,110,175637,1,10,0:0:0:0:
351,44,175945,1,10,0:0:0:0:
351,44,176099,2,0,P|394:80|494:68,2,140,2|10|2,1:2|0:0|3:2,0:0:0:0:
266,17,177330,1,2,1:2:0:0:
266,17,177484,2,0,P|208:29|157:40,1,93.3333333333333,8|2,0:0|0:0,0:0:0:0:
162,81,177945,6,0,L|202:245,2,140,2|2|2,1:2|0:0|0:0,0:0:0:0:
36,19,179330,1,2,0:0:0:0:
7,107,179637,1,2,0:0:0:0:
256,192,179791,12,0,187176,0:0:0:0:
