osu file format v14

[General]
AudioFilename: audio.mp3
AudioLeadIn: 0
PreviewTime: 134939
Countdown: 0
SampleSet: Soft
StackLeniency: 0.6
Mode: 0
LetterboxInBreaks: 1
EpilepsyWarning: 1
WidescreenStoryboard: 1

[Editor]
Bookmarks: 15564,45564,75564,105564,135564,165564,195564,225564,255564,285564,308845,309939,314314,335876,368064,398064,428064
DistanceSpacing: 0.9
BeatDivisor: 4
GridSize: 8
TimelineZoom: 2.1

[Metadata]
Title:Ichiru no Nozomi
TitleUnicode:一縷の望み
Artist:Crevasse Lamp
ArtistUnicode:Crevasse Lamp
Creator:Dada
Version:Miracle Fragment
Source:ひぐらしのなく頃に
Tags:c80 higurashi no naku koro ni when they cry Shoujo Sai wo Nagekareta 星澤こよて 司/19G Luscent 404 AimNotFound Folk Japanese
BeatmapID:2131806
BeatmapSetID:1018772

[Difficulty]
HPDrainRate:6.5
CircleSize:4
OverallDifficulty:8.5
ApproachRate:9.2
SliderMultiplier:2
SliderTickRate:1

[Events]
//Background and Video events
0,0,"48418912_p2_master1200.jpg",0,0
//Break Periods
2,319314,334314
//Storyboard Layer 0 (Background)
//Storyboard Layer 1 (Fail)
//Storyboard Layer 2 (Pass)
//Storyboard Layer 3 (Foreground)
//Storyboard Layer 4 (Overlay)
//Storyboard Sound Samples

[TimingPoints]
564,312.5,6,2,1,35,1,0
564,-133.333333333333,6,2,1,35,0,0
14314,-133.333333333333,6,2,1,50,0,0
15564,-100,6,2,1,65,0,0
45564,-100,6,2,1,70,0,0
75642,-166.666666666667,6,2,1,40,0,0
89626,-133.333333333333,6,2,1,55,0,0
90564,-117.647058823529,6,2,1,50,0,0
105251,-117.647058823529,6,2,1,60,0,0
105564,-111.111111111111,6,2,1,60,0,0
134939,-111.111111111111,6,2,1,70,0,0
135564,-100,6,2,1,75,0,1
164626,-1000,6,2,1,85,0,0
164704,-1000,6,2,0,5,0,0
165251,-1000,6,2,1,85,0,0
165564,-100,6,2,1,70,0,0
194626,-100,6,2,1,75,0,0
195642,-166.666666666667,6,2,1,40,0,0
210251,-333.333333333333,6,2,1,70,0,0
210564,-117.647058823529,6,2,1,50,0,0
225251,-117.647058823529,6,2,1,65,0,0
225564,-111.111111111111,6,2,1,65,0,0
255564,-100,6,2,1,75,0,1
285564,-100,6,2,1,70,0,0
291189,312.5,4,2,1,80,1,0
292439,312.5,6,2,1,80,1,0
298064,-100,4,2,1,80,0,0
299939,-100,4,2,1,70,0,0
305564,312.5,4,2,1,80,1,0
305564,-100,4,2,1,80,0,0
306814,312.5,6,2,1,70,1,0
306814,-100,4,2,1,70,0,0
314314,-100,4,2,1,65,0,0
314626,-100,4,2,1,60,0,0
314939,-100,4,2,1,55,0,0
315251,-100,4,2,1,50,0,0
315564,-100,4,2,1,45,0,0
315876,-100,4,2,1,40,0,0
316189,-100,4,2,1,35,0,0
316501,-100,4,2,1,30,0,0
316814,-100,4,2,1,25,0,0
317126,-100,4,2,1,20,0,0
317439,-100,4,2,1,15,0,0
317751,-100,4,2,1,10,0,0
318064,-100,4,2,1,5,0,0
335876,-100,4,2,1,30,0,0
336189,-100,4,2,1,40,0,0
336501,312.5,5,2,1,50,1,0
336501,-100,5,2,1,50,0,1
337126,-100,5,2,1,60,0,1
337751,-100,5,2,1,70,0,1
338063,312.5,6,2,1,75,1,0
338063,-100,5,2,1,75,0,0
368063,-100,5,2,1,75,0,1
397125,-1000,5,2,1,90,0,0
397204,-1000,5,2,0,5,0,0
397751,-1000,5,2,1,90,0,0
398064,-100,5,2,1,75,0,0
428064,-400,5,2,2,30,0,0
442438,-400,5,2,2,30,0,0
450250,-400,5,2,2,5,0,0
450563,-400,5,2,2,30,0,0
452125,-400,5,2,2,5,0,0
452438,-400,5,2,2,30,0,0
456189,-1000,5,2,2,50,0,0
456501,-1000,5,2,2,45,0,0
456814,-1000,5,2,1,42,0,0
457126,-1000,5,2,2,39,0,0
457439,-1000,5,2,1,36,0,0
457751,-1000,5,2,2,33,0,0
458064,-1000,5,2,1,30,0,0
458376,-1000,5,2,2,27,0,0
458689,-1000,5,2,1,24,0,0
459001,-1000,5,2,2,21,0,0
459314,-1000,5,2,1,18,0,0
459626,-1000,5,2,99,30,0,0

[Colours]
Combo1 : 221,121,87
Combo2 : 87,31,182
Combo3 : 213,0,0
Combo4 : 135,137,226
Combo5 : 121,17,17
Combo6 : 189,189,204

[HitObjects]
128,244,564,6,2,B|81:248|149:163|159:260|227:253,1,150.000005722046,2|0,3:1|0:0,0:1:0:0:
317,217,1032,1,0,3:0:0:0:
335,247,1345,1,2,0:0:0:0:
335,247,1423,1,0,0:0:0:0:
335,247,1501,6,2,B|317:217|317:217|329:195|366:209,1,75.0000028610231,2|0,0:3|0:0,0:1:0:0:
416,279,1814,1,0,3:0:0:0:
404,310,2126,1,0,3:0:0:0:
392,341,2439,6,0,P|321:330|241:339,1,150.000005722046,0|0,3:0|0:0,0:0:0:0:
159,368,2907,2,0,P|158:317|237:249,1,150.000005722046,0|0,3:0|0:0,0:0:0:0:
315,244,3376,5,2,0:0:0:0:
206,92,3689,1,2,0:0:0:0:
392,73,4001,1,2,0:0:0:0:
223,195,4314,6,2,B|227:148|142:216|239:226|232:294,1,150.000005722046,2|0,3:1|0:0,0:1:0:0:
158,357,4782,1,0,3:0:0:0:
135,380,5095,1,2,0:0:0:0:
135,380,5173,1,0,0:0:0:0:
135,380,5251,6,2,B|159:357|159:357|147:337|126:330,1,75.0000028610231,2|0,0:3|0:0,0:1:0:0:
30,319,5564,1,0,3:0:0:0:
19,349,5876,1,0,3:0:0:0:
8,379,6189,6,0,P|32:302|37:225,1,150.000005722046,2|0,0:0|0:0,0:0:0:0:
11,147,6657,2,0,P|103:153|160:106,1,150.000005722046,0|0,3:0|0:0,0:0:0:0:
196,46,7126,6,0,L|192:28,1,18.7500007152558,2|0,0:0|0:0,0:0:0:0:
222,195,7439,2,0,L|218:177,1,18.7500007152558,2|0,0:0|0:0,0:0:0:0:
248,344,7751,2,0,L|244:326,1,18.7500007152558,2|0,0:0|0:0,0:0:0:0:
429,324,8064,6,2,B|447:331|464:330|464:330|477:278|429:268|442:212,1,150.000005722046,2|0,3:1|0:0,0:1:0:0:
495,131,8532,1,0,3:0:0:0:
512,107,8845,1,2,0:0:0:0:
512,107,8923,1,0,0:0:0:0:
512,107,9001,6,2,P|454:85|428:84,1,75.0000028610231,2|0,0:3|0:1,0:1:0:0:
348,94,9314,1,0,3:0:0:0:
369,121,9626,5,0,3:0:0:0:
143,121,9939,1,2,0:0:0:0:
256,4,10251,1,0,3:0:0:0:
256,82,10407,1,0,3:0:0:0:
256,160,10564,6,0,L|256:180,1,18.7500007152558,2|0,0:0|0:0,0:0:0:0:
256,356,10876,6,0,L|256:336,1,18.7500007152558,2|0,0:0|0:0,0:0:0:0:
256,258,11032,1,0,3:0:0:0:
256,179,11189,1,2,3:1:0:0:
256,356,11501,6,0,L|256:328,1,18.7500007152558,2|0,0:0|0:0,0:0:0:0:
256,160,11814,6,2,B|289:185|271:85|220:177|152:160,1,150.000005722046,2|0,3:1|0:1,0:1:0:0:
65,112,12282,1,0,3:0:0:0:
115,25,12439,2,0,P|159:4|207:-1,1,75.0000028610231,2|0,0:0|0:0,0:0:0:0:
204,12,12673,1,0,0:0:0:0:
204,12,12751,6,2,B|188:38|188:38|213:26|249:27,1,75.0000028610231,2|0,0:3|0:0,0:1:0:0:
318,52,13064,1,0,3:0:0:0:
341,30,13376,6,0,L|344:12,1,18.7500007152558,2|0,0:0|0:0,0:0:0:0:
437,72,13532,2,0,L|450:83,1,18.7500007152558,2|0,0:0|0:0,0:0:0:0:
352,134,13689,2,0,L|335:140,1,18.7500007152558,2|0,0:0|0:0,0:0:0:0:
160,134,14001,2,0,L|176:140,1,18.7500007152558,2|0,0:0|0:0,0:0:0:0:
75,313,14314,6,0,L|78:330,1,18.7500007152558,2|0,0:0|0:0,0:0:0:0:
144,220,14470,2,0,L|140:239,1,18.7500007152558,2|0,0:0|0:0,0:0:0:0:
75,127,14626,2,0,L|78:146,1,18.7500007152558,2|0,0:3|0:0,0:0:0:0:
256,10,14939,2,0,L|290:16,1,18.7500007152558,2|0,0:3|0:0,0:0:0:0:
498,152,15564,6,2,B|393:124|413:217|309:191,1,200,6|0,1:1|0:0,0:1:0:0:
201,160,16032,1,0,0:0:0:0:
342,108,16189,1,2,0:0:0:0:
160,68,16345,1,0,0:0:0:0:
160,68,16423,1,0,0:0:0:0:
160,68,16501,6,0,B|97:36|97:36|54:41,2,100,8|0|0,0:0|1:0|0:1,0:1:0:0:
69,218,16970,1,0,1:0:0:0:
201,160,17126,2,0,P|149:145|95:151,1,100,2|0,0:0|0:0,0:0:0:0:
102,289,17439,2,0,P|152:292|200:278,1,100,2|0,0:0|0:0,0:0:0:0:
277,181,17751,5,0,0:0:0:0:
216,354,17907,1,8,0:0:0:0:
316,253,18064,1,0,1:0:0:0:
416,354,18220,5,0,0:0:0:0:
355,181,18376,1,8,0:0:0:0:
462,289,18532,1,0,0:0:0:0:
462,289,18610,1,0,0:0:0:0:
462,289,18689,6,2,B|451:274|427:255|427:255|465:211|445:154,1,150,2|0,0:1|0:1,0:1:0:0:
429,150,19001,1,0,0:0:0:0:
370,0,19314,6,2,B|343:17|311:21|311:21|270:74|251:145,1,200,2|0,1:0|0:0,0:1:0:0:
320,230,19782,1,0,1:0:0:0:
159,233,19939,1,2,0:0:0:0:
289,309,20095,1,0,0:0:0:0:
351,151,20251,1,8,0:0:0:0:
373,297,20407,1,0,1:0:0:0:
378,327,20720,5,0,1:0:0:0:
383,357,21032,5,0,0:0:0:0:
265,333,21189,2,0,P|218:312|164:313,1,100,0|0,1:0|0:0,0:0:0:0:
65,368,21501,5,0,0:0:0:0:
148,214,21657,1,8,0:0:0:0:
13,281,21814,1,0,1:0:0:0:
171,312,21970,5,0,0:0:0:0:
49,187,22126,2,2,P|89:132|142:114,1,100,10|0,0:0|0:0,0:1:0:0:
244,243,22439,5,2,3:2:0:0:
274,266,22517,1,0,3:2:0:0:
311,274,22595,1,8,3:2:0:0:
347,267,22673,1,0,3:2:0:0:
377,245,22751,2,2,P|409:201|414:151,1,100,10|0,1:1|0:1,0:1:0:0:
270,42,23064,6,2,B|230:55|230:55|302:97|383:72,1,200,2|0,1:0|0:0,1:0:0:0:
512,0,23532,1,0,1:0:0:0:
338,3,23689,1,2,0:0:0:0:
490,148,23845,1,0,0:0:0:0:
490,148,23923,1,0,0:0:0:0:
490,148,24001,6,0,B|511:215|511:215|506:263,2,100,8|0|0,0:0|1:0|0:0,0:1:0:0:
303,151,24470,1,0,1:0:0:0:
433,235,24626,2,0,P|407:173|357:145,1,100,2|0,0:0|0:0,0:0:0:0:
281,228,24939,2,0,P|230:239|177:223,1,100,0|0,1:0|0:0,0:0:0:0:
85,109,25251,5,2,0:1:0:0:
115,313,25407,1,8,0:0:0:0:
0,215,25564,1,0,1:0:0:0:
163,153,25720,5,0,0:0:0:0:
6,65,25876,1,8,0:0:0:0:
214,12,26032,1,2,0:0:0:0:
214,12,26110,1,2,0:0:0:0:
214,12,26189,6,2,P|288:34|330:98,1,150,2|0,1:0|0:0,1:0:0:0:
318,112,26501,1,2,0:1:0:0:
473,342,26814,6,2,B|521:346|512:295|466:283|434:360|341:336,1,200,2|2,1:0|0:0,1:0:0:0:
250,260,27282,1,0,1:0:0:0:
378,232,27439,1,2,0:0:0:0:
264,344,27595,1,0,0:0:0:0:
236,176,27751,1,8,0:0:0:0:
184,314,27907,1,0,1:0:0:0:
184,349,28220,5,0,0:0:0:0:
184,349,28298,1,0,0:0:0:0:
184,349,28376,2,0,P|127:340|91:313,1,100,2|0,1:0|0:0,0:0:0:0:
26,170,28689,5,0,1:0:0:0:
202,241,28845,1,8,0:0:0:0:
206,51,29001,2,0,P|256:28|321:36,1,100,2|0,0:0|0:0,0:0:0:0:
413,149,29314,1,12,1:0:0:0:
438,175,29626,5,4,1:1:0:0:
221,170,29782,1,8,0:0:0:0:
221,170,29860,1,8,0:0:0:0:
221,170,29939,1,8,0:0:0:0:
380,66,30095,1,8,0:0:0:0:
314,265,30251,1,8,0:0:0:0:
505,130,30407,1,8,0:0:0:0:
429,369,30564,6,2,B|429:346|443:324|443:324|386:304|355:369|298:351,1,200,6|0,1:1|0:1,0:1:0:0:
234,250,31032,1,0,0:0:0:0:
146,382,31189,1,2,0:0:0:0:
112,226,31345,1,0,0:0:0:0:
112,226,31423,1,0,0:0:0:0:
112,226,31501,6,0,B|116:250|110:269|110:269|116:296|147:313,2,100,8|0|0,0:0|1:0|0:0,0:0:0:0:
7,167,31970,1,0,1:0:0:0:
154,163,32126,2,0,P|188:211|177:266,1,100,2|0,0:0|0:0,0:0:0:0:
98,112,32439,2,0,P|155:87|205:106,1,100,0|0,1:0|0:0,0:0:0:0:
261,186,32751,5,2,0:0:0:0:
212,13,32907,1,8,0:0:0:0:
348,66,33064,1,0,1:0:0:0:
204,113,33220,5,0,0:0:0:0:
370,182,33376,1,8,0:0:0:0:
241,268,33532,1,2,0:0:0:0:
241,268,33610,1,2,0:0:0:0:
241,268,33689,6,2,B|224:270|207:279|207:279|169:255|126:252|126:252|103:268|74:272,1,150,2|0,0:1|0:0,1:0:0:0:
87,284,34001,1,0,0:0:0:0:
270,369,34314,6,2,B|238:394|225:330|272:314|328:400|402:372,1,200,2|0,1:0|0:0,1:0:0:0:
509,317,34782,1,0,1:0:0:0:
374,257,34939,1,2,0:0:0:0:
434,122,35095,1,0,0:0:0:0:
432,307,35251,1,8,0:0:0:0:
316,207,35407,1,0,1:0:0:0:
291,182,35720,5,0,1:0:0:0:
266,158,36032,5,0,0:0:0:0:
250,278,36189,2,0,P|188:287|136:266,1,100,0|0,1:0|0:0,0:0:0:0:
84,155,36501,5,2,0:0:0:0:
16,327,36657,1,8,0:0:0:0:
153,276,36814,1,0,1:0:0:0:
9,220,36970,5,0,0:0:0:0:
107,365,37126,2,2,P|183:371|214:355,1,100,8|0,0:0|0:0,0:1:0:0:
218,205,37439,5,2,3:2:0:0:
220,167,37517,1,0,3:2:0:0:
235,133,37595,1,8,3:2:0:0:
260,105,37673,1,0,3:2:0:0:
293,88,37751,2,2,P|345:74|397:86,1,100,10|0,1:1|0:1,0:1:0:0:
503,248,38064,6,2,B|475:246|451:238|451:238|381:268|304:286,1,200,2|0,1:0|0:0,1:0:0:0:
204,338,38532,1,0,1:0:0:0:
364,350,38689,1,2,0:0:0:0:
236,267,38845,1,0,0:0:0:0:
103,373,39001,2,0,P|53:374|1:355,2,100,8|0|0,0:0|1:0|0:0,0:0:0:0:
30,230,39470,1,0,1:0:0:0:
148,123,39626,2,0,P|197:128|274:111,1,100,2|0,0:0|0:0,0:0:0:0:
331,14,39939,2,0,P|380:9|457:26,1,100,0|0,1:0|0:0,0:0:0:0:
498,155,40251,5,2,0:1:0:0:
319,88,40407,1,8,0:0:0:0:
412,204,40564,1,0,1:0:0:0:
273,229,40720,5,0,0:0:0:0:
416,104,40876,1,8,0:0:0:0:
512,256,41032,1,2,0:0:0:0:
512,256,41110,1,2,0:0:0:0:
512,256,41189,6,2,B|468:291|449:338|449:338|414:308,1,150,2|0,0:1|0:0,0:1:0:0:
394,312,41501,1,2,0:1:0:0:
8,354,41814,6,2,B|16:328|16:328|48:323|126:378|156:373|156:373|166:347,1,200,2|0,1:0|0:0,1:0:0:0:
205,232,42282,1,0,1:0:0:0:
237,384,42439,1,2,0:0:0:0:
121,284,42595,1,0,0:0:0:0:
289,180,42751,1,8,0:0:0:0:
120,190,42907,1,0,1:0:0:0:
96,197,43220,5,0,0:0:0:0:
96,197,43298,1,0,0:0:0:0:
96,197,43376,2,2,B|63:211|63:211|23:194|0:156,1,100,2|0,0:1|0:0,1:0:0:0:
80,38,43689,1,0,1:0:0:0:
207,158,43845,1,8,0:0:0:0:
327,31,44001,1,0,1:0:0:0:
346,4,44314,6,0,P|402:13|437:44,1,100,12|0,1:0|0:0,0:0:0:0:
463,182,44626,1,4,1:0:0:0:
270,98,44782,1,8,0:0:0:0:
270,98,44860,1,8,0:0:0:0:
270,98,44939,1,8,0:0:0:0:
475,106,45095,1,8,0:0:0:0:
416,312,45251,1,8,0:0:0:0:
373,102,45407,1,8,0:0:0:0:
243,285,45564,5,6,0:0:0:0:
176,145,45720,1,0,0:0:0:0:
68,295,45876,1,2,0:0:0:0:
70,140,46032,5,2,0:0:0:0:
155,290,46189,1,0,0:0:0:0:
282,150,46345,1,2,0:0:0:0:
148,50,46501,6,0,P|75:44|2:67,1,150,10|0,0:0|0:0,0:0:0:0:
70,140,46814,2,0,P|28:200|12:274,1,150,2|0,0:0|0:0,0:0:0:0:
108,252,47126,2,0,P|139:317|195:369,1,150,2|0,0:0|0:0,0:0:0:0:
278,241,47439,5,2,0:0:0:0:
363,108,47595,1,0,0:0:0:0:
357,291,47751,1,2,0:0:0:0:
282,150,47907,5,10,0:0:0:0:
195,284,48064,1,0,0:0:0:0:
111,131,48220,1,2,0:0:0:0:
286,59,48376,6,0,L|454:88,1,150,10|0,0:0|0:0,0:0:0:0:
282,150,48689,2,2,P|365:164|451:194,1,150,2|0,0:1|0:1,0:1:0:0:
278,241,49001,2,2,P|372:257|442:298,1,150,2|0,0:1|0:1,0:1:0:0:
274,332,49314,5,2,0:0:0:0:
201,192,49470,1,0,0:0:0:0:
45,290,49626,1,2,0:0:0:0:
0,137,49782,5,2,0:0:0:0:
123,241,49939,1,0,0:0:0:0:
166,67,50095,1,2,0:0:0:0:
199,283,50251,6,0,P|271:297|341:256,1,150,10|0,0:0|0:0,0:0:0:0:
387,134,50564,2,0,P|338:189|339:270,1,150,2|0,0:0|0:0,0:0:0:0:
422,370,50876,2,0,P|398:300|327:260,1,150,2|0,0:0|0:0,0:0:0:0:
153,348,51189,5,2,1:2:0:0:
132,374,51501,5,0,0:0:0:0:
103,217,51657,2,0,L|82:100,1,100,8|0,0:0|1:0,0:0:0:0:
234,146,51970,1,0,0:0:0:0:
234,146,52048,1,0,0:0:0:0:
234,146,52126,6,0,P|309:145|379:80,1,150,10|0,0:0|0:0,0:0:0:0:
492,250,52439,2,0,P|417:249|347:184,1,150,2|0,0:0|0:0,0:0:0:0:
234,354,52751,2,2,B|300:334|317:274|317:274|283:266,1,150,2|0,0:1|0:1,0:1:0:0:
162,318,53064,5,2,0:0:0:0:
100,182,53220,1,0,0:0:0:0:
65,348,53376,1,2,0:0:0:0:
164,235,53532,5,2,0:0:0:0:
19,190,53689,1,0,0:0:0:0:
163,109,53845,1,2,0:0:0:0:
288,267,54001,6,0,P|368:299|435:267,1,150,10|0,0:0|0:0,0:0:0:0:
361,201,54314,2,0,P|412:132|399:59,1,150,2|0,0:0|0:0,0:0:0:0:
316,113,54626,2,0,P|262:45|188:39,1,150,2|0,0:0|0:0,0:0:0:0:
92,150,54939,5,2,0:0:0:0:
240,170,55095,1,0,0:0:0:0:
76,244,55251,1,2,0:1:0:0:
108,56,55407,5,10,0:0:0:0:
158,207,55564,1,0,0:0:0:0:
203,36,55720,1,2,0:0:0:0:
322,207,55876,6,0,B|341:315|341:315|315:344,1,150,10|0,0:0|0:0,0:0:0:0:
388,169,56189,2,2,B|447:153|472:98|472:98|492:97|510:106,1,150,2|0,0:1|0:1,0:1:0:0:
322,130,56501,2,2,B|278:86|218:92|218:92|207:75|206:55,1,150,2|0,0:1|0:1,0:1:0:0:
382,83,56814,5,2,0:0:0:0:
432,245,56970,1,0,0:0:0:0:
499,68,57126,1,2,0:0:0:0:
388,169,57282,5,2,0:0:0:0:
433,15,57439,1,0,0:0:0:0:
260,63,57595,1,2,0:0:0:0:
308,236,57751,6,0,L|281:383,1,150,10|0,0:0|0:0,0:0:0:0:
230,222,58064,2,2,B|213:308|213:308|182:328|146:330,1,150,2|0,0:1|0:1,0:1:0:0:
152,208,58376,2,2,B|144:250|144:250|87:237|56:188,1,150,2|0,0:1|0:1,0:1:0:0:
121,67,58689,5,0,1:0:0:0:
230,222,58845,1,8,0:0:0:0:
260,63,59001,2,0,P|306:44|359:50,1,100,0|0,1:0|0:0,0:0:0:0:
452,187,59314,1,12,1:0:0:0:
468,214,59626,5,8,0:0:0:0:
274,153,59782,1,8,0:0:0:0:
274,153,59860,1,8,0:0:0:0:
274,153,59939,1,8,0:0:0:0:
348,338,60095,1,8,0:0:0:0:
403,117,60251,1,8,0:0:0:0:
246,271,60407,1,8,0:0:0:0:
146,74,60564,5,6,0:0:0:0:
274,153,60720,1,0,0:0:0:0:
96,175,60876,1,2,0:0:0:0:
231,80,61032,5,2,0:0:0:0:
172,220,61189,1,0,0:0:0:0:
61,68,61345,1,2,0:0:0:0:
61,68,61423,1,0,0:0:0:0:
61,68,61501,6,0,B|64:47|51:27|51:27|0:62|0:121,1,150,10|0,0:0|0:0,0:0:0:0:
96,175,61814,2,0,B|99:154|86:134|86:134|35:169|35:228,1,150,2|0,0:0|0:0,0:0:0:0:
131,282,62126,2,0,B|134:261|121:241|121:241|70:276|70:335,1,150,2|0,0:0|0:0,0:0:0:0:
235,355,62439,5,2,0:0:0:0:
298,214,62595,1,0,0:0:0:0:
422,351,62751,1,2,0:0:0:0:
422,191,62907,5,10,0:0:0:0:
297,297,63064,1,0,0:0:0:0:
298,130,63220,1,2,0:0:0:0:
82,156,63376,6,0,P|30:103|27:30,1,150,10|0,0:0|0:0,0:0:0:0:
158,168,63689,2,2,B|157:240|111:264|111:264|84:215,1,150,2|0,0:1|0:1,0:1:0:0:
130,96,64001,2,2,B|165:69|220:80|220:80|235:111|225:144,1,150,2|0,0:1|0:1,0:1:0:0:
187,301,64314,5,2,0:0:0:0:
290,180,64470,1,0,0:0:0:0:
257,367,64626,1,2,0:0:0:0:
200,209,64782,5,2,0:0:0:0:
359,242,64939,1,0,0:0:0:0:
272,90,65095,1,2,0:0:0:0:
187,301,65251,6,0,P|124:262|109:191,1,150,10|0,0:0|0:0,0:0:0:0:
200,209,65564,2,0,P|186:137|124:98,1,150,2|0,0:0|0:0,0:0:0:0:
37,131,65876,2,0,P|46:47|111:5,1,150,2|0,0:0|0:0,0:0:0:0:
272,90,66189,5,2,1:2:0:0:
291,115,66501,5,0,0:0:0:0:
430,36,66657,2,0,L|452:161,1,100,8|0,0:0|1:0,0:0:0:0:
485,289,66970,1,2,0:0:0:0:
485,289,67048,1,0,0:0:0:0:
485,289,67126,6,0,P|399:275|344:333,1,150,10|0,0:0|0:0,0:0:0:0:
355,339,67439,1,0,1:0:0:0:
375,145,67595,1,0,1:0:0:0:
186,210,67751,1,8,0:0:0:0:
156,226,68064,5,2,0:0:0:0:
199,77,68220,1,0,0:0:0:0:
50,159,68376,1,2,0:0:0:0:
93,10,68532,5,2,0:0:0:0:
178,152,68689,1,0,0:0:0:0:
23,71,68845,1,2,0:0:0:0:
23,247,69001,6,0,B|68:270|68:270|75:371,1,150,10|0,0:0|0:0,0:0:0:0:
100,199,69314,2,0,B|145:222|145:222|151:321,1,150,2|0,0:0|0:0,0:0:0:0:
178,152,69626,2,0,B|223:175|223:175|230:276,1,150,2|0,0:0|0:0,0:0:0:0:
320,375,69939,5,2,0:0:0:0:
337,226,70095,1,0,0:0:0:0:
472,329,70251,1,2,0:1:0:0:
398,144,70407,5,10,0:0:0:0:
382,307,70564,1,0,0:0:0:0:
501,147,70720,1,2,0:0:0:0:
310,89,70876,6,0,P|240:67|222:1,1,150,10|0,0:0|0:0,0:0:0:0:
257,159,71189,2,2,P|192:125|153:62,1,150,2|0,0:1|0:1,0:1:0:0:
254,235,71501,2,2,B|216:229|184:212|184:212|144:223|119:261,1,150,2|0,0:1|0:1,0:1:0:0:
73,383,71814,5,2,0:0:0:0:
28,229,71970,1,0,0:0:0:0:
164,352,72126,1,2,0:0:0:0:
1,320,72282,5,2,0:0:0:0:
120,208,72439,1,0,0:0:0:0:
73,383,72595,1,2,0:0:0:0:
255,321,72751,6,0,L|402:347,1,150,10|0,0:0|0:0,0:0:0:0:
270,246,73064,2,0,B|384:266|384:266|423:241,1,150,2|0,0:0|0:0,0:0:0:0:
285,171,73376,2,2,B|362:185|362:185|332:118,1,150,2|0,0:1|0:1,0:1:0:0:
173,94,73689,5,0,1:0:0:0:
270,246,73845,1,8,0:0:0:0:
262,68,74001,2,0,P|227:20|175:1,1,100,2|0,0:0|0:0,0:0:0:0:
101,148,74314,1,12,1:0:0:0:
87,176,74626,5,8,0:0:0:0:
8,5,74782,1,8,0:0:0:0:
8,5,74860,1,8,0:0:0:0:
8,5,74939,1,8,0:0:0:0:
173,94,75095,1,8,0:0:0:0:
1,258,75251,1,8,0:0:0:0:
91,50,75407,1,8,0:0:0:0:
267,232,75564,1,6,0:0:0:0:
197,374,76501,6,0,P|264:372|324:327,1,119.999996337891,2|0,0:0|0:0,0:0:0:0:
308,219,77126,1,0,0:0:0:0:
236,115,77439,2,0,L|415:82,1,179.999994506836,2|0,0:0|0:0,0:0:0:0:
462,145,78064,1,0,0:0:0:0:
384,6,78376,6,0,P|294:8|208:39,1,179.999994506836,2|2,0:0|0:0,0:0:0:0:
156,97,79001,1,0,0:0:0:0:
88,240,79314,6,0,P|88:153|79:122,1,119.999996337891,2|0,0:0|0:0,0:0:0:0:
28,60,79782,1,0,3:0:0:0:
1,39,80095,5,0,3:0:0:0:
4,117,80251,2,0,P|19:166|24:200,1,59.9999981689454,2|0,0:0|0:0,0:0:0:0:
18,254,80564,5,2,0:0:0:0:
13,285,80876,5,2,0:0:0:0:
8,316,81189,6,0,P|60:328|89:326,1,59.9999981689454,2|0,0:0|0:0,0:0:0:0:
139,298,81501,2,0,P|191:286|220:288,1,59.9999981689454
270,316,81814,2,0,P|322:328|351:326,1,59.9999981689454,2|0,0:0|0:0,0:0:0:0:
401,298,82126,6,0,P|395:227|403:155,1,119.999996337891,2|0,0:0|0:0,0:0:0:0:
430,105,82595,1,0,3:0:0:0:
335,131,82751,1,0,3:0:0:0:
303,138,83064,6,0,B|264:131|264:131|244:137,1,59.9999981689454,2|0,0:0|0:0,0:0:0:0:
164,213,83376,2,0,B|202:206|202:206|222:212,1,59.9999981689454,2|0,0:0|0:0,0:0:0:0:
303,288,83689,2,0,B|264:281|264:281|244:287,1,59.9999981689454,2|0,0:0|0:0,0:0:0:0:
127,304,84001,6,0,B|143:290|143:290|171:316,1,59.9999981689454,2|0,0:0|0:0,0:0:0:0:
55,337,84314,2,0,B|57:357|57:357|21:369,1,59.9999981689454,2|0,0:0|0:0,0:0:0:0:
62,258,84626,2,0,B|40:249|40:249|40:198|76:162,1,119.999996337891,2|0,0:0|0:0,0:0:0:0:
228,47,85251,5,2,0:0:0:0:
142,60,85407,1,0,0:0:0:0:
155,145,85564,2,0,B|191:138|191:138|214:145,1,59.9999981689454,2|0,0:0|0:0,0:0:0:0:
239,220,85876,2,0,B|261:226|261:226|297:220,1,59.9999981689454,2|0,0:0|0:0,0:0:0:0:
371,192,86189,2,0,B|377:214|377:214|371:250,1,59.9999981689454,2|0,0:0|0:0,0:0:0:0:
450,243,86501,2,0,B|456:206|456:206|449:184,1,59.9999981689454,2|0,0:0|0:0,0:0:0:0:
405,118,86814,6,0,B|373:112|373:112|411:82|454:88,1,119.999996337891,2|0,0:0|0:0,0:0:0:0:
371,192,87282,2,0,B|320:183|320:183|286:113,1,119.999996337891,0|0,3:0|3:0,0:0:0:0:
320,47,87751,1,2,0:0:0:0:
328,16,88064,6,0,L|248:30,1,59.9999981689454,2|0,0:0|0:0,0:0:0:0:
203,71,88376,2,0,L|129:57,1,59.9999981689454,2|0,0:0|0:0,0:0:0:0:
82,9,88689,2,0,B|60:38|60:38|61:80|84:116,1,119.999996337891,2|0,0:0|0:0,0:0:0:0:
144,169,89157,1,0,3:0:0:0:
39,211,89314,1,0,3:0:0:0:
10,229,89626,5,8,0:0:0:0:
180,194,89782,1,8,0:0:0:0:
180,194,89860,1,8,0:0:0:0:
180,194,89939,1,8,0:0:0:0:
84,337,90095,1,8,0:0:0:0:
60,136,90251,2,0,P|89:87|150:53,1,112.500004291535,2|0,0:0|0:0,0:0:0:0:
155,80,90564,6,0,P|247:89|325:74,1,170.000003242493,6|0,0:0|0:0,0:0:0:0:
406,3,91032,1,0,0:0:0:0:
410,140,91189,1,2,0:0:0:0:
491,36,91345,1,0,0:0:0:0:
322,74,91501,6,0,P|301:124|308:186,1,85.0000016212464,10|0,0:0|0:0,0:0:0:0:
342,298,91814,2,0,P|363:248|356:186,1,85.0000016212464,2|0,0:0|0:0,0:0:0:0:
228,209,92126,1,0,1:0:0:0:
260,332,92282,1,0,0:0:0:0:
116,267,92439,2,0,P|115:218|90:77,1,170.000003242493,2|0,0:0|0:0,0:0:0:0:
2,13,92907,1,0,0:0:0:0:
155,3,93064,6,0,P|200:4|253:28,1,85.0000016212464,2|0,0:0|0:0,0:0:0:0:
303,141,93376,2,0,P|341:117|375:70,1,85.0000016212464,8|2,0:0|0:0,0:0:0:0:
361,65,93610,1,2,0:0:0:0:
361,65,93689,1,2,0:0:0:0:
465,152,93845,1,0,0:0:0:0:
378,256,94001,1,2,0:0:0:0:
84,95,94314,6,0,B|79:123|61:145|61:145|96:192|165:183,1,170.000003242493,2|0,1:2|0:0,0:0:0:0:
254,108,94782,1,0,1:0:0:0:
279,242,94939,1,0,0:0:0:0:
335,118,95095,1,0,0:0:0:0:
173,98,95251,2,0,P|116:79|86:46,1,85.0000016212464,8|2,0:0|0:0,0:0:0:0:
106,39,95485,1,2,0:0:0:0:
106,39,95564,5,2,0:0:0:0:
156,174,95720,1,0,0:0:0:0:
224,33,95876,2,0,P|283:36|321:60,1,85.0000016212464,2|0,1:2|0:0,0:0:0:0:
416,128,96189,6,0,P|475:124|513:100,1,85.0000016212464,2|0,1:2|0:0,0:0:0:0:
359,197,96501,2,0,P|299:193|261:169,1,85.0000016212464
416,266,96814,2,0,P|475:262|513:238,1,85.0000016212464,2|0,1:2|0:0,0:0:0:0:
359,335,97126,2,0,B|272:349|282:291|195:306,1,170.000003242493,8|0,0:0|0:0,0:0:0:0:
89,348,97595,1,0,0:0:0:0:
89,348,97673,1,0,0:0:0:0:
89,348,97751,1,0,1:0:0:0:
64,371,98064,6,0,B|46:307|46:307|31:291,1,85.0000016212464,2|0,0:0|0:0,0:0:0:0:
144,278,98376,2,0,B|162:214|162:214|177:198,1,85.0000016212464,2|0,0:0|0:0,0:0:0:0:
64,185,98689,2,0,B|46:121|46:121|31:105,1,85.0000016212464
113,8,99001,6,0,L|205:24,1,85.0000016212464,10|0,0:0|0:0,0:0:0:0:
230,116,99314,2,0,L|322:99,1,85.0000016212464,2|0,0:0|0:0,0:0:0:0:
347,8,99626,2,0,B|394:51|394:51|413:115,1,127.50000243187,0|0,1:2|0:0,0:0:0:0:
392,133,99939,1,2,0:0:0:0:
512,0,100251,6,0,B|501:60|501:60|478:86,1,85.0000016212464,2|0,0:0|0:0,0:0:0:0:
392,133,100564,2,0,B|369:123|369:123|309:134,1,85.0000016212464
217,234,100876,1,8,0:0:0:0:
387,271,101032,1,2,0:0:0:0:
387,271,101110,1,2,0:0:0:0:
387,271,101189,6,0,B|417:276|417:276|477:326,1,85.0000016212464,2|0,0:0|0:0,0:0:0:0:
340,342,101501,2,0,B|309:336|309:336|249:286,1,85.0000016212464,2|0,0:0|0:0,0:0:0:0:
299,155,101814,6,0,B|313:129|313:129|239:141|175:120,1,170.000003242493,2|0,1:2|0:0,0:0:0:0:
121,10,102282,1,0,0:0:0:0:
87,147,102439,1,0,0:0:0:0:
33,37,102595,1,0,0:0:0:0:
175,120,102751,1,8,0:0:0:0:
99,245,102907,1,0,0:0:0:0:
99,245,102985,1,0,0:0:0:0:
99,245,103064,6,0,P|141:250|177:270,1,85.0000016212464,2|0,0:0|0:0,0:0:0:0:
233,196,103376,2,0,P|258:229|269:269,1,85.0000016212464,0|0,1:0|0:0,0:0:0:0:
362,256,103689,6,0,B|364:284|354:307|354:307|403:277|426:217,1,170.000003242493,2|0,1:2|0:0,0:0:0:0:
341,128,104157,1,0,0:0:0:0:
485,109,104314,1,0,1:0:0:0:
372,26,104470,1,0,0:0:0:0:
236,148,104626,6,0,B|194:157|194:157|71:117,1,170.000003242493,6|0,0:0|1:0,0:0:0:0:
196,78,105095,1,0,0:0:0:0:
232,231,105251,1,8,0:0:0:0:
79,267,105407,1,8,0:0:0:0:
306,193,105564,6,0,P|349:206|464:280,1,179.999994506836,4|0,0:0|0:0,0:0:0:0:
327,280,106032,2,0,P|286:291|245:317,1,89.9999972534181,0|0,1:0|0:0,0:0:0:0:
160,383,106345,1,0,0:0:0:0:
187,237,106501,2,0,L|203:144,1,89.9999972534181,8|0,0:0|0:0,0:0:0:0:
289,21,106814,6,0,P|338:36|381:73,1,89.9999972534181,2|0,0:0|0:0,0:0:0:0:
219,68,107126,2,0,P|170:53|127:16,1,89.9999972534181,2|0,0:0|0:0,0:0:0:0:
0,0,107439,6,0,P|18:87|21:189,1,179.999994506836,2|0,1:2|0:0,0:0:0:0:
0,302,107907,1,0,0:0:0:0:
98,202,108064,1,0,1:0:0:0:
179,347,108220,1,0,0:0:0:0:
179,347,108298,1,0,0:0:0:0:
179,347,108376,2,0,L|289:327,1,89.9999972534181,8|0,0:0|0:0,0:0:0:0:
401,255,108689,6,0,P|357:218|319:207,1,89.9999972534181,2|0,0:0|0:0,0:0:0:0:
180,251,109001,1,2,0:0:0:0:
465,378,109314,6,0,B|492:286|409:300|435:209,1,179.999994506836,2|0,1:2|0:0,0:0:0:0:
512,74,109782,1,0,1:0:0:0:
505,241,109939,1,0,0:0:0:0:
419,111,110095,1,0,0:0:0:0:
332,243,110251,6,0,P|279:261|226:251,1,89.9999972534181,8|0,0:0|0:0,0:0:0:0:
115,154,110564,2,0,P|168:136|221:146,1,89.9999972534181,2|0,0:0|0:0,0:0:0:0:
128,268,110876,1,2,0:0:0:0:
32,16,111189,5,0,1:0:0:0:
6,162,111345,1,0,0:0:0:0:
117,29,111501,1,0,1:0:0:0:
143,175,111657,1,0,0:0:0:0:
251,72,111814,6,0,P|316:66|364:85,1,89.9999972534181,0|0,1:0|0:0,0:0:0:0:
384,274,112126,2,0,P|393:195|423:92,1,179.999994506836,10|0,0:0|3:0,0:0:0:0:
511,0,112595,1,0,3:0:0:0:
490,156,112751,1,0,3:0:0:0:
233,0,113064,6,0,B|211:49|211:49|235:188,1,179.999994506836,2|0,1:2|0:0,0:0:0:0:
301,285,113532,2,0,P|246:252|189:252,1,89.9999972534181,0|0,1:0|0:0,0:0:0:0:
106,340,113845,1,0,0:0:0:0:
106,340,113923,1,0,0:0:0:0:
106,340,114001,2,0,L|88:239,1,89.9999972534181,8|0,0:0|0:0,0:0:0:0:
0,163,114314,6,0,P|36:136|57:98,1,89.9999972534181,2|0,0:0|1:0,0:0:0:0:
138,136,114626,2,0,P|144:91|132:49,1,89.9999972534181
276,103,114939,2,0,P|240:130|219:168,1,89.9999972534181,2|0,1:2|0:0,0:0:0:0:
393,182,115251,2,0,P|348:175|306:187,1,89.9999972534181
300,214,115485,1,0,0:0:0:0:
300,214,115564,1,0,1:0:0:0:
369,92,115720,1,0,0:0:0:0:
471,223,115876,2,0,L|455:312,1,89.9999972534181,8|0,0:0|0:0,0:0:0:0:
330,384,116189,6,0,P|303:347|264:326,1,89.9999972534181,2|0,0:0|0:0,0:0:0:0:
132,347,116501,2,0,P|131:302|149:261,1,89.9999972534181,2|0,0:0|0:0,0:0:0:0:
253,205,116814,2,0,P|296:192|329:163,1,89.9999972534181,0|0,1:0|0:0,0:0:0:0:
182,110,117126,2,0,P|138:122|105:151,1,89.9999972534181
256,126,117439,1,2,0:0:0:0:
153,39,117595,1,0,0:0:0:0:
310,0,117751,2,0,L|425:20,1,89.9999972534181,8|0,0:0|0:0,0:0:0:0:
511,114,118064,6,0,P|458:102|408:121,1,89.9999972534181,0|0,1:2|0:0,0:0:0:0:
322,191,118376,1,2,0:0:0:0:
470,258,118532,1,0,0:0:0:0:
470,258,118610,1,0,0:0:0:0:
470,258,118689,2,0,P|415:260|372:291,1,89.9999972534181,0|0,1:0|0:0,0:0:0:0:
319,384,119001,2,0,P|264:381|221:350,1,89.9999972534181
199,229,119314,5,0,1:0:0:0:
138,364,119470,1,0,1:0:0:0:
296,300,119626,1,8,0:0:0:0:
325,286,119939,5,8,0:0:0:0:
169,216,120095,1,8,0:0:0:0:
326,150,120251,1,8,0:0:0:0:
218,311,120407,1,8,0:0:0:0:
120,121,120564,6,0,B|70:99|59:62|59:62|87:22|138:9,1,179.999994506836,6|0,1:2|0:0,0:0:0:0:
223,136,121032,1,0,1:0:0:0:
87,197,121189,1,0,0:0:0:0:
26,61,121345,1,0,0:0:0:0:
162,0,121501,2,0,L|282:21,1,89.9999972534181,8|0,0:0|0:0,0:0:0:0:
372,110,121814,6,0,P|424:67|437:17,1,89.9999972534181,2|0,0:0|0:0,0:0:0:0:
294,87,122126,2,0,P|304:153|341:189,1,89.9999972534181,2|0,0:0|0:0,0:0:0:0:
467,220,122439,2,0,B|499:236|501:177|457:171|420:255|351:242,1,179.999994506836,2|0,1:2|0:0,0:0:0:0:
233,188,122907,1,0,0:0:0:0:
316,317,123064,1,0,1:0:0:0:
175,250,123220,1,0,0:0:0:0:
175,250,123298,1,0,0:0:0:0:
175,250,123376,2,0,L|158:345,1,89.9999972534181,8|0,0:0|0:0,0:0:0:0:
47,221,123689,6,0,P|52:170|91:130,1,89.9999972534181,2|0,0:0|0:0,0:0:0:0:
206,110,124001,1,2,0:0:0:0:
466,300,124314,6,0,P|459:218|470:100,1,179.999994506836,2|0,1:2|0:0,0:0:0:0:
511,1,124782,2,0,P|454:22|407:27,1,89.9999972534181,0|0,1:0|0:0,0:0:0:0:
274,0,125095,1,0,0:0:0:0:
274,0,125173,1,0,0:0:0:0:
274,0,125251,6,0,P|320:38|348:76,1,89.9999972534181,10|0,0:0|0:0,0:0:0:0:
186,74,125564,2,0,P|139:112|111:150,1,89.9999972534181,0|0,1:0|0:0,0:0:0:0:
274,148,125876,2,0,P|320:186|348:224,1,89.9999972534181,2|0,0:0|0:0,0:0:0:0:
186,222,126189,6,0,P|139:260|111:298,2,89.9999972534181,2|0|0,1:2|0:0|0:0,0:0:0:0:
295,301,126657,1,0,0:0:0:0:
162,357,126814,1,0,1:0:0:0:
266,228,126970,1,0,0:0:0:0:
400,355,127126,1,8,0:0:0:0:
423,378,127439,5,0,3:0:0:0:
368,255,127595,1,0,3:0:0:0:
468,165,127751,1,0,3:0:0:0:
285,377,128064,6,0,B|191:396|213:314|119:333,1,179.999994506836,2|0,1:2|0:0,0:0:0:0:
4,384,128532,1,0,1:0:0:0:
0,239,128689,1,0,0:0:0:0:
152,242,128845,1,0,0:0:0:0:
152,242,128923,1,0,0:0:0:0:
152,242,129001,2,0,L|136:153,1,89.9999972534181,8|0,0:0|0:0,0:0:0:0:
27,52,129314,6,0,P|74:32|120:34,1,89.9999972534181,2|0,0:0|1:0,0:0:0:0:
257,104,129626,2,0,P|210:84|164:86,1,89.9999972534181,2|0,0:0|0:0,0:0:0:0:
253,187,129939,2,0,P|295:174|330:145,1,89.9999972534181,0|0,1:0|0:0,0:0:0:0:
401,16,130251,2,0,P|390:59|397:103,1,89.9999972534181,2|0,0:0|0:0,0:0:0:0:
488,205,130564,1,0,1:0:0:0:
472,60,130720,1,0,0:0:0:0:
391,200,130876,2,0,L|406:290,1,89.9999972534181,8|0,0:0|0:0,0:0:0:0:
512,384,131189,6,0,P|461:371|422:377,1,89.9999972534181,2|0,0:0|0:0,0:0:0:0:
255,356,131501,2,0,P|306:343|345:349,1,89.9999972534181,2|0,0:0|0:0,0:0:0:0:
194,293,131814,2,0,P|193:219|231:148,1,134.999995880127,0|0,1:2|0:0,0:0:0:0:
245,164,132126,1,2,0:0:0:0:
108,233,132282,1,0,1:0:0:0:
191,88,132439,1,0,0:0:0:0:
306,247,132595,1,0,0:0:0:0:
306,247,132673,1,0,0:0:0:0:
306,247,132751,2,0,L|397:230,1,89.9999972534181,8|0,0:0|0:0,0:0:0:0:
486,113,133064,1,2,0:0:0:0:
498,82,133376,5,2,0:0:0:0:
484,234,133532,1,0,0:0:0:0:
394,57,133689,2,0,P|352:29|292:19,1,89.9999972534181,0|0,1:2|0:0,0:0:0:0:
149,143,134001,2,0,P|191:115|251:105,1,89.9999972534181,0|0,1:0|0:0,0:0:0:0:
394,231,134314,2,0,P|352:203|292:193,1,89.9999972534181,0|0,1:0|0:0,0:0:0:0:
142,364,134626,5,4,1:0:0:0:
118,186,134939,5,0,2:0:0:0:
108,146,135043,5,0,2:0:0:0:
78,175,135147,5,0,2:0:0:0:
101,169,135251,6,0,P|136:121|151:61,1,89.9999972534181,2|0,0:0|0:0,0:0:0:0:
26,252,135564,6,0,P|136:261|218:227,1,200,4|2,0:2|0:0,0:0:0:0:
248,76,136032,1,0,1:0:0:0:
118,186,136189,1,0,0:0:0:0:
229,316,136345,1,0,0:0:0:0:
425,229,136501,2,0,L|460:29,1,200,8|0,0:0|0:0,0:0:0:0:
339,152,136970,1,0,1:0:0:0:
339,152,137048,1,0,0:0:0:0:
339,152,137126,2,0,P|311:199|277:226,1,100
118,186,137439,6,0,P|145:138|179:111,1,100,0|0,1:0|0:0,0:0:0:0:
181,275,137751,1,2,0:0:0:0:
259,123,137907,1,8,0:0:0:0:
392,223,138064,1,0,1:0:0:0:
326,78,138220,1,0,0:0:0:0:
325,268,138376,2,0,P|312:320|279:355,1,100,8|0,0:0|0:0,0:0:0:0:
181,275,138689,2,0,P|128:262|94:229,1,100
102,82,139001,5,2,0:0:0:0:
17,217,139157,1,0,0:0:0:0:
188,159,139314,2,0,B|225:146|225:146|345:165,1,150,0|0,1:0|0:0,0:0:0:0:
354,184,139626,1,2,0:0:0:0:
273,46,139782,1,0,1:0:0:0:
254,17,140095,5,0,0:0:0:0:
430,55,140251,2,0,B|422:78|422:78|437:164,1,100,8|0,0:0|1:0,0:0:0:0:
484,284,140564,2,0,B|499:264|499:264|514:178,1,100,2|0,0:0|1:0,0:0:0:0:
371,293,140876,1,2,0:0:0:0:
347,102,141032,1,0,0:0:0:0:
347,102,141110,1,0,0:0:0:0:
347,102,141189,6,0,B|297:94|297:94|210:142|210:142|160:134,1,200,2|0,1:2|0:0,0:0:0:0:
26,7,141657,1,8,0:0:0:0:
194,60,141814,1,0,1:0:0:0:
73,193,141970,1,0,0:0:0:0:
217,283,142126,2,0,P|266:296|315:290,1,100,8|0,0:0|0:0,0:0:0:0:
410,187,142439,2,0,P|361:174|312:180,1,100
458,281,142751,6,0,P|492:245|512:199,1,100,8|0,0:0|0:0,0:0:0:0:
395,350,143064,2,0,B|321:320|326:390|253:361,1,150,0|0,1:0|0:0,0:0:0:0:
239,340,143376,1,2,0:0:0:0:
312,179,143532,1,0,1:0:0:0:
324,153,143845,5,0,0:0:0:0:
166,258,144001,2,0,L|62:239,1,100,8|0,0:0|1:0,0:0:0:0:
195,113,144314,2,0,P|221:62|259:33,1,100,2|0,0:0|1:0,0:0:0:0:
420,139,144626,2,0,P|370:135|324:153,1,100,2|0,0:0|0:0,0:0:0:0:
386,272,144939,5,0,1:0:0:0:
246,205,145095,1,0,0:0:0:0:
246,205,145173,1,0,0:0:0:0:
246,205,145251,1,0,0:0:0:0:
354,367,145407,2,0,L|455:349,1,100,8|0,0:0|1:0,0:0:0:0:
330,207,145720,1,0,0:0:0:0:
248,367,145876,6,0,L|100:340,1,150,8|0,0:0|0:0,0:0:0:0:
19,350,146189,2,0,L|45:202,1,150,2|0,0:0|0:0,0:0:0:0:
36,121,146501,2,0,L|183:147,1,150,2|0,0:0|0:0,0:0:0:0:
258,263,146814,6,0,B|243:247|225:236|225:236|226:158|200:80,1,200,2|0,1:2|0:0,0:0:0:0:
59,32,147282,1,0,1:0:0:0:
227,0,147439,1,2,0:0:0:0:
191,176,147595,1,0,0:0:0:0:
398,116,147751,6,0,P|454:129|500:176,1,100,8|0,0:0|0:0,0:0:0:0:
303,176,148064,2,0,P|286:120|304:57,1,100,2|0,0:0|0:0,0:0:0:0:
407,218,148376,1,2,0:0:0:0:
251,124,148532,1,0,0:0:0:0:
455,93,148689,5,0,1:0:0:0:
370,310,148845,1,8,0:0:0:0:
232,96,149001,2,0,P|180:83|118:104,1,100,2|0,0:0|0:0,0:0:0:0:
58,291,149314,1,12,1:0:0:0:
32,316,149626,5,8,0:0:0:0:
204,178,149782,1,8,0:0:0:0:
204,178,149860,1,8,0:0:0:0:
204,178,149939,1,8,0:0:0:0:
269,373,150095,1,8,0:0:0:0:
63,184,150251,1,8,0:0:0:0:
332,243,150407,1,8,0:0:0:0:
147,57,150564,6,0,B|254:32|231:115|339:90,1,200,6|2,1:2|0:0,0:0:0:0:
470,22,151032,2,0,P|490:91|484:123,1,100,0|0,1:0|0:0,0:0:0:0:
345,174,151345,1,0,0:0:0:0:
486,277,151501,2,0,L|377:296,1,100,8|0,0:0|1:0,0:0:0:0:
370,313,151735,1,0,0:0:0:0:
370,313,151814,1,0,0:0:0:0:
429,175,151970,1,0,1:0:0:0:
449,364,152126,1,0,0:0:0:0:
308,251,152282,1,0,0:0:0:0:
166,372,152439,6,0,P|112:359|26:313,1,150,2|0,1:2|0:0,0:0:0:0:
24,288,152751,1,2,0:0:0:0:
199,193,152907,2,0,L|217:291,1,100,8|0,0:0|1:0,0:0:0:0:
93,200,153220,1,0,0:0:0:0:
93,200,153298,1,0,0:0:0:0:
93,200,153376,2,0,L|110:102,1,100,8|0,0:0|0:0,0:0:0:0:
248,18,153689,1,0,0:0:0:0:
275,1,154001,5,2,0:0:0:0:
183,119,154157,1,0,0:0:0:0:
38,19,154314,2,0,P|5:103|-3:163,1,150,0|0,1:0|0:0,0:0:0:0:
17,188,154626,1,0,0:0:0:0:
197,150,154782,2,0,P|246:179|267:227,1,100,0|0,1:0|0:0,0:0:0:0:
231,58,155095,1,0,0:0:0:0:
175,241,155251,1,8,0:0:0:0:
94,69,155407,1,0,1:0:0:0:
94,69,155485,1,0,0:0:0:0:
94,69,155564,6,0,P|134:21|187:8,1,100,2|0,0:0|1:0,0:0:0:0:
310,68,155876,1,0,0:0:0:0:
437,267,156189,6,0,B|416:213|416:213|468:79,1,200,2|0,1:2|0:0,0:0:0:0:
350,266,156657,1,8,0:0:0:0:
512,213,156814,1,0,1:0:0:0:
410,349,156970,1,0,0:0:0:0:
290,183,157126,2,0,P|230:182|183:214,1,100,8|0,0:0|0:0,0:0:0:0:
190,233,157360,1,0,0:0:0:0:
190,233,157439,1,0,0:0:0:0:
243,93,157595,1,0,0:0:0:0:
259,273,157751,2,0,L|240:376,1,100,8|0,0:0|0:0,0:0:0:0:
112,247,158064,6,0,B|120:197|120:197|82:128|5:111,1,200,2|0,1:2|0:0,0:0:0:0:
41,309,158532,2,0,P|91:341|139:338,1,100,0|0,1:0|0:0,0:0:0:0:
259,273,158845,1,0,0:0:0:0:
191,107,159001,2,0,L|68:128,1,100,8|0,0:0|0:0,0:0:0:0:
257,177,159314,2,0,P|285:128|285:83,1,100,2|0,0:0|1:0,0:0:0:0:
125,37,159626,5,2,0:0:0:0:
163,199,159782,1,0,0:0:0:0:
351,155,159939,2,0,B|384:146|384:146|405:207|474:212,1,150,0|0,1:0|0:0,0:0:0:0:
492,190,160251,1,0,0:0:0:0:
323,247,160407,2,0,B|296:257|296:257|271:284|262:328,1,100,8|0,0:0|1:0,0:0:0:0:
403,288,160720,1,0,0:0:0:0:
453,111,160876,6,0,B|437:63|437:63|336:39,1,150,8|0,0:0|0:0,0:0:0:0:
388,179,161189,2,0,B|372:131|372:131|296:113|296:113|281:97,1,150,2|0,0:0|0:0,0:0:0:0:
323,247,161501,2,0,B|307:199|307:199|253:186|253:186|223:153,1,150,2|0,0:0|0:0,0:0:0:0:
245,267,161814,6,0,B|258:315|258:315|203:370|119:348,1,200,2|0,1:2|0:0,0:0:0:0:
26,193,162282,1,0,1:0:0:0:
224,154,162439,1,0,0:0:0:0:
53,70,162595,1,0,0:0:0:0:
53,70,162673,1,0,0:0:0:0:
53,70,162751,6,0,P|97:47|149:46,1,100,8|0,0:0|1:0,0:0:0:0:
316,177,163064,2,0,P|272:154|220:153,1,100,2|0,0:0|1:0,0:0:0:0:
66,292,163376,1,2,0:0:0:0:
40,318,163689,5,0,1:0:0:0:
153,118,163845,1,8,0:0:0:0:
185,305,164001,1,2,0:0:0:0:
53,70,164157,1,2,0:0:0:0:
53,70,164235,1,2,0:0:0:0:
53,70,164314,2,0,P|84:28|132:9,1,100,8|0,0:0|0:0,0:0:0:0:
277,142,164626,6,0,L|234:134,1,40,2|2,0:0|0:0,1:0:0:0:
288,330,165564,5,6,0:0:0:0:
411,220,165720,1,0,0:0:0:0:
510,382,165876,1,2,0:0:0:0:
367,291,166032,5,2,0:0:0:0:
485,184,166189,1,0,0:0:0:0:
433,346,166345,1,2,0:0:0:0:
391,141,166501,6,0,P|325:89|260:71,1,150,10|0,0:2|0:0,0:0:0:0:
289,176,166814,2,0,P|206:164|141:181,1,150,2|0,0:0|0:0,0:0:0:0:
218,257,167126,2,0,P|140:288|92:335,1,150,2|0,0:0|0:0,0:0:0:0:
294,252,167439,5,2,0:0:0:0:
143,180,167595,1,0,0:0:0:0:
200,361,167751,1,2,0:0:0:0:
370,247,167907,5,10,0:0:0:0:
252,146,168064,1,0,0:0:0:0:
271,324,168220,1,2,0:0:0:0:
394,128,168376,6,0,B|414:87|414:87|351:5,1,150,8|0,0:0|0:0,0:0:0:0:
316,90,168689,2,2,B|286:54|286:54|229:57|187:80,1,150,2|0,0:1|0:1,0:1:0:0:
252,146,169001,2,2,B|228:148|209:163|209:163|234:216|216:266,1,150,2|0,0:1|0:1,0:1:0:0:
157,325,169314,5,2,0:0:0:0:
302,259,169470,1,0,0:0:0:0:
116,223,169626,1,2,0:0:0:0:
247,331,169782,5,2,0:0:0:0:
84,379,169939,1,0,0:0:0:0:
209,241,170095,1,2,0:0:0:0:
334,379,170251,6,0,B|360:315|360:315|325:240,1,150,10|0,0:0|0:0,0:0:0:0:
414,377,170564,2,0,B|440:313|440:313|405:238,1,150,2|0,0:0|0:0,0:0:0:0:
494,375,170876,2,0,B|520:311|520:311|485:236,1,150,2|0,0:0|0:0,0:0:0:0:
440,165,171189,1,2,1:2:0:0:
422,136,171501,5,0,0:0:0:0:
359,315,171657,1,8,0:0:0:0:
273,179,171814,1,0,1:0:0:0:
157,325,171970,1,0,0:0:0:0:
150,109,172126,6,0,P|223:125|272:177,1,150,10|0,0:0|0:0,0:0:0:0:
182,194,172439,2,0,B|155:250|90:265|90:265|43:245,1,150,2|0,0:0|0:1,0:1:0:0:
92,179,172751,2,2,B|63:137|71:91|71:91|17:75,1,150,2|0,0:1|0:1,0:1:0:0:
70,2,173064,5,2,0:0:0:0:
224,44,173220,1,0,0:0:0:0:
91,179,173376,1,2,0:0:0:0:
147,23,173532,5,2,0:0:0:0:
181,194,173689,1,0,0:0:0:0:
308,72,173845,1,2,0:0:0:0:
308,72,173923,1,0,0:0:0:0:
308,72,174001,6,0,B|354:89|354:89|461:70,1,150,10|0,0:0|0:0,0:0:0:0:
302,148,174314,2,0,B|348:165|348:165|447:147,1,150,2|0,0:0|0:0,0:0:0:0:
296,224,174626,2,0,B|342:241|342:241|441:223,1,150,2|0,0:0|0:0,0:0:0:0:
290,300,174939,5,2,0:0:0:0:
302,148,175095,1,0,0:0:0:0:
189,288,175251,1,2,0:1:0:0:
322,123,175407,5,10,0:0:0:0:
310,275,175564,1,0,0:0:0:0:
228,118,175720,1,2,0:0:0:0:
228,118,175798,1,0,0:0:0:0:
228,118,175876,6,0,B|182:100|182:100|78:126,1,150,10|0,0:0|0:0,0:0:0:0:
201,190,176189,2,2,P|175:178|179:254,1,150,2|0,0:1|0:1,0:1:0:0:
183,327,176501,2,2,B|207:326|226:308|226:308|258:348|312:364,1,150,2|0,0:1|0:1,0:1:0:0:
460,359,176814,5,2,0:0:0:0:
304,325,176970,1,0,0:0:0:0:
422,176,177126,1,2,0:0:0:0:
382,342,177282,5,2,0:0:0:0:
226,308,177439,1,0,0:0:0:0:
402,259,177595,1,2,0:0:0:0:
247,116,177751,6,0,L|97:89,1,150,10|0,0:0|0:0,0:0:0:0:
233,191,178064,2,0,B|133:173|133:173|88:192,1,150,2|0,0:0|0:0,0:0:0:0:
219,266,178376,2,2,B|145:253|145:253|109:268|109:268|143:295,1,150,2|0,0:1|0:0,0:1:0:0:
268,325,178689,5,0,1:0:0:0:
358,152,178845,1,8,0:0:0:0:
475,307,179001,2,0,P|503:257|503:205,1,100,2|0,0:0|0:0,0:0:0:0:
398,69,179314,1,12,1:0:0:0:
378,43,179626,5,8,0:0:0:0:
415,240,179782,1,8,0:0:0:0:
415,240,179860,1,8,0:0:0:0:
415,240,179939,1,8,0:0:0:0:
492,67,180095,1,8,0:0:0:0:
296,123,180251,1,8,0:0:0:0:
504,215,180407,1,8,0:0:0:0:
296,307,180564,5,6,0:0:0:0:
377,158,180720,1,0,0:0:0:0:
377,342,180876,1,2,0:0:0:0:
215,272,181032,5,2,0:0:0:0:
377,250,181189,1,0,0:0:0:0:
226,360,181345,1,2,0:0:0:0:
226,360,181423,1,0,0:0:0:0:
226,360,181501,6,0,B|187:363|153:342|153:342|124:368|85:372,1,150,10|0,0:0|0:0,0:0:0:0:
11,337,181814,2,0,B|45:297|92:293|92:293|125:234,1,150,2|0,0:0|0:0,0:0:0:0:
41,224,182126,2,0,P|88:170|163:177,1,150,2|0,0:0|0:0,0:0:0:0:
215,272,182439,5,2,0:0:0:0:
236,99,182595,1,0,0:0:0:0:
381,221,182751,1,2,0:0:0:0:
226,186,182907,5,10,0:0:0:0:
307,47,183064,1,0,0:0:0:0:
149,117,183220,1,2,0:0:0:0:
384,116,183376,6,0,P|445:101|453:3,1,150,10|0,0:0|0:0,0:0:0:0:
322,172,183689,2,2,B|380:210|451:185|451:185|448:227,1,150,2|0,0:1|0:1,0:1:0:0:
271,230,184001,2,2,B|314:264|372:270|372:270|346:280|325:304,1,150,2|0,0:1|0:1,0:1:0:0:
240,314,184314,5,2,0:0:0:0:
399,349,184470,1,0,0:0:0:0:
271,230,184626,1,2,0:0:0:0:
151,329,184782,5,2,0:0:0:0:
310,364,184939,1,0,0:0:0:0:
182,245,185095,1,2,0:0:0:0:
62,344,185251,6,0,P|-3:279|16:198,1,150,10|0,0:0|0:0,0:0:0:0:
89,254,185564,2,0,P|126:170|208:158,1,150,2|0,0:0|0:0,0:0:0:0:
182,245,185876,2,0,P|273:249|313:322,1,150,2|0,0:0|0:0,0:0:0:0:
223,328,186189,1,2,1:2:0:0:
193,344,186501,5,0,0:0:0:0:
367,361,186657,1,8,0:0:0:0:
384,187,186814,2,0,P|369:138|321:94,1,100,0|0,1:0|0:0,0:0:0:0:
164,131,187126,5,8,0:0:0:0:
280,21,187282,1,0,0:0:0:0:
276,195,187439,1,0,1:0:0:0:
426,51,187595,1,8,0:0:0:0:
222,76,187751,1,8,0:0:0:0:
222,308,188064,5,2,0:0:0:0:
104,193,188220,1,0,0:0:0:0:
43,362,188376,1,2,0:0:0:0:
163,251,188532,5,2,0:0:0:0:
7,254,188689,1,0,0:0:0:0:
99,111,188845,1,2,0:0:0:0:
241,202,189001,6,0,P|314:222|376:182,1,150,10|0,0:0|0:0,0:0:0:0:
425,61,189314,2,0,P|371:114|374:187,1,150,2|0,0:0|0:0,0:0:0:0:
456,291,189626,2,0,P|436:217|371:184,1,150,2|0,0:0|0:0,0:0:0:0:
312,300,189939,5,2,0:0:0:0:
166,236,190095,1,0,0:0:0:0:
279,110,190251,1,2,0:1:0:0:
225,302,190407,5,10,0:0:0:0:
107,170,190564,1,0,0:0:0:0:
32,348,190720,1,2,0:0:0:0:
32,348,190798,1,0,0:0:0:0:
32,348,190876,6,0,P|87:315|148:233,1,150,10|0,0:0|0:0,0:0:0:0:
107,170,191189,2,2,B|144:166|186:172|186:172|213:208|223:239,1,150,2|0,0:1|0:1,0:1:0:0:
197,308,191501,2,2,B|191:328|178:348|178:348|231:354|265:301,1,150,2|0,0:1|0:1,0:1:0:0:
302,227,191814,5,2,0:0:0:0:
413,112,191970,1,0,0:0:0:0:
227,51,192126,1,2,0:0:0:0:
166,236,192282,5,2,0:0:0:0:
287,130,192439,1,0,0:0:0:0:
245,310,192595,1,2,0:0:0:0:
148,111,192751,6,0,B|112:92|112:92|0:124,1,150,10|0,0:0|0:0,0:0:0:0:
102,174,193064,2,0,B|34:196|34:196|0:218|0:261,1,150,2|0,0:0|0:0,0:0:0:0:
166,236,193376,2,2,B|80:263|80:263|96:289|128:302,1,150,2|0,0:1|0:1,0:1:0:0:
245,310,193689,5,0,1:0:0:0:
287,130,193845,1,8,0:0:0:0:
420,265,194001,2,0,P|469:271|512:248,1,100,2|0,0:0|0:0,0:0:0:0:
456,81,194314,1,12,1:0:0:0:
442,49,194626,5,8,0:0:0:0:
327,236,194782,1,8,0:0:0:0:
327,236,194860,1,8,0:0:0:0:
327,236,194939,1,8,0:0:0:0:
512,138,195095,1,8,0:0:0:0:
332,13,195251,1,8,0:0:0:0:
207,193,195407,1,8,0:0:0:0:
387,318,195564,1,4,0:0:0:0:
91,372,196501,6,0,P|53:311|36:241,2,119.999996337891,2|0|0,0:0|0:0|0:0,0:0:0:0:
225,337,197439,2,0,L|259:135,1,179.999994506836,2|0,0:0|0:0,0:0:0:0:
268,81,198064,1,0,0:0:0:0:
148,44,198376,6,0,B|237:7|237:78|321:38,1,179.999994506836,2|0,0:0|0:0,0:0:0:0:
391,0,199001,1,0,0:0:0:0:
471,98,199314,6,0,P|386:106|371:130,1,119.999996337891,2|0,0:0|0:0,0:0:0:0:
319,191,199782,2,0,P|240:155|214:168,1,119.999996337891,0|0,3:0|3:0,0:0:0:0:
172,233,200251,2,0,L|149:228,1,14.9999995422363,2|0,0:0|0:0,0:0:0:0:
212,357,200564,6,0,B|269:332|269:381|327:357,1,119.999996337891,2|0,0:0|0:0,0:0:0:0:
440,300,201189,2,0,P|441:250|465:169,1,119.999996337891,2|0,0:0|0:0,0:0:0:0:
502,116,201657,2,0,P|473:105|441:105,1,59.9999981689454,0|2,0:0|0:0,0:0:0:0:
369,131,201970,1,0,0:0:0:0:
351,53,202126,2,0,L|346:33,1,14.9999995422363,2|0,0:0|0:0,0:0:0:0:
218,120,202439,5,0,3:0:0:0:
224,151,202751,5,0,3:0:0:0:
230,182,203064,6,0,B|194:175|194:175|171:180,1,59.9999981689454,2|0,0:0|0:0,0:0:0:0:
194,255,203376,2,0,B|229:260|229:260|252:256,1,59.9999981689454,2|0,0:0|0:0,0:0:0:0:
309,200,203689,1,0,0:0:0:0:
208,341,204001,2,0,B|185:336|185:336|149:346,1,59.9999981689454,2|0,0:0|0:0,0:0:0:0:
73,369,204314,2,0,B|68:346|68:346|78:310,1,59.9999981689454,2|0,0:0|0:0,0:0:0:0:
113,239,204626,2,0,B|88:222|88:222|108:205|122:173,1,89.9999972534181,2|0,0:0|0:0,0:0:0:0:
110,143,204939,2,0,L|94:145,1,14.9999995422363,2|0,0:0|0:0,0:0:0:0:
0,7,205251,6,0,B|14:18|14:18|55:13,1,59.9999981689454,2|0,0:0|0:0,0:0:0:0:
134,1,205564,2,0,B|170:8|170:8|181:27,1,59.9999981689454
194,106,205876,2,0,B|230:97|230:97|242:78,1,59.9999981689454,2|0,0:0|0:0,0:0:0:0:
287,12,206189,2,0,B|320:18|320:18|354:89,1,89.9999972534181,2|0,0:0|0:0,0:0:0:0:
322,96,206501,1,0,0:0:0:0:
207,254,206814,6,0,B|250:239|295:250|295:250|285:268|266:281,1,119.999996337891,2|0,0:0|0:0,0:0:0:0:
225,335,207282,2,0,B|239:342|254:355|254:355|296:346|341:356,1,119.999996337891,0|0,3:0|3:0,0:0:0:0:
415,371,207751,2,0,L|435:367,1,14.9999995422363,2|0,0:0|0:0,0:0:0:0:
493,203,208064,6,0,B|470:200|470:200|437:216,1,59.9999981689454,2|0,0:0|0:0,0:0:0:0:
373,263,208376,2,0,B|363:242|363:242|333:221,1,59.9999981689454,2|0,0:0|0:0,0:0:0:0:
263,182,208689,2,0,B|276:163|276:163|244:158|210:176,1,89.9999972534181,2|0,0:0|0:0,0:0:0:0:
195,205,209001,2,0,L|185:146,1,59.9999981689454,2|0,0:0|0:0,0:0:0:0:
168,68,209314,1,0,3:0:0:0:
245,51,209626,6,0,L|247:36,1,14.9999995422363,2|0,0:0|0:0,0:0:0:0:
385,114,210251,6,2,B|389:134|389:134|376:162,1,44.999998626709,0|0,0:1|0:0,0:1:0:0:
351,172,210564,6,0,P|415:191|512:163,1,170.000003242493,6|0,0:0|0:0,0:0:0:0:
405,86,211032,1,0,1:0:0:0:
270,139,211189,1,0,0:0:0:0:
330,281,211345,1,0,0:0:0:0:
330,281,211423,1,0,0:0:0:0:
330,281,211501,6,0,P|379:297|434:290,1,85.0000016212464,10|0,0:0|0:0,0:0:0:0:
274,356,211814,2,0,P|224:372|169:365,1,85.0000016212464
115,281,212126,1,0,1:0:0:0:
243,225,212282,1,0,0:0:0:0:
65,164,212439,2,0,P|44:231|35:348,1,170.000003242493,2|0,1:2|0:0,0:0:0:0:
196,291,212907,1,0,0:0:0:0:
144,154,213064,2,0,P|113:99|74:85,1,85.0000016212464,2|0,0:0|0:0,0:0:0:0:
246,33,213376,6,0,B|279:5|279:5|403:27,1,170.000003242493,10|0,0:0|0:0,0:0:0:0:
500,126,213845,1,2,0:0:0:0:
352,132,214001,1,0,1:0:0:0:
474,55,214157,1,0,0:0:0:0:
378,203,214314,2,0,P|322:211|206:166,1,170.000003242493,2|0,1:2|0:0,0:0:0:0:
177,50,214782,1,0,0:0:0:0:
326,61,214939,1,0,0:0:0:0:
207,146,215095,1,0,0:0:0:0:
77,39,215251,2,0,B|65:13|65:13|0:1,1,85.0000016212464,8|2,0:0|0:0,0:0:0:0:
116,123,215564,6,0,P|119:170|94:216,1,85.0000016212464,2|0,0:0|0:0,0:0:0:0:
0,277,215876,1,2,0:0:0:0:
207,178,216189,6,0,P|231:212|237:254,1,85.0000016212464,2|0,1:2|0:0,0:0:0:0:
314,222,216501,2,0,P|317:263|302:303,1,85.0000016212464
384,314,216814,2,0,P|366:352|333:378,1,85.0000016212464,2|0,1:2|0:0,0:0:0:0:
399,232,217126,2,0,B|441:248|441:248|483:304|455:365,1,170.000003242493,10|2,0:0|0:0,0:0:0:0:
384,314,217595,1,2,0:0:0:0:
493,189,217751,1,0,1:0:0:0:
511,0,218064,6,0,L|411:17,1,85.0000016212464,2|0,1:2|0:0,0:0:0:0:
390,100,218376,2,0,L|307:86,1,85.0000016212464,2|0,0:0|0:0,0:0:0:0:
269,0,218689,2,0,L|186:14,1,85.0000016212464
65,86,219001,2,0,B|122:96|122:96|148:117,1,85.0000016212464,10|0,0:0|0:0,0:0:0:0:
158,223,219314,2,0,B|101:213|101:213|75:192,1,85.0000016212464,2|0,0:0|0:0,0:0:0:0:
245,151,219626,2,0,B|252:171|270:188|270:188|276:234|256:272,1,127.50000243187,2|0,1:2|0:0,0:0:0:0:
233,287,219939,1,2,0:0:0:0:
467,239,220251,6,0,B|457:300|457:300|430:316,1,85.0000016212464,2|0,0:0|0:0,0:0:0:0:
344,322,220564,2,0,B|354:261|354:261|381:245,1,85.0000016212464,0|0,1:0|0:0,0:0:0:0:
266,377,220876,2,0,B|205:367|205:367|189:340,1,85.0000016212464,8|2,0:0|0:0,0:0:0:0:
197,319,221110,1,2,0:0:0:0:
197,319,221189,1,2,0:0:0:0:
93,376,221345,1,0,0:0:0:0:
127,236,221501,2,0,B|147:215|147:215|213:205,1,85.0000016212464,0|0,1:0|0:0,0:0:0:0:
57,293,221814,6,0,B|21:265|21:265|59:212|50:140,1,170.000003242493,2|0,0:0|0:0,0:0:0:0:
15,20,222282,1,0,1:0:0:0:
124,116,222439,1,0,0:0:0:0:
220,7,222595,1,0,0:0:0:0:
282,156,222751,2,0,L|265:244,1,85.0000016212464,8|2,0:0|0:0,0:0:0:0:
245,259,222985,1,2,0:0:0:0:
245,259,223064,6,0,P|291:261|337:284,1,85.0000016212464,2|0,0:0|0:0,0:0:0:0:
421,374,223376,1,0,1:0:0:0:
175,330,223689,5,0,1:0:0:0:
190,176,223845,1,0,0:0:0:0:
71,279,224001,1,0,0:0:0:0:
245,259,224157,1,0,0:0:0:0:
245,259,224235,1,0,0:0:0:0:
245,259,224314,2,0,P|277:223|283:154,1,85.0000016212464,0|0,1:0|0:0,0:0:0:0:
178,77,224626,1,4,0:0:0:0:
155,51,224939,5,2,0:0:0:0:
287,188,225095,1,0,0:0:0:0:
99,137,225251,1,8,0:0:0:0:
245,1,225407,1,8,0:0:0:0:
381,147,225564,6,0,P|398:229|389:330,1,179.999994506836,6|0,0:0|0:0,0:0:0:0:
239,344,226032,1,0,1:0:0:0:
287,188,226189,1,0,0:0:0:0:
320,365,226345,1,0,0:0:0:0:
180,239,226501,2,0,L|87:255,1,89.9999972534181,8|0,0:0|0:0,0:0:0:0:
206,156,226814,6,0,P|219:112|252:68,1,89.9999972534181,2|0,0:0|0:0,0:0:0:0:
99,173,227126,2,0,P|86:129|53:85,1,89.9999972534181,2|0,0:0|0:0,0:0:0:0:
180,239,227439,2,0,B|221:246|221:246|287:222|332:153,1,179.999994506836,2|0,1:2|0:0,0:0:0:0:
311,13,227907,1,0,0:0:0:0:
468,55,228064,1,0,1:0:0:0:
433,219,228220,1,0,0:0:0:0:
433,219,228298,1,0,0:0:0:0:
433,219,228376,1,8,0:0:0:0:
377,81,228532,1,0,0:0:0:0:
299,239,228689,6,0,P|259:272|223:278,1,89.9999972534181,2|0,0:0|0:0,0:0:0:0:
74,214,229001,1,2,0:0:0:0:
209,36,229314,6,0,B|301:23|283:93|376:80,1,179.999994506836,2|0,1:2|0:0,0:0:0:0:
492,11,229782,1,0,1:0:0:0:
464,171,229939,2,0,P|417:174|371:153,1,89.9999972534181
299,24,230251,2,0,L|316:121,1,89.9999972534181,8|0,0:0|0:0,0:0:0:0:
345,274,230564,1,0,1:0:0:0:
248,156,230720,1,0,1:0:0:0:
279,319,230876,2,0,P|322:352|362:353,1,89.9999972534181,2|0,0:0|0:0,0:0:0:0:
249,245,231189,6,0,B|163:286|234:339|149:382,1,179.999994506836,2|0,1:2|0:0,0:0:0:0:
4,331,231657,1,0,0:0:0:0:
128,206,231814,1,0,1:0:0:0:
77,357,231970,1,0,0:0:0:0:
55,180,232126,2,0,P|42:111|2:4,1,179.999994506836,10|0,0:0|3:0,0:0:0:0:
127,127,232595,1,0,3:0:0:0:
234,0,232751,1,0,3:0:0:0:
425,191,233064,6,0,P|359:186|279:260,1,179.999994506836,2|0,1:2|0:0,0:0:0:0:
367,375,233532,2,0,P|388:336|383:293,1,89.9999972534181,0|0,1:0|0:0,0:0:0:0:
259,368,233845,1,0,0:0:0:0:
209,200,234001,2,0,L|227:93,1,89.9999972534181,8|0,0:0|0:0,0:0:0:0:
317,42,234314,6,0,P|285:11|243:0,1,89.9999972534181,2|0,0:0|1:0,0:0:0:0:
359,119,234626,2,0,P|390:87|433:76,1,89.9999972534181,2|0,0:0|0:0,0:0:0:0:
317,195,234939,2,0,P|285:163|242:152,1,89.9999972534181,0|0,1:0|0:0,0:0:0:0:
358,271,235251,1,2,0:0:0:0:
437,166,235407,1,0,0:0:0:0:
437,166,235485,1,0,0:0:0:0:
437,166,235564,1,0,1:0:0:0:
431,316,235720,1,0,0:0:0:0:
272,269,235876,2,0,L|168:287,1,89.9999972534181,8|0,0:0|0:0,0:0:0:0:
48,367,236189,6,0,P|67:324|113:295,1,89.9999972534181,2|0,0:0|0:0,0:0:0:0:
233,360,236501,1,0,0:0:0:0:
0,264,236814,6,0,P|41:229|129:204,1,134.999995880127,2|0,1:2|0:0,0:0:0:0:
140,220,237126,1,2,0:0:0:0:
11,157,237282,1,0,1:0:0:0:
74,28,237439,2,0,P|118:13|174:22,1,89.9999972534181,2|0,0:0|0:0,0:0:0:0:
210,175,237751,2,0,L|191:71,1,89.9999972534181,8|0,0:0|0:0,0:0:0:0:
291,168,238064,6,0,P|306:212|297:268,1,89.9999972534181,0|0,1:0|0:0,0:0:0:0:
185,290,238376,1,2,0:0:0:0:
348,378,238532,1,0,0:0:0:0:
348,378,238610,1,0,0:0:0:0:
348,378,238689,2,0,P|392:381|434:366,1,89.9999972534181,2|0,0:0|0:0,0:0:0:0:
473,224,239001,2,0,P|428:220|386:235,1,89.9999972534181
501,308,239314,1,0,1:0:0:0:
512,145,239470,1,2,0:0:0:0:
373,259,239626,1,8,0:0:0:0:
351,283,239939,5,8,0:0:0:0:
443,113,240095,1,8,0:0:0:0:
276,214,240251,1,8,0:0:0:0:
368,384,240407,1,8,0:0:0:0:
343,136,240564,6,0,P|269:111|180:180,1,179.999994506836,6|0,0:0|0:0,0:0:0:0:
207,289,241032,1,0,1:0:0:0:
95,184,241189,1,0,0:0:0:0:
283,221,241345,1,0,0:0:0:0:
283,221,241423,1,0,0:0:0:0:
283,221,241501,2,0,P|332:251|362:300,1,89.9999972534181,8|0,0:0|0:0,0:0:0:0:
247,383,241814,6,0,P|193:361|136:367,1,89.9999972534181,2|0,0:0|1:0,0:0:0:0:
24,384,242126,1,2,0:0:0:0:
322,352,242439,6,0,P|411:356|498:381,1,179.999994506836,2|0,1:2|0:0,0:0:0:0:
428,278,242907,1,2,0:0:0:0:
510,127,243064,1,0,1:0:0:0:
506,298,243220,1,0,0:0:0:0:
385,153,243376,2,0,P|331:131|274:137,1,89.9999972534181,8|0,0:0|0:0,0:0:0:0:
127,231,243689,6,0,P|181:253|238:247,1,89.9999972534181,2|0,0:0|0:0,0:0:0:0:
172,106,244001,1,2,0:0:0:0:
7,198,244157,1,0,0:0:0:0:
7,198,244235,1,0,0:0:0:0:
7,198,244314,2,0,B|45:240|45:240|12:363,1,179.999994506836,2|0,1:2|0:0,0:0:0:0:
127,231,244782,1,0,1:0:0:0:
195,374,244939,1,0,0:0:0:0:
262,197,245095,1,0,0:0:0:0:
262,197,245173,1,0,0:0:0:0:
262,197,245251,6,0,P|202:166|151:171,1,89.9999972534181,10|0,0:0|0:0,0:0:0:0:
332,256,245564,2,0,P|392:225|443:230,1,89.9999972534181,2|0,0:0|1:0,0:0:0:0:
262,315,245876,2,0,P|202:284|151:289,1,89.9999972534181,2|0,0:0|0:0,0:0:0:0:
332,374,246189,6,0,P|386:344|502:383,1,179.999994506836,2|0,1:2|0:0,0:0:0:0:
332,256,246657,1,0,0:0:0:0:
412,114,246814,2,0,P|412:63|372:14,1,89.9999972534181,2|0,1:2|0:0,0:0:0:0:
243,112,247126,1,8,0:0:0:0:
216,132,247439,5,0,3:0:0:0:
149,0,247595,1,0,3:0:0:0:
3,23,247751,1,0,3:0:0:0:
141,234,248064,6,0,P|227:240|325:194,1,179.999994506836,2|0,1:2|0:0,0:0:0:0:
412,114,248532,2,0,P|430:163|418:225,1,89.9999972534181,0|0,1:0|0:0,0:0:0:0:
335,299,248845,1,0,0:0:0:0:
479,384,249001,2,0,L|494:295,1,89.9999972534181,8|0,0:0|0:0,0:0:0:0:
320,384,249314,6,0,P|271:357|248:301,1,89.9999972534181,2|0,0:0|1:0,0:0:0:0:
349,214,249626,2,0,P|350:269|313:317,1,89.9999972534181
180,259,249939,2,0,L|281:241,1,89.9999972534181,2|0,1:2|0:0,0:0:0:0:
175,337,250251,1,2,0:0:0:0:
147,187,250407,1,0,0:0:0:0:
86,352,250564,1,0,1:0:0:0:
65,178,250720,1,0,0:0:0:0:
65,178,250798,1,0,0:0:0:0:
65,178,250876,2,0,L|84:64,1,89.9999972534181,8|0,0:0|0:0,0:0:0:0:
213,139,251189,6,0,P|208:84|179:27,1,89.9999972534181,2|0,0:0|0:0,0:0:0:0:
147,187,251501,1,0,0:0:0:0:
393,273,251814,6,0,P|397:218|426:161,1,89.9999972534181,2|0,1:2|0:0,0:0:0:0:
459,321,252126,1,2,0:0:0:0:
317,301,252282,1,0,1:0:0:0:
477,242,252439,2,0,P|496:192|481:130,1,89.9999972534181,2|0,0:0|0:0,0:0:0:0:
315,220,252751,2,0,P|296:170|311:108,1,89.9999972534181,10|0,0:0|0:0,0:0:0:0:
454,87,253064,2,0,P|404:106|342:91,1,89.9999972534181,0|0,0:0|1:0,0:0:0:0:
260,1,253376,6,0,P|216:48|184:123,1,134.999995880127,2|0,1:2|0:0,0:0:0:0:
206,133,253689,1,2,1:2:0:0:
116,15,253845,1,0,0:0:0:0:
35,169,254001,2,0,P|19:226|23:268,1,89.9999972534181,2|0,0:0|0:0,0:0:0:0:
219,303,254314,2,0,P|235:246|231:204,1,89.9999972534181,2|0,1:2|0:0,0:0:0:0:
59,330,254626,2,0,P|116:346|158:342,1,89.9999972534181,8|0,0:0|0:0,0:0:0:0:
266,234,254939,1,8,1:0:0:0:
290,212,255251,5,8,1:0:0:0:
348,382,255407,1,8,0:0:0:0:
405,174,255564,6,0,B|409:152|426:129|426:129|382:60|319:25,1,200,6|0,1:1|0:0,0:0:0:0:
137,138,256032,2,0,P|176:100|219:76,1,100,0|0,1:0|0:0,0:0:0:0:
266,234,256345,1,0,0:0:0:0:
266,234,256423,1,0,0:0:0:0:
266,234,256501,5,10,0:0:0:0:
152,373,256657,1,0,0:0:0:0:
198,183,256814,1,2,0:0:0:0:
272,358,256970,1,0,0:0:0:0:
84,255,257126,1,2,0:0:0:0:
273,153,257282,1,2,0:0:0:0:
85,50,257439,6,0,P|36:78|7:112,1,100,0|0,1:0|0:0,0:0:0:0:
187,109,257751,1,2,0:0:0:0:
187,109,257829,1,0,0:0:0:0:
187,109,257907,1,8,0:0:0:0:
189,288,258064,1,2,0:0:0:0:
87,157,258220,1,0,0:0:0:0:
273,47,258376,6,0,P|331:35|385:50,1,100,8|0,0:0|0:0,0:0:0:0:
391,203,258689,1,2,0:0:0:0:
386,21,258845,1,0,0:0:0:0:
386,21,258923,1,0,0:0:0:0:
386,21,259001,1,2,0:0:0:0:
506,187,259157,1,2,0:0:0:0:
276,219,259314,6,0,B|189:196|183:228|183:228|176:261|95:239,1,200,2|0,1:2|0:0,0:0:0:0:
210,115,259782,1,0,1:0:0:0:
240,309,259939,1,0,0:0:0:0:
126,148,260095,1,0,0:0:0:0:
126,148,260173,1,0,0:0:0:0:
126,148,260251,6,0,B|112:124|91:106|91:106|110:77|117:36|117:36|145:19|183:13,1,200,10|2,0:0|0:0,0:0:0:0:
300,125,260720,1,0,1:0:0:0:
425,3,260876,2,0,P|481:17|510:52,1,100
373,207,261189,5,2,1:2:0:0:
317,15,261345,1,0,0:0:0:0:
291,280,261501,1,2,0:0:0:0:
436,84,261657,1,8,0:0:0:0:
446,289,261814,1,0,1:0:0:0:
225,205,261970,1,0,0:0:0:0:
225,205,262048,1,0,0:0:0:0:
225,205,262126,6,0,P|174:186|126:193,1,100,10|0,0:0|0:0,0:0:0:0:
0,295,262439,1,2,3:2:0:0:
168,267,262595,1,0,3:2:0:0:
56,114,262751,1,8,0:0:0:0:
317,9,263064,6,0,B|366:0|366:0|412:14|412:14|460:3|460:3|511:20,1,200,2|0,1:2|0:0,0:0:0:0:
384,134,263532,1,0,1:0:0:0:
234,25,263689,1,0,0:0:0:0:
147,210,263845,1,0,0:0:0:0:
147,210,263923,1,0,0:0:0:0:
147,210,264001,6,0,B|90:197|90:197|24:123,1,150,10|0,0:0|0:0,0:0:0:0:
132,124,264314,2,0,B|159:130|193:136|193:136|225:167|228:214,1,150,2|0,0:0|0:0,0:0:0:0:
188,284,264626,2,0,B|155:292|155:292|178:331|225:284|284:323,1,150,2|0,0:0|0:0,0:0:0:0:
322,250,264939,6,0,P|329:178|355:91,1,150,2|0,1:2|0:0,0:0:0:0:
376,86,265251,1,2,0:0:0:0:
470,257,265407,1,10,0:0:0:0:
300,160,265564,1,0,1:0:0:0:
479,115,265720,1,0,0:0:0:0:
273,57,265876,2,0,B|236:47|236:47|179:68,1,100,10|0,0:0|0:0,0:0:0:0:
96,249,266189,5,2,2:1:0:0:
117,226,266267,1,0,0:0:0:0:
134,200,266345,1,0,0:0:0:0:
147,171,266423,1,0,0:0:0:0:
153,141,266501,1,2,2:1:0:0:
154,110,266579,1,0,0:0:0:0:
149,79,266657,1,0,0:0:0:0:
139,49,266735,1,0,0:0:0:0:
123,22,266814,6,0,B|75:8|75:8|23:74|39:149,1,200,2|0,1:0|0:0,0:0:0:0:
206,266,267282,2,0,P|246:241|392:264,1,200,0|0,1:0|0:0,0:0:0:0:
252,161,267751,6,0,B|292:142|292:142|349:163|349:163|393:143,1,150,10|0,0:0|0:0,0:0:0:0:
251,127,268064,2,0,B|291:108|291:108|348:129|348:129|392:109,1,150,2|0,0:0|0:0,0:0:0:0:
250,93,268376,2,0,B|290:74|290:74|347:95|347:95|391:75,1,150,2|0,0:0|0:0,0:0:0:0:
469,16,268689,5,0,1:0:0:0:
446,204,268845,1,8,0:0:0:0:
343,12,269001,2,0,P|296:-2|248:8,1,100,2|0,0:0|0:0,0:0:0:0:
163,178,269314,1,12,1:0:0:0:
148,209,269626,5,8,0:0:0:0:
0,68,269782,1,8,0:0:0:0:
0,68,269860,1,8,0:0:0:0:
0,68,269939,1,8,0:0:0:0:
207,92,270095,1,8,0:0:0:0:
89,326,270251,1,8,0:0:0:0:
104,80,270407,1,8,0:0:0:0:
270,254,270564,6,0,P|357:289|457:255,1,200,6|0,1:1|0:0,0:0:0:0:
308,182,271032,1,0,1:0:0:0:
332,366,271189,1,2,0:0:0:0:
416,185,271345,1,0,0:0:0:0:
235,101,271501,2,0,P|148:66|48:100,1,200,10|0,0:0|0:0,0:0:0:0:
78,266,271970,2,0,P|121:235|146:177,1,100,2|0,1:2|0:0,0:0:0:0:
28,328,272282,1,2,0:0:0:0:
206,296,272439,6,0,L|402:261,1,200,2|0,1:2|0:0,0:0:0:0:
510,130,272907,1,8,0:0:0:0:
495,300,273064,1,2,0:0:0:0:
378,132,273220,1,0,0:0:0:0:
378,132,273298,1,0,0:0:0:0:
378,132,273376,2,0,P|298:113|253:128,1,100,10|2,0:0|0:0,0:0:0:0:
163,208,273689,5,2,0:0:0:0:
223,42,273845,1,0,0:0:0:0:
315,208,274001,1,2,0:0:0:0:
159,112,274157,1,2,0:0:0:0:
167,304,274314,2,0,B|139:323|140:360|140:360|77:392|2:375,1,200,2|0,1:2|0:0,0:0:0:0:
81,259,274782,1,0,1:0:0:0:
262,289,274939,2,0,P|322:296|380:247,1,100
373,81,275251,6,0,L|391:186,1,100,10|0,0:0|1:0,0:0:0:0:
506,338,275564,2,0,P|482:281|410:255,1,100,2|0,0:0|1:0,0:0:0:0:
326,332,275876,1,2,0:0:0:0:
295,165,276032,1,0,0:0:0:0:
169,298,276189,6,0,B|60:298|103:382|-3:384,1,200,2|0,1:2|0:0,0:0:0:0:
105,227,276657,1,8,0:0:0:0:
153,380,276814,1,0,1:0:0:0:
11,302,276970,1,0,0:0:0:0:
198,207,277126,2,0,P|217:158|205:101,1,100,8|0,0:0|0:0,0:0:0:0:
83,83,277439,1,2,0:0:0:0:
252,6,277595,1,0,0:0:0:0:
330,175,277751,1,8,0:0:0:0:
507,380,278064,6,0,P|491:303|480:173,1,200,2|0,1:2|0:0,0:0:0:0:
488,31,278532,1,0,1:0:0:0:
314,81,278689,1,0,0:0:0:0:
371,262,278845,1,0,0:0:0:0:
371,262,278923,1,0,0:0:0:0:
371,262,279001,5,8,0:0:0:0:
401,57,279157,1,0,1:0:0:0:
458,286,279314,1,2,0:0:0:0:
271,162,279470,1,0,1:0:0:0:
200,375,279626,1,2,0:0:0:0:
434,373,279782,1,0,0:0:0:0:
243,276,279939,5,2,1:2:0:0:
243,276,280017,1,0,0:0:0:0:
243,276,280095,1,2,0:0:0:0:
94,340,280251,1,2,0:0:0:0:
184,138,280407,1,8,0:0:0:0:
349,241,280564,5,2,1:2:0:0:
139,239,280720,1,0,0:0:0:0:
229,37,280876,1,10,0:0:0:0:
243,276,281032,1,2,0:0:0:0:
83,93,281189,1,2,0:0:0:0:
94,340,281345,1,2,0:0:0:0:
271,162,281501,2,0,P|326:145|429:149,1,150,2|0,0:0|0:0,0:0:0:0:
422,175,281814,6,0,B|441:132|448:79|448:79|486:45|510:1,1,200,2|0,1:2|0:0,0:0:0:0:
346,66,282282,2,0,P|296:73|248:62,1,100,0|0,1:0|0:0,0:0:0:0:
117,0,282595,1,2,0:0:0:0:
96,189,282751,1,8,0:0:0:0:
16,16,282907,1,0,1:0:0:0:
16,16,282985,1,0,0:0:0:0:
16,16,283064,1,2,0:0:0:0:
177,126,283220,1,0,1:0:0:0:
15,252,283376,2,0,B|9:304|9:304|80:380,1,150
108,384,283689,5,2,1:2:0:0:
96,189,283845,1,8,0:0:0:0:
264,277,284001,2,0,P|321:290|384:269,1,100,2|0,0:0|1:0,0:0:0:0:
435,106,284314,1,12,1:0:0:0:
448,74,284626,5,2,1:2:0:0:
501,297,284782,1,8,0:0:0:0:
299,148,284939,1,2,1:2:0:0:
352,371,285095,1,8,0:0:0:0:
512,176,285251,1,2,1:2:0:0:
271,284,285407,1,8,0:0:0:0:
271,284,285485,1,8,0:0:0:0:
271,284,285564,6,0,P|206:284|96:206,1,200,6|0,1:2|0:0,0:0:0:0:
194,53,286032,2,0,P|245:72|301:157,1,150,2|0,1:2|0:0,0:0:0:0:
278,176,286345,1,0,1:0:0:0:
312,0,286501,2,0,P|359:35|384:84,1,100,8|0,0:0|0:0,0:0:0:0:
358,209,286814,1,2,0:0:0:0:
198,143,286970,1,8,0:0:0:0:
156,328,287126,5,2,1:2:0:0:
132,200,287282,5,0,1:0:0:0:
108,72,287439,6,0,P|185:53|272:56,1,150,12|0,0:0|0:0,0:0:0:0:
331,66,287751,1,0,1:0:0:0:
215,229,287907,1,0,1:0:0:0:
102,104,288064,6,0,P|174:85|249:85,1,150,12|0,0:0|0:0,0:0:0:0:
325,98,288376,1,0,1:0:0:0:
216,268,288532,1,2,1:2:0:0:
216,268,288610,1,2,0:0:0:0:
216,268,288689,6,0,P|288:288|352:325,1,150,10|0,0:0|0:0,0:0:0:0:
411,373,289001,2,0,B|430:339|430:339|419:267,1,100,4|0,0:0|0:0,0:0:0:0:
273,182,289314,6,0,P|317:217|386:219,1,100,2|0,1:2|0:0,0:0:0:0:
474,106,289626,1,8,0:0:0:0:
421,279,289782,2,0,P|370:303|302:289,1,100,0|0,1:0|0:0,0:0:0:0:
273,182,290095,1,0,1:0:0:0:
182,343,290251,2,0,P|157:292|171:224,1,100,8|0,0:0|0:0,0:0:0:0:
189,233,290485,1,0,0:0:0:0:
189,233,290564,1,0,1:0:0:0:
92,384,290720,1,8,0:0:0:0:
25,228,290876,2,0,P|12:173|41:110,1,100,2|0,1:2|0:0,0:0:0:0:
127,12,291189,5,0,1:0:0:0:
90,178,291345,1,8,0:0:0:0:
256,86,291501,2,0,P|310:73|373:102,1,100,2|0,0:0|0:0,0:0:0:0:
488,227,291814,5,8,0:0:0:0:
454,19,291970,1,8,0:0:0:0:
454,19,292048,1,8,0:0:0:0:
454,19,292126,1,8,0:0:0:0:
306,153,292282,1,8,0:0:0:0:
127,12,292439,6,0,L|16:31,1,100,6|0,1:2|0:0,0:0:0:0:
14,54,292673,1,0,0:0:0:0:
14,54,292751,1,8,0:0:0:0:
148,164,292907,2,0,P|203:120|241:46,1,150,0|0,1:0|0:0,0:0:0:0:
221,27,293220,1,0,1:0:0:0:
236,201,293376,1,8,0:0:0:0:
376,105,293532,1,0,0:0:0:0:
358,294,293689,2,0,P|298:324|240:318,1,100,2|0,0:0|0:0,0:0:0:0:
367,200,294001,5,2,1:2:0:0:
471,114,294157,5,0,1:0:0:0:
385,10,294314,6,0,P|302:10|212:28,1,150,12|0,0:0|0:0,0:0:0:0:
161,48,294626,1,0,1:0:0:0:
272,191,294782,1,0,1:0:0:0:
378,41,294939,6,0,P|295:41|205:59,1,150,12|0,0:0|0:0,0:0:0:0:
154,79,295251,1,0,1:0:0:0:
265,222,295407,1,0,1:0:0:0:
371,72,295564,5,8,0:0:0:0:
184,171,295720,2,0,P|120:167|81:141,1,100,8|0,0:0|1:0,0:0:0:0:
268,126,296032,5,8,0:0:0:0:
455,225,296189,2,0,B|456:274|456:274|374:335,1,150,6|0,0:0|0:0,0:0:0:0:
312,384,296501,1,8,0:0:0:0:
362,176,296657,1,0,1:0:0:0:
371,145,296970,5,0,1:0:0:0:
198,272,297126,1,8,0:0:0:0:
168,73,297282,1,0,0:0:0:0:
168,73,297360,1,0,0:0:0:0:
168,73,297439,5,2,1:2:0:0:
306,238,297595,2,0,P|308:298|277:353,1,100,10|0,0:0|1:0,0:0:0:0:
125,358,297907,1,0,1:0:0:0:
238,156,298064,5,8,0:0:0:0:
374,320,298220,2,0,P|422:311|463:283,1,100,8|0,0:0|1:0,0:0:0:0:
470,102,298532,1,8,0:0:0:0:
470,102,298610,1,8,0:0:0:0:
470,102,298689,1,8,0:0:0:0:
306,238,298845,1,8,0:0:0:0:
275,56,299001,5,0,1:0:0:0:
224,306,299157,1,8,0:0:0:0:
388,170,299314,5,0,1:0:0:0:
138,119,299470,1,8,0:0:0:0:
306,238,299626,5,0,1:0:0:0:
182,26,299782,1,8,0:0:0:0:
182,26,299860,1,8,0:0:0:0:
182,26,299939,6,0,P|97:25|49:71,1,150,6|0,1:2|0:0,0:0:0:0:
56,97,300251,1,10,0:0:0:0:
181,213,300407,2,0,P|266:214|314:168,1,150,2|0,1:2|0:0,0:0:0:0:
307,142,300720,1,0,1:0:0:0:
332,342,300876,1,8,0:0:0:0:
392,173,301032,1,0,0:0:0:0:
222,112,301189,1,2,1:2:0:0:
362,257,301345,1,8,0:0:0:0:
337,57,301501,5,2,1:2:0:0:
222,112,301657,5,0,1:0:0:0:
107,167,301814,6,0,P|92:229|106:314,1,150,12|0,0:0|0:0,0:0:0:0:
147,381,302126,1,0,1:0:0:0:
277,226,302282,1,0,1:0:0:0:
79,149,302439,6,0,P|64:211|78:296,1,150,12|0,0:0|0:0,0:0:0:0:
119,363,302751,1,0,1:0:0:0:
256,215,302907,1,2,1:2:0:0:
256,215,302985,1,2,0:0:0:0:
256,215,303064,6,0,P|271:153|257:68,1,150,12|0,0:0|0:0,0:0:0:0:
216,1,303376,1,0,1:0:0:0:
351,127,303532,1,0,0:0:0:0:
175,217,303689,6,0,L|193:319,1,100,6|0,0:0|0:0,0:0:0:0:
335,242,304001,1,8,0:0:0:0:
160,136,304157,1,0,1:0:0:0:
131,119,304470,5,0,1:0:0:0:
351,127,304626,2,0,P|408:128|442:151,1,100,10|0,0:0|0:0,0:0:0:0:
512,309,304939,1,0,1:0:0:0:
335,242,305095,1,10,0:0:0:0:
512,213,305251,1,0,1:0:0:0:
439,372,305407,1,0,0:0:0:0:
442,151,305564,5,2,1:2:0:0:
351,337,305720,1,8,0:0:0:0:
260,103,305876,1,0,1:0:0:0:
169,289,306032,1,0,1:0:0:0:
351,127,306189,5,8,0:0:0:0:
446,379,306345,1,8,0:0:0:0:
446,379,306423,1,8,0:0:0:0:
446,379,306501,1,10,0:0:0:0:
256,216,306657,1,8,0:0:0:0:
66,379,306814,6,0,P|45:348|6:244,1,150,6|0,1:2|0:0,0:0:0:0:
25,218,307126,1,8,0:0:0:0:
177,273,307282,2,0,P|226:250|264:197,1,100,2|0,1:2|0:0,0:0:0:0:
197,90,307595,1,0,1:0:0:0:
102,247,307751,2,0,L|84:345,1,100,10|0,0:0|0:0,0:0:0:0:
149,176,308064,5,0,1:0:0:0:
111,42,308220,1,8,0:2:0:0:
245,4,308376,2,0,P|306:1|359:37,1,100,10|0,0:0|1:0,0:0:0:0:
440,172,308689,1,6,0:0:0:0:
283,78,308845,5,4,3:2:0:0:
259,101,308923,1,0,3:2:0:0:
242,130,309001,1,2,3:2:0:0:
235,162,309079,1,0,3:2:0:0:
237,195,309157,1,0,3:2:0:0:
249,226,309235,1,0,3:2:0:0:
269,253,309314,5,6,3:2:0:0:
245,243,309392,1,0,3:2:0:0:
221,238,309470,1,0,3:2:0:0:
196,237,309548,1,0,3:2:0:0:
171,241,309626,1,2,3:2:0:0:
147,248,309704,1,0,3:2:0:0:
125,260,309782,1,0,3:2:0:0:
105,275,309860,1,0,3:2:0:0:
88,293,309939,5,6,1:2:0:0:
199,363,310095,1,8,0:0:0:0:
269,253,310251,1,0,1:0:0:0:
158,183,310407,1,8,0:0:0:0:
284,341,310564,6,0,P|349:289|332:192,1,150,6|0,1:2|0:0,0:0:0:0:
337,207,310876,1,8,0:0:0:0:
389,379,311032,1,0,1:0:0:0:
269,253,311189,1,0,0:0:0:0:
486,265,311345,1,0,1:2:0:0:
486,265,311423,1,0,1:2:0:0:
486,265,311501,6,0,P|456:212|449:138,1,100,10|0,0:0|0:0,0:0:0:0:
511,15,311814,1,0,1:0:0:0:
378,136,311970,1,8,0:0:0:0:
245,15,312126,2,0,P|179:5|135:30,1,100,0|0,1:0|1:0,0:0:0:0:
59,172,312439,1,10,0:0:0:0:
46,203,312751,5,0,1:0:0:0:
11,37,312907,1,0,0:0:0:0:
199,83,313064,1,8,0:0:0:0:
0,126,313220,1,0,1:0:0:0:
210,172,313376,1,0,1:0:0:0:
18,44,313532,1,8,0:0:0:0:
18,44,313610,1,8,0:0:0:0:
18,44,313689,5,8,0:0:0:0:
35,292,313845,1,0,1:0:0:0:
199,83,314001,2,0,L|355:110,1,150,8|0,0:0|0:0,0:0:0:0:
424,127,314314,1,6,0:0:0:0:
256,192,314340,12,0,318064,0:0:0:0:
382,192,335876,5,0,1:0:0:0:
129,192,336189,5,8,0:0:0:0:
256,44,336501,5,6,1:2:0:0:
256,249,336657,1,8,0:0:0:0:
129,101,336813,1,10,0:0:0:0:
382,101,336969,5,4,1:2:0:0:
271,37,337126,1,10,0:0:0:0:
232,259,337282,1,8,0:0:0:0:
123,74,337438,5,6,1:2:0:0:
397,123,337594,1,8,0:0:0:0:
287,31,337751,1,10,0:0:0:0:
216,277,337907,5,10,0:0:0:0:
216,277,337985,1,8,0:0:0:0:
216,277,338063,2,0,B|152:296|152:296|25:223,1,200,8|0,0:0|0:0,0:0:0:0:
239,176,338531,2,0,P|293:203|315:245,1,100,0|0,1:0|0:0,0:0:0:0:
227,371,338844,1,0,0:0:0:0:
388,271,339000,5,10,0:0:0:0:
216,277,339156,1,2,0:0:0:0:
310,118,339313,1,2,0:0:0:0:
469,212,339469,1,2,1:2:0:0:
375,371,339625,1,2,0:0:0:0:
410,129,339781,2,0,P|398:68|373:39,2,100,2|0|0,0:0|1:0|0:0,0:0:0:0:
274,206,340250,2,0,P|286:145|311:116,1,100
216,277,340563,5,2,1:2:0:0:
220,87,340719,1,2,0:0:0:0:
306,291,340875,1,10,0:0:0:0:
138,180,341031,1,2,0:0:0:0:
363,189,341188,1,2,0:0:0:0:
248,361,341344,1,2,0:0:0:0:
309,117,341500,1,2,0:0:0:0:
338,375,341656,1,2,0:0:0:0:
138,180,341813,6,0,B|92:144|92:144|30:189|35:269,1,200,2|0,1:2|0:0,0:0:0:0:
193,248,342281,2,0,P|224:193|208:126,1,100,0|0,1:0|0:0,0:0:0:0:
82,64,342594,1,0,0:0:0:0:
114,258,342750,2,0,L|131:358,1,100,10|0,0:0|0:0,0:0:0:0:
279,271,343063,5,0,1:0:0:0:
222,157,343219,1,0,1:0:0:0:
313,68,343375,1,2,0:0:0:0:
472,282,343688,6,0,P|410:259|269:275,1,200,2|0,1:2|0:0,0:0:0:0:
424,359,344156,1,0,0:0:0:0:
449,176,344313,2,0,P|418:123|383:98,1,100,0|0,1:0|0:0,0:0:0:0:
229,164,344625,5,10,0:0:0:0:
229,164,344703,1,0,0:0:0:0:
229,164,344781,1,2,0:0:0:0:
404,74,344938,1,2,1:2:0:0:
314,229,345094,1,2,0:0:0:0:
229,52,345250,1,2,1:2:0:0:
139,207,345406,1,2,0:0:0:0:
359,152,345563,6,0,P|417:211|466:318,1,200,6|0,1:2|0:0,0:0:0:0:
269,316,346031,2,0,P|284:269|314:228,1,100,0|0,1:0|0:0,0:0:0:0:
369,375,346344,1,2,0:0:0:0:
161,350,346500,1,8,0:0:0:0:
314,229,346656,1,2,0:0:0:0:
108,204,346813,2,0,P|52:213|11:235,1,100,2|0,0:0|1:0,0:0:0:0:
161,350,347126,5,2,0:0:0:0:
181,299,347230,5,2,0:0:0:0:
127,306,347334,5,2,0:0:0:0:
159,342,347439,5,2,1:2:0:0:
175,303,347543,5,2,0:0:0:0:
134,309,347647,6,0,B|105:311|78:299|78:299|30:326|2:385,1,166.666666666667,2|0,0:0|0:0,0:0:0:0:
230,351,348063,2,0,P|256:307|244:252,1,100,2|0,1:2|0:0,0:0:0:0:
121,133,348375,1,10,0:0:0:0:
308,202,348531,2,0,P|371:205|413:179,2,100,2|0|0,0:0|0:0|0:0,0:0:0:0:
256,50,349000,2,0,P|319:47|361:73,1,100
215,168,349313,6,0,P|189:90|118:-2,1,200,2|0,1:2|0:0,0:0:0:0:
15,157,349781,2,0,P|33:207|68:245,1,100,0|0,1:0|0:0,0:0:0:0:
219,246,350094,1,0,0:0:0:0:
98,384,350250,2,0,L|0:366,1,100,8|0,0:0|0:0,0:0:0:0:
159,315,350564,6,0,P|220:334|258:382,1,100,0|0,0:0|1:0,0:0:0:0:
375,246,350876,2,0,P|314:265|276:313,1,100
465,363,351189,2,0,P|451:272|473:145,1,200,2|0,1:2|0:0,0:0:0:0:
511,34,351657,1,0,0:0:0:0:
342,112,351814,2,0,P|287:137|246:136,1,100,0|0,1:0|0:0,0:0:0:0:
108,34,352126,1,10,0:0:0:0:
83,12,352439,5,10,0:0:0:0:
35,206,352595,1,10,0:0:0:0:
229,254,352751,1,10,0:0:0:0:
277,60,352907,1,10,0:0:0:0:
132,230,353064,6,0,P|141:303|252:353,1,200,4|0,1:0|0:0,0:0:0:0:
305,198,353532,2,0,P|252:219|225:260,1,100,0|0,1:0|0:0,0:0:0:0:
379,257,353845,1,0,0:0:0:0:
235,120,354001,2,0,L|128:101,1,100,10|0,0:0|0:0,0:0:0:0:
34,205,354314,2,0,P|83:213|131:197,1,100,0|0,0:0|1:0,0:0:0:0:
17,86,354626,1,0,0:0:0:0:
293,29,354939,6,0,B|400:10|372:101|477:84,1,200,2|0,1:2|0:0,0:0:0:0:
323,107,355406,1,0,0:0:0:0:
450,5,355563,1,0,1:0:0:0:
486,166,355719,1,0,0:0:0:0:
293,29,355875,6,0,P|228:41|186:109,1,150,10|0,0:0|0:0,0:0:0:0:
121,49,356188,2,0,P|98:111|136:181,1,150,2|0,0:0|0:0,0:0:0:0:
52,207,356500,2,0,B|72:262|129:269|129:269|127:303|102:328,1,150,2|0,0:0|0:0,0:0:0:0:
199,231,356813,6,0,B|224:194|224:194|309:218|382:172,1,200,2|0,1:2|0:0,0:0:0:0:
485,77,357281,1,0,1:0:0:0:
288,107,357438,1,0,0:0:0:0:
467,183,357594,1,0,0:0:0:0:
373,0,357750,6,0,P|249:7|200:30,1,150,10|0,0:0|0:0,0:0:0:0:
217,43,358063,1,2,0:0:0:0:
389,114,358219,1,2,1:2:0:0:
190,144,358375,1,0,0:0:0:0:
220,343,358531,1,2,0:0:0:0:
286,107,358688,5,2,1:2:0:0:
160,263,358844,1,2,0:0:0:0:
160,263,358896,1,2,0:0:0:0:
160,263,358948,1,0,0:0:0:0:
160,263,359000,2,0,P|96:267|51:247,1,100,2|0,0:0|0:0,0:0:0:0:
190,144,359313,5,2,1:2:0:0:
316,300,359469,1,2,0:0:0:0:
316,300,359521,1,2,0:0:0:0:
316,300,359573,1,0,0:0:0:0:
316,300,359625,2,0,P|380:304|425:284,1,100,10|0,0:0|0:0,0:0:0:0:
389,114,359938,5,2,3:2:0:0:
255,192,360094,1,2,3:2:0:0:
220,343,360250,1,2,3:2:0:0:
107,83,360563,6,0,B|123:51|123:51|30:78|20:176,1,200,6|0,1:2|0:0,0:0:0:0:
89,300,361031,1,0,1:0:0:0:
190,144,361188,2,0,P|232:113|324:115,1,100
370,276,361500,2,0,L|244:253,1,100,10|0,0:0|0:0,0:0:0:0:
402,147,361813,5,0,0:0:0:0:
438,342,361969,1,0,1:0:0:0:
496,140,362125,1,0,0:0:0:0:
353,374,362281,1,0,0:0:0:0:
353,374,362359,1,0,0:0:0:0:
353,374,362438,6,0,P|250:365|151:376,1,200,2|0,1:2|0:0,0:0:0:0:
0,283,362906,2,0,P|53:254|102:243,1,100,0|0,0:0|1:0,0:0:0:0:
246,232,363219,1,0,0:0:0:0:
134,91,363375,2,0,L|26:109,1,100,10|0,0:0|0:0,0:0:0:0:
190,162,363688,2,0,P|222:109|209:41,1,100
71,19,364000,1,0,0:0:0:0:
291,157,364313,6,0,B|353:147|353:147|487:202,1,200,2|0,1:2|0:0,0:0:0:0:
408,343,364781,2,0,P|362:314|340:274,1,100,0|0,1:0|0:0,0:0:0:0:
495,296,365094,1,0,0:0:0:0:
466,98,365250,2,0,L|448:0,1,100,10|0,0:0|0:0,0:0:0:0:
292,68,365563,5,2,0:0:0:0:
407,206,365719,1,0,1:0:0:0:
357,0,365875,1,2,0:0:0:0:
186,168,366031,1,2,0:1:0:0:
75,1,366188,6,0,P|45:71|39:135,1,133.333333333333,2|0,1:0|0:0,0:0:0:0:
100,177,366500,2,0,P|130:247|135:297,1,100,2|0,1:0|0:0,0:0:0:0:
77,356,366813,5,2,1:0:0:0:
136,303,366917,5,2,0:1:0:0:
214,290,367021,5,2,0:1:0:0:
293,301,367125,5,6,0:1:0:0:
182,65,367438,5,8,0:0:0:0:
442,87,367750,5,2,1:2:0:0:
291,156,367906,1,0,0:0:0:0:
473,228,368063,6,0,P|454:296|358:376,1,200,4|0,1:1|0:0,0:0:0:0:
214,290,368531,1,0,1:0:0:0:
383,192,368688,1,0,0:0:0:0:
358,377,368844,1,2,0:0:0:0:
204,194,369000,6,0,B|96:175|124:266|19:249,1,200,10|0,0:0|0:0,0:0:0:0:
129,117,369469,1,0,1:0:0:0:
275,231,369625,2,0,P|299:283|279:349,1,100
255,137,369938,6,0,P|322:164|402:131,1,150,2|0,1:2|0:0,0:0:0:0:
395,107,370250,1,2,0:0:0:0:
375,307,370406,1,8,0:0:0:0:
473,155,370563,1,0,1:0:0:0:
488,329,370719,1,0,0:0:0:0:
323,200,370875,2,0,P|270:214|223:250,1,100,8|0,0:0|0:0,0:0:0:0:
56,273,371188,2,0,P|109:287|156:323,1,100
0,348,371500,5,2,0:0:0:0:
103,190,371656,1,0,0:0:0:0:
269,310,371813,2,0,P|345:304|424:321,1,150,2|0,1:2|0:0,0:0:0:0:
429,349,372125,1,0,0:0:0:0:
369,183,372281,1,0,1:0:0:0:
355,150,372594,5,0,0:0:0:0:
512,227,372750,1,10,0:0:0:0:
487,31,372906,1,0,1:0:0:0:
487,31,372984,1,0,0:0:0:0:
487,31,373063,6,0,P|419:55|396:80,1,100,2|0,0:0|1:0,0:0:0:0:
394,228,373375,1,2,0:0:0:0:
249,375,373688,6,0,B|259:320|259:320|168:197,1,200,2|0,1:2|0:0,0:0:0:0:
4,194,374156,1,8,0:0:0:0:
144,308,374313,1,0,1:0:0:0:
258,168,374469,1,0,0:0:0:0:
74,251,374625,2,0,L|54:359,1,100,8|0,0:0|0:0,0:0:0:0:
89,162,374938,2,0,P|51:118|12:103,1,100
110,3,375250,5,10,0:0:0:0:
174,165,375406,1,0,0:0:0:0:
340,34,375563,1,2,1:2:0:0:
365,10,375875,5,0,0:0:0:0:
447,188,376031,2,0,P|389:192|331:167,1,100,2|0,1:2|0:0,0:0:0:0:
216,315,376344,1,0,0:0:0:0:
216,315,376422,1,0,0:0:0:0:
216,315,376500,6,0,P|274:311|332:336,1,100,10|0,0:0|1:0,0:0:0:0:
160,372,376813,1,2,0:0:0:0:
286,236,376969,1,0,1:0:0:0:
422,362,377125,2,0,P|474:336|511:285,1,100,2|0,0:0|0:0,0:0:0:0:
349,179,377438,2,0,B|262:113|245:207|159:144,1,200,2|0,1:2|0:0,0:0:0:0:
85,6,377906,1,8,0:0:0:0:
37,177,378063,1,2,1:2:0:0:
220,89,378219,5,0,0:0:0:0:
220,89,378297,1,0,0:0:0:0:
220,89,378375,2,0,P|292:75|370:100,1,150,8|0,0:0|0:0,0:0:0:0:
290,170,378688,2,0,P|322:235|318:317,1,150,2|0,0:0|0:0,0:0:0:0:
229,258,379000,2,0,P|173:306|93:323,1,150,2|0,0:0|0:0,0:0:0:0:
0,383,379313,6,0,P|21:320|38:181,1,200,2|0,1:2|0:0,0:0:0:0:
0,33,379781,1,0,1:0:0:0:
189,78,379938,2,0,P|256:82|320:55,1,100,2|0,0:0|0:0,0:0:0:0:
467,0,380250,2,0,L|446:118,1,100,10|0,0:0|1:0,0:0:0:0:
281,189,380563,1,2,0:0:0:0:
377,37,380719,1,0,1:0:0:0:
412,259,380875,2,0,P|356:298|300:303,1,100,2|0,0:0|0:0,0:0:0:0:
205,158,381188,5,2,1:2:0:0:
430,178,381345,1,10,0:0:0:0:
217,240,381501,2,0,P|161:229|128:187,1,100,2|0,0:0|1:0,0:0:0:0:
94,34,381813,1,12,1:0:0:0:
85,1,382125,5,8,0:0:0:0:
73,247,382281,1,8,0:0:0:0:
73,247,382359,1,8,0:0:0:0:
73,247,382438,1,8,0:0:0:0:
13,37,382594,1,8,0:0:0:0:
205,158,382750,5,8,0:0:0:0:
1,283,382906,1,8,0:0:0:0:
158,36,383063,2,0,B|244:0|263:93|349:49,1,200,10|0,1:1|0:0,0:0:0:0:
511,0,383531,2,0,P|466:46|460:110,1,100,2|0,1:2|0:0,0:0:0:0:
485,244,383844,1,0,0:0:0:0:
303,140,384000,2,0,L|192:159,1,100,10|0,0:0|1:0,0:0:0:0:
186,183,384234,1,0,0:0:0:0:
186,183,384313,5,0,0:0:0:0:
297,305,384469,1,0,1:0:0:0:
123,367,384625,1,0,0:0:0:0:
270,232,384781,1,0,0:0:0:0:
270,232,384859,1,0,0:0:0:0:
270,232,384938,6,0,P|349:223|423:243,1,150,2|0,1:2|0:0,0:0:0:0:
426,266,385250,1,2,0:0:0:0:
369,75,385406,2,0,L|266:56,1,100,8|0,0:0|1:0,0:0:0:0:
95,103,385719,1,0,0:0:0:0:
300,144,385875,1,8,0:0:0:0:
174,40,386031,1,0,0:0:0:0:
133,232,386188,2,0,P|87:259|35:258,1,100
217,188,386500,5,2,0:2:0:0:
313,334,386656,1,0,0:0:0:0:
456,186,386813,2,0,P|451:123|468:33,1,150,2|0,1:2|0:0,0:0:0:0:
497,32,387125,1,2,0:0:0:0:
378,165,387281,1,2,1:2:0:0:
356,190,387594,5,0,0:0:0:0:
214,31,387750,2,0,P|163:24|116:34,1,100,10|0,0:0|1:0,0:0:0:0:
151,252,388063,2,0,P|182:211|197:165,1,100,2|0,0:0|1:0,0:0:0:0:
27,161,388375,1,2,0:0:0:0:
63,383,388531,1,2,0:0:0:0:
264,249,388688,2,0,P|355:223|435:225,1,150,2|0,1:2|0:0,0:0:0:0:
435,241,389000,5,0,0:0:0:0:
278,152,389156,1,8,0:0:0:0:
361,307,389313,1,0,1:0:0:0:
419,100,389469,1,0,0:0:0:0:
419,100,389547,1,0,0:0:0:0:
419,100,389625,2,0,P|378:67|326:49,1,100,10|0,0:0|0:0,0:0:0:0:
193,201,389938,2,0,P|234:168|286:150,1,100
361,307,390250,5,10,0:0:0:0:
182,295,390406,1,0,0:0:0:0:
354,212,390563,1,2,1:2:0:0:
382,198,390875,5,2,0:0:0:0:
193,201,391031,2,0,P|144:209|98:253,1,100,2|0,1:2|0:0,0:0:0:0:
44,383,391344,1,0,0:0:0:0:
22,200,391500,2,0,L|40:95,1,100,10|0,0:0|1:0,0:0:0:0:
208,67,391813,2,0,P|177:105|131:123,1,100,2|0,0:0|1:0,0:0:0:0:
276,0,392125,2,0,P|324:7|363:39,1,100,2|0,0:0|0:0,0:0:0:0:
256,165,392438,2,0,P|271:218|334:305,1,150,2|0,1:2|0:0,0:0:0:0:
356,294,392750,5,0,0:0:0:0:
173,227,392906,1,8,0:0:0:0:
362,191,393063,1,2,1:2:0:0:
181,124,393219,1,0,0:0:0:0:
181,124,393297,1,0,0:0:0:0:
181,124,393375,6,0,P|93:166|73:218,1,150,10|0,0:0|0:0,0:0:0:0:
173,227,393688,2,0,P|214:315|266:335,1,150,2|0,0:0|0:0,0:0:0:0:
276,234,394000,2,0,P|346:212|383:149,1,150,2|0,0:0|0:0,0:0:0:0:
283,131,394313,6,0,B|288:91|252:50|252:50|314:70|359:49,1,200,2|0,1:2|0:0,0:0:0:0:
502,0,394781,1,0,1:0:0:0:
383,149,394938,1,2,0:0:0:0:
244,20,395094,1,0,0:0:0:0:
462,91,395250,2,0,L|483:215,1,100,10|0,0:0|0:0,0:0:0:0:
304,315,395563,2,0,P|310:260|344:224,1,100,0|0,0:0|1:0,0:0:0:0:
507,291,395875,5,2,0:0:0:0:
383,149,396031,1,0,0:0:0:0:
367,384,396188,1,2,1:2:0:0:
479,189,396344,1,8,0:0:0:0:
287,109,396500,5,2,0:0:0:0:
423,287,396656,1,0,1:0:0:0:
144,254,396813,2,0,P|89:274|48:319,1,100,10|0,0:0|0:0,0:0:0:0:
266,227,397125,6,0,L|273:186,1,40,2|2,0:0|0:0,1:0:0:0:
299,3,398063,5,6,0:2:0:0:
372,173,398219,1,0,0:0:0:0:
481,36,398375,1,2,0:0:0:0:
287,109,398531,5,2,0:0:0:0:
479,147,398688,1,0,0:0:0:0:
301,257,398844,1,2,0:0:0:0:
301,257,398922,1,0,0:0:0:0:
301,257,399000,6,0,P|231:249|163:207,1,150,10|0,0:0|0:0,0:0:0:0:
166,302,399313,2,0,P|109:260|71:189,1,150,2|0,0:0|0:0,0:0:0:0:
26,273,399625,2,0,P|-2:208|0:128,1,150,2|0,0:0|0:0,0:0:0:0:
45,68,399938,5,2,0:0:0:0:
164,208,400094,1,0,0:0:0:0:
175,39,400250,1,2,0:0:0:0:
71,191,400406,5,10,0:0:0:0:
257,225,400563,1,0,0:0:0:0:
124,115,400719,1,2,0:0:0:0:
204,301,400875,6,0,B|228:304|252:319|252:319|305:313|334:272,1,150,10|0,0:0|0:0,0:0:0:0:
334,238,401188,1,2,0:0:0:0:
202,383,401344,1,0,0:0:0:0:
393,326,401500,1,2,0:0:0:0:
204,301,401656,1,2,0:0:0:0:
381,143,401813,5,2,0:0:0:0:
299,314,401969,1,0,0:0:0:0:
231,153,402125,1,2,0:0:0:0:
109,288,402281,5,2,0:0:0:0:
46,108,402438,1,0,0:0:0:0:
14,275,402594,1,2,0:0:0:0:
139,131,402750,6,0,B|150:85|150:85|263:37,1,150,10|0,0:0|0:0,0:0:0:0:
231,153,403063,2,0,B|274:134|274:134|379:198,1,150,2|0,0:0|0:0,0:0:0:0:
267,240,403375,2,0,B|307:264|307:264|318:386,1,150,2|0,0:0|0:0,0:0:0:0:
217,320,403688,1,0,1:0:0:0:
188,304,404000,5,0,0:0:0:0:
399,267,404156,1,8,0:0:0:0:
231,153,404313,1,0,1:0:0:0:
316,366,404469,1,0,0:0:0:0:
316,366,404547,1,0,0:0:0:0:
316,366,404625,6,0,B|353:345|353:345|414:357|414:357|454:334,1,150,10|0,0:0|0:0,0:0:0:0:
399,267,404938,2,0,B|421:230|421:230|366:217|337:165,1,150,2|0,0:0|0:0,0:0:0:0:
310,270,405250,2,2,B|271:292|271:292|276:239|246:191,1,150,10|0,0:1|0:0,0:1:0:0:
180,134,405563,5,2,0:0:0:0:
191,333,405719,1,0,0:0:0:0:
96,162,405875,1,2,0:0:0:0:
107,361,406031,5,2,0:0:0:0:
246,192,406188,1,0,0:0:0:0:
12,190,406344,1,2,0:0:0:0:
12,190,406422,1,0,0:0:0:0:
12,190,406500,6,0,B|-2:146|-2:146|40:108|54:39,1,150,10|0,0:0|0:0,0:0:0:0:
96,162,406813,2,0,B|117:120|117:120|173:123|232:84,1,150,2|0,0:0|0:0,0:0:0:0:
175,201,407125,2,0,B|219:187|219:187|257:229|326:243,1,150,2|0,0:0|0:0,0:0:0:0:
203,284,407438,5,2,0:0:0:0:
384,199,407594,1,0,0:0:0:0:
263,346,407750,1,2,0:1:0:0:
324,137,407906,6,0,P|368:96|418:83,1,100,10|0,0:0|0:0,0:0:0:0:
444,261,408219,1,2,0:0:0:0:
353,69,408375,1,10,0:0:0:0:
324,273,408531,1,0,0:0:0:0:
230,51,408688,5,2,0:1:0:0:
201,255,408844,1,2,0:0:0:0:
107,33,409000,2,0,P|51:55|16:89,1,100,2|0,0:1|0:0,0:0:0:0:
0,283,409313,5,2,0:0:0:0:
0,283,409391,1,0,0:0:0:0:
0,283,409469,1,2,0:0:0:0:
154,145,409625,1,0,0:0:0:0:
125,349,409781,1,2,0:0:0:0:
42,171,409938,1,0,0:0:0:0:
201,255,410094,1,2,0:0:0:0:
285,96,410250,6,0,L|399:75,1,100,10|0,0:0|1:0,0:0:0:0:
511,174,410563,2,2,B|483:134|483:134|473:85,1,100,2|0,0:1|1:1,0:1:0:0:
496,62,410797,1,0,0:0:0:0:
496,62,410875,2,2,B|482:68|462:67|462:67|463:107|442:132,1,100,2|0,0:1|0:1,0:1:0:0:
318,260,411188,5,0,1:0:0:0:
512,175,411344,1,8,0:0:0:0:
302,178,411500,2,0,P|252:209|235:257,1,100,2|0,0:0|1:0,0:0:0:0:
436,264,411813,1,12,1:0:0:0:
470,266,412125,5,8,0:0:0:0:
271,327,412281,1,8,0:0:0:0:
271,327,412359,1,8,0:0:0:0:
271,327,412438,1,8,0:0:0:0:
407,162,412594,1,8,0:0:0:0:
505,384,412750,1,8,0:0:0:0:
339,244,412906,1,8,0:0:0:0:
173,384,413063,5,6,0:0:0:0:
377,345,413219,1,0,0:0:0:0:
234,227,413375,1,2,0:0:0:0:
407,162,413531,5,2,0:0:0:0:
271,327,413688,1,0,0:0:0:0:
197,127,413844,1,2,0:0:0:0:
197,127,413922,1,0,0:0:0:0:
197,127,414000,6,0,B|167:102|167:102|228:103|264:156,1,150,10|0,0:0|0:0,0:0:0:0:
234,227,414313,1,2,0:0:0:0:
80,114,414469,1,2,1:2:0:0:
80,114,414547,1,0,0:0:0:0:
80,114,414625,2,0,B|33:88|33:88|55:136|42:182,1,150,2|0,0:0|0:0,0:0:0:0:
0,274,414938,5,2,0:0:0:0:
182,357,415094,1,0,0:0:0:0:
129,183,415250,1,2,0:0:0:0:
67,373,415406,5,10,0:0:0:0:
234,227,415563,1,0,0:0:0:0:
80,114,415719,1,2,0:0:0:0:
304,49,415875,6,0,B|355:35|355:35|405:55|405:55|426:95,1,150,10|0,0:0|0:0,0:0:0:0:
349,121,416188,2,2,B|340:154|320:170|320:170|367:196|412:173,1,150,2|0,0:1|0:1,0:1:0:0:
483,147,416500,1,2,0:1:0:0:
438,321,416656,1,2,0:1:0:0:
349,121,416813,5,2,0:0:0:0:
505,246,416969,1,0,0:0:0:0:
339,301,417125,1,2,0:0:0:0:
483,147,417281,5,2,0:0:0:0:
292,208,417438,1,0,0:0:0:0:
429,67,417594,1,2,0:0:0:0:
237,128,417750,2,0,B|205:164|205:164|196:217,1,100,10|0,0:0|0:0,0:0:0:0:
388,178,418063,5,0,0:0:0:0:
200,309,418219,2,0,B|152:300|152:300|117:265,1,100,2|0,1:2|0:0,0:0:0:0:
156,76,418531,5,0,0:0:0:0:
344,23,418688,2,0,B|392:32|392:32|430:69,1,100,2|0,1:2|0:0,0:0:0:0:
292,208,419000,5,0,0:0:0:0:
476,338,419156,2,0,L|458:237,1,100,10|0,0:0|1:0,0:0:0:0:
318,116,419469,5,0,0:0:0:0:
338,340,419625,1,10,0:0:0:0:
340,372,419938,5,0,1:0:0:0:
388,178,420094,1,8,0:0:0:0:
194,130,420250,1,10,0:1:0:0:
0,384,420563,5,2,0:0:0:0:
97,210,420719,1,0,0:0:0:0:
186,366,420875,1,2,0:0:0:0:
7,273,421031,5,2,0:0:0:0:
209,248,421188,1,0,0:0:0:0:
89,99,421344,1,2,0:0:0:0:
89,99,421422,1,0,0:0:0:0:
89,99,421500,6,0,B|140:16|140:16|190:0,1,150,10|0,0:0|0:0,0:0:0:0:
191,81,421813,2,0,B|284:53|284:53|337:78,1,150,2|0,0:0|0:0,0:0:0:0:
278,135,422125,2,0,B|365:177|365:177|388:230,1,150,2|0,0:0|0:0,0:0:0:0:
306,233,422438,5,2,0:0:0:0:
504,261,422594,1,0,0:0:0:0:
400,108,422750,1,2,0:1:0:0:
334,331,422906,5,10,0:0:0:0:
452,185,423063,1,0,0:0:0:0:
446,365,423219,1,2,0:0:0:0:
229,304,423375,5,10,0:0:0:0:
297,94,423531,1,0,0:0:0:0:
297,94,423609,1,0,0:0:0:0:
297,94,423688,2,2,B|245:97|200:73|200:73|147:86,1,150,2|0,0:1|0:1,0:1:0:0:
84,207,424000,2,2,B|110:221|126:248|126:248|145:209|127:156,1,150,2|0,0:1|0:1,0:1:0:0:
56,130,424313,5,2,0:0:0:0:
78,313,424469,1,0,0:0:0:0:
217,215,424625,1,2,0:0:0:0:
315,354,424781,5,2,0:0:0:0:
337,171,424938,1,0,0:0:0:0:
476,269,425094,1,2,0:0:0:0:
266,285,425250,6,0,P|191:297|134:233,1,150,10|0,0:0|0:0,0:0:0:0:
217,215,425563,2,2,B|182:160|222:109|222:109|251:72,1,150,2|0,0:1|0:1,0:1:0:0:
286,166,425875,2,2,B|326:140|366:156|366:156|339:176|327:208,1,150,2|0,0:1|0:1,0:1:0:0:
350,287,426188,5,0,1:0:0:0:
414,93,426344,1,8,0:0:0:0:
476,269,426500,2,0,B|465:336|465:336|439:355,1,100,2|0,0:0|1:0,0:0:0:0:
266,285,426813,1,12,1:0:0:0:
237,264,427125,5,8,0:0:0:0:
452,188,427281,1,8,0:0:0:0:
452,188,427359,1,8,0:0:0:0:
452,188,427438,1,8,0:0:0:0:
270,56,427594,1,8,0:0:0:0:
373,305,427750,1,8,0:0:0:0:
428,21,427906,1,8,0:0:0:0:
16,249,429938,5,0,0:0:0:0:
110,217,430250,1,0,0:0:0:0:
170,297,430563,1,0,0:0:0:0:
190,157,430875,1,2,0:0:0:0:
176,61,431813,5,0,0:0:0:0:
273,80,432125,1,0,0:0:0:0:
285,179,432438,1,0,0:0:0:0:
372,68,432750,1,2,0:0:0:0:
470,0,433688,5,2,0:0:0:0:
285,179,434938,5,2,0:0:0:0:
228,261,435250,1,0,0:0:0:0:
133,233,435563,1,0,0:0:0:0:
323,289,436500,1,0,0:0:0:0:
16,249,437438,5,0,0:0:0:0:
110,217,437750,1,0,0:0:0:0:
170,297,438063,1,0,0:0:0:0:
190,157,438375,1,2,0:0:0:0:
176,61,439313,5,0,0:0:0:0:
273,80,439625,1,0,0:0:0:0:
285,179,439938,1,0,0:0:0:0:
372,68,440250,1,2,0:0:0:0:
470,0,441188,5,2,0:0:0:0:
106,103,442646,5,2,0:0:0:0:
15,16,443063,2,0,P|115:15|239:97,1,250,2|0,0:0|0:0,0:0:0:0:
261,172,444938,5,0,0:0:0:0:
409,145,445875,1,0,0:0:0:0:
261,172,446813,1,0,0:0:0:0:
362,61,447750,1,2,0:0:0:0:
511,53,448688,6,0,P|490:152|487:304,1,250,2|0,0:0|0:0,0:0:0:0:
486,381,450563,2,0,P|387:360|235:357,1,250,2|0,0:0|0:0,0:0:0:0:
158,356,452438,5,0,0:0:0:0:
285,275,453375,1,0,0:0:0:0:
158,356,454313,1,0,0:0:0:0:
124,210,455250,1,2,0:0:0:0:
90,64,456189,6,0,L|305:25,1,220,2|2,0:0|0:0,0:0:0:0:
