osu file format v14

[General]
AudioFilename: Alive_Alone.mp3
AudioLeadIn: 1500
PreviewTime: 102189
Countdown: 1
SampleSet: Normal
StackLeniency: 0.7
Mode: 0
LetterboxInBreaks: 1
WidescreenStoryboard: 0

[Editor]
DistanceSpacing: 0.6
BeatDivisor: 8
GridSize: 8
TimelineZoom: 1

[Metadata]
Title:Alive ~ Alone
TitleUnicode:Alive ∽ Alone
Artist:Crest
ArtistUnicode:Crest
Creator:happy30
Version:Insane
Source:
Tags:yurika yurica Hanatan crest core seafh c79 comiket 79 pop japanese jpop j-pop rock jrock j-rock poprock pop-rock 花たん ユリカ jeetsingh track 8 #8 2010 クレスト
BeatmapID:140460
BeatmapSetID:44892

[Difficulty]
HPDrainRate:8
CircleSize:4
OverallDifficulty:8.5
ApproachRate:9
SliderMultiplier:2.1
SliderTickRate:2

[Events]
//Background and Video events
0,0,"bg.jpg",0,0
//Break Periods
//Storyboard Layer 0 (Background)
//Storyboard Layer 1 (Fail)
//Storyboard Layer 2 (Pass)
//Storyboard Layer 3 (Foreground)
//Storyboard Layer 4 (Overlay)
//Storyboard Sound Samples

[TimingPoints]
2201,612.244897959184,3,2,1,30,1,0
2201,-156.25,3,2,1,30,0,0
24241,622.277535780958,3,2,1,30,1,0
24241,-156.25,3,2,1,30,0,0
24877,661.229887590919,3,2,1,30,1,0
25527,689.496667432774,3,2,1,30,1,0
26195,756.620428751576,3,2,1,30,1,0
26919,774.793388429752,3,2,1,30,1,0
27708,807.537012113055,3,2,1,30,1,0
28511,689.655172413793,3,2,1,30,1,0
28511,-200,3,2,1,30,0,0
32648,-131.578947368421,3,2,1,30,0,0
38165,-50,3,1,1,70,0,0
38596,-50,3,2,1,70,0,0
38768,-50,3,1,1,70,0,0
38940,-50,3,2,1,70,0,0
39199,-50,3,1,1,70,0,0
40406,-50,3,2,1,70,0,0
40752,-50,3,1,1,55,0,0
40924,-50,3,1,1,55,0,1
41010,-50,3,2,1,55,0,1
41183,-50,3,1,1,55,0,1
41355,-50,3,2,1,55,0,1
41528,-50,3,1,1,55,0,1
41700,-50,3,2,1,55,0,1
41872,-50,3,1,1,55,0,1
43769,-50,3,2,1,55,0,1
43941,-50,3,1,1,55,0,1
45148,-50,3,2,1,55,0,1
45321,-50,3,1,1,55,0,1
47217,-50,3,2,1,55,0,1
47390,-50,3,1,1,55,0,1
48855,-50,3,2,1,55,0,0
49200,-50,3,1,1,55,0,1
49286,-50,3,2,1,55,0,1
49459,-50,3,1,1,55,0,1
49631,-50,3,2,1,55,0,1
49803,-50,3,1,1,55,0,1
49976,-50,3,2,1,55,0,1
50148,-50,3,1,1,55,0,1
51355,-50,3,2,1,55,0,1
51528,-50,3,1,1,55,0,1
51700,-50,3,2,1,55,0,1
51872,-50,3,1,1,55,0,1
53424,-50,3,2,1,55,0,1
53597,-50,3,1,1,55,0,1
53769,-50,3,2,1,55,0,1
53941,-50,3,1,1,55,0,1
55493,-50,3,2,1,55,0,1
55666,-50,3,1,1,55,0,1
55838,-50,3,2,1,55,0,1
56010,-50,3,1,1,55,0,1
57476,-66.6666666666665,3,2,1,55,0,0
63683,-50,3,1,1,55,0,1
64114,-50,3,2,1,55,0,1
64286,-50,3,1,1,55,0,1
65148,-50,3,2,1,55,0,1
65321,-50,3,1,1,55,0,1
65493,-50,3,2,1,55,0,1
65666,-50,3,1,1,55,0,1
66183,-50,3,2,1,55,0,1
66355,-50,3,1,1,55,0,1
67821,-66.6666666666665,3,2,1,55,0,0
74028,-50,3,1,1,55,0,1
74459,-50,3,2,1,55,0,1
74631,-50,3,1,1,55,0,1
76528,-50,3,2,1,55,0,1
76700,-50,3,1,1,55,0,1
77648,-50,3,1,1,55,0,0
77993,-50,3,1,1,55,0,1
78597,-50,3,2,1,55,0,1
78769,-50,3,1,1,55,0,1
94717,-66.6666666666665,3,1,1,55,0,0
100924,-66.6666666666665,3,1,1,70,0,0
102131,-66.6666666666665,3,2,1,55,0,0
102993,-41.6666666666667,3,1,1,70,0,1
119545,-200,3,2,1,40,0,1
121614,-66.6666666666665,3,2,1,50,0,0
127131,-50,3,1,1,50,0,1
129890,-66.6666666666665,3,2,1,50,0,0
136097,-50,3,1,1,55,0,1
140235,-66.6666666666665,3,2,1,55,0,0
146442,-50,3,1,1,55,0,1
150235,-50,3,1,1,55,0,0
150407,-50,3,1,1,55,0,1
167131,-100,3,1,1,55,0,0
173509,-50,3,1,1,55,0,0
174544,-100,3,2,1,55,0,0
175407,-41.6666666666667,3,1,1,55,0,1
191959,689.655172413793,4,1,1,55,1,1
192045,-41.6666666666667,4,1,1,35,0,0
197475,-50,4,1,1,55,0,0
202992,-50,4,1,1,75,0,0
212304,-133.333333333333,4,1,1,75,0,0
213166,-50,4,1,1,75,0,0
225062,689.655172413793,3,1,1,75,1,0
227819,-41.6666666666667,3,2,1,55,0,0
228854,-100,3,2,1,55,0,0
232992,-66.6666666666665,3,2,1,55,0,0
240923,-50,3,1,1,55,0,0
252992,-100,3,2,1,55,0,0
254027,-41.6666666666667,3,1,1,75,0,1
270493,-41.6666666666667,3,1,1,75,0,0
270579,-41.6666666666667,3,1,1,75,0,1
278768,-41.6666666666667,3,1,1,75,0,0
278855,-41.6666666666667,3,1,1,75,0,1
305751,-41.6666666666667,3,1,1,75,0,0

[Colours]
Combo1 : 164,157,77
Combo2 : 128,0,0
Combo3 : 128,128,128

[HitObjects]
200,336,1588,5,0,0:0:0:0:
200,336,2201,22,0,B|322:402|436:288|370:165,1,336,0|2,0:0|0:0,0:0:0:0:
281,174,4037,2,0,B|241:100|309:31|383:71,1,201.6,0|2,0:0|0:0,0:0:0:0:
360,224,5262,2,0,B|384:256|384:296,1,67.2,0|2,0:0|0:0,0:0:0:0:
304,336,5874,6,0,B|181:402|67:288|133:165,1,336,0|2,0:0|0:0,0:0:0:0:
224,184,7711,1,0,0:0:0:0:
32,336,8017,1,0,0:0:0:0:
112,280,8323,1,0,0:0:0:0:
48,216,8629,1,2,0:0:0:0:
128,160,8935,1,0,0:0:0:0:
56,104,9241,1,0,0:0:0:0:
136,48,9547,5,2,0:0:0:0:
256,112,10160,1,0,0:0:0:0:
272,248,10772,1,0,0:0:0:0:
168,336,11384,6,0,B|69:388|-20:298|32:200,1,268.8
128,160,12915,1,2,0:0:0:0:
216,216,13221,2,0,B|280:248|352:232,1,134.4
440,208,14139,1,0,0:0:0:0:
408,32,14445,1,2,0:0:0:0:
264,136,14752,1,0,0:0:0:0:
304,288,15058,5,0,0:0:0:0:
480,336,15364,1,0,0:0:0:0:
400,280,15670,1,0,0:0:0:0:
464,216,15976,1,2,0:0:0:0:
384,160,16282,1,0,0:0:0:0:
456,104,16588,1,0,0:0:0:0:
384,32,16894,2,0,B|264:-16|248:112|128:32,1,268.8,2|0,0:0|0:0,0:0:0:0:
40,80,18425,6,0,B|80:88|120:136,1,67.2,0|2,0:0|0:0,0:0:0:0:
200,96,19037,2,0,B|256:136|264:240,1,134.4
352,176,19956,2,0,B|392:184|432:232,1,67.2,0|2,0:0|0:0,0:0:0:0:
304,352,20568,2,0,B|205:404|115:314|168:216,1,268.8
120,16,22405,6,0,B|218:-36|308:53|255:151,1,268.8,0|2,0:0|0:0,0:0:0:0:
176,216,23935,1,0,0:0:0:0:
317,365,24241,6,0,P|319:322|327:290,1,67.2
455,129,24877,2,0,P|453:172|437:236,1,105
265,145,25527,2,0,P|267:102|283:38,1,105,0|2,0:0|0:0,0:0:0:0:
168,56,26195,5,0,0:0:0:0:
120,144,26573,1,0,0:0:0:0:
120,248,26919,1,0,0:0:0:0:
192,320,27306,1,0,0:0:0:0:
296,336,27708,1,0,0:0:0:0:
376,264,28111,1,2,0:0:0:0:
328,160,28511,6,0,B|186:73|170:246|32:160,1,315
72,32,31269,5,0,0:0:0:0:
216,88,31959,1,0,0:0:0:0:
104,192,32648,6,0,B|80:256|104:320,1,119.699998538818,0|2,0:0|0:0,0:0:0:0:
128,336,33338,1,0,0:0:0:0:
288,256,33683,1,2,0:0:0:0:
168,248,34028,1,0,0:0:0:0:
296,168,34373,1,2,0:0:0:0:
424,80,34717,6,0,B|448:144|424:209,1,119.699998538818,0|2,0:0|0:0,0:0:0:0:
400,224,35407,1,0,0:0:0:0:
200,136,35752,1,2,0:0:0:0:
344,48,36097,1,0,0:0:0:0:
176,288,36442,1,2,0:0:0:0:
336,368,36786,6,0,B|376:312|344:240,1,119.699998538818,0|2,0:0|0:0,0:0:0:0:
328,224,37476,1,0,0:0:0:0:
224,160,37821,1,2,0:0:0:0:
80,240,38166,6,0,B|40:288|64:368,1,105,4|0,0:0|2:0,0:0:0:0:
160,368,38511,2,0,B|288:336,1,105,6|2,0:0|0:0,0:0:0:0:
336,280,38855,1,0,0:0:0:0:
128,144,39028,1,0,1:0:0:0:
128,144,39373,5,0,0:0:0:0:
192,304,39545,2,0,B|320:272,1,105,6|0,0:0|0:0,0:0:0:0:
456,328,39890,2,2,B|496:200|392:120,1,210,6|6,0:0|0:0,0:0:0:0:
304,88,40579,1,2,0:0:0:0:
200,264,40924,6,0,B|256:296|272:360,1,105,6|2,0:0|0:0,0:0:0:0:
266,342,41269,1,0,0:0:0:0:
312,248,41442,2,0,B|328:192|368:152,1,105,0|14,0:0|0:0,0:0:0:0:
464,128,41786,1,2,0:0:0:0:
400,312,41959,6,0,B|312:416|208:312,1,210,6|6,0:0|0:0,0:0:0:0:
112,72,42648,2,0,B|200:-32|304:72,2,210,10|14|2,0:0|0:0|0:0,0:0:0:0:
184,152,43511,6,0,B|208:208|200:264,1,105,0|12,0:0|0:0,0:0:0:0:
24,368,43855,2,0,B|0:312|8:256,1,105,2|8,0:0|0:0,0:0:0:0:
272,80,44373,5,6,0:0:0:0:
104,312,44717,1,6,0:0:0:0:
200,280,44890,1,2,0:0:0:0:
296,328,45062,6,0,B|400:352,2,105,4|2|2,0:0|0:0|0:0,0:0:0:0:
240,240,45579,2,0,B|136:264,2,105,0|14|0,0:0|0:0|0:0,0:0:0:0:
376,128,46097,6,0,B|400:184|392:240,1,105,4|8,0:0|0:0,0:0:0:0:
160,152,46442,2,0,B|136:96|144:40,1,105,2|0,0:0|0:0,0:0:0:0:
142,49,46700,1,0,0:0:0:0:
142,49,46786,1,10,0:0:0:0:
296,152,46959,6,0,B|400:176,2,105,0|14|2,0:0|0:0|0:0,0:0:0:0:
224,72,47476,2,0,B|120:96,2,105,0|8|14,0:0|0:0|0:0,0:0:0:0:
480,24,48166,5,6,0:0:0:0:
0,128,48511,1,6,0:0:0:0:
0,128,49028,1,0,0:0:0:0:
40,224,49200,6,0,B|96:240|144:224,1,105,6|2,0:0|0:0,0:0:0:0:
200,136,49545,1,0,0:0:0:0:
272,64,49717,2,0,B|328:48|376:64,1,105,2|12,0:0|0:0,0:0:0:0:
240,320,50062,2,0,B|184:336|136:320,1,105,0|6,0:0|0:0,0:0:0:0:
64,144,50407,5,8,0:0:0:0:
144,72,50579,2,0,B|168:120|160:176,1,105,2|0,0:0|0:0,0:0:0:0:
160,174,50838,1,0,0:0:0:0:
160,174,50924,1,10,0:0:0:0:
272,344,51097,6,0,B|248:296|256:240,1,105,0|6,0:0|0:0,0:0:0:0:
304,152,51442,1,2,0:0:0:0:
392,208,51614,2,0,B|448:224|504:216,1,105,0|10,0:0|0:1,0:0:0:0:
392,48,51959,6,0,B|288:0|184:48,1,210,2|4,0:0|0:0,0:0:0:0:
120,336,52648,2,0,B|224:384|328:336,1,210,14|12,0:0|0:0,0:0:0:0:
416,288,53166,5,0,0:0:0:0:
416,288,53252,1,0,0:0:0:0:
416,288,53338,2,0,B|424:224|400:160,1,105,6|2,0:0|0:0,0:0:0:0:
312,144,53683,1,0,0:0:0:0:
240,216,53855,2,0,B|232:280|256:344,1,105,2|10,0:0|0:0,0:0:0:0:
496,184,54200,6,0,B|504:120|480:56,1,105,0|2,2:0|0:0,0:0:0:0:
120,352,54717,1,6,0:0:0:0:
152,256,54890,1,0,0:0:0:0:
152,256,54976,1,0,0:0:0:0:
152,256,55062,1,10,0:0:0:0:
112,160,55235,1,10,0:0:0:0:
6,117,55407,6,0,B|-2:181|22:245,1,105,6|2,0:0|0:0,0:0:0:0:
175,212,55752,1,0,0:0:0:0:
382,123,55924,2,0,B|390:59|366:-5,1,105,2|14,0:0|0:0,0:0:0:0:
234,44,56269,1,0,0:0:0:0:
491,197,56442,6,0,P|484:144|483:83,1,105,6|2,1:0|2:0,2:0:0:0:
280,238,56786,2,0,P|287:185|288:124,1,105,2|2,1:0|2:0,2:0:0:0:
392,368,57131,2,0,B|304:288|288:400|192:320,1,210,2|4,0:0|0:0,0:0:0:0:
152,360,57648,5,2,0:0:0:0:
112,328,57821,2,0,B|96:272|112:232,1,78.7499976530672,0|2,0:0|0:0,0:0:0:0:
256,160,58166,2,0,B|272:216|256:256,1,78.7499976530672,0|2,0:0|0:0,0:0:0:0:
32,216,58511,2,0,B|88:176|64:120|136:72,1,157.499995306134
176,256,59028,1,2,0:0:0:0:
216,216,59200,6,0,B|232:282|293:281|310:366,1,157.499995306134
400,280,59890,1,0,0:0:0:0:
48,64,60407,1,2,0:0:0:0:
80,104,60579,2,0,B|64:152|64:192,1,78.7499976530672,0|2,0:0|0:0,0:0:0:0:
80,232,60924,2,0,B|168:192|184:296|328:208,1,236.249992959202,0|2,0:0|0:0,0:0:0:0:
352,184,61614,5,0,0:0:0:0:
424,272,61959,1,0,0:0:0:0:
160,360,62476,1,2,0:0:0:0:
160,360,62648,1,0,0:0:0:0:
32,160,62993,1,0,0:0:0:0:
232,32,63338,1,2,0:0:0:0:
416,296,63683,6,0,B|440:248|432:184,1,105,6|2,0:0|0:0,0:0:0:0:
368,112,64028,1,0,0:0:0:0:
160,192,64200,2,0,B|136:240|144:304,1,105,2|14,0:0|0:0,0:0:0:0:
216,368,64545,1,0,0:0:0:0:
312,320,64717,1,6,0:0:0:0:
312,320,64804,1,0,0:0:0:0:
312,320,64890,1,0,0:0:0:0:
240,240,65062,1,6,0:0:0:0:
240,240,65235,1,2,0:0:0:0:
312,168,65407,1,6,0:0:0:0:
312,168,65579,1,2,0:0:0:0:
256,96,65752,6,0,B|208:72|144:80,1,105,6|6,0:0|0:0,0:0:0:0:
72,144,66097,1,0,0:0:0:0:
136,304,66269,2,0,B|184:328|248:320,1,105,2|10,0:0|0:0,0:0:0:0:
328,264,66614,1,0,2:0:0:0:
424,232,66786,2,0,B|448:280|440:344,1,105,2|0,0:0|2:0,0:0:0:0:
120,208,67131,2,0,B|96:160|104:96,1,105,10|2,0:0|2:0,0:0:0:0:
192,80,67476,2,0,B|280:0|296:112|392:32,1,210,2|4,0:0|0:0,0:0:0:0:
432,72,67993,5,2,0:0:0:0:
400,120,68166,2,0,B|384:176|400:216,1,78.7499976530672,0|2,0:0|0:0,0:0:0:0:
304,336,68511,2,0,B|320:280|304:240,1,78.7499976530672,0|2,0:0|0:0,0:0:0:0:
248,136,68855,2,0,B|192:176|216:232|144:280,1,157.499995306134
40,40,69373,1,2,0:0:0:0:
0,80,69545,2,0,B|66:96|65:157|150:174,1,157.499995306134
328,48,70235,5,0,0:0:0:0:
96,336,70752,1,2,0:0:0:0:
48,312,70924,2,0,B|32:264|32:224,1,78.7499976530672,0|2,0:0|0:0,0:0:0:0:
64,184,71269,2,0,B|136:160|144:208|224:176,1,157.499995306134,0|2,0:0|0:0,0:0:0:0:
312,120,71959,5,0,0:0:0:0:
416,160,72304,1,0,0:0:0:0:
160,360,72821,1,2,0:0:0:0:
160,360,72993,1,0,0:0:0:0:
32,160,73338,1,0,0:0:0:0:
232,32,73683,1,2,0:0:0:0:
384,176,74028,6,0,B|408:224|400:288,1,105,6|2,0:0|0:0,0:0:0:0:
320,344,74373,1,0,0:0:0:0:
128,232,74545,2,0,B|104:184|112:120,1,105,2|14,0:0|0:0,0:0:0:0:
200,72,74890,1,0,0:0:0:0:
32,232,75062,5,6,0:0:0:0:
32,232,75148,1,0,0:0:0:0:
32,232,75235,1,8,0:0:0:0:
256,208,75407,1,6,0:0:0:0:
256,208,75579,1,0,0:0:0:0:
96,360,75752,1,14,0:0:0:0:
96,360,75924,1,0,0:0:0:0:
288,320,76097,6,0,B|336:344|400:336,1,105,14|6,0:0|0:0,0:0:0:0:
456,256,76442,1,0,0:0:0:0:
320,96,76614,2,0,B|272:72|208:80,1,105,2|2,0:0|0:0,0:0:0:0:
160,168,76959,1,0,0:0:0:0:
32,304,77131,6,0,B|8:256|16:192,1,105,2|0,0:0|2:0,0:0:0:0:
256,168,77476,2,0,B|280:216|272:280,1,105,2|0,0:0|2:0,0:0:0:0:
273,270,77993,1,2,0:0:0:0:
368,320,78166,6,0,B|392:272|384:208,1,105,6|0,0:0|0:0,0:0:0:0:
344,120,78511,1,2,0:0:0:0:
144,64,78683,2,0,B|120:112|128:176,1,105,2|8,0:0|0:0,0:0:0:0:
216,352,79200,5,2,0:0:0:0:
400,256,79545,1,0,0:0:0:0:
424,152,79717,1,2,0:0:0:0:
368,64,79890,1,8,0:0:0:0:
368,64,79976,1,0,0:0:0:0:
368,64,80062,1,2,0:0:0:0:
272,104,80235,6,0,B|216:128|160:128,1,105,6|8,0:0|0:0,0:0:0:0:
72,88,80579,1,2,0:0:0:0:
256,208,80752,6,0,B|312:232|368:232,1,105,2|8,0:0|0:0,0:0:0:0:
456,192,81097,1,2,0:0:0:0:
280,328,81269,6,0,B|224:352|168:352,1,105,6|8,0:0|0:0,0:0:0:0:
80,312,81614,1,2,0:0:0:0:
296,128,81786,6,0,B|341:127|397:151,1,105,2|8,0:0|0:0,0:0:0:0:
448,248,82131,1,10,0:0:0:0:
344,232,82304,6,0,B|298:231|242:255,1,105,4|0,0:0|0:0,0:0:0:0:
16,312,82648,2,0,B|88:400|248:344,1,210,10|10,0:0|0:0,0:0:0:0:
88,240,83166,6,0,B|88:194|64:138,1,105,0|6,0:0|0:0,0:0:0:0:
320,352,83683,1,2,0:0:0:0:
408,64,84028,2,0,B|407:109|431:165,1,105,8|0,0:0|0:0,0:0:0:0:
352,272,84373,6,0,B|352:226|328:170,1,105,6|0,0:0|0:0,0:0:0:0:
496,312,84717,2,0,B|424:400|264:344,1,210,10|8,0:0|0:0,0:0:0:0:
160,200,85407,5,6,0:0:0:0:
304,48,85752,1,10,0:0:0:0:
304,48,86269,1,0,0:0:0:0:
400,96,86442,6,0,B|384:168|392:224,1,105,6|0,0:0|0:0,0:0:0:0:
256,272,86786,2,0,B|296:176|256:48,1,210,10|8,0:0|0:0,0:0:0:0:
16,184,87304,2,0,B|88:200|144:192,1,105,0|2,0:0|0:0,0:0:0:0:
504,336,87821,6,0,B|432:352|376:344,1,105,10|0,0:0|0:0,0:0:0:0:
192,256,88166,2,0,B|264:272|320:264,1,105
400,240,88511,5,10,0:0:0:0:
208,352,88683,2,0,B|136:368|80:360,1,105
56,120,89028,5,10,0:0:0:0:
248,232,89200,2,0,B|320:248|376:240,1,105
456,24,89545,5,10,0:0:0:0:
264,136,89717,2,0,B|192:152|136:144,1,105
160,0,90062,5,10,0:0:0:0:
336,48,90235,2,0,P|344:104|336:168,1,105
312,360,90579,5,10,0:0:0:0:
384,296,90752,2,0,B|416:248|408:184,1,105,0|10,0:0|0:0,0:0:0:0:
312,240,91097,1,0,0:0:0:0:
208,240,91269,2,0,B|176:192|184:128,1,105,0|2,0:0|0:0,0:0:0:0:
464,32,91614,6,0,B|496:80|488:144,1,105,0|2,0:0|0:0,0:0:0:0:
456,232,91959,1,8,0:0:0:0:
360,272,92131,2,0,B|328:320|336:384,1,105,0|2,0:0|0:0,0:0:0:0:
440,376,92476,1,0,0:0:0:0:
328,144,92648,5,10,0:0:0:0:
232,96,92821,1,0,0:0:0:0:
128,112,92993,1,10,0:0:0:0:
56,192,93166,1,0,0:0:0:0:
56,192,93252,1,0,0:0:0:0:
56,192,93338,1,0,0:0:0:0:
80,296,93511,1,0,0:0:0:0:
240,376,93683,6,0,B|288:336|296:280,1,105,10|0,0:0|0:0,0:0:0:0:
200,112,94028,2,0,B|152:152|144:208,1,105,10|0,0:0|0:0,0:0:0:0:
80,280,94373,1,2,0:0:0:0:
32,184,94545,1,0,0:0:0:0:
144,16,94717,6,4,B|240:8|288:88,1,157.499995306134,4|8,0:0|0:0,0:0:0:0:
336,168,95235,1,0,0:0:0:0:
256,232,95407,2,4,B|176:272|144:368,2,157.499995306134,4|12|4,0:0|0:0|0:0,0:0:0:0:
432,344,96442,5,0,0:0:0:0:
480,256,96614,1,0,0:0:0:0:
416,88,96786,2,4,B|320:80|272:160,1,157.499995306134,12|0,0:0|0:0,0:0:0:0:
344,232,97304,1,0,0:0:0:0:
192,360,97476,2,4,B|200:264|120:216,1,157.499995306134,12|12,0:0|0:0,0:0:0:0:
16,168,98166,1,0,0:0:0:0:
256,256,98511,1,8,0:0:0:0:
256,192,98855,12,6,100924,0:0:0:0:
504,120,101269,5,6,0:0:0:0:
440,280,101442,1,6,0:0:0:0:
352,168,101614,1,6,0:0:0:0:
304,352,101786,1,6,0:0:0:0:
192,248,101959,1,6,0:0:0:0:
104,208,102304,6,0,B|64:144|88:72|48:32,1,157.499995306134
472,208,102993,6,0,B|400:280|313:226|240:296,1,252.000006008148,6|2,0:0|0:0,0:0:0:0:
136,360,103511,1,0,0:0:0:0:
312,168,103683,2,0,B|384:160|432:128,1,126.000003004074,8|0,0:0|0:0,0:0:0:0:
480,344,104028,5,2,0:0:0:0:
480,344,104114,1,0,0:0:0:0:
480,344,104200,2,0,B|424:304|336:304,1,126.000003004074,0|2,0:0|0:0,0:0:0:0:
280,208,104545,1,0,0:0:0:0:
152,232,104717,2,0,B|89:232|33:192,1,126.000003004074,10|0,0:0|0:0,0:0:0:0:
176,32,105062,6,0,B|248:104|335:50|408:120,1,252.000006008148,6|2,0:0|0:0,0:0:0:0:
456,240,105579,1,0,0:0:0:0:
280,352,105752,2,0,B|232:296|240:224,1,126.000003004074,8|0,0:0|0:0,0:0:0:0:
128,40,106097,6,0,B|136:104|112:168,1,126.000003004074,2|0,0:0|0:0,0:0:0:0:
0,360,106442,2,0,B|-8:296|16:232,1,126.000003004074,10|0,0:0|0:0,0:0:0:0:
264,80,106786,1,10,0:0:0:0:
456,240,106959,1,0,0:0:0:0:
496,112,107131,6,0,B|424:184|337:130|264:200,1,252.000006008148,6|2,0:0|0:0,0:0:0:0:
344,256,107648,1,0,0:0:0:0:
192,32,107821,2,0,B|80:24|24:136|104:248,1,252.000006008148,8|10,0:0|0:0,0:0:0:0:
264,384,108511,5,2,0:0:0:0:
488,192,108855,1,10,0:0:0:0:
280,48,109200,6,0,B|208:120|262:207|192:280,1,252.000006008148,6|10,0:0|0:0,0:0:0:0:
96,200,109717,1,2,0:0:0:0:
352,112,109890,2,0,B|424:96|480:152,1,126.000003004074,14|0,0:0|0:0,0:0:0:0:
144,360,110235,6,0,B|72:376|16:320,1,126.000003004074,6|0,0:0|0:0,0:0:0:0:
64,96,110579,1,8,0:0:0:0:
168,256,110752,1,6,0:0:0:0:
312,336,110924,2,0,B|384:352|440:296,1,126.000003004074,14|0,0:0|0:0,0:0:0:0:
472,176,111269,6,0,B|400:104|313:158|240:88,1,252.000006008148,6|10,0:0|0:0,0:0:0:0:
136,24,111786,1,0,0:0:0:0:
312,216,111959,2,0,B|384:224|432:256,1,126.000003004074
480,40,112304,5,6,0:0:0:0:
480,40,112390,1,0,0:0:0:0:
480,40,112476,2,0,B|424:80|336:80,1,126.000003004074,0|2,0:0|0:0,0:0:0:0:
280,176,112821,1,0,0:0:0:0:
152,152,112993,2,0,B|89:151|33:191,1,126.000003004074,14|0,0:0|0:0,0:0:0:0:
176,352,113338,6,0,B|248:280|335:334|408:264,1,252.000006008148,6|2,0:0|0:0,0:0:0:0:
456,144,113855,1,0,0:0:0:0:
280,32,114028,2,0,B|232:88|240:160,1,126.000003004074,12|0,0:0|0:0,0:0:0:0:
128,344,114373,6,0,B|136:280|112:216,1,126.000003004074,2|0,0:0|0:0,0:0:0:0:
0,24,114717,2,0,B|-8:88|16:152,1,126.000003004074,10|0,0:0|0:0,0:0:0:0:
264,304,115062,1,10,0:0:0:0:
432,184,115235,1,2,0:0:0:0:
272,32,115407,6,0,B|200:104|254:191|184:264,1,252.000006008148,6|2,0:0|0:0,0:0:0:0:
120,328,115924,1,0,0:0:0:0:
336,120,116097,2,0,B|448:112|504:224|424:336,1,252.000006008148,8|14,0:0|0:0,0:0:0:0:
32,256,116786,5,14,0:0:0:0:
400,24,117131,1,14,0:0:0:0:
312,360,117476,6,0,B|240:288|294:201|224:128,1,252.000006008148,6|10,0:0|0:0,0:0:0:0:
112,200,117993,1,0,0:0:0:0:
352,272,118166,2,0,B|424:288|480:232,1,126.000003004074,8|0,0:0|0:0,0:0:0:0:
296,48,118511,6,0,B|128:-32|56:144,1,252.000006008148,6|10,0:0|0:0,0:0:0:0:
112,200,119028,1,0,0:0:0:0:
200,256,119200,1,10,0:0:0:0:
216,152,119373,1,2,0:0:0:0:
112,200,119545,6,0,B|64:240|48:296,1,105,0|2,0:0|0:0,0:0:0:0:
120,360,120924,1,2,0:0:0:0:
216,304,121614,6,0,B|208:224|248:120,2,157.499995306134,6|2|2,0:0|0:0|0:0,0:0:0:0:
280,352,122476,1,0,0:0:0:0:
408,240,122648,2,0,B|424:160|376:56,2,157.499995306134,2|2|2,0:0|0:0|0:0,0:0:0:0:
344,288,123511,1,0,0:0:0:0:
104,184,123683,6,0,B|88:96|136:0,2,157.499995306134,2|2|2,0:0|0:0|0:0,0:0:0:0:
168,232,124545,1,0,0:0:0:0:
360,168,124717,1,2,0:0:0:0:
184,136,125062,1,2,0:0:0:0:
344,288,125407,1,2,0:0:0:0:
504,168,125752,6,0,B|512:80|472:-16,2,157.499995306134,2|2|2,0:0|0:0|0:0,0:0:0:0:
456,248,126614,1,0,0:0:0:0:
504,328,126786,1,2,0:0:0:0:
336,160,127131,6,0,B|368:200|360:272,1,105,4|0,0:0|2:0,0:0:0:0:
352,368,127476,2,0,B|224:336,1,105,6|2,0:0|0:0,0:0:0:0:
168,280,127821,1,0,0:0:0:0:
384,144,127993,1,0,0:0:0:0:
384,144,128338,5,0,0:0:0:0:
320,304,128511,2,0,B|192:272,1,105,6|0,0:0|0:0,0:0:0:0:
56,328,128855,2,2,B|16:200|120:120,1,210,6|6,0:0|0:0,0:0:0:0:
208,88,129545,1,6,0:0:0:0:
280,176,129890,6,0,B|312:256|304:344,1,157.499995306134
360,312,130407,2,0,B|392:280|416:216,1,78.7499976530672,2|0,0:0|0:0,0:0:0:0:
384,192,130752,1,2,0:0:0:0:
208,88,130924,2,0,B|176:168|184:256,1,157.499995306134
120,360,131442,2,0,B|88:328|64:264,1,78.7499976530672,2|0,0:0|0:0,0:0:0:0:
24,288,131786,1,2,0:0:0:0:
104,128,131959,5,0,0:0:0:0:
104,128,132304,1,0,0:0:0:0:
144,160,132476,1,2,0:0:0:0:
200,152,132648,1,0,0:0:0:0:
256,168,132821,1,2,0:0:0:0:
304,144,132993,2,0,B|344:128|392:128,1,78.7499976530672,0|2,0:0|0:0,0:0:0:0:
504,240,133338,2,0,B|432:288|336:264,1,157.499995306134
312,304,133855,1,2,0:0:0:0:
200,248,134028,6,0,B|112:224|32:272,1,157.499995306134
288,32,134890,1,2,0:0:0:0:
328,64,135062,2,0,B|280:128|288:232,1,157.499995306134
360,296,135752,1,2,0:0:0:0:
456,240,136097,6,0,B|488:192|480:128,1,105,6|0,0:0|0:0,0:0:0:0:
400,24,136442,1,0,0:0:0:0:
248,168,136614,2,0,B|200:200|136:192,1,105,0|10,0:0|0:0,0:0:0:0:
112,288,136959,1,0,0:0:0:0:
56,128,137131,6,0,B|104:96|168:104,1,105,2|8,0:0|0:0,0:0:0:0:
328,224,137476,2,0,B|360:272|352:336,1,105,2|8,0:0|0:0,0:0:0:0:
248,384,137821,2,0,B|216:336|224:272,1,105,2|0,0:0|0:0,0:0:0:0:
320,88,138166,6,2,B|437:25|545:132|481:249,1,315,8|8,0:0|0:0,0:0:0:0:
424,336,138855,1,2,0:0:0:0:
256,208,139200,5,2,0:0:0:0:
440,112,139545,1,2,0:0:0:0:
320,360,139890,2,0,B|261:394|169:373|140:304,1,210,2|0,0:0|0:0,0:0:0:0:
104,264,140407,5,2,0:0:0:0:
48,248,140579,2,0,B|40:200|8:176,1,78.7499976530672,0|2,0:0|0:0,0:0:0:0:
200,128,140924,2,0,B|192:176|160:200,1,78.7499976530672,0|2,0:0|0:0,0:0:0:0:
240,368,141269,2,0,B|232:320|200:296,1,78.7499976530672,0|2,0:0|0:0,0:0:0:0:
248,264,141614,2,0,B|320:248|320:336|416:288,1,157.499995306134
424,344,142131,1,2,0:0:0:0:
480,184,142304,6,0,B|528:96|464:24,1,157.499995306134
416,104,142821,1,2,0:0:0:0:
376,72,142993,1,0,0:0:0:0:
320,64,143166,1,2,0:0:0:0:
272,88,143338,2,0,B|216:160|128:112,1,157.499995306134
192,16,144028,1,0,0:0:0:0:
288,168,144373,6,0,B|272:216|272:264,1,78.7499976530672,0|2,0:0|0:0,0:0:0:0:
376,128,144717,2,0,B|400:208|376:296,1,157.499995306134
344,328,145235,1,2,0:0:0:0:
160,208,145407,2,0,B|136:128|160:40,1,157.499995306134
72,232,146097,1,2,0:0:0:0:
352,8,146442,6,0,B|376:56|368:120,1,105,6|2,0:0|0:0,0:0:0:0:
304,192,146786,1,0,0:0:0:0:
160,112,146959,2,0,B|136:160|144:224,1,105,2|14,0:0|0:0,0:0:0:0:
216,288,147304,1,0,0:0:0:0:
416,200,147476,5,14,0:0:0:0:
416,200,147562,1,0,0:0:0:0:
416,200,147648,1,0,0:0:0:0:
248,64,147821,1,14,0:0:0:0:
248,64,147993,1,0,0:0:0:0:
112,328,148166,1,14,0:0:0:0:
112,328,148338,1,0,0:0:0:0:
312,336,148511,6,0,B|360:312|424:320,1,105,14|6,0:0|0:0,0:0:0:0:
496,256,148855,1,0,0:0:0:0:
328,120,149028,2,0,B|280:96|216:104,1,105,2|10,0:0|0:0,0:0:0:0:
144,168,149373,1,0,0:0:0:0:
32,304,149545,6,0,B|8:256|16:192,1,105,2|0,0:0|2:0,0:0:0:0:
256,168,149890,2,0,B|280:216|272:280,1,105,2|0,0:0|2:0,0:0:0:0:
273,270,150407,5,2,0:0:0:0:
368,320,150579,2,0,B|392:272|384:208,1,105,6|0,0:0|0:0,0:0:0:0:
344,120,150924,1,2,0:0:0:0:
160,32,151097,2,0,B|64:104|72:240,1,210,10|0,0:0|0:0,0:0:0:0:
128,304,151614,5,2,0:0:0:0:
392,200,151959,1,8,0:0:0:0:
320,272,152131,1,2,0:0:0:0:
392,344,152304,1,8,0:0:0:0:
472,272,152476,1,8,0:0:0:0:
416,120,152648,6,0,B|312:56|216:112,1,210,6|0,0:0|0:0,0:0:0:0:
160,200,153166,2,0,B|144:317,2,105,6|8|0,0:0|0:0|0:0,0:0:0:0:
88,56,153683,6,0,B|192:-8|288:48,1,210,6|0,0:0|0:0,0:0:0:0:
352,280,154200,2,0,B|367:397,2,105,6|8|8,0:0|0:0|0:0,0:0:0:0:
168,176,154717,6,0,B|214:175|270:199,1,105,6|0,0:0|0:0,0:0:0:0:
496,312,155062,2,0,B|424:400|264:344,1,210,10|10,0:0|0:0,0:0:0:0:
424,240,155579,6,0,B|424:194|448:138,1,105,0|6,0:0|0:0,0:0:0:0:
192,352,156097,1,2,0:0:0:0:
104,64,156442,2,0,B|105:109|81:165,1,105,8|0,0:0|0:0,0:0:0:0:
200,264,156786,6,0,B|200:218|176:162,1,105,6|0,0:0|0:0,0:0:0:0:
16,312,157131,2,0,B|88:400|248:344,1,210,2|8,0:0|0:0,0:0:0:0:
352,200,157821,5,6,0:0:0:0:
208,48,158166,1,10,0:0:0:0:
261,138,158338,1,0,0:0:0:0:
310,44,158511,1,8,0:0:0:0:
208,48,158683,1,8,0:0:0:0:
112,96,158855,6,0,B|128:168|120:224,1,105,6|0,0:0|0:0,0:0:0:0:
261,138,159200,1,0,0:0:0:0:
342,310,159373,2,0,B|326:238|334:182,1,105,4|0,0:2|2:0,0:0:0:0:
402,99,159717,1,0,0:0:0:0:
511,226,159890,6,0,B|439:242|383:234,1,105,0|10,0:0|0:0,0:0:0:0:
105,339,160235,1,0,0:0:0:0:
105,339,160407,2,0,B|177:323|233:331,1,105,2|8,0:0|0:0,0:0:0:0:
112,240,160752,5,2,0:0:0:0:
170,149,160924,1,8,0:0:0:0:
304,352,161097,2,0,B|376:368|432:360,1,105
456,120,161442,5,10,0:0:0:0:
264,232,161614,2,0,B|192:248|136:240,1,105
56,24,161959,5,10,0:0:0:0:
248,136,162131,2,0,B|320:152|376:144,1,105
312,56,162476,1,10,0:0:0:0:
192,200,162648,1,0,0:0:0:0:
360,272,162821,1,0,0:0:0:0:
208,360,162993,5,6,0:0:0:0:
128,296,163166,2,0,B|96:248|104:184,1,105,0|2,0:0|0:0,0:0:0:0:
232,280,163511,1,0,0:0:0:0:
304,240,163683,2,0,B|336:192|328:128,1,105,8|2,0:0|0:0,0:0:0:0:
48,32,164028,6,0,B|16:80|24:144,1,105,0|2,0:0|0:0,0:0:0:0:
56,232,164373,1,0,0:0:0:0:
152,272,164545,2,0,B|184:320|176:384,1,105,0|10,0:0|0:0,0:0:0:0:
72,376,164890,1,0,0:0:0:0:
184,144,165062,5,2,0:0:0:0:
280,96,165235,1,0,0:0:0:0:
384,112,165407,1,2,0:0:0:0:
456,192,165579,1,0,0:0:0:0:
456,192,165666,1,0,0:0:0:0:
456,192,165752,1,8,0:0:0:0:
440,296,165924,1,0,0:0:0:0:
304,232,166097,6,0,B|256:192|184:200,1,105,2|0,0:0|0:0,0:0:0:0:
24,320,166442,2,0,B|72:360|144:352,1,105,2|0,0:0|0:0,0:0:0:0:
232,312,166786,1,10,0:0:0:0:
344,144,166959,1,0,0:0:0:0:
176,24,167131,6,4,B|80:8|32:96,1,157.5,4|0,0:0|0:0,0:0:0:0:
96,144,167821,1,8,0:0:0:0:
368,48,168166,1,0,0:0:0:0:
256,120,168511,1,8,0:0:0:0:
224,200,168683,1,0,0:0:0:0:
224,200,168769,1,0,0:0:0:0:
224,200,168855,1,0,0:0:0:0:
272,264,169028,1,0,0:0:0:0:
232,336,169200,6,0,B|152:368|72:328,1,157.5,4|0,0:0|0:0,0:0:0:0:
24,264,169890,1,8,0:0:0:0:
176,192,170235,1,0,0:0:0:0:
336,248,170579,1,8,0:0:0:0:
488,168,170924,1,0,0:0:0:0:
456,88,171097,1,8,0:0:0:0:
384,48,171269,1,4,0:0:0:0:
256,192,171355,12,6,173338,0:0:0:0:
160,304,173683,5,6,0:0:0:0:
312,160,173855,1,6,0:0:0:0:
320,368,174028,1,6,0:0:0:0:
176,208,174200,1,6,0:0:0:0:
320,56,174373,1,6,0:0:0:0:
224,120,174717,6,0,B|200:168|224:240,1,105
40,208,175407,6,0,B|112:280|199:226|272:296,1,252.000006008148,6|2,0:0|0:0,0:0:0:0:
376,360,175924,1,0,0:0:0:0:
200,168,176097,2,0,B|128:160|80:128,1,126.000003004074,8|0,0:0|0:0,0:0:0:0:
32,344,176442,5,2,0:0:0:0:
32,344,176528,1,0,0:0:0:0:
32,344,176614,2,0,B|88:304|176:304,1,126.000003004074,0|2,0:0|0:0,0:0:0:0:
232,208,176959,1,0,0:0:0:0:
360,232,177131,2,0,B|423:232|479:192,1,126.000003004074,10|0,0:0|0:0,0:0:0:0:
384,112,177476,5,6,0:0:0:0:
248,248,177648,1,0,0:0:0:0:
240,280,177735,1,0,0:0:0:0:
248,312,177821,1,2,0:0:0:0:
424,360,177993,1,0,0:0:0:0:
440,184,178166,2,0,B|384:136|312:144,1,126.000003004074,14|0,0:0|0:0,0:0:0:0:
72,248,178511,6,0,B|128:296|200:288,1,126.000003004074,14|0,0:0|0:0,0:0:0:0:
496,240,178855,2,0,B|504:176|480:112,1,126.000003004074,14|0,0:0|0:0,0:0:0:0:
320,328,179200,1,10,0:0:0:0:
128,184,179373,1,0,0:0:0:0:
272,0,179545,6,0,B|344:72|290:159|360:232,1,252.000006008148,6|2,0:0|0:0,0:0:0:0:
184,352,180062,1,0,0:0:0:0:
184,352,180148,1,0,0:0:0:0:
184,352,180235,2,0,B|102:288|135:167|220:154,1,252.000006008148,8|2,0:0|0:0,0:0:0:0:
440,40,180752,6,0,B|472:96|456:168,1,126.000003004074
376,256,181097,1,0,0:0:0:0:
128,216,181269,2,0,B|96:160|112:88,1,126.000003004074,8|0,0:0|0:0,0:0:0:0:
296,32,181614,6,0,B|224:104|278:191|208:264,1,252.000006008148,6|10,0:0|0:0,0:0:0:0:
304,312,182131,1,2,0:0:0:0:
120,144,182304,2,0,B|48:128|-8:184,1,126.000003004074,14|0,0:0|0:0,0:0:0:0:
368,360,182648,6,0,B|440:376|496:320,1,126.000003004074,6|0,0:0|0:0,0:0:0:0:
448,96,182993,1,8,0:0:0:0:
344,256,183166,1,6,0:0:0:0:
200,336,183338,2,0,B|128:352|72:296,1,126.000003004074,14|0,0:0|0:0,0:0:0:0:
40,176,183683,6,0,B|112:104|199:158|272:88,1,252.000006008148,6|2,0:0|0:0,0:0:0:0:
376,24,184200,1,0,0:0:0:0:
200,216,184373,2,0,B|128:224|80:256,1,126.000003004074,8|0,0:0|0:0,0:0:0:0:
32,40,184717,5,6,0:0:0:0:
32,40,184804,1,0,0:0:0:0:
32,40,184890,2,0,B|88:80|176:80,1,126.000003004074,0|2,0:0|0:0,0:0:0:0:
232,176,185235,1,0,0:0:0:0:
360,152,185407,2,0,B|423:151|479:191,1,126.000003004074,14|0,0:0|0:0,0:0:0:0:
336,352,185752,6,0,B|264:280|177:334|104:264,1,252.000006008148,6|2,0:0|0:0,0:0:0:0:
56,144,186269,1,0,0:0:0:0:
232,32,186442,2,0,B|280:88|272:160,1,126.000003004074,12|0,0:0|0:0,0:0:0:0:
384,344,186786,6,0,B|376:280|400:216,1,126.000003004074,2|0,0:0|0:0,0:0:0:0:
512,24,187131,2,0,B|520:88|496:152,1,126.000003004074,10|0,0:0|0:0,0:0:0:0:
248,304,187476,1,10,0:0:0:0:
80,184,187648,1,2,0:0:0:0:
240,32,187821,6,0,B|312:104|258:191|328:264,1,252.000006008148,6|2,0:0|0:0,0:0:0:0:
392,328,188338,1,0,0:0:0:0:
192,120,188511,2,0,B|120:96|48:144,1,126.000003004074,14|0,0:0|0:0,0:0:0:0:
224,360,188855,6,0,B|296:384|368:336,1,126.000003004074,6|0,0:0|0:0,0:0:0:0:
312,176,189200,2,0,B|288:104|336:32,1,126.000003004074,14|0,0:0|0:0,0:0:0:0:
480,224,189545,2,0,B|504:296|456:368,1,126.000003004074,14|8,0:0|0:0,0:0:0:0:
248,280,189890,6,0,B|176:208|230:121|160:48,1,252.000006008148,6|10,0:0|0:0,0:0:0:0:
104,128,190407,1,0,0:0:0:0:
128,328,190579,2,0,B|56:344|0:288,1,126.000003004074,8|0,0:0|0:0,0:0:0:0:
272,80,190924,6,0,B|440:0|512:176,1,252.000006008148,6|10,0:0|0:0,0:0:0:0:
416,232,191442,1,0,0:0:0:0:
304,296,191614,1,10,0:0:0:0:
296,168,191786,1,2,0:0:0:0:
416,232,191959,1,4,0:0:0:0:
256,192,192045,12,4,194717,1:0:0:0:
320,344,195752,5,4,0:0:0:0:
32,184,196269,5,0,0:0:0:0:
104,80,196442,1,8,0:0:0:0:
248,96,196614,1,0,0:0:0:0:
248,96,196700,1,0,0:0:0:0:
248,96,196786,1,0,0:0:0:0:
304,232,196959,1,0,0:0:0:0:
160,336,197131,2,0,B|96:360|16:328,1,126.000003004074,8|0,1:0|0:0,0:0:0:0:
160,200,197476,6,0,B|280:144|360:248,1,210,4|2,1:0|2:0,2:0:0:0:
384,336,197993,1,0,1:0:0:0:
480,288,198166,2,0,B|512:80,1,210,12|0,1:0|1:0,2:0:0:0:
432,16,198683,6,0,B|408:128,1,105,8|0,1:0|2:0,2:0:0:0:
304,112,199028,2,0,B|248:128|192:96,1,105,12|2,1:0|2:0,2:0:0:0:
104,56,199373,1,0,2:0:0:0:
48,144,199545,1,12,1:0:0:0:
384,336,199890,1,8,1:0:0:0:
40,352,200235,6,0,B|8:144,1,210,4|2,1:0|2:0,2:0:0:0:
96,208,200752,2,0,B|160:320|280:256,1,210,8|0,1:0|2:0,2:0:0:0:
208,176,201269,1,0,1:0:0:0:
296,120,201442,6,0,B|392:176|400:296,1,210,8|8,1:0|1:0,2:0:0:0:
328,368,201959,1,2,1:2:0:0:
232,336,202131,1,0,1:0:0:0:
176,248,202304,1,8,1:0:0:0:
200,144,202476,1,0,1:0:0:0:
200,144,202562,1,0,1:0:0:0:
200,144,202648,1,8,1:0:0:0:
280,72,202821,1,8,1:0:0:0:
376,104,202993,6,0,B|440:208|432:344,1,210,4|8,0:0|0:0,0:0:0:0:
328,280,203511,1,0,0:0:0:0:
480,112,203683,2,0,B|376:216|256:152,1,210,4|0,0:0|0:0,0:0:0:0:
40,304,204200,6,0,B|144:200|272:264,1,210,8|8,1:0|0:0,0:0:0:0:
176,344,204717,1,0,0:0:0:0:
80,80,204890,1,0,0:0:0:0:
192,200,205062,1,8,0:0:0:0:
16,208,205235,1,0,0:0:0:0:
176,40,205407,1,8,0:0:0:0:
296,176,205579,2,0,B|344:224|336:304,1,105,0|4,0:0|1:0,0:0:0:0:
240,360,205924,5,0,0:0:0:0:
136,288,206097,2,0,B|160:168,1,105
416,112,206442,2,0,B|312:8|200:80,1,210,8|0,0:0|0:0,0:0:0:0:
216,280,206959,2,0,B|320:384|432:312,1,210,8|8,0:0|0:0,0:0:0:0:
56,176,207476,6,0,B|16:224|16:296,1,105
112,368,207821,1,8,0:0:0:0:
216,280,207993,1,0,0:0:0:0:
216,280,208079,1,0,0:0:0:0:
216,280,208166,1,8,0:0:0:0:
176,112,208338,2,0,B|136:168|144:232,1,105,0|6,0:0|0:0,0:0:0:0:
312,368,208683,5,0,0:0:0:0:
376,288,208855,2,0,B|488:256,1,105,8|0,0:0|0:0,0:0:0:0:
488,128,209200,2,0,B|408:216|280:160,1,210
352,24,209717,2,2,B|432:136|360:264,1,210,8|8,0:0|0:0,0:0:0:0:
296,288,210235,1,0,0:0:0:0:
192,264,210407,6,0,B|128:232|64:240,1,105,0|8,0:0|0:0,0:0:0:0:
168,168,210752,2,0,B|232:200|296:184,1,105,0|8,0:0|0:0,0:0:0:0:
360,136,211097,1,0,0:0:0:0:
144,32,211269,6,2,B|40:24|-24:112|16:200,1,210,6|8,0:0|0:0,0:0:0:0:
32,256,211786,1,0,0:0:0:0:
287,250,211959,2,0,P|301:197|295:70,1,105
189,195,212304,6,2,B|171:386,1,157.500006008148,0|0,1:0|0:0,0:0:0:0:
174,351,213166,5,0,0:0:0:0:
304,242,213338,1,10,0:0:0:0:
79,170,213511,1,0,0:0:0:0:
265,331,213683,2,0,B|337:355|385:315,1,105,10|0,0:0|0:0,0:0:0:0:
414,147,214028,6,0,B|278:115|206:11,1,210,4|8,0:0|0:0,0:0:0:0:
477,41,214545,1,0,0:0:0:0:
352,221,214717,2,0,B|224:293|216:421,1,210
172,146,215235,6,0,B|164:74|76:34,1,105,8|0,0:0|0:0,0:0:0:0:
0,285,215579,2,0,B|88:381|224:253,1,210,8|0,0:0|0:0,0:0:0:0:
272,376,216097,1,8,0:0:0:0:
512,200,216442,1,8,0:0:0:0:
208,104,216786,6,0,B|176:240|72:312,1,210,4|8,0:0|0:0,0:0:0:0:
0,112,217304,1,0,0:0:0:0:
120,160,217476,2,0,B|248:232|248:368,1,210
304,248,217993,6,0,B|312:176|376:144,1,105,8|0,0:0|0:0,0:0:0:0:
512,328,218338,2,0,B|416:416|304:312,1,210,8|0,0:0|0:0,0:0:0:0:
192,368,218855,1,8,0:0:0:0:
144,248,219028,1,0,0:0:0:0:
144,248,219114,1,0,0:0:0:0:
144,248,219200,1,0,0:0:0:0:
64,344,219373,1,8,0:0:0:0:
24,224,219545,6,0,B|80:128|136:208|208:96,1,210,4|8,0:0|0:0,0:0:0:0:
144,24,220062,1,0,0:0:0:0:
64,88,220235,1,0,0:0:0:0:
272,120,220579,1,0,0:0:0:0:
328,208,220752,6,0,B|320:264|312:328,1,105,8|0,0:0|2:0,0:0:0:0:
416,272,221097,2,0,B|424:216|440:56,1,210,12|0,0:0|0:0,0:0:0:0:
336,40,221614,2,0,B|280:8|208:16,1,105,4|0,0:0|2:0,0:0:0:0:
48,48,221959,2,0,B|104:80|176:72,1,105,8|0,0:0|2:0,0:0:0:0:
240,104,222304,5,4,0:0:0:0:
48,192,222648,1,8,0:0:0:0:
256,208,222993,1,0,0:0:0:0:
128,368,223338,1,8,0:0:0:0:
224,328,223511,6,0,B|272:248|176:200|232:80,1,210
312,72,224028,1,0,1:0:0:0:
368,184,224200,1,0,1:0:0:0:
312,296,224373,1,2,1:0:0:0:
192,344,224545,1,0,1:0:0:0:
80,279,224717,1,6,1:0:0:0:
256,192,225062,12,0,227821,0:0:0:0:
64,248,229200,6,0,P|152:264|232:288,1,157.5,0|2,0:0|0:0,0:0:0:0:
217,282,230062,1,0,0:0:0:0:
264,216,230235,2,0,L|440:192,1,157.5,0|2,0:0|0:0,0:0:0:0:
420,194,231097,1,0,0:0:0:0:
288,128,231269,6,0,L|112:152,1,157.5,0|2,0:0|0:0,0:0:0:0:
131,149,232131,1,0,0:0:0:0:
152,64,232304,2,0,L|223:52,2,52.5
64,56,232821,2,0,P|32:128|32:176,1,105,2|0,0:0|0:0,0:0:0:0:
48,320,233338,6,0,B|128:352|240:328,1,157.500006008148,4|0,0:0|0:0,0:0:0:0:
360,304,234028,1,2,0:0:0:0:
456,176,234373,2,0,B|360:208|272:184,1,157.500006008148
160,264,235062,1,2,0:0:0:0:
16,192,235407,6,0,B|-40:136|8:24|48:40,1,157.500006008148
243,161,236097,2,0,B|268:222|225:258|243:319,1,157.500006008148,2|0,0:0|0:0,0:0:0:0:
440,208,236786,2,0,B|487:160|446:66|366:93,1,157.500006008148
320,160,237304,1,0,0:0:0:0:
360,256,237476,6,0,B|280:288|200:256,1,157.500006008148,4|0,0:0|0:0,0:0:0:0:
64,192,238166,1,2,0:0:0:0:
128,48,238511,6,0,B|208:16|288:48,1,157.500006008148
464,192,239200,1,2,0:0:0:0:
368,320,239545,6,0,B|325:362|240:326|265:253,1,157.500006008148
200,216,240062,1,0,0:0:0:0:
232,144,240235,1,2,0:0:0:0:
272,72,240407,1,0,0:0:0:0:
320,136,240579,6,0,B|362:178|447:142|422:69,1,157.500006008148
136,112,241097,1,0,0:0:0:0:
120,120,241183,1,0,0:0:0:0:
104,128,241269,1,0,0:0:0:0:
40,208,241442,1,0,0:0:0:0:
96,296,241614,6,0,B|168:192|280:264,1,210,4|2,0:0|0:0,0:0:0:0:
360,240,242131,2,0,B|376:296|344:344,2,105
416,104,242648,6,0,B|344:0|232:72,1,210,0|2,0:0|0:0,0:0:0:0:
152,104,243166,2,0,B|136:48|168:0,2,105
320,144,243683,6,0,B|336:200|304:248,1,105,4|0,0:0|0:0,0:0:0:0:
224,272,244028,2,0,B|208:328|240:376,1,105,2|0,0:0|0:0,0:0:0:0:
440,232,244373,2,0,B|488:96|392:24,1,210
240,192,245062,6,0,B|168:296|56:224,1,210,2|0,0:0|0:0,0:0:0:0:
176,64,245579,1,0,0:0:0:0:
360,160,245752,6,0,B|320:240|376:288|320:384,1,210,4|0,0:0|0:0,0:0:0:0:
416,368,246269,2,0,B|464:328|448:256,1,105,0|2,0:0|0:0,0:0:0:0:
248,320,246614,6,0,B|200:312|144:328,1,105
24,240,246959,2,0,B|72:248|128:232,1,105,0|4,0:0|0:0,0:0:0:0:
232,208,247304,1,0,0:0:0:0:
264,112,247476,1,2,0:0:0:0:
208,24,247648,1,0,0:0:0:0:
104,32,247821,6,0,B|24:48|-8:152|80:224,1,210,4|0,0:0|0:0,0:0:0:0:
24,304,248338,2,0,B|88:280|176:336|240:288,1,210,4|0,0:0|0:0,0:0:0:0:
320,352,248855,5,6,0:0:0:0:
464,192,249200,2,0,B|432:64|304:40,1,210,2|0,0:0|0:0,0:0:0:0:
216,160,249717,1,0,0:0:0:0:
368,328,249890,6,0,B|400:280|384:216,1,105,6|0,0:0|0:0,0:0:0:0:
280,208,250235,2,0,B|200:296|80:240,1,210,10|0,0:0|0:0,0:0:0:0:
24,160,250752,2,0,B|-8:208|8:272,1,105,0|6,0:0|0:0,0:0:0:0:
384,352,251269,5,10,0:0:0:0:
456,280,251442,1,0,0:0:0:0:
472,176,251614,1,2,0:0:0:0:
440,80,251786,1,0,0:0:0:0:
336,48,251959,1,6,0:0:0:0:
336,48,252304,5,6,0:0:0:0:
216,152,252476,1,6,0:0:0:0:
312,272,252648,1,6,0:0:0:0:
448,192,252821,1,6,0:0:0:0:
296,80,252993,6,0,B|200:32|160:104|80:48,1,210
48,280,254028,6,0,B|120:208|207:262|280:192,1,252.000006008148,6|2,0:0|0:0,0:0:0:0:
384,128,254545,1,0,0:0:0:0:
208,320,254717,2,0,B|136:328|88:360,1,126.000003004074,8|0,0:0|0:0,0:0:0:0:
40,144,255062,5,6,0:0:0:0:
40,144,255148,1,0,0:0:0:0:
40,144,255235,2,0,B|96:184|184:184,1,126.000003004074,0|2,0:0|0:0,0:0:0:0:
240,280,255579,1,0,0:0:0:0:
368,256,255752,2,0,B|431:255|487:295,1,126.000003004074,14|0,0:0|0:0,0:0:0:0:
248,168,256097,5,6,0:0:0:0:
248,168,256183,1,0,0:0:0:0:
248,168,256269,2,0,B|208:112|208:24,1,126.000003004074,0|2,0:0|0:0,0:0:0:0:
352,144,256614,1,0,0:0:0:0:
152,192,256786,2,0,B|89:191|33:231,1,126.000003004074,14|0,0:0|0:0,0:0:0:0:
296,368,257131,6,0,B|359:369|415:329,1,126.000003004074,14|0,0:0|0:0,0:0:0:0:
208,264,257476,1,6,0:0:0:0:
208,264,257562,1,0,0:0:0:0:
208,264,257648,2,0,B|168:320|168:408,1,126.000003004074,0|2,0:0|0:0,0:0:0:0:
360,248,257993,1,0,0:0:0:0:
264,64,258166,6,2,B|344:0|456:40|440:144,1,252.000006008148,0|8,0:0|0:0,0:0:0:0:
96,288,258683,2,0,B|56:232|72:160,1,126.000003004074,0|10,0:0|0:0,0:0:0:0:
184,112,259028,1,0,0:0:0:0:
352,320,259200,6,2,B|272:384|160:344|176:240,1,252.000006008148,6|10,0:0|0:0,0:0:0:0:
280,168,259717,1,0,0:0:0:0:
280,168,259804,1,0,0:0:0:0:
280,168,259890,1,10,0:0:0:0:
384,232,260062,1,0,0:0:0:0:
112,368,260235,6,2,B|48:280|136:208|56:112,1,252.000006008148,14|2,0:0|0:0,0:0:0:0:
256,320,260752,2,2,B|328:384|440:360|464:248,1,252.000006008148,14|2,0:0|0:0,0:0:0:0:
256,64,261269,6,2,B|152:96|192:256|304:216,1,252.000006008148,14|10,0:0|0:0,0:0:0:0:
392,128,261786,1,0,0:0:0:0:
376,104,261873,1,0,0:0:0:0:
344,88,261959,1,2,0:0:0:0:
136,232,262131,1,0,0:0:0:0:
400,368,262304,6,0,B|464:280|376:208|456:112,1,252.000006008148,6|2,0:0|0:0,0:0:0:0:
304,240,262821,1,0,0:0:0:0:
136,136,262993,2,0,B|64:144|16:176,1,126.000003004074,8|0,0:0|0:0,0:0:0:0:
160,360,263338,5,6,0:0:0:0:
160,360,263424,1,0,0:0:0:0:
160,360,263511,2,0,B|200:304|200:216,1,126.000003004074,0|2,0:0|0:0,0:0:0:0:
320,192,263855,1,0,0:0:0:0:
424,120,264028,2,0,B|423:57|463:1,1,126.000003004074,14|0,0:0|0:0,0:0:0:0:
456,304,264373,5,6,0:0:0:0:
456,304,264459,1,0,0:0:0:0:
456,304,264545,2,0,B|400:344|312:344,1,126.000003004074,0|2,0:0|0:0,0:0:0:0:
224,256,264890,1,0,0:0:0:0:
328,160,265062,2,0,B|391:159|447:199,1,126.000003004074,14|0,0:0|0:0,0:0:0:0:
216,368,265407,6,0,B|153:369|97:329,1,126.000003004074,14|0,0:0|0:0,0:0:0:0:
304,264,265752,1,6,0:0:0:0:
304,264,265838,1,0,0:0:0:0:
304,264,265924,2,0,B|344:320|344:408,1,126.000003004074,0|2,0:0|0:0,0:0:0:0:
152,248,266269,1,0,0:0:0:0:
264,64,266442,6,2,B|344:0|456:40|440:144,1,252.000006008148,6|10,0:0|0:0,0:0:0:0:
80,320,266959,2,0,B|40:264|56:192,1,126.000003004074,0|8,0:0|0:0,0:0:0:0:
136,136,267304,1,0,0:0:0:0:
432,216,267476,6,2,B|384:264|304:240,1,126.000003004074,14|0,0:0|0:0,0:0:0:0:
128,288,267821,2,2,B|176:336|256:312,1,126.000003004074,14|0,0:0|0:0,0:0:0:0:
264,128,268166,2,2,B|216:80|136:104,1,126.000003004074,14|2,0:0|0:0,0:0:0:0:
24,224,268511,6,2,B|0:344|112:384|192:296,1,252.000006008148,6|10,0:0|0:0,0:0:0:0:
296,352,269028,2,0,B|304:288|264:232,1,126.000003004074,0|8,0:0|0:0,0:0:0:0:
144,208,269373,1,0,0:0:0:0:
400,344,269545,5,6,0:0:0:0:
464,232,269717,1,0,0:0:0:0:
464,232,269804,1,0,0:0:0:0:
464,232,269890,1,10,0:0:0:0:
416,112,270062,1,0,0:0:0:0:
216,176,270235,2,2,B|192:232|200:304,1,126.000003004074,10|0,0:0|0:0,0:0:0:0:
496,200,270579,6,6,B|520:144|512:72,1,126.000003004074,6|0,0:0|0:0,0:0:0:0:
400,16,270924,1,0,0:0:0:0:
328,184,271097,1,0,0:0:0:0:
328,184,271183,1,0,0:0:0:0:
328,184,271269,2,0,B|352:240|344:312,1,126.000003004074,14|0,0:0|0:0,0:0:0:0:
64,360,271614,6,0,B|40:304|48:232,1,126.000003004074,6|0,0:0|0:0,0:0:0:0:
120,136,271959,1,0,0:0:0:0:
176,320,272131,1,0,0:0:0:0:
176,320,272217,1,0,0:0:0:0:
176,320,272304,2,2,B|224:360|304:336,1,126.000003004074,14|0,0:0|0:0,0:0:0:0:
512,232,272648,6,2,B|408:176|288:312|144:200,1,378.000009012223,6|2,0:0|0:0,0:0:0:0:
48,128,273338,1,8,0:0:0:0:
120,24,273511,1,0,0:0:0:0:
120,24,273597,1,0,0:0:0:0:
120,24,273683,1,0,0:0:0:0:
232,88,273855,5,0,0:0:0:0:
248,216,274028,1,8,0:0:0:0:
136,280,274200,1,0,0:0:0:0:
96,160,274373,2,0,B|152:112|224:144,1,126.000003004074,14|0,0:0|0:0,0:0:0:0:
416,352,274717,6,0,B|360:400|288:368,1,126.000003004074,6|0,0:0|0:0,0:0:0:0:
192,312,275062,1,0,0:0:0:0:
312,280,275235,1,0,0:0:0:0:
312,280,275321,1,0,0:0:0:0:
312,280,275407,2,0,B|336:224|328:152,1,126.000003004074,10|0,0:0|0:0,0:0:0:0:
24,240,275752,6,0,B|0:296|8:368,1,126.000003004074,6|0,0:0|0:0,0:0:0:0:
136,352,276097,1,0,0:0:0:0:
184,232,276269,1,0,0:0:0:0:
160,112,276442,1,10,0:0:0:0:
40,64,276614,1,0,0:0:0:0:
80,184,276786,6,0,B|184:240|240:160|352:256,1,252.000006008148,4|2,0:0|0:0,0:0:0:0:
424,312,277304,1,0,0:0:0:0:
304,360,277476,2,0,B|160:320,1,126.000003004074,8|0,0:0|0:0,0:0:0:0:
32,272,277821,6,0,B|160:240,1,126.000003004074,14|0,0:0|0:0,0:0:0:0:
456,176,278166,2,0,B|328:152,1,126.000003004074,14|0,0:0|0:0,0:0:0:0:
0,120,278511,2,0,B|56:80|152:88,1,126.000003004074,14|0,0:0|0:0,0:0:0:0:
392,240,278855,6,0,B|336:280|240:272,1,126.000003004074,6|0,0:0|0:0,0:0:0:0:
160,216,279200,1,8,0:0:0:0:
288,16,279373,1,0,0:0:0:0:
304,32,279459,1,0,0:0:0:0:
320,48,279545,2,0,B|360:104|352:200,1,126.000003004074,14|0,0:0|0:0,0:0:0:0:
96,328,279890,6,0,B|56:272|64:176,1,126.000003004074,6|0,0:0|0:0,0:0:0:0:
144,112,280235,1,8,0:0:0:0:
236,187,280407,1,0,0:0:0:0:
216,199,280493,1,0,0:0:0:0:
200,216,280579,2,0,B|168:272|184:344,1,126.000003004074,14|0,0:0|0:0,0:0:0:0:
456,224,280924,6,0,B|488:168|472:96,1,126.000003004074,6|0,0:0|0:0,0:0:0:0:
156,201,281269,1,8,0:0:0:0:
304,360,281442,1,0,0:0:0:0:
328,344,281528,1,0,0:0:0:0:
352,320,281614,2,0,B|384:264|368:192,1,126.000003004074,14|0,0:0|0:0,0:0:0:0:
216,16,281959,6,0,B|248:72|232:144,1,126.000003004074,14|0,0:0|0:0,0:0:0:0:
96,208,282304,2,0,B|88:128|144:88,1,126.000003004074,14|0,0:0|0:0,0:0:0:0:
408,184,282648,2,0,B|464:232|456:304,1,126.000003004074,14|0,0:0|0:0,0:0:0:0:
312,272,282993,6,0,B|256:232|160:240,1,126.000003004074,6|0,0:0|0:0,0:0:0:0:
104,352,283338,1,8,0:0:0:0:
8,148,283511,1,0,0:0:0:0:
20,128,283597,1,0,0:0:0:0:
32,112,283683,2,0,B|88:72|184:80,1,126.000003004074,14|0,0:0|0:0,0:0:0:0:
360,136,284028,6,0,B|304:176|208:168,1,126.000003004074,6|0,0:0|0:0,0:0:0:0:
390,36,284373,1,8,0:0:0:0:
154,198,284545,1,0,0:0:0:0:
140,219,284631,1,0,0:0:0:0:
128,240,284717,2,0,B|96:296|112:368,1,126.000003004074,14|0,0:0|0:0,0:0:0:0:
440,361,285062,6,0,B|472:305|456:233,1,126.000003004074,4|0,0:0|0:0,0:0:0:0:
307,71,285407,1,10,0:0:0:0:
281,185,285579,1,0,0:0:0:0:
400,168,285752,2,0,B|432:112|416:40,1,126.000003004074
216,112,286097,6,0,B|184:168|200:240,1,126.000003004074,14|0,0:0|0:0,0:0:0:0:
424,376,286442,2,0,B|456:320|440:248,1,126.000003004074,14|0,0:0|0:0,0:0:0:0:
120,224,286786,2,0,B|88:280|104:352,1,126.000003004074,14|0,0:0|0:0,0:0:0:0:
256,288,287131,5,4,0:0:0:0:
312,144,287304,2,0,B|368:120|472:176,1,126.000003004074,0|10,0:0|0:0,0:0:0:0:
200,360,287648,2,0,B|144:384|40:328,1,126.000003004074
16,240,287993,1,0,0:0:0:0:
96,144,288166,6,0,B|232:144|160:280|312:312,1,252.000006008148,4|10,0:0|0:0,0:0:0:0:
360,208,288683,2,0,B|456:184|496:56|376:-16,1,252.000006008148
288,48,289200,5,4,0:0:0:0:
216,152,289373,1,0,0:0:0:0:
128,352,289545,2,0,B|160:216|32:96,1,252.000006008148,10|10,0:0|0:0,0:0:0:0:
120,16,290062,1,0,0:0:0:0:
192,120,290235,5,12,0:0:0:0:
240,240,290407,1,0,0:0:0:0:
320,344,290579,2,0,B|320:272|360:208,1,126.000003004074,10|0,0:0|0:0,0:0:0:0:
496,120,290924,2,0,B|496:192|456:256,1,126.000003004074,10|0,0:0|0:0,0:0:0:0:
224,352,291269,6,0,B|128:328|88:200|208:128,1,252.000006008148,4|0,0:0|0:0,0:0:0:0:
296,120,291786,1,0,0:0:0:0:
384,208,291959,1,8,0:0:0:0:
312,312,292131,1,0,0:0:0:0:
96,280,292304,6,0,B|40:176|120:120|24:8,1,252.000006008148,6|2,0:0|0:0,0:0:0:0:
152,160,292821,2,0,B|232:216|320:160|392:256,1,252.000006008148,8|8,0:0|0:0,0:0:0:0:
488,168,293338,6,0,B|512:96|464:32,1,126.000003004074,4|0,0:0|0:0,0:0:0:0:
352,32,293683,2,0,B|248:120|304:288,1,252.000006008148,14|10,0:0|0:0,0:0:0:0:
208,352,294200,1,0,0:0:0:0:
96,296,294373,5,12,0:0:0:0:
152,184,294545,2,0,B|216:144|280:192,1,126.000003004074,0|6,0:0|0:0,0:0:0:0:
353,340,294890,2,0,B|289:380|225:332,1,126.000003004074,0|14,0:0|0:0,0:0:0:0:
261,93,295235,1,0,0:0:0:0:
408,24,295407,6,0,B|504:48|544:176|424:248,1,252.000006008148,4|0,0:0|0:0,0:0:0:0:
352,160,295924,2,0,B|288:128|224:144,1,126.000003004074,0|8,0:0|0:0,0:0:0:0:
136,232,296269,1,0,0:0:0:0:
224,336,296442,6,0,B|368:416|448:264,1,252.000006008148,4|2,0:0|0:0,0:0:0:0:
176,48,297131,1,8,0:0:0:0:
40,352,297476,6,0,B|152:320|88:232|208:176,1,252.000006008148,6|2,0:0|0:0,0:0:0:0:
320,240,297993,1,0,0:0:0:0:
232,328,298166,2,0,B|296:376|376:336,1,126.000003004074,8|0,0:0|0:0,0:0:0:0:
256,88,298511,6,0,B|104:24|40:176,1,252.000006008148,6|2,0:0|0:0,0:0:0:0:
360,240,299028,2,0,B|408:176|392:104,1,126.000003004074,0|8,0:0|0:0,0:0:0:0:
288,16,299373,1,0,0:0:0:0:
168,144,299545,6,0,B|96:248|240:296|120:400,1,252.000006008148,6|2,0:0|0:0,0:0:0:0:
56,288,300062,1,0,0:0:0:0:
256,216,300235,1,8,0:0:0:0:
312,328,300407,1,0,0:0:0:0:
424,136,300579,5,6,0:0:0:0:
352,32,300752,1,0,0:0:0:0:
224,24,300924,1,2,0:0:0:0:
128,112,301097,1,0,0:0:0:0:
120,240,301269,1,8,0:0:0:0:
208,328,301442,1,0,0:0:0:0:
344,312,301614,1,0,2:0:0:0:
256,192,301700,12,4,305752,0:0:0:0:
