osu file format v14

[General]
AudioFilename: audio.mp3
AudioLeadIn: 0
PreviewTime: 34187
Countdown: 0
SampleSet: Normal
StackLeniency: 0.7
Mode: 1
LetterboxInBreaks: 0
WidescreenStoryboard: 0

[Editor]
Bookmarks: 853,12853,23520,34187,44853,55520,66187,76853,87520,98187,108853,119520,128280
DistanceSpacing: 0.3
BeatDivisor: 4
GridSize: 32
TimelineZoom: 1.9

[Metadata]
Title:End Time
TitleUnicode:End Time
Artist:Cres.
ArtistUnicode:Cres.
Creator:eiri-
Version:Inner Oni
Source:BOF III - THE BMS OF FIGHTERS 2006 -
Tags:Ayyri Featured Artist FA Electronic Instrumental Video Game BOF2006 Requiem Trance CHUNITHM チュウニズム AMAZON O.N.G.E.K.I. ONGEKI オンゲキ SUMMER PLUS maimai FiNALE Cresdot _DUSK_ -Dusk Dusk-
BeatmapID:2976643
BeatmapSetID:1447478

[Difficulty]
HPDrainRate:6
CircleSize:2
OverallDifficulty:6
ApproachRate:10
SliderMultiplier:1.4
SliderTickRate:1

[Events]
//Background and Video events
0,0,"End Time.jpg",0,50
//Break Periods
//Storyboard Layer 0 (Background)
//Storyboard Layer 1 (Fail)
//Storyboard Layer 2 (Pass)
//Storyboard Layer 3 (Foreground)
//Storyboard Layer 4 (Overlay)
//Storyboard Sound Samples

[TimingPoints]
854,333.333333333333,4,1,0,50,1,0
12812,-100,4,1,0,60,0,0
23478,-100,4,1,0,75,0,0
34145,-100,4,1,0,50,0,0
54812,-100,4,1,0,55,0,0
55478,-100,4,1,0,60,0,0
66145,-100,4,1,0,70,0,0
76812,-100,4,1,0,80,0,0
98145,-100,4,1,0,90,0,1
108812,-100,4,1,0,80,0,0
119478,-100,4,1,0,50,0,0
123187,338.983050847457,4,1,0,50,1,8
123187,-93.4579439252336,4,1,0,50,0,8
123525,375,4,1,0,50,1,0
123525,-88.4955752212389,4,1,0,50,0,0
124275,400,4,1,0,50,1,8
124275,-83.3333333333333,4,1,0,50,0,8
125075,352.941176470588,4,1,0,50,1,0
125075,-93.4579439252336,4,1,0,50,0,0
125780,375,4,1,0,50,1,8
125780,-88.4955752212389,4,1,0,50,0,8
126548,428.571428571429,4,1,0,50,1,0
126548,-80,4,1,0,50,0,0
127405,-86.9565217391304,4,1,0,50,0,0
128262,428.571428571429,4,1,0,50,1,8
128280,500,4,1,0,50,1,0
128280,-80,4,1,0,50,0,0

[HitObjects]
256,192,853,5,0,0:0:0:0:
256,192,1853,1,0,0:0:0:0:
256,192,2187,1,8,0:0:0:0:
256,192,2520,1,8,0:0:0:0:
256,192,2853,1,0,0:0:0:0:
256,192,3187,1,8,0:0:0:0:
256,192,3520,1,0,0:0:0:0:
256,192,4520,1,0,0:0:0:0:
256,192,4853,1,8,0:0:0:0:
256,192,5187,1,8,0:0:0:0:
256,192,5520,1,0,0:0:0:0:
256,192,5853,1,8,0:0:0:0:
256,192,6187,1,0,0:0:0:0:
256,192,7520,1,8,0:0:0:0:
256,192,8853,1,0,0:0:0:0:
256,192,11187,8,0,12687,0:0:0:0:
256,192,12853,5,0,0:0:0:0:
256,192,13020,1,0,0:0:0:0:
256,192,13187,1,8,0:0:0:0:
256,192,13353,1,8,0:0:0:0:
256,192,13520,1,0,0:0:0:0:
256,192,13687,1,8,0:0:0:0:
256,192,13853,1,0,0:0:0:0:
256,192,14020,1,0,0:0:0:0:
256,192,14103,1,0,0:0:0:0:
256,192,14187,1,0,0:0:0:0:
256,192,14353,1,0,0:0:0:0:
256,192,14520,1,8,0:0:0:0:
256,192,14687,1,0,0:0:0:0:
256,192,14853,1,8,0:0:0:0:
256,192,15020,1,8,0:0:0:0:
256,192,15187,1,0,0:0:0:0:
256,192,15353,1,8,0:0:0:0:
256,192,15437,1,8,0:0:0:0:
256,192,15520,1,0,0:0:0:0:
256,192,15687,1,0,0:0:0:0:
256,192,15853,1,8,0:0:0:0:
256,192,16020,1,8,0:0:0:0:
256,192,16187,1,0,0:0:0:0:
256,192,16353,1,8,0:0:0:0:
256,192,16520,1,0,0:0:0:0:
256,192,16687,1,0,0:0:0:0:
256,192,16770,1,0,0:0:0:0:
256,192,16853,1,0,0:0:0:0:
256,192,17020,1,0,0:0:0:0:
256,192,17187,1,8,0:0:0:0:
256,192,17353,1,0,0:0:0:0:
256,192,17520,1,8,0:0:0:0:
256,192,17687,1,8,0:0:0:0:
256,192,17853,1,0,0:0:0:0:
256,192,18020,1,8,0:0:0:0:
256,192,18103,1,8,0:0:0:0:
256,192,18187,1,0,0:0:0:0:
256,192,18353,1,0,0:0:0:0:
256,192,18520,1,8,0:0:0:0:
256,192,18687,1,8,0:0:0:0:
256,192,18853,1,0,0:0:0:0:
256,192,19020,1,8,0:0:0:0:
256,192,19187,1,0,0:0:0:0:
256,192,19353,1,0,0:0:0:0:
256,192,19437,1,0,0:0:0:0:
256,192,19520,1,0,0:0:0:0:
256,192,19687,1,0,0:0:0:0:
256,192,19853,1,8,0:0:0:0:
256,192,20020,1,0,0:0:0:0:
256,192,20187,1,8,0:0:0:0:
256,192,20353,1,8,0:0:0:0:
256,192,20520,1,0,0:0:0:0:
256,192,20687,1,8,0:0:0:0:
256,192,20770,1,8,0:0:0:0:
256,192,20853,1,0,0:0:0:0:
256,192,21020,1,0,0:0:0:0:
256,192,21187,1,8,0:0:0:0:
256,192,21353,1,8,0:0:0:0:
256,192,21520,1,0,0:0:0:0:
256,192,21687,1,8,0:0:0:0:
256,192,21853,1,0,0:0:0:0:
256,192,22020,1,0,0:0:0:0:
256,192,22103,1,0,0:0:0:0:
256,192,22187,1,0,0:0:0:0:
256,192,22353,1,0,0:0:0:0:
256,192,22520,1,8,0:0:0:0:
256,192,22687,1,0,0:0:0:0:
256,192,22853,1,8,0:0:0:0:
256,192,23020,1,8,0:0:0:0:
256,192,23103,1,0,0:0:0:0:
256,192,23353,1,8,0:0:0:0:
256,192,23520,1,0,0:0:0:0:
256,192,23603,1,0,0:0:0:0:
256,192,23687,1,0,0:0:0:0:
256,192,23770,1,0,0:0:0:0:
256,192,23853,1,8,0:0:0:0:
256,192,23937,1,0,0:0:0:0:
256,192,24020,1,8,0:0:0:0:
256,192,24103,1,8,0:0:0:0:
256,192,24187,1,0,0:0:0:0:
256,192,24270,1,0,0:0:0:0:
256,192,24353,1,8,0:0:0:0:
256,192,24437,1,0,0:0:0:0:
256,192,24520,1,8,0:0:0:0:
256,192,24603,1,0,0:0:0:0:
256,192,24687,1,8,0:0:0:0:
256,192,24853,1,0,0:0:0:0:
256,192,24937,1,0,0:0:0:0:
256,192,25020,1,0,0:0:0:0:
256,192,25103,1,0,0:0:0:0:
256,192,25187,1,8,0:0:0:0:
256,192,25270,1,8,0:0:0:0:
256,192,25353,1,0,0:0:0:0:
256,192,25437,1,0,0:0:0:0:
256,192,25520,1,8,0:0:0:0:
256,192,25603,1,0,0:0:0:0:
256,192,25687,1,8,0:0:0:0:
256,192,25770,1,8,0:0:0:0:
256,192,25853,1,0,0:0:0:0:
256,192,25937,1,0,0:0:0:0:
256,192,26020,1,8,0:0:0:0:
256,192,26187,1,0,0:0:0:0:
256,192,26270,1,0,0:0:0:0:
256,192,26353,1,0,0:0:0:0:
256,192,26437,1,0,0:0:0:0:
256,192,26520,1,8,0:0:0:0:
256,192,26603,1,0,0:0:0:0:
256,192,26687,1,8,0:0:0:0:
256,192,26770,1,8,0:0:0:0:
256,192,26853,1,0,0:0:0:0:
256,192,26937,1,0,0:0:0:0:
256,192,27020,1,8,0:0:0:0:
256,192,27103,1,0,0:0:0:0:
256,192,27187,1,8,0:0:0:0:
256,192,27270,1,0,0:0:0:0:
256,192,27353,1,8,0:0:0:0:
256,192,27520,1,0,0:0:0:0:
256,192,27603,1,0,0:0:0:0:
256,192,27687,1,0,0:0:0:0:
256,192,27770,1,0,0:0:0:0:
256,192,27853,1,8,0:0:0:0:
256,192,27937,1,8,0:0:0:0:
256,192,28020,1,0,0:0:0:0:
256,192,28103,1,0,0:0:0:0:
256,192,28187,1,8,0:0:0:0:
256,192,28270,1,0,0:0:0:0:
256,192,28353,1,8,0:0:0:0:
256,192,28437,1,8,0:0:0:0:
256,192,28520,1,0,0:0:0:0:
256,192,28603,1,0,0:0:0:0:
256,192,28687,1,8,0:0:0:0:
256,192,28853,1,0,0:0:0:0:
256,192,29020,1,0,0:0:0:0:
256,192,29187,1,8,0:0:0:0:
256,192,29353,1,8,0:0:0:0:
256,192,29520,1,0,0:0:0:0:
256,192,29687,1,8,0:0:0:0:
256,192,29853,1,0,0:0:0:0:
256,192,30020,1,8,0:0:0:0:
256,192,30187,1,0,0:0:0:0:
256,192,30353,1,0,0:0:0:0:
256,192,30520,1,8,0:0:0:0:
256,192,30687,1,0,0:0:0:0:
256,192,30853,1,8,0:0:0:0:
256,192,31020,1,8,0:0:0:0:
256,192,31187,1,0,0:0:0:0:
256,192,31353,1,8,0:0:0:0:
256,192,31520,1,8,0:0:0:0:
256,192,31603,1,0,0:0:0:0:
256,192,31687,1,8,0:0:0:0:
256,192,31770,1,0,0:0:0:0:
256,192,31853,1,8,0:0:0:0:
256,192,31937,1,0,0:0:0:0:
256,192,32020,1,8,0:0:0:0:
256,192,32103,1,0,0:0:0:0:
256,192,32187,1,8,0:0:0:0:
256,192,32270,1,0,0:0:0:0:
256,192,32353,1,8,0:0:0:0:
256,192,32437,1,0,0:0:0:0:
256,192,32520,1,8,0:0:0:0:
256,192,32603,1,0,0:0:0:0:
256,192,32687,1,8,0:0:0:0:
256,192,32770,1,0,0:0:0:0:
256,192,32853,1,8,0:0:0:0:
256,192,32937,1,8,0:0:0:0:
256,192,33020,1,0,0:0:0:0:
256,192,33103,1,0,0:0:0:0:
256,192,33187,1,8,0:0:0:0:
256,192,33270,1,8,0:0:0:0:
256,192,33353,1,0,0:0:0:0:
256,192,33437,1,0,0:0:0:0:
256,192,33520,1,8,0:0:0:0:
256,192,33603,1,0,0:0:0:0:
256,192,33687,1,8,0:0:0:0:
256,192,33770,1,0,0:0:0:0:
256,192,33853,1,8,0:0:0:0:
256,192,33937,1,8,0:0:0:0:
256,192,34020,1,8,0:0:0:0:
256,192,34103,1,8,0:0:0:0:
256,192,34187,1,0,0:0:0:0:
256,192,35187,1,8,0:0:0:0:
256,192,35353,1,8,0:0:0:0:
256,192,35520,1,0,0:0:0:0:
256,192,36520,1,8,0:0:0:0:
256,192,36687,1,0,0:0:0:0:
256,192,36853,1,0,0:0:0:0:
256,192,37853,1,8,0:0:0:0:
256,192,38020,1,8,0:0:0:0:
256,192,38187,1,0,0:0:0:0:
256,192,38853,1,8,0:0:0:0:
256,192,39520,1,0,0:0:0:0:
256,192,40853,1,0,0:0:0:0:
256,192,41520,1,8,0:0:0:0:
256,192,42187,1,0,0:0:0:0:
256,192,43520,1,0,0:0:0:0:
256,192,44853,1,0,0:0:0:0:
256,192,45520,1,8,0:0:0:0:
256,192,46187,1,0,0:0:0:0:
256,192,46853,1,8,0:0:0:0:
256,192,47520,1,0,0:0:0:0:
256,192,48853,1,8,0:0:0:0:
256,192,49520,1,0,0:0:0:0:
256,192,50187,1,8,0:0:0:0:
256,192,51187,1,0,0:0:0:0:
256,192,51353,1,0,0:0:0:0:
256,192,51520,1,8,0:0:0:0:
256,192,52187,1,8,0:0:0:0:
256,192,52853,1,0,0:0:0:0:
256,192,54187,1,0,0:0:0:0:
256,192,54853,1,0,0:0:0:0:
256,192,54937,1,8,0:0:0:0:
256,192,55020,1,0,0:0:0:0:
256,192,55103,1,0,0:0:0:0:
256,192,55187,1,8,0:0:0:0:
256,192,55270,1,8,0:0:0:0:
256,192,55353,1,0,0:0:0:0:
256,192,55437,1,8,0:0:0:0:
256,192,55520,1,0,0:0:0:0:
256,192,55687,1,0,0:0:0:0:
256,192,56020,1,0,0:0:0:0:
256,192,56187,1,0,0:0:0:0:
256,192,56270,1,0,0:0:0:0:
256,192,56520,1,0,0:0:0:0:
256,192,56687,1,0,0:0:0:0:
256,192,56853,1,8,0:0:0:0:
256,192,57020,1,8,0:0:0:0:
256,192,57353,1,8,0:0:0:0:
256,192,57520,1,8,0:0:0:0:
256,192,57603,1,8,0:0:0:0:
256,192,57853,1,8,0:0:0:0:
256,192,58020,1,8,0:0:0:0:
256,192,58187,1,0,0:0:0:0:
256,192,58353,1,0,0:0:0:0:
256,192,58687,1,0,0:0:0:0:
256,192,58853,1,0,0:0:0:0:
256,192,58937,1,0,0:0:0:0:
256,192,59020,1,0,0:0:0:0:
256,192,59187,1,0,0:0:0:0:
256,192,59353,1,0,0:0:0:0:
256,192,59520,1,8,0:0:0:0:
256,192,59687,1,8,0:0:0:0:
256,192,59770,1,8,0:0:0:0:
256,192,59937,1,8,0:0:0:0:
256,192,60020,1,8,0:0:0:0:
256,192,60187,1,8,0:0:0:0:
256,192,60270,1,8,0:0:0:0:
256,192,60353,1,8,0:0:0:0:
256,192,60520,1,8,0:0:0:0:
256,192,60687,1,0,0:0:0:0:
256,192,60853,1,0,0:0:0:0:
256,192,61020,1,0,0:0:0:0:
256,192,61103,1,8,0:0:0:0:
256,192,61353,1,0,0:0:0:0:
256,192,61520,1,0,0:0:0:0:
256,192,61603,1,8,0:0:0:0:
256,192,61853,1,0,0:0:0:0:
256,192,62020,1,8,0:0:0:0:
256,192,62187,1,0,0:0:0:0:
256,192,62353,1,8,0:0:0:0:
256,192,62437,1,8,0:0:0:0:
256,192,62687,1,0,0:0:0:0:
256,192,62853,1,8,0:0:0:0:
256,192,62937,1,8,0:0:0:0:
256,192,63187,1,8,0:0:0:0:
256,192,63353,1,8,0:0:0:0:
256,192,63520,1,0,0:0:0:0:
256,192,63687,1,8,0:0:0:0:
256,192,63770,1,0,0:0:0:0:
256,192,63937,1,8,0:0:0:0:
256,192,64020,1,8,0:0:0:0:
256,192,64187,1,8,0:0:0:0:
256,192,64270,1,8,0:0:0:0:
256,192,64437,1,8,0:0:0:0:
256,192,64520,1,0,0:0:0:0:
256,192,64603,1,0,0:0:0:0:
256,192,64687,1,8,0:0:0:0:
256,192,64853,1,8,0:0:0:0:
256,192,65020,1,0,0:0:0:0:
256,192,65103,1,8,0:0:0:0:
256,192,65270,1,0,0:0:0:0:
256,192,65353,1,8,0:0:0:0:
256,192,65437,1,8,0:0:0:0:
256,192,65520,1,0,0:0:0:0:
256,192,65687,1,8,0:0:0:0:
256,192,65853,1,0,0:0:0:0:
256,192,66020,1,8,0:0:0:0:
256,192,66187,1,0,0:0:0:0:
256,192,66353,1,0,0:0:0:0:
256,192,66437,1,8,0:0:0:0:
256,192,66687,1,0,0:0:0:0:
256,192,66853,1,0,0:0:0:0:
256,192,66937,1,8,0:0:0:0:
256,192,67187,1,0,0:0:0:0:
256,192,67353,1,8,0:0:0:0:
256,192,67520,1,0,0:0:0:0:
256,192,67687,1,8,0:0:0:0:
256,192,67770,1,8,0:0:0:0:
256,192,68020,1,0,0:0:0:0:
256,192,68187,1,8,0:0:0:0:
256,192,68270,1,8,0:0:0:0:
256,192,68353,1,0,0:0:0:0:
256,192,68520,1,8,0:0:0:0:
256,192,68687,1,8,0:0:0:0:
256,192,68853,1,0,0:0:0:0:
256,192,69020,1,0,0:0:0:0:
256,192,69103,1,0,0:0:0:0:
256,192,69187,1,8,0:0:0:0:
256,192,69353,1,8,0:0:0:0:
256,192,69437,1,8,0:0:0:0:
256,192,69520,1,0,0:0:0:0:
256,192,69603,1,0,0:0:0:0:
256,192,69770,1,0,0:0:0:0:
256,192,69853,1,8,0:0:0:0:
256,192,70020,1,8,0:0:0:0:
256,192,70187,1,0,0:0:0:0:
256,192,70353,1,0,0:0:0:0:
256,192,70437,1,8,0:0:0:0:
256,192,70520,1,0,0:0:0:0:
256,192,70687,1,0,0:0:0:0:
256,192,70853,1,0,0:0:0:0:
256,192,70937,1,8,0:0:0:0:
256,192,71020,1,8,0:0:0:0:
256,192,71187,1,0,0:0:0:0:
256,192,71353,1,0,0:0:0:0:
256,192,71520,1,8,0:0:0:0:
256,192,71687,1,0,0:0:0:0:
256,192,71770,1,8,0:0:0:0:
256,192,72020,1,0,0:0:0:0:
256,192,72187,1,8,0:0:0:0:
256,192,72520,1,8,0:0:0:0:
256,192,72687,1,8,0:0:0:0:
256,192,72853,1,0,0:0:0:0:
256,192,73020,1,8,0:0:0:0:
256,192,73103,1,0,0:0:0:0:
256,192,73353,1,0,0:0:0:0:
256,192,73520,1,8,0:0:0:0:
256,192,73603,1,8,0:0:0:0:
256,192,73687,1,8,0:0:0:0:
256,192,73853,1,0,0:0:0:0:
256,192,74020,1,8,0:0:0:0:
256,192,74187,1,0,0:0:0:0:
256,192,74353,1,0,0:0:0:0:
256,192,74437,1,0,0:0:0:0:
256,192,74603,1,0,0:0:0:0:
256,192,74687,1,0,0:0:0:0:
256,192,74853,1,0,0:0:0:0:
256,192,74937,1,0,0:0:0:0:
256,192,75020,1,0,0:0:0:0:
256,192,75187,1,0,0:0:0:0:
256,192,75270,1,0,0:0:0:0:
256,192,75353,1,0,0:0:0:0:
256,192,75520,1,8,0:0:0:0:
256,192,75687,1,8,0:0:0:0:
256,192,75770,1,8,0:0:0:0:
256,192,75937,1,8,0:0:0:0:
256,192,76020,1,8,0:0:0:0:
256,192,76187,1,8,0:0:0:0:
256,192,76270,1,8,0:0:0:0:
256,192,76353,1,8,0:0:0:0:
256,192,76437,1,8,0:0:0:0:
256,192,76520,1,8,0:0:0:0:
256,192,76687,1,0,0:0:0:0:
256,192,76853,1,0,0:0:0:0:
256,192,76937,1,0,0:0:0:0:
256,192,77020,1,8,0:0:0:0:
256,192,77103,1,8,0:0:0:0:
256,192,77187,1,0,0:0:0:0:
256,192,77270,1,8,0:0:0:0:
256,192,77353,1,0,0:0:0:0:
256,192,77437,1,0,0:0:0:0:
256,192,77520,1,8,0:0:0:0:
256,192,77603,1,8,0:0:0:0:
256,192,77687,1,0,0:0:0:0:
256,192,77770,1,8,0:0:0:0:
256,192,77853,1,8,0:0:0:0:
256,192,77937,1,0,0:0:0:0:
256,192,78020,1,8,0:0:0:0:
256,192,78187,1,0,0:0:0:0:
256,192,78270,1,0,0:0:0:0:
256,192,78353,1,8,0:0:0:0:
256,192,78437,1,0,0:0:0:0:
256,192,78520,1,8,0:0:0:0:
256,192,78603,1,8,0:0:0:0:
256,192,78687,1,0,0:0:0:0:
256,192,78770,1,0,0:0:0:0:
256,192,78853,1,8,0:0:0:0:
256,192,78937,1,0,0:0:0:0:
256,192,79020,1,8,0:0:0:0:
256,192,79103,1,8,0:0:0:0:
256,192,79187,1,0,0:0:0:0:
256,192,79270,1,0,0:0:0:0:
256,192,79353,1,8,0:0:0:0:
256,192,79520,1,0,0:0:0:0:
256,192,79603,1,0,0:0:0:0:
256,192,79687,1,0,0:0:0:0:
256,192,79770,1,0,0:0:0:0:
256,192,79853,1,8,0:0:0:0:
256,192,79937,1,0,0:0:0:0:
256,192,80020,1,8,0:0:0:0:
256,192,80103,1,0,0:0:0:0:
256,192,80187,1,8,0:0:0:0:
256,192,80270,1,8,0:0:0:0:
256,192,80353,1,8,0:0:0:0:
256,192,80437,1,8,0:0:0:0:
256,192,80520,1,0,0:0:0:0:
256,192,80603,1,0,0:0:0:0:
256,192,80687,1,8,0:0:0:0:
256,192,80770,1,0,0:0:0:0:
256,192,80853,1,8,0:0:0:0:
256,192,80909,1,8,0:0:0:0:
256,192,80965,1,8,0:0:0:0:
256,192,81020,1,0,0:0:0:0:
256,192,81103,1,0,0:0:0:0:
256,192,81187,1,8,0:0:0:0:
256,192,81242,1,8,0:0:0:0:
256,192,81298,1,0,0:0:0:0:
256,192,81353,1,8,0:0:0:0:
256,192,81437,1,0,0:0:0:0:
256,192,81520,1,8,0:0:0:0:
256,192,81576,1,0,0:0:0:0:
256,192,81631,1,0,0:0:0:0:
256,192,81687,1,8,0:0:0:0:
256,192,81770,1,8,0:0:0:0:
256,192,81853,1,0,0:0:0:0:
256,192,81937,1,0,0:0:0:0:
256,192,82020,1,8,0:0:0:0:
256,192,82187,1,0,0:0:0:0:
256,192,82270,1,8,0:0:0:0:
256,192,82353,1,0,0:0:0:0:
256,192,82437,1,8,0:0:0:0:
256,192,82520,1,8,0:0:0:0:
256,192,82603,1,0,0:0:0:0:
256,192,82687,1,0,0:0:0:0:
256,192,82770,1,0,0:0:0:0:
256,192,82853,1,8,0:0:0:0:
256,192,82937,1,8,0:0:0:0:
256,192,83020,1,0,0:0:0:0:
256,192,83103,1,8,0:0:0:0:
256,192,83187,1,8,0:0:0:0:
256,192,83270,1,0,0:0:0:0:
256,192,83353,1,8,0:0:0:0:
256,192,83520,1,0,0:0:0:0:
256,192,83603,1,0,0:0:0:0:
256,192,83687,1,8,0:0:0:0:
256,192,83770,1,0,0:0:0:0:
256,192,83853,1,8,0:0:0:0:
256,192,83937,1,8,0:0:0:0:
256,192,84020,1,0,0:0:0:0:
256,192,84103,1,0,0:0:0:0:
256,192,84187,1,8,0:0:0:0:
256,192,84270,1,0,0:0:0:0:
256,192,84353,1,0,0:0:0:0:
256,192,84437,1,8,0:0:0:0:
256,192,84520,1,0,0:0:0:0:
256,192,84576,1,0,0:0:0:0:
256,192,84631,1,0,0:0:0:0:
256,192,84687,1,8,0:0:0:0:
256,192,84853,1,8,0:0:0:0:
256,192,84937,1,0,0:0:0:0:
256,192,85020,1,8,0:0:0:0:
256,192,85103,1,0,0:0:0:0:
256,192,85187,1,8,0:0:0:0:
256,192,85270,1,0,0:0:0:0:
256,192,85353,1,8,0:0:0:0:
256,192,85437,1,0,0:0:0:0:
256,192,85520,1,8,0:0:0:0:
256,192,85603,1,8,0:0:0:0:
256,192,85687,1,0,0:0:0:0:
256,192,85770,1,0,0:0:0:0:
256,192,85853,1,8,0:0:0:0:
256,192,85937,1,8,0:0:0:0:
256,192,86020,1,8,0:0:0:0:
256,192,86103,1,8,0:0:0:0:
256,192,86187,1,0,0:0:0:0:
256,192,86270,1,0,0:0:0:0:
256,192,86353,1,0,0:0:0:0:
256,192,86437,1,0,0:0:0:0:
256,192,86520,1,8,0:0:0:0:
256,192,86603,1,0,0:0:0:0:
256,192,86687,1,8,0:0:0:0:
256,192,86770,1,0,0:0:0:0:
256,192,86853,1,8,0:0:0:0:
256,192,86937,1,8,0:0:0:0:
256,192,87020,1,0,0:0:0:0:
256,192,87103,1,0,0:0:0:0:
256,192,87187,1,8,0:0:0:0:
256,192,87270,1,0,0:0:0:0:
256,192,87353,1,8,0:0:0:0:
256,192,87520,1,0,0:0:0:0:
256,192,87603,1,8,0:0:0:0:
256,192,87687,1,0,0:0:0:0:
256,192,87770,1,0,0:0:0:0:
256,192,87853,1,8,0:0:0:0:
256,192,87937,1,8,0:0:0:0:
256,192,88020,1,0,0:0:0:0:
256,192,88103,1,0,0:0:0:0:
256,192,88187,1,8,0:0:0:0:
256,192,88270,1,0,0:0:0:0:
256,192,88353,1,8,0:0:0:0:
256,192,88437,1,0,0:0:0:0:
256,192,88520,1,8,0:0:0:0:
256,192,88603,1,8,0:0:0:0:
256,192,88687,1,0,0:0:0:0:
256,192,88853,1,0,0:0:0:0:
256,192,88937,1,0,0:0:0:0:
256,192,89020,1,8,0:0:0:0:
256,192,89103,1,0,0:0:0:0:
256,192,89187,1,8,0:0:0:0:
256,192,89270,1,8,0:0:0:0:
256,192,89353,1,0,0:0:0:0:
256,192,89437,1,0,0:0:0:0:
256,192,89520,1,8,0:0:0:0:
256,192,89603,1,0,0:0:0:0:
256,192,89687,1,8,0:0:0:0:
256,192,89770,1,8,0:0:0:0:
256,192,89853,1,0,0:0:0:0:
256,192,89937,1,0,0:0:0:0:
256,192,90020,1,8,0:0:0:0:
256,192,90187,1,0,0:0:0:0:
256,192,90270,1,8,0:0:0:0:
256,192,90353,1,0,0:0:0:0:
256,192,90437,1,8,0:0:0:0:
256,192,90520,1,8,0:0:0:0:
256,192,90603,1,0,0:0:0:0:
256,192,90687,1,8,0:0:0:0:
256,192,90770,1,0,0:0:0:0:
256,192,90853,1,8,0:0:0:0:
256,192,90937,1,8,0:0:0:0:
256,192,91020,1,0,0:0:0:0:
256,192,91103,1,0,0:0:0:0:
256,192,91187,1,8,0:0:0:0:
256,192,91270,1,0,0:0:0:0:
256,192,91353,1,8,0:0:0:0:
256,192,91437,1,0,0:0:0:0:
256,192,91520,1,8,0:0:0:0:
256,192,91603,1,8,0:0:0:0:
256,192,91687,1,0,0:0:0:0:
256,192,91770,1,8,0:0:0:0:
256,192,91853,1,0,0:0:0:0:
256,192,91937,1,8,0:0:0:0:
256,192,92020,1,8,0:0:0:0:
256,192,92103,1,0,0:0:0:0:
256,192,92187,1,8,0:0:0:0:
256,192,92270,1,0,0:0:0:0:
256,192,92353,1,8,0:0:0:0:
256,192,92437,1,8,0:0:0:0:
256,192,92520,1,0,0:0:0:0:
256,192,92603,1,0,0:0:0:0:
256,192,92687,1,8,0:0:0:0:
256,192,92853,1,0,0:0:0:0:
256,192,92937,1,0,0:0:0:0:
256,192,93020,1,0,0:0:0:0:
256,192,93103,1,0,0:0:0:0:
256,192,93187,1,8,0:0:0:0:
256,192,93270,1,0,0:0:0:0:
256,192,93353,1,8,0:0:0:0:
256,192,93437,1,8,0:0:0:0:
256,192,93520,1,0,0:0:0:0:
256,192,93603,1,8,0:0:0:0:
256,192,93687,1,0,0:0:0:0:
256,192,93770,1,0,0:0:0:0:
256,192,93853,1,8,0:0:0:0:
256,192,93937,1,8,0:0:0:0:
256,192,94020,1,8,0:0:0:0:
256,192,94187,1,0,0:0:0:0:
256,192,94270,1,8,0:0:0:0:
256,192,94353,1,0,0:0:0:0:
256,192,94437,1,8,0:0:0:0:
256,192,94520,1,8,0:0:0:0:
256,192,94603,1,0,0:0:0:0:
256,192,94687,1,8,0:0:0:0:
256,192,94770,1,0,0:0:0:0:
256,192,94853,1,8,0:0:0:0:
256,192,94937,1,8,0:0:0:0:
256,192,95020,1,8,0:0:0:0:
256,192,95103,1,8,0:0:0:0:
256,192,95187,1,0,0:0:0:0:
256,192,95270,1,0,0:0:0:0:
256,192,95353,1,8,0:0:0:0:
256,192,95520,1,0,0:0:0:0:
256,192,95603,1,0,0:0:0:0:
256,192,95687,1,8,0:0:0:0:
256,192,95770,1,0,0:0:0:0:
256,192,95853,1,8,0:0:0:0:
256,192,95937,1,8,0:0:0:0:
256,192,96020,1,0,0:0:0:0:
256,192,96103,1,0,0:0:0:0:
256,192,96187,1,8,0:0:0:0:
256,192,96270,1,0,0:0:0:0:
256,192,96353,1,8,0:0:0:0:
256,192,96437,1,0,0:0:0:0:
256,192,96520,1,8,0:0:0:0:
256,192,96603,1,8,0:0:0:0:
256,192,96687,1,0,0:0:0:0:
256,192,96770,1,8,0:0:0:0:
256,192,96853,1,0,0:0:0:0:
256,192,96937,1,0,0:0:0:0:
256,192,97020,1,0,0:0:0:0:
256,192,97103,1,8,0:0:0:0:
256,192,97187,1,8,0:0:0:0:
256,192,97270,1,0,0:0:0:0:
256,192,97353,1,8,0:0:0:0:
256,192,97437,1,8,0:0:0:0:
256,192,97520,1,8,0:0:0:0:
256,192,97603,1,0,0:0:0:0:
256,192,97687,1,8,0:0:0:0:
256,192,97770,1,8,0:0:0:0:
256,192,97853,1,0,0:0:0:0:
256,192,97937,1,8,0:0:0:0:
256,192,98020,1,8,0:0:0:0:
256,192,98187,1,8,0:0:0:0:
256,192,98270,1,0,0:0:0:0:
256,192,98353,1,8,0:0:0:0:
256,192,98437,1,8,0:0:0:0:
256,192,98520,1,8,0:0:0:0:
256,192,98603,1,0,0:0:0:0:
256,192,98687,1,8,0:0:0:0:
256,192,98770,1,0,0:0:0:0:
256,192,98853,1,8,0:0:0:0:
256,192,98937,1,0,0:0:0:0:
256,192,99020,1,8,0:0:0:0:
256,192,99103,1,8,0:0:0:0:
256,192,99187,1,0,0:0:0:0:
256,192,99270,1,8,0:0:0:0:
256,192,99353,1,0,0:0:0:0:
256,192,99437,1,0,0:0:0:0:
256,192,99520,1,8,0:0:0:0:
256,192,99603,1,0,0:0:0:0:
256,192,99687,1,8,0:0:0:0:
256,192,99770,1,8,0:0:0:0:
256,192,99853,1,8,0:0:0:0:
256,192,99937,1,0,0:0:0:0:
256,192,100020,1,8,0:0:0:0:
256,192,100103,1,0,0:0:0:0:
256,192,100187,1,8,0:0:0:0:
256,192,100270,1,8,0:0:0:0:
256,192,100353,1,0,0:0:0:0:
256,192,100437,1,0,0:0:0:0:
256,192,100520,1,8,0:0:0:0:
256,192,100603,1,0,0:0:0:0:
256,192,100687,1,8,0:0:0:0:
256,192,100770,1,8,0:0:0:0:
256,192,100853,1,0,0:0:0:0:
256,192,100937,1,0,0:0:0:0:
256,192,101020,1,8,0:0:0:0:
256,192,101103,1,8,0:0:0:0:
256,192,101187,1,0,0:0:0:0:
256,192,101270,1,8,0:0:0:0:
256,192,101353,1,0,0:0:0:0:
256,192,101437,1,0,0:0:0:0:
256,192,101520,1,8,0:0:0:0:
256,192,101603,1,0,0:0:0:0:
256,192,101687,1,8,0:0:0:0:
256,192,101770,1,8,0:0:0:0:
256,192,101853,1,0,0:0:0:0:
256,192,101937,1,0,0:0:0:0:
256,192,102020,1,8,0:0:0:0:
256,192,102103,1,0,0:0:0:0:
256,192,102187,1,8,0:0:0:0:
256,192,102270,1,0,0:0:0:0:
256,192,102353,1,8,0:0:0:0:
256,192,102437,1,8,0:0:0:0:
256,192,102520,1,0,0:0:0:0:
256,192,102603,1,8,0:0:0:0:
256,192,102687,1,0,0:0:0:0:
256,192,102770,1,0,0:0:0:0:
256,192,102853,1,8,0:0:0:0:
256,192,102937,1,8,0:0:0:0:
256,192,103020,1,0,0:0:0:0:
256,192,103103,1,0,0:0:0:0:
256,192,103187,1,8,0:0:0:0:
256,192,103270,1,0,0:0:0:0:
256,192,103353,1,8,0:0:0:0:
256,192,103437,1,8,0:0:0:0:
256,192,103520,1,0,0:0:0:0:
256,192,103603,1,0,0:0:0:0:
256,192,103687,1,0,0:0:0:0:
256,192,103770,1,8,0:0:0:0:
256,192,103853,1,8,0:0:0:0:
256,192,103937,1,0,0:0:0:0:
256,192,104020,1,8,0:0:0:0:
256,192,104103,1,8,0:0:0:0:
256,192,104187,1,0,0:0:0:0:
256,192,104270,1,8,0:0:0:0:
256,192,104353,1,8,0:0:0:0:
256,192,104437,1,0,0:0:0:0:
256,192,104520,1,8,0:0:0:0:
256,192,104603,1,8,0:0:0:0:
256,192,104687,1,8,0:0:0:0:
256,192,104770,1,8,0:0:0:0:
256,192,104853,1,0,0:0:0:0:
256,192,104937,1,8,0:0:0:0:
256,192,105020,1,0,0:0:0:0:
256,192,105103,1,8,0:0:0:0:
256,192,105187,1,0,0:0:0:0:
256,192,105270,1,0,0:0:0:0:
256,192,105353,1,8,0:0:0:0:
256,192,105437,1,8,0:0:0:0:
256,192,105520,1,8,0:0:0:0:
256,192,105603,1,0,0:0:0:0:
256,192,105687,1,8,0:0:0:0:
256,192,105770,1,0,0:0:0:0:
256,192,105853,1,8,0:0:0:0:
256,192,105937,1,8,0:0:0:0:
256,192,106020,1,0,0:0:0:0:
256,192,106103,1,8,0:0:0:0:
256,192,106187,1,0,0:0:0:0:
256,192,106270,1,0,0:0:0:0:
256,192,106353,1,8,0:0:0:0:
256,192,106437,1,0,0:0:0:0:
256,192,106520,1,8,0:0:0:0:
256,192,106603,1,0,0:0:0:0:
256,192,106687,1,8,0:0:0:0:
256,192,106770,1,0,0:0:0:0:
256,192,106853,1,8,0:0:0:0:
256,192,106937,1,0,0:0:0:0:
256,192,107020,1,8,0:0:0:0:
256,192,107103,1,8,0:0:0:0:
256,192,107187,1,0,0:0:0:0:
256,192,107270,1,8,0:0:0:0:
256,192,107353,1,0,0:0:0:0:
256,192,107437,1,0,0:0:0:0:
256,192,107520,1,8,0:0:0:0:
256,192,107603,1,0,0:0:0:0:
256,192,107687,1,8,0:0:0:0:
256,192,107770,1,8,0:0:0:0:
256,192,107853,1,0,0:0:0:0:
256,192,107937,1,0,0:0:0:0:
256,192,108020,1,8,0:0:0:0:
256,192,108103,1,0,0:0:0:0:
256,192,108187,1,8,0:0:0:0:
256,192,108270,1,8,0:0:0:0:
256,192,108353,1,8,0:0:0:0:
256,192,108437,1,8,0:0:0:0:
256,192,108520,1,0,0:0:0:0:
256,192,108603,1,8,0:0:0:0:
256,192,108687,1,0,0:0:0:0:
256,192,108770,1,8,0:0:0:0:
256,192,108853,1,0,0:0:0:0:
256,192,109187,1,0,0:0:0:0:
256,192,109687,1,0,0:0:0:0:
256,192,110020,1,0,0:0:0:0:
256,192,110187,1,0,0:0:0:0:
256,192,110520,1,0,0:0:0:0:
256,192,111187,1,0,0:0:0:0:
256,192,111353,1,0,0:0:0:0:
256,192,111520,1,0,0:0:0:0:
256,192,111853,1,0,0:0:0:0:
256,192,112187,1,0,0:0:0:0:
256,192,112520,1,0,0:0:0:0:
256,192,112853,1,0,0:0:0:0:
256,192,113187,1,0,0:0:0:0:
256,192,113687,1,0,0:0:0:0:
256,192,114020,1,0,0:0:0:0:
256,192,114187,1,0,0:0:0:0:
256,192,114520,1,0,0:0:0:0:
256,192,114853,1,0,0:0:0:0:
256,192,115187,1,0,0:0:0:0:
256,192,115353,1,0,0:0:0:0:
256,192,115520,1,0,0:0:0:0:
256,192,115687,1,0,0:0:0:0:
256,192,115853,1,0,0:0:0:0:
256,192,116020,1,0,0:0:0:0:
256,192,116187,1,0,0:0:0:0:
256,192,116353,1,0,0:0:0:0:
256,192,116520,1,0,0:0:0:0:
256,192,116687,1,0,0:0:0:0:
256,192,116853,1,8,0:0:0:0:
256,192,117020,1,8,0:0:0:0:
256,192,117103,1,8,0:0:0:0:
256,192,117187,1,8,0:0:0:0:
256,192,117353,1,8,0:0:0:0:
256,192,117437,1,8,0:0:0:0:
256,192,117520,1,8,0:0:0:0:
256,192,117687,1,8,0:0:0:0:
256,192,117770,1,8,0:0:0:0:
256,192,117853,1,8,0:0:0:0:
256,192,118020,1,8,0:0:0:0:
256,192,118187,1,8,0:0:0:0:
256,192,118270,1,8,0:0:0:0:
256,192,118353,1,8,0:0:0:0:
256,192,118437,1,8,0:0:0:0:
256,192,118520,1,8,0:0:0:0:
256,192,118603,1,8,0:0:0:0:
256,192,118687,1,8,0:0:0:0:
256,192,118770,1,8,0:0:0:0:
256,192,118853,1,8,0:0:0:0:
256,192,118937,1,8,0:0:0:0:
256,192,119020,1,8,0:0:0:0:
256,192,119103,1,8,0:0:0:0:
256,192,119187,1,8,0:0:0:0:
256,192,119270,1,8,0:0:0:0:
256,192,119353,1,8,0:0:0:0:
256,192,119437,1,8,0:0:0:0:
256,192,119520,1,8,0:0:0:0:
256,192,120520,1,0,0:0:0:0:
256,192,120853,1,8,0:0:0:0:
256,192,121187,1,8,0:0:0:0:
256,192,121520,1,0,0:0:0:0:
256,192,121853,1,8,0:0:0:0:
256,192,122187,1,0,0:0:0:0:
256,192,123187,1,0,0:0:0:0:
256,192,123525,1,8,0:0:0:0:
256,192,123806,1,8,0:0:0:0:
256,192,124087,1,0,0:0:0:0:
256,192,124275,1,8,0:0:0:0:
256,192,124675,1,0,0:0:0:0:
256,192,125075,1,8,0:0:0:0:
256,192,126548,1,0,0:0:0:0:
256,192,127405,1,0,0:0:0:0:
256,192,128280,1,8,0:0:0:0:
