osu file format v14

[General]
AudioFilename: audio.mp3
AudioLeadIn: 0
PreviewTime: 76833
Countdown: 0
SampleSet: Normal
StackLeniency: 0.7
Mode: 3
LetterboxInBreaks: 0
SpecialStyle: 0
WidescreenStoryboard: 1

[Editor]
Bookmarks: 12853,23520,34187,55520,76853,98187,108853,119520
DistanceSpacing: 0.3
BeatDivisor: 4
GridSize: 8
TimelineZoom: 2.799999

[Metadata]
Title:End Time
TitleUnicode:End Time
Artist:Cres.
ArtistUnicode:Cres.
Creator:AHHHHHHHHHHHHHH
Version:Normal
Source:BOF III - THE BMS OF FIGHTERS 2006 -
Tags:mg mappers' guild requiem trance piano fa featured artist CHUNITHM AMAZON チュウニズム maimai finale O.N.G.E.K.I. ONGEKI オンゲキ SUMMER PLUS 音撃 electronic instrumental o2jam ahx14
BeatmapID:3062748
BeatmapSetID:1448292

[Difficulty]
HPDrainRate:6.5
CircleSize:4
OverallDifficulty:6.5
ApproachRate:5
SliderMultiplier:1.4
SliderTickRate:1

[Events]
//Background and Video events
0,0,"pexels-isaac-weatherly-3054252.jpg",0,0
//Break Periods
//Storyboard Layer 0 (Background)
//Storyboard Layer 1 (Fail)
//Storyboard Layer 2 (Pass)
//Storyboard Layer 3 (Foreground)
//Storyboard Layer 4 (Overlay)
//Storyboard Sound Samples

[TimingPoints]
854,333.333333333333,4,1,1,100,1,0
123187,338.983050847457,4,1,1,100,1,8
123187,-98.0392156862745,4,1,1,100,0,8
123525,375,4,1,1,100,1,0
123525,-88.495575221239,4,1,1,100,0,0
124275,400,4,1,1,100,1,8
124275,-83.3333333333333,4,1,1,100,0,8
125075,352.941176470588,4,1,1,100,1,0
125075,-94.3396226415094,4,1,1,100,0,0
125780,375,4,1,1,100,1,8
125780,-88.495575221239,4,1,1,100,0,8
126548,428.571428571429,4,1,1,100,1,0
126548,-77.5193798449612,4,1,1,100,0,0
128280,500,4,1,1,100,1,0
128280,-66.6666666666667,4,1,1,100,0,0

[HitObjects]
64,192,853,5,0,0:0:0:0:
448,192,1853,1,0,0:0:0:0:
448,192,2187,1,0,0:0:0:0:
320,192,2520,1,0,0:0:0:0:
192,192,2853,1,0,0:0:0:0:
64,192,3187,1,0,0:0:0:0:
320,192,3520,1,0,0:0:0:0:
448,192,4520,1,0,0:0:0:0:
448,192,4853,1,0,0:0:0:0:
320,192,5187,1,0,0:0:0:0:
192,192,5520,1,0,0:0:0:0:
320,192,5853,1,0,0:0:0:0:
64,192,6187,1,0,0:0:0:0:
192,192,7520,1,0,0:0:0:0:
448,192,8853,1,0,0:0:0:0:
320,192,11187,128,0,12853:0:0:0:0:
64,192,12853,1,4,0:0:0:0:
448,192,12853,1,2,0:0:0:0:
192,192,13020,1,0,0:0:0:0:
320,192,13187,1,2,0:0:0:0:
192,192,13353,1,0,0:0:0:0:
448,192,13520,1,2,0:0:0:0:
320,192,13687,1,0,0:0:0:0:
192,192,13853,1,2,0:0:0:0:
64,192,14020,1,0,0:0:0:0:
448,192,14187,1,2,0:0:0:0:
192,192,14353,1,0,0:0:0:0:
320,192,14520,1,2,0:0:0:0:
192,192,14687,1,0,0:0:0:0:
448,192,14853,1,2,0:0:0:0:
320,192,15020,1,0,0:0:0:0:
64,192,15187,1,2,0:0:0:0:
64,192,15353,1,2,0:0:0:0:
448,192,15520,1,2,0:0:0:0:
192,192,15687,1,0,0:0:0:0:
320,192,15853,1,2,0:0:0:0:
192,192,16020,1,0,0:0:0:0:
448,192,16187,1,2,0:0:0:0:
320,192,16353,1,0,0:0:0:0:
192,192,16520,1,2,0:0:0:0:
64,192,16687,1,0,0:0:0:0:
448,192,16853,1,2,0:0:0:0:
192,192,17020,1,0,0:0:0:0:
320,192,17187,1,2,0:0:0:0:
192,192,17353,1,0,0:0:0:0:
448,192,17520,1,2,0:0:0:0:
320,192,17687,1,0,0:0:0:0:
192,192,17853,1,2,0:0:0:0:
64,192,18020,1,0,0:0:0:0:
448,192,18187,1,2,0:0:0:0:
192,192,18353,1,0,0:0:0:0:
320,192,18520,1,2,0:0:0:0:
64,192,18687,1,0,0:0:0:0:
192,192,18853,1,2,0:0:0:0:
448,192,19020,1,0,0:0:0:0:
320,192,19187,1,2,0:0:0:0:
64,192,19353,1,0,0:0:0:0:
448,192,19520,1,2,0:0:0:0:
192,192,19687,1,0,0:0:0:0:
320,192,19853,1,2,0:0:0:0:
448,192,20020,1,0,0:0:0:0:
192,192,20187,1,2,0:0:0:0:
320,192,20353,1,0,0:0:0:0:
64,192,20520,1,2,0:0:0:0:
64,192,20687,1,2,0:0:0:0:
448,192,20853,1,2,0:0:0:0:
192,192,21020,1,0,0:0:0:0:
320,192,21187,1,2,0:0:0:0:
192,192,21353,1,0,0:0:0:0:
448,192,21520,1,2,0:0:0:0:
320,192,21687,1,0,0:0:0:0:
192,192,21853,1,2,0:0:0:0:
64,192,22020,1,0,0:0:0:0:
448,192,22187,1,2,0:0:0:0:
192,192,22353,1,0,0:0:0:0:
320,192,22520,1,2,0:0:0:0:
320,192,22687,1,2,0:0:0:0:
64,192,22853,1,2,0:0:0:0:
192,192,23103,1,2,0:0:0:0:
320,192,23353,1,2,0:0:0:0:
64,192,23520,1,2,0:0:0:0:
448,192,23520,1,4,0:0:0:0:
192,192,23687,1,0,0:0:0:0:
320,192,23853,128,2,24187:0:0:0:0:
192,192,24187,1,2,0:0:0:0:
448,192,24353,1,0,0:0:0:0:
64,192,24520,128,2,24853:0:0:0:0:
320,192,24853,1,2,0:0:0:0:
192,192,25020,1,0,0:0:0:0:
448,192,25187,128,2,25520:0:0:0:0:
320,192,25520,1,2,0:0:0:0:
64,192,25687,1,0,0:0:0:0:
192,192,25853,1,2,0:0:0:0:
192,192,26020,1,2,0:0:0:0:
320,192,26187,1,2,0:0:0:0:
448,192,26353,1,0,0:0:0:0:
64,192,26520,128,2,26853:0:0:0:0:
192,192,26853,1,2,0:0:0:0:
448,192,27020,1,0,0:0:0:0:
320,192,27187,128,2,27520:0:0:0:0:
448,192,27520,1,2,0:0:0:0:
64,192,27687,1,0,0:0:0:0:
192,192,27853,128,2,28187:0:0:0:0:
320,192,28187,1,2,0:0:0:0:
64,192,28353,1,0,0:0:0:0:
448,192,28520,1,2,0:0:0:0:
448,192,28687,1,2,0:0:0:0:
64,192,28853,1,2,0:0:0:0:
64,192,29020,1,2,0:0:0:0:
320,192,29187,1,2,0:0:0:0:
320,192,29353,1,2,0:0:0:0:
192,192,29520,1,2,0:0:0:0:
192,192,29687,1,2,0:0:0:0:
448,192,29853,1,2,0:0:0:0:
448,192,30020,1,2,0:0:0:0:
64,192,30187,1,2,0:0:0:0:
64,192,30353,1,2,0:0:0:0:
320,192,30520,1,2,0:0:0:0:
320,192,30687,1,2,0:0:0:0:
192,192,30853,1,2,0:0:0:0:
448,192,31020,1,2,0:0:0:0:
64,192,31187,1,2,0:0:0:0:
192,192,31353,1,2,0:0:0:0:
448,192,31520,1,2,0:0:0:0:
448,192,31687,1,2,0:0:0:0:
320,192,31853,1,2,0:0:0:0:
320,192,32020,1,2,0:0:0:0:
64,192,32187,1,2,0:0:0:0:
64,192,32353,1,2,0:0:0:0:
192,192,32520,1,2,0:0:0:0:
192,192,32687,1,2,0:0:0:0:
448,192,32853,1,2,0:0:0:0:
64,192,33020,1,2,0:0:0:0:
448,192,33187,1,2,0:0:0:0:
64,192,33353,1,2,0:0:0:0:
320,192,33520,128,2,33687:0:0:0:0:
192,192,33687,128,2,33853:0:0:0:0:
320,192,33853,128,2,34020:0:0:0:0:
192,192,34020,128,2,34187:0:0:0:0:
448,192,34187,1,0,0:0:0:0:
192,192,35187,1,0,0:0:0:0:
448,192,35353,1,0,0:0:0:0:
320,192,35520,1,0,0:0:0:0:
192,192,36520,1,0,0:0:0:0:
320,192,36687,1,0,0:0:0:0:
192,192,36853,1,0,0:0:0:0:
64,192,37853,1,0,0:0:0:0:
448,192,38020,1,0,0:0:0:0:
192,192,38187,1,0,0:0:0:0:
64,192,38853,1,0,0:0:0:0:
320,192,39520,1,0,0:0:0:0:
192,192,40853,1,0,0:0:0:0:
448,192,41520,1,0,0:0:0:0:
320,192,42187,1,0,0:0:0:0:
64,192,43520,1,0,0:0:0:0:
64,192,44853,1,0,0:0:0:0:
448,192,45520,1,0,0:0:0:0:
320,192,46187,1,0,0:0:0:0:
64,192,46853,1,0,0:0:0:0:
448,192,47520,1,0,0:0:0:0:
320,192,48853,1,0,0:0:0:0:
192,192,49520,1,0,0:0:0:0:
64,192,50187,1,0,0:0:0:0:
192,192,51187,1,0,0:0:0:0:
320,192,51353,1,0,0:0:0:0:
448,192,51520,1,0,0:0:0:0:
320,192,52187,1,0,0:0:0:0:
64,192,52853,1,0,0:0:0:0:
448,192,54187,1,0,0:0:0:0:
64,192,54853,128,0,55020:0:0:0:0:
320,192,55020,128,0,55187:0:0:0:0:
192,192,55187,128,0,55353:0:0:0:0:
448,192,55353,128,0,55520:0:0:0:0:
64,192,55520,1,6,0:0:0:0:
320,192,55687,1,0,0:0:0:0:
64,192,56020,1,0,0:0:0:0:
320,192,56187,1,0,0:0:0:0:
64,192,56520,1,0,0:0:0:0:
320,192,56687,1,0,0:0:0:0:
448,192,56853,1,2,0:0:0:0:
192,192,57020,1,0,0:0:0:0:
448,192,57353,1,0,0:0:0:0:
192,192,57520,1,0,0:0:0:0:
448,192,57853,1,0,0:0:0:0:
320,192,58020,1,0,0:0:0:0:
64,192,58187,1,2,0:0:0:0:
192,192,58353,1,0,0:0:0:0:
64,192,58687,1,0,0:0:0:0:
192,192,58853,128,0,59020:0:0:0:0:
320,192,59020,1,0,0:0:0:0:
64,192,59187,1,0,0:0:0:0:
192,192,59353,1,0,0:0:0:0:
448,192,59520,1,2,0:0:0:0:
320,192,59687,1,0,0:0:0:0:
192,192,59937,1,0,0:0:0:0:
320,192,60187,128,0,60353:0:0:0:0:
192,192,60353,128,0,60520:0:0:0:0:
64,192,60520,1,0,0:0:0:0:
320,192,60687,1,2,0:0:0:0:
192,192,60853,1,2,0:0:0:0:
448,192,61020,1,0,0:0:0:0:
192,192,61353,1,0,0:0:0:0:
448,192,61520,1,0,0:0:0:0:
192,192,61853,1,0,0:0:0:0:
320,192,62020,1,0,0:0:0:0:
448,192,62187,1,2,0:0:0:0:
64,192,62353,1,0,0:0:0:0:
448,192,62687,1,0,0:0:0:0:
64,192,62853,1,0,0:0:0:0:
448,192,63187,1,0,0:0:0:0:
320,192,63353,1,0,0:0:0:0:
192,192,63520,1,2,0:0:0:0:
448,192,63687,1,0,0:0:0:0:
192,192,63937,1,0,0:0:0:0:
448,192,64187,1,0,0:0:0:0:
192,192,64437,128,0,64603:0:0:0:0:
320,192,64603,1,0,0:0:0:0:
64,192,64853,1,2,0:0:0:0:
448,192,65020,1,0,0:0:0:0:
64,192,65270,128,0,65437:0:0:0:0:
320,192,65437,1,0,0:0:0:0:
192,192,65687,1,0,0:0:0:0:
448,192,65853,128,2,66020:0:0:0:0:
64,192,66020,128,0,66187:0:0:0:0:
320,192,66187,1,2,0:0:0:0:
192,192,66353,1,0,0:0:0:0:
320,192,66687,1,0,0:0:0:0:
192,192,66853,1,2,0:0:0:0:
320,192,67187,1,0,0:0:0:0:
192,192,67353,1,0,0:0:0:0:
448,192,67520,1,2,0:0:0:0:
64,192,67687,1,0,0:0:0:0:
448,192,68020,1,0,0:0:0:0:
64,192,68187,128,2,68353:0:0:0:0:
320,192,68353,1,0,0:0:0:0:
448,192,68520,1,2,0:0:0:0:
192,192,68687,1,2,0:0:0:0:
320,192,68853,1,2,0:0:0:0:
64,192,69020,1,0,0:0:0:0:
448,192,69187,1,2,0:0:0:0:
192,192,69353,1,0,0:0:0:0:
320,192,69520,128,2,69687:0:0:0:0:
192,192,69853,128,0,70020:0:0:0:0:
448,192,70020,1,0,0:0:0:0:
64,192,70187,1,2,0:0:0:0:
320,192,70353,128,0,70520:0:0:0:0:
192,192,70520,1,2,0:0:0:0:
64,192,70687,1,0,0:0:0:0:
320,192,70853,128,2,71020:0:0:0:0:
192,192,71020,1,0,0:0:0:0:
448,192,71187,1,2,0:0:0:0:
448,192,71353,1,2,0:0:0:0:
64,192,71520,1,2,0:0:0:0:
192,192,71687,128,0,71853:0:0:0:0:
448,192,71853,1,2,0:0:0:0:
64,192,72020,1,0,0:0:0:0:
448,192,72187,1,2,0:0:0:0:
320,192,72520,1,2,0:0:0:0:
192,192,72687,1,0,0:0:0:0:
448,192,72853,1,2,0:0:0:0:
320,192,73020,128,0,73187:0:0:0:0:
64,192,73187,1,2,0:0:0:0:
192,192,73353,1,0,0:0:0:0:
448,192,73520,128,2,73687:0:0:0:0:
320,192,73687,1,0,0:0:0:0:
192,192,73853,128,2,74020:0:0:0:0:
64,192,74020,1,0,0:0:0:0:
320,192,74187,1,2,0:0:0:0:
64,192,74353,128,0,74520:0:0:0:0:
192,192,74520,1,2,0:0:0:0:
448,192,74687,1,0,0:0:0:0:
320,192,74853,128,2,75020:0:0:0:0:
192,192,75020,1,0,0:0:0:0:
64,192,75187,128,2,75353:0:0:0:0:
448,192,75353,1,0,0:0:0:0:
320,192,75520,1,2,0:0:0:0:
192,192,75687,128,0,75853:0:0:0:0:
64,192,75853,1,2,0:0:0:0:
448,192,76020,1,0,0:0:0:0:
320,192,76187,128,2,76353:0:0:0:0:
64,192,76353,128,0,76520:0:0:0:0:
448,192,76520,128,2,76687:0:0:0:0:
192,192,76687,128,2,76853:0:0:0:0:
64,192,76853,1,2,0:0:0:0:
320,192,76853,1,4,0:0:0:0:
448,192,77020,1,0,0:0:0:0:
192,192,77187,128,2,77353:0:0:0:0:
320,192,77353,128,0,77520:0:0:0:0:
64,192,77520,1,2,0:0:0:0:
192,192,77687,1,0,0:0:0:0:
320,192,77853,128,2,78020:0:0:0:0:
448,192,78020,128,0,78187:0:0:0:0:
64,192,78187,1,2,0:0:0:0:
192,192,78353,128,0,78520:0:0:0:0:
320,192,78520,1,2,0:0:0:0:
448,192,78687,128,0,78853:0:0:0:0:
320,192,78853,1,2,0:0:0:0:
192,192,79020,128,0,79187:0:0:0:0:
448,192,79187,1,2,0:0:0:0:
448,192,79353,1,2,0:0:0:0:
64,192,79520,1,2,0:0:0:0:
320,192,79687,1,0,0:0:0:0:
192,192,79853,1,2,0:0:0:0:
448,192,80020,1,0,0:0:0:0:
64,192,80187,128,2,80353:0:0:0:0:
320,192,80353,128,0,80520:0:0:0:0:
192,192,80520,128,2,80687:0:0:0:0:
64,192,80687,1,0,0:0:0:0:
448,192,80853,128,2,81020:0:0:0:0:
320,192,81020,1,0,0:0:0:0:
192,192,81187,128,2,81353:0:0:0:0:
64,192,81353,1,0,0:0:0:0:
320,192,81520,1,2,0:0:0:0:
192,192,81770,1,2,0:0:0:0:
64,192,82020,1,2,0:0:0:0:
320,192,82187,1,2,0:0:0:0:
192,192,82353,128,0,82520:0:0:0:0:
448,192,82520,1,2,0:0:0:0:
320,192,82687,128,0,82853:0:0:0:0:
192,192,82853,1,2,0:0:0:0:
64,192,83020,128,0,83187:0:0:0:0:
320,192,83187,128,2,83353:0:0:0:0:
448,192,83353,128,0,83520:0:0:0:0:
192,192,83520,1,2,0:0:0:0:
64,192,83687,128,0,83853:0:0:0:0:
320,192,83853,1,2,0:0:0:0:
448,192,84020,128,0,84187:0:0:0:0:
64,192,84187,1,2,0:0:0:0:
192,192,84353,128,0,84520:0:0:0:0:
320,192,84520,128,2,84687:0:0:0:0:
448,192,84687,128,0,84853:0:0:0:0:
64,192,84853,128,2,85020:0:0:0:0:
320,192,85020,128,0,85187:0:0:0:0:
192,192,85187,128,2,85353:0:0:0:0:
448,192,85353,128,0,85520:0:0:0:0:
320,192,85520,1,2,0:0:0:0:
192,192,85687,128,0,85853:0:0:0:0:
448,192,85853,128,2,86020:0:0:0:0:
64,192,86020,128,0,86187:0:0:0:0:
320,192,86187,1,2,0:0:0:0:
192,192,86353,1,0,0:0:0:0:
64,192,86520,1,2,0:0:0:0:
320,192,86687,128,0,86853:0:0:0:0:
192,192,86853,128,2,87020:0:0:0:0:
448,192,87020,128,0,87187:0:0:0:0:
64,192,87187,1,2,0:0:0:0:
64,192,87353,1,2,0:0:0:0:
320,192,87520,1,2,0:0:0:0:
192,192,87687,128,0,87853:0:0:0:0:
448,192,87853,1,2,0:0:0:0:
64,192,88020,128,0,88187:0:0:0:0:
320,192,88187,1,2,0:0:0:0:
192,192,88520,128,2,88687:0:0:0:0:
448,192,88687,128,0,88853:0:0:0:0:
320,192,88853,1,2,0:0:0:0:
64,192,89020,128,0,89187:0:0:0:0:
448,192,89187,1,2,0:0:0:0:
192,192,89353,128,0,89520:0:0:0:0:
320,192,89520,128,2,89687:0:0:0:0:
64,192,89687,1,0,0:0:0:0:
192,192,89853,128,2,90020:0:0:0:0:
448,192,90020,128,0,90187:0:0:0:0:
320,192,90187,1,2,0:0:0:0:
192,192,90353,128,0,90520:0:0:0:0:
448,192,90520,1,2,0:0:0:0:
64,192,90687,128,0,90853:0:0:0:0:
320,192,90853,128,2,91020:0:0:0:0:
192,192,91020,128,0,91187:0:0:0:0:
448,192,91187,128,2,91353:0:0:0:0:
320,192,91353,128,0,91520:0:0:0:0:
64,192,91520,128,2,91687:0:0:0:0:
448,192,91687,128,0,91853:0:0:0:0:
192,192,91853,128,2,92020:0:0:0:0:
320,192,92020,128,0,92187:0:0:0:0:
64,192,92187,1,2,0:0:0:0:
192,192,92437,1,0,0:0:0:0:
448,192,92520,1,2,0:0:0:0:
448,192,92687,1,2,0:0:0:0:
64,192,92853,1,2,0:0:0:0:
320,192,93020,1,0,0:0:0:0:
192,192,93187,1,2,0:0:0:0:
64,192,93353,1,0,0:0:0:0:
320,192,93520,1,2,0:0:0:0:
448,192,93687,1,0,0:0:0:0:
192,192,93853,128,2,94020:0:0:0:0:
320,192,94020,128,0,94187:0:0:0:0:
64,192,94187,1,2,0:0:0:0:
448,192,94353,1,0,0:0:0:0:
192,192,94520,1,2,0:0:0:0:
64,192,94687,1,0,0:0:0:0:
320,192,94853,128,2,95020:0:0:0:0:
192,192,95020,128,0,95187:0:0:0:0:
448,192,95187,1,2,0:0:0:0:
448,192,95353,1,2,0:0:0:0:
64,192,95520,1,2,0:0:0:0:
64,192,95687,1,2,0:0:0:0:
320,192,95853,1,2,0:0:0:0:
320,192,96020,1,2,0:0:0:0:
192,192,96187,1,2,0:0:0:0:
192,192,96353,1,2,0:0:0:0:
448,192,96520,1,2,0:0:0:0:
448,192,96687,1,2,0:0:0:0:
64,192,96853,1,2,0:0:0:0:
320,192,97020,128,2,97187:0:0:0:0:
64,192,97187,1,2,0:0:0:0:
448,192,97353,128,2,97520:0:0:0:0:
192,192,97520,1,2,0:0:0:0:
320,192,97687,128,2,97853:0:0:0:0:
64,192,97853,128,2,98020:0:0:0:0:
192,192,98020,128,2,98187:0:0:0:0:
448,192,98187,1,6,0:0:0:0:
64,192,98353,128,0,98520:0:0:0:0:
448,192,98520,128,2,98687:0:0:0:0:
192,192,98687,1,0,0:0:0:0:
320,192,98853,1,2,0:0:0:0:
448,192,99020,128,0,99187:0:0:0:0:
64,192,99187,128,2,99353:0:0:0:0:
320,192,99353,128,0,99520:0:0:0:0:
192,192,99520,1,2,0:0:0:0:
64,192,99687,128,0,99853:0:0:0:0:
448,192,99853,128,2,100020:0:0:0:0:
192,192,100020,1,0,0:0:0:0:
64,192,100187,128,2,100353:0:0:0:0:
320,192,100353,128,0,100520:0:0:0:0:
448,192,100520,1,2,0:0:0:0:
448,192,100687,1,2,0:0:0:0:
192,192,100853,1,2,0:0:0:0:
64,192,101020,128,0,101187:0:0:0:0:
320,192,101187,1,2,0:0:0:0:
192,192,101353,128,0,101520:0:0:0:0:
448,192,101520,128,2,101687:0:0:0:0:
320,192,101687,128,0,101853:0:0:0:0:
64,192,101853,1,2,0:0:0:0:
192,192,102020,128,0,102187:0:0:0:0:
320,192,102187,1,2,0:0:0:0:
64,192,102353,128,0,102520:0:0:0:0:
448,192,102520,128,2,102687:0:0:0:0:
320,192,102687,128,0,102853:0:0:0:0:
192,192,102853,1,2,0:0:0:0:
448,192,103103,1,2,0:0:0:0:
64,192,103353,1,2,0:0:0:0:
320,192,103520,1,2,0:0:0:0:
192,192,103687,128,0,103853:0:0:0:0:
448,192,103853,128,2,104020:0:0:0:0:
64,192,104020,128,0,104187:0:0:0:0:
320,192,104187,128,2,104353:0:0:0:0:
192,192,104353,128,0,104520:0:0:0:0:
448,192,104520,128,2,104687:0:0:0:0:
320,192,104687,128,0,104853:0:0:0:0:
192,192,104853,128,2,105020:0:0:0:0:
448,192,105020,128,0,105187:0:0:0:0:
64,192,105187,1,2,0:0:0:0:
320,192,105353,128,0,105520:0:0:0:0:
192,192,105520,1,2,0:0:0:0:
64,192,105687,128,0,105853:0:0:0:0:
320,192,105853,1,2,0:0:0:0:
320,192,106020,1,2,0:0:0:0:
192,192,106187,128,2,106353:0:0:0:0:
448,192,106353,128,0,106520:0:0:0:0:
64,192,106520,1,2,0:0:0:0:
320,192,106687,1,0,0:0:0:0:
448,192,106853,128,2,107020:0:0:0:0:
192,192,107020,128,0,107187:0:0:0:0:
64,192,107187,128,2,107353:0:0:0:0:
320,192,107353,128,0,107520:0:0:0:0:
448,192,107520,1,2,0:0:0:0:
192,192,107687,128,0,107853:0:0:0:0:
320,192,107853,1,2,0:0:0:0:
320,192,108020,1,2,0:0:0:0:
64,192,108187,1,2,0:0:0:0:
64,192,108353,128,2,108603:0:0:0:0:
320,192,108603,128,2,108853:0:0:0:0:
448,192,108853,1,6,0:0:0:0:
64,192,109020,1,0,0:0:0:0:
320,192,109187,1,2,0:0:0:0:
64,192,109353,1,0,0:0:0:0:
192,192,109687,1,2,0:0:0:0:
64,192,109853,1,0,0:0:0:0:
448,192,110020,1,2,0:0:0:0:
448,192,110187,1,2,0:0:0:0:
64,192,110353,1,0,0:0:0:0:
320,192,110520,1,2,0:0:0:0:
64,192,110687,1,0,0:0:0:0:
192,192,111020,1,0,0:0:0:0:
64,192,111187,1,2,0:0:0:0:
64,192,111353,1,2,0:0:0:0:
448,192,111520,1,2,0:0:0:0:
192,192,111687,1,0,0:0:0:0:
320,192,111853,1,2,0:0:0:0:
64,192,112020,1,0,0:0:0:0:
448,192,112187,1,2,0:0:0:0:
192,192,112353,1,0,0:0:0:0:
64,192,112520,1,2,0:0:0:0:
448,192,112687,1,0,0:0:0:0:
192,192,112853,1,2,0:0:0:0:
64,192,113020,1,0,0:0:0:0:
320,192,113187,1,2,0:0:0:0:
192,192,113353,1,0,0:0:0:0:
64,192,113687,1,2,0:0:0:0:
192,192,113853,1,0,0:0:0:0:
448,192,114020,1,2,0:0:0:0:
448,192,114187,1,2,0:0:0:0:
192,192,114353,1,0,0:0:0:0:
320,192,114520,1,2,0:0:0:0:
64,192,114687,1,0,0:0:0:0:
448,192,114853,1,2,0:0:0:0:
192,192,115020,1,0,0:0:0:0:
64,192,115187,1,2,0:0:0:0:
64,192,115353,1,2,0:0:0:0:
448,192,115520,1,2,0:0:0:0:
448,192,115687,1,2,0:0:0:0:
192,192,115853,1,2,0:0:0:0:
192,192,116020,1,2,0:0:0:0:
320,192,116187,1,2,0:0:0:0:
64,192,116353,1,2,0:0:0:0:
320,192,116520,1,2,0:0:0:0:
192,192,116687,1,2,0:0:0:0:
448,192,116853,1,2,0:0:0:0:
448,192,117020,1,2,0:0:0:0:
320,192,117187,1,2,0:0:0:0:
320,192,117353,1,2,0:0:0:0:
64,192,117520,1,2,0:0:0:0:
64,192,117687,1,2,0:0:0:0:
192,192,117853,1,2,0:0:0:0:
192,192,118020,1,2,0:0:0:0:
448,192,118187,1,2,0:0:0:0:
64,192,118353,1,2,0:0:0:0:
448,192,118520,1,2,0:0:0:0:
64,192,118687,1,2,0:0:0:0:
320,192,118853,128,2,119020:0:0:0:0:
192,192,119020,128,2,119187:0:0:0:0:
320,192,119187,128,2,119353:0:0:0:0:
192,192,119353,128,2,119520:0:0:0:0:
64,192,119520,1,4,0:0:0:0:
448,192,120520,1,0,0:0:0:0:
448,192,120853,1,0,0:0:0:0:
320,192,121187,1,0,0:0:0:0:
192,192,121520,1,0,0:0:0:0:
64,192,121853,1,0,0:0:0:0:
320,192,122187,1,0,0:0:0:0:
320,192,123187,1,0,0:0:0:0:
320,192,123525,1,0,0:0:0:0:
192,192,123806,1,0,0:0:0:0:
320,192,124087,1,0,0:0:0:0:
64,192,124275,1,0,0:0:0:0:
448,192,124675,1,0,0:0:0:0:
64,192,125075,1,0,0:0:0:0:
320,192,126548,1,0,0:0:0:0:
64,192,127405,1,0,0:0:0:0:
320,192,128280,1,0,0:0:0:0:
