osu file format v14

[General]
AudioFilename: audio.mp3
AudioLeadIn: 0
PreviewTime: 76833
Countdown: 0
SampleSet: Normal
StackLeniency: 0.7
Mode: 3
LetterboxInBreaks: 0
SpecialStyle: 0
WidescreenStoryboard: 1

[Editor]
Bookmarks: 12853,23520,34187,55520,76853,98187,108853,119520
DistanceSpacing: 0.3
BeatDivisor: 4
GridSize: 8
TimelineZoom: 2.799999

[Metadata]
Title:End Time
TitleUnicode:End Time
Artist:Cres.
ArtistUnicode:Cres.
Creator:AHHHHHHHHHHHHHH
Version:Insane
Source:BOF III - THE BMS OF FIGHTERS 2006 -
Tags:mg mappers' guild requiem trance piano fa featured artist CHUNITHM AMAZON チュウニズム maimai finale O.N.G.E.K.I. ONGEKI オンゲキ SUMMER PLUS 音撃 electronic instrumental o2jam ahx14
BeatmapID:2978270
BeatmapSetID:1448292

[Difficulty]
HPDrainRate:8.5
CircleSize:4
OverallDifficulty:7.7
ApproachRate:5
SliderMultiplier:1.4
SliderTickRate:1

[Events]
//Background and Video events
0,0,"pexels-isaac-weatherly-3054252.jpg",0,0
//Break Periods
//Storyboard Layer 0 (Background)
//Storyboard Layer 1 (Fail)
//Storyboard Layer 2 (Pass)
//Storyboard Layer 3 (Foreground)
//Storyboard Layer 4 (Overlay)
//Storyboard Sound Samples

[TimingPoints]
854,333.333333333333,4,1,1,100,1,0
123187,338.983050847457,4,1,1,100,1,8
123525,375,4,1,1,100,1,0
124275,400,4,1,1,100,1,8
125075,352.941176470588,4,1,1,100,1,0
125780,375,4,1,1,100,1,8
126548,428.571428571429,4,1,1,100,1,0
128280,500,4,1,1,100,1,0

[HitObjects]
192,192,853,5,0,0:0:0:0:
320,192,853,1,0,0:0:0:0:
448,192,1853,1,0,0:0:0:0:
192,192,2187,1,0,0:0:0:0:
448,192,2187,1,0,0:0:0:0:
320,192,2520,1,0,0:0:0:0:
192,192,2853,1,0,0:0:0:0:
64,192,3187,1,0,0:0:0:0:
192,192,3520,1,0,0:0:0:0:
320,192,3520,1,0,0:0:0:0:
448,192,4520,1,0,0:0:0:0:
192,192,4853,1,0,0:0:0:0:
448,192,4853,1,0,0:0:0:0:
320,192,5187,1,0,0:0:0:0:
192,192,5520,1,0,0:0:0:0:
320,192,5853,1,0,0:0:0:0:
64,192,6187,1,0,0:0:0:0:
192,192,6187,1,0,0:0:0:0:
192,192,7520,1,0,0:0:0:0:
320,192,7520,1,0,0:0:0:0:
320,192,8853,1,0,0:0:0:0:
448,192,8853,1,0,0:0:0:0:
320,192,11187,128,0,12853:0:0:0:0:
64,192,12853,128,4,13187:0:0:0:0:
192,192,12853,1,2,0:0:0:0:
448,192,12853,1,0,0:0:0:0:
320,192,13020,1,0,0:0:0:0:
320,192,13187,1,2,0:0:0:0:
448,192,13187,1,0,0:0:0:0:
64,192,13353,128,0,13687:0:0:0:0:
192,192,13353,1,0,0:0:0:0:
192,192,13520,1,2,0:0:0:0:
448,192,13520,1,0,0:0:0:0:
320,192,13687,1,0,0:0:0:0:
64,192,13853,1,2,0:0:0:0:
192,192,13853,1,0,0:0:0:0:
320,192,14020,1,0,0:0:0:0:
448,192,14020,1,0,0:0:0:0:
64,192,14187,1,2,0:0:0:0:
448,192,14187,128,0,14520:0:0:0:0:
192,192,14353,1,0,0:0:0:0:
192,192,14520,1,2,0:0:0:0:
320,192,14520,1,0,0:0:0:0:
64,192,14687,1,0,0:0:0:0:
448,192,14687,128,0,15020:0:0:0:0:
64,192,14853,1,2,0:0:0:0:
320,192,14853,1,0,0:0:0:0:
192,192,15020,1,0,0:0:0:0:
320,192,15187,1,2,0:0:0:0:
448,192,15187,1,0,0:0:0:0:
64,192,15353,1,2,0:0:0:0:
320,192,15353,1,0,0:0:0:0:
64,192,15520,1,2,0:0:0:0:
192,192,15520,128,0,15853:0:0:0:0:
320,192,15687,1,0,0:0:0:0:
64,192,15853,1,2,0:0:0:0:
448,192,15853,1,0,0:0:0:0:
192,192,16020,128,0,16353:0:0:0:0:
320,192,16020,1,0,0:0:0:0:
64,192,16187,1,2,0:0:0:0:
320,192,16187,1,0,0:0:0:0:
448,192,16353,1,0,0:0:0:0:
64,192,16520,1,2,0:0:0:0:
192,192,16520,1,0,0:0:0:0:
320,192,16687,1,0,0:0:0:0:
448,192,16687,1,0,0:0:0:0:
192,192,16853,1,2,0:0:0:0:
320,192,16853,128,0,17187:0:0:0:0:
64,192,17020,1,0,0:0:0:0:
192,192,17187,1,2,0:0:0:0:
448,192,17187,1,0,0:0:0:0:
64,192,17353,1,0,0:0:0:0:
320,192,17353,128,0,17687:0:0:0:0:
64,192,17520,1,2,0:0:0:0:
192,192,17520,1,0,0:0:0:0:
448,192,17687,1,0,0:0:0:0:
192,192,17853,1,2,0:0:0:0:
320,192,17853,1,0,0:0:0:0:
64,192,18020,1,0,0:0:0:0:
448,192,18020,1,0,0:0:0:0:
64,192,18187,128,2,18520:0:0:0:0:
192,192,18187,1,0,0:0:0:0:
320,192,18353,1,0,0:0:0:0:
448,192,18353,1,0,0:0:0:0:
192,192,18520,1,2,0:0:0:0:
448,192,18520,1,0,0:0:0:0:
64,192,18687,128,0,19020:0:0:0:0:
320,192,18687,1,0,0:0:0:0:
192,192,18853,1,2,0:0:0:0:
320,192,18853,1,0,0:0:0:0:
448,192,19020,1,0,0:0:0:0:
64,192,19187,1,2,0:0:0:0:
192,192,19187,1,0,0:0:0:0:
320,192,19353,1,0,0:0:0:0:
448,192,19353,1,0,0:0:0:0:
64,192,19520,1,2,0:0:0:0:
320,192,19520,128,0,19853:0:0:0:0:
192,192,19687,1,0,0:0:0:0:
64,192,19853,1,2,0:0:0:0:
448,192,19853,1,0,0:0:0:0:
192,192,20020,1,0,0:0:0:0:
320,192,20020,128,0,20353:0:0:0:0:
64,192,20187,1,2,0:0:0:0:
192,192,20187,1,0,0:0:0:0:
448,192,20353,1,0,0:0:0:0:
192,192,20520,1,2,0:0:0:0:
320,192,20520,1,0,0:0:0:0:
320,192,20687,1,2,0:0:0:0:
448,192,20687,1,0,0:0:0:0:
64,192,20853,1,2,0:0:0:0:
192,192,20853,128,0,21187:0:0:0:0:
320,192,21020,1,0,0:0:0:0:
448,192,21020,1,0,0:0:0:0:
64,192,21187,1,2,0:0:0:0:
448,192,21187,1,0,0:0:0:0:
192,192,21353,128,0,21687:0:0:0:0:
320,192,21353,1,0,0:0:0:0:
320,192,21520,1,2,0:0:0:0:
448,192,21520,1,0,0:0:0:0:
64,192,21687,1,0,0:0:0:0:
448,192,21687,1,0,0:0:0:0:
192,192,21853,1,2,0:0:0:0:
320,192,21853,1,0,0:0:0:0:
64,192,22020,1,0,0:0:0:0:
192,192,22020,1,0,0:0:0:0:
320,192,22187,1,2,0:0:0:0:
448,192,22187,128,0,22520:0:0:0:0:
64,192,22353,1,0,0:0:0:0:
192,192,22353,1,0,0:0:0:0:
64,192,22520,1,2,0:0:0:0:
320,192,22520,1,0,0:0:0:0:
192,192,22687,1,2,0:0:0:0:
448,192,22687,128,0,23020:0:0:0:0:
192,192,22853,1,2,0:0:0:0:
320,192,22853,1,0,0:0:0:0:
64,192,23020,1,0,0:0:0:0:
192,192,23103,1,2,0:0:0:0:
320,192,23103,1,0,0:0:0:0:
448,192,23187,1,0,0:0:0:0:
192,192,23353,1,2,0:0:0:0:
320,192,23353,1,0,0:0:0:0:
64,192,23520,1,2,0:0:0:0:
448,192,23520,128,4,23603:0:0:0:0:
320,192,23603,128,0,23687:0:0:0:0:
192,192,23687,128,0,23770:0:0:0:0:
448,192,23770,128,0,23853:0:0:0:0:
64,192,23853,128,2,23937:0:0:0:0:
192,192,23853,1,0,0:0:0:0:
320,192,23937,128,0,24020:0:0:0:0:
192,192,24020,128,0,24103:0:0:0:0:
448,192,24103,128,0,24187:0:0:0:0:
64,192,24187,128,2,24270:0:0:0:0:
320,192,24187,1,0,0:0:0:0:
192,192,24270,128,0,24353:0:0:0:0:
448,192,24353,128,0,24437:0:0:0:0:
320,192,24437,128,0,24520:0:0:0:0:
64,192,24520,1,2,0:0:0:0:
192,192,24520,128,0,24603:0:0:0:0:
448,192,24603,128,0,24687:0:0:0:0:
64,192,24687,128,0,24770:0:0:0:0:
320,192,24770,128,0,24853:0:0:0:0:
192,192,24853,128,2,24937:0:0:0:0:
448,192,24853,1,0,0:0:0:0:
64,192,24937,128,0,25020:0:0:0:0:
192,192,25020,128,0,25103:0:0:0:0:
320,192,25103,128,0,25187:0:0:0:0:
64,192,25187,1,2,0:0:0:0:
448,192,25187,128,0,25270:0:0:0:0:
192,192,25270,128,0,25353:0:0:0:0:
320,192,25353,128,0,25437:0:0:0:0:
64,192,25437,128,0,25520:0:0:0:0:
320,192,25520,128,2,25603:0:0:0:0:
448,192,25520,1,0,0:0:0:0:
192,192,25603,128,0,25687:0:0:0:0:
64,192,25687,128,0,25770:0:0:0:0:
448,192,25770,128,0,25853:0:0:0:0:
192,192,25853,1,2,0:0:0:0:
320,192,25853,1,0,0:0:0:0:
64,192,25937,1,0,0:0:0:0:
192,192,26020,1,2,0:0:0:0:
448,192,26020,1,0,0:0:0:0:
320,192,26103,1,0,0:0:0:0:
64,192,26187,128,2,26270:0:0:0:0:
448,192,26187,1,0,0:0:0:0:
192,192,26270,128,0,26353:0:0:0:0:
448,192,26353,128,0,26437:0:0:0:0:
320,192,26437,128,0,26520:0:0:0:0:
64,192,26520,1,2,0:0:0:0:
192,192,26520,128,0,26603:0:0:0:0:
448,192,26603,128,0,26687:0:0:0:0:
64,192,26687,128,0,26770:0:0:0:0:
320,192,26770,128,0,26853:0:0:0:0:
192,192,26853,128,2,26937:0:0:0:0:
448,192,26853,1,0,0:0:0:0:
64,192,26937,128,0,27020:0:0:0:0:
192,192,27020,128,0,27103:0:0:0:0:
320,192,27103,128,0,27187:0:0:0:0:
64,192,27187,1,2,0:0:0:0:
448,192,27187,128,0,27270:0:0:0:0:
192,192,27270,128,0,27353:0:0:0:0:
320,192,27353,128,0,27437:0:0:0:0:
64,192,27437,128,0,27520:0:0:0:0:
192,192,27520,128,2,27603:0:0:0:0:
320,192,27520,1,0,0:0:0:0:
448,192,27603,128,0,27687:0:0:0:0:
320,192,27687,128,0,27770:0:0:0:0:
64,192,27770,128,0,27853:0:0:0:0:
192,192,27853,128,2,27937:0:0:0:0:
448,192,27853,1,0,0:0:0:0:
320,192,27937,128,0,28020:0:0:0:0:
64,192,28020,128,0,28103:0:0:0:0:
448,192,28103,128,0,28187:0:0:0:0:
64,192,28187,1,2,0:0:0:0:
192,192,28187,128,0,28270:0:0:0:0:
320,192,28270,128,0,28353:0:0:0:0:
448,192,28353,128,0,28437:0:0:0:0:
320,192,28437,128,0,28520:0:0:0:0:
64,192,28520,1,2,0:0:0:0:
448,192,28520,1,0,0:0:0:0:
192,192,28603,1,0,0:0:0:0:
64,192,28687,1,2,0:0:0:0:
320,192,28687,1,0,0:0:0:0:
448,192,28770,1,0,0:0:0:0:
192,192,28853,1,2,0:0:0:0:
320,192,28853,1,0,0:0:0:0:
64,192,29020,1,2,0:0:0:0:
192,192,29020,1,0,0:0:0:0:
320,192,29187,1,2,0:0:0:0:
448,192,29187,1,0,0:0:0:0:
64,192,29353,1,2,0:0:0:0:
448,192,29353,1,0,0:0:0:0:
192,192,29520,1,2,0:0:0:0:
320,192,29520,1,0,0:0:0:0:
192,192,29687,1,2,0:0:0:0:
448,192,29687,1,0,0:0:0:0:
64,192,29853,1,2,0:0:0:0:
320,192,29853,1,0,0:0:0:0:
64,192,30020,1,2,0:0:0:0:
192,192,30020,1,0,0:0:0:0:
320,192,30187,1,2,0:0:0:0:
448,192,30187,1,0,0:0:0:0:
64,192,30353,1,2,0:0:0:0:
320,192,30353,1,0,0:0:0:0:
192,192,30520,1,2,0:0:0:0:
448,192,30520,1,0,0:0:0:0:
192,192,30687,1,2,0:0:0:0:
320,192,30687,1,0,0:0:0:0:
64,192,30853,1,2,0:0:0:0:
448,192,30853,1,0,0:0:0:0:
192,192,31020,1,2,0:0:0:0:
448,192,31020,1,0,0:0:0:0:
64,192,31187,1,2,0:0:0:0:
320,192,31187,1,0,0:0:0:0:
64,192,31353,1,2,0:0:0:0:
192,192,31353,1,0,0:0:0:0:
320,192,31520,1,2,0:0:0:0:
448,192,31520,1,0,0:0:0:0:
192,192,31603,1,0,0:0:0:0:
320,192,31687,1,2,0:0:0:0:
448,192,31687,1,0,0:0:0:0:
192,192,31770,1,0,0:0:0:0:
320,192,31853,1,2,0:0:0:0:
448,192,31853,1,0,0:0:0:0:
192,192,31937,1,0,0:0:0:0:
320,192,32020,1,2,0:0:0:0:
448,192,32020,1,0,0:0:0:0:
192,192,32103,1,0,0:0:0:0:
320,192,32187,1,2,0:0:0:0:
448,192,32187,1,0,0:0:0:0:
192,192,32270,1,0,0:0:0:0:
320,192,32353,1,2,0:0:0:0:
448,192,32353,1,0,0:0:0:0:
192,192,32437,1,0,0:0:0:0:
320,192,32520,1,2,0:0:0:0:
448,192,32520,1,0,0:0:0:0:
192,192,32603,1,0,0:0:0:0:
320,192,32687,1,2,0:0:0:0:
448,192,32687,1,0,0:0:0:0:
192,192,32770,1,0,0:0:0:0:
320,192,32853,1,2,0:0:0:0:
448,192,32853,1,0,0:0:0:0:
64,192,32909,1,0,0:0:0:0:
192,192,32965,1,0,0:0:0:0:
448,192,33020,1,2,0:0:0:0:
320,192,33062,1,0,0:0:0:0:
192,192,33103,1,2,0:0:0:0:
448,192,33187,1,2,0:0:0:0:
320,192,33242,1,0,0:0:0:0:
192,192,33298,1,0,0:0:0:0:
64,192,33353,1,2,0:0:0:0:
320,192,33395,1,0,0:0:0:0:
448,192,33437,1,2,0:0:0:0:
64,192,33520,1,2,0:0:0:0:
192,192,33562,1,0,0:0:0:0:
320,192,33603,1,2,0:0:0:0:
448,192,33645,1,0,0:0:0:0:
64,192,33687,1,2,0:0:0:0:
192,192,33728,1,0,0:0:0:0:
320,192,33770,1,2,0:0:0:0:
448,192,33812,1,0,0:0:0:0:
64,192,33853,1,2,0:0:0:0:
192,192,33895,1,0,0:0:0:0:
320,192,33937,1,2,0:0:0:0:
448,192,33978,1,0,0:0:0:0:
64,192,34020,1,2,0:0:0:0:
192,192,34062,1,0,0:0:0:0:
320,192,34103,1,2,0:0:0:0:
448,192,34145,1,0,0:0:0:0:
64,192,34187,1,0,0:0:0:0:
320,192,35187,1,0,0:0:0:0:
448,192,35353,1,0,0:0:0:0:
192,192,35520,1,0,0:0:0:0:
320,192,35520,1,0,0:0:0:0:
64,192,36520,1,0,0:0:0:0:
448,192,36687,1,0,0:0:0:0:
64,192,36853,1,0,0:0:0:0:
320,192,36853,1,0,0:0:0:0:
64,192,37853,1,0,0:0:0:0:
320,192,38020,1,0,0:0:0:0:
64,192,38187,1,0,0:0:0:0:
192,192,38187,1,0,0:0:0:0:
64,192,38853,1,0,0:0:0:0:
192,192,39520,1,0,0:0:0:0:
320,192,39520,1,0,0:0:0:0:
192,192,40853,1,0,0:0:0:0:
448,192,40853,1,0,0:0:0:0:
448,192,41520,1,0,0:0:0:0:
192,192,42187,1,0,0:0:0:0:
320,192,42187,1,0,0:0:0:0:
64,192,43520,1,0,0:0:0:0:
192,192,43520,1,0,0:0:0:0:
64,192,44853,1,0,0:0:0:0:
320,192,44853,1,0,0:0:0:0:
448,192,45520,1,0,0:0:0:0:
192,192,46187,1,0,0:0:0:0:
320,192,46187,1,0,0:0:0:0:
64,192,46853,1,0,0:0:0:0:
192,192,47520,1,0,0:0:0:0:
448,192,47520,1,0,0:0:0:0:
192,192,48853,1,0,0:0:0:0:
320,192,48853,1,0,0:0:0:0:
448,192,49520,1,0,0:0:0:0:
64,192,50187,1,0,0:0:0:0:
192,192,50187,1,0,0:0:0:0:
192,192,51187,1,0,0:0:0:0:
320,192,51353,1,0,0:0:0:0:
64,192,51520,1,0,0:0:0:0:
448,192,51520,1,0,0:0:0:0:
320,192,52187,1,0,0:0:0:0:
64,192,52853,1,0,0:0:0:0:
192,192,52853,1,0,0:0:0:0:
64,192,54187,1,0,0:0:0:0:
448,192,54187,1,0,0:0:0:0:
64,192,54853,128,0,54937:0:0:0:0:
320,192,54937,128,0,55020:0:0:0:0:
192,192,55020,128,0,55103:0:0:0:0:
448,192,55103,128,0,55187:0:0:0:0:
64,192,55187,128,0,55270:0:0:0:0:
320,192,55270,128,0,55437:0:0:0:0:
192,192,55353,128,0,55520:0:0:0:0:
448,192,55437,128,0,55520:0:0:0:0:
64,192,55520,128,4,55603:0:0:0:0:
320,192,55520,128,2,55603:0:0:0:0:
192,192,55687,128,0,55770:0:0:0:0:
448,192,55687,128,0,55770:0:0:0:0:
64,192,56020,128,0,56103:0:0:0:0:
320,192,56020,128,0,56103:0:0:0:0:
192,192,56187,128,0,56270:0:0:0:0:
448,192,56187,128,0,56270:0:0:0:0:
64,192,56520,128,0,56603:0:0:0:0:
320,192,56520,128,0,56603:0:0:0:0:
192,192,56687,128,0,56770:0:0:0:0:
448,192,56687,128,0,56770:0:0:0:0:
192,192,56853,128,2,56937:0:0:0:0:
320,192,56853,128,0,56937:0:0:0:0:
64,192,57020,128,0,57103:0:0:0:0:
448,192,57020,128,0,57103:0:0:0:0:
192,192,57353,128,0,57437:0:0:0:0:
320,192,57353,128,0,57437:0:0:0:0:
64,192,57520,128,0,57603:0:0:0:0:
448,192,57520,128,0,57603:0:0:0:0:
192,192,57853,128,0,57937:0:0:0:0:
320,192,57853,128,0,57937:0:0:0:0:
64,192,58020,128,0,58103:0:0:0:0:
320,192,58020,128,0,58103:0:0:0:0:
64,192,58187,128,2,58270:0:0:0:0:
192,192,58187,128,0,58270:0:0:0:0:
320,192,58353,1,0,0:0:0:0:
448,192,58353,1,0,0:0:0:0:
64,192,58437,128,0,58520:0:0:0:0:
192,192,58437,128,0,58520:0:0:0:0:
64,192,58687,128,0,58770:0:0:0:0:
192,192,58687,128,0,58770:0:0:0:0:
320,192,58853,1,0,0:0:0:0:
448,192,58853,1,0,0:0:0:0:
64,192,58937,1,0,0:0:0:0:
192,192,58937,1,0,0:0:0:0:
320,192,59020,128,0,59103:0:0:0:0:
448,192,59020,128,0,59103:0:0:0:0:
64,192,59187,128,0,59270:0:0:0:0:
320,192,59187,128,0,59270:0:0:0:0:
192,192,59353,128,0,59437:0:0:0:0:
448,192,59353,128,0,59437:0:0:0:0:
320,192,59520,128,2,59603:0:0:0:0:
448,192,59520,128,0,59603:0:0:0:0:
64,192,59687,1,0,0:0:0:0:
192,192,59687,1,0,0:0:0:0:
320,192,59770,128,0,59853:0:0:0:0:
448,192,59770,128,0,59853:0:0:0:0:
64,192,59937,1,0,0:0:0:0:
192,192,59937,1,0,0:0:0:0:
320,192,60020,128,0,60103:0:0:0:0:
448,192,60020,128,0,60103:0:0:0:0:
320,192,60187,128,0,60270:0:0:0:0:
448,192,60187,128,0,60437:0:0:0:0:
64,192,60353,128,0,60603:0:0:0:0:
192,192,60353,128,0,60437:0:0:0:0:
192,192,60520,128,0,60603:0:0:0:0:
320,192,60520,128,0,60603:0:0:0:0:
320,192,60687,1,2,0:0:0:0:
448,192,60687,1,0,0:0:0:0:
64,192,60853,128,2,60937:0:0:0:0:
192,192,60853,128,0,60937:0:0:0:0:
320,192,61020,1,0,0:0:0:0:
448,192,61020,1,0,0:0:0:0:
64,192,61103,128,0,61187:0:0:0:0:
192,192,61103,128,0,61187:0:0:0:0:
320,192,61353,128,0,61437:0:0:0:0:
448,192,61353,128,0,61437:0:0:0:0:
64,192,61520,128,0,61603:0:0:0:0:
192,192,61520,128,0,61603:0:0:0:0:
64,192,61853,128,0,61937:0:0:0:0:
320,192,61853,128,0,61937:0:0:0:0:
192,192,62020,128,0,62103:0:0:0:0:
320,192,62020,128,0,62103:0:0:0:0:
192,192,62187,128,2,62270:0:0:0:0:
448,192,62187,128,0,62270:0:0:0:0:
64,192,62353,1,0,0:0:0:0:
320,192,62353,1,0,0:0:0:0:
192,192,62437,128,0,62520:0:0:0:0:
448,192,62437,128,0,62520:0:0:0:0:
64,192,62687,128,0,62770:0:0:0:0:
320,192,62687,128,0,62770:0:0:0:0:
192,192,62853,128,0,62937:0:0:0:0:
448,192,62853,128,0,62937:0:0:0:0:
320,192,63187,128,0,63270:0:0:0:0:
448,192,63187,128,0,63270:0:0:0:0:
192,192,63353,128,0,63437:0:0:0:0:
320,192,63353,128,0,63437:0:0:0:0:
64,192,63520,128,2,63603:0:0:0:0:
448,192,63520,128,0,63603:0:0:0:0:
192,192,63687,1,0,0:0:0:0:
320,192,63687,1,0,0:0:0:0:
64,192,63770,128,0,63853:0:0:0:0:
448,192,63770,128,0,63853:0:0:0:0:
192,192,63937,1,0,0:0:0:0:
320,192,63937,1,0,0:0:0:0:
64,192,64020,128,0,64103:0:0:0:0:
448,192,64020,128,0,64103:0:0:0:0:
192,192,64187,1,0,0:0:0:0:
320,192,64187,1,0,0:0:0:0:
64,192,64270,128,0,64353:0:0:0:0:
448,192,64270,128,0,64353:0:0:0:0:
320,192,64437,1,0,0:0:0:0:
448,192,64437,1,0,0:0:0:0:
64,192,64520,1,0,0:0:0:0:
192,192,64520,1,0,0:0:0:0:
320,192,64603,1,0,0:0:0:0:
448,192,64603,1,0,0:0:0:0:
64,192,64687,128,0,64770:0:0:0:0:
192,192,64687,128,0,64770:0:0:0:0:
192,192,64853,128,2,64937:0:0:0:0:
320,192,64853,128,0,64937:0:0:0:0:
64,192,65020,1,0,0:0:0:0:
320,192,65020,1,0,0:0:0:0:
192,192,65103,128,0,65187:0:0:0:0:
448,192,65103,128,0,65187:0:0:0:0:
64,192,65270,1,0,0:0:0:0:
320,192,65270,1,0,0:0:0:0:
192,192,65353,1,0,0:0:0:0:
448,192,65353,1,0,0:0:0:0:
64,192,65437,1,0,0:0:0:0:
320,192,65437,1,0,0:0:0:0:
192,192,65520,128,2,65603:0:0:0:0:
448,192,65520,128,0,65603:0:0:0:0:
192,192,65687,128,0,65770:0:0:0:0:
320,192,65687,128,0,65770:0:0:0:0:
64,192,65853,128,2,66103:0:0:0:0:
320,192,65853,128,0,65937:0:0:0:0:
192,192,66020,128,0,66103:0:0:0:0:
448,192,66020,128,0,66270:0:0:0:0:
192,192,66187,128,2,66270:0:0:0:0:
320,192,66187,128,0,66270:0:0:0:0:
64,192,66353,1,0,0:0:0:0:
448,192,66353,1,0,0:0:0:0:
192,192,66437,128,0,66520:0:0:0:0:
320,192,66437,128,0,66520:0:0:0:0:
64,192,66687,128,0,66770:0:0:0:0:
448,192,66687,128,0,66770:0:0:0:0:
192,192,66853,128,2,66937:0:0:0:0:
320,192,66853,128,0,66937:0:0:0:0:
64,192,67187,128,0,67270:0:0:0:0:
448,192,67187,128,0,67270:0:0:0:0:
192,192,67353,128,0,67437:0:0:0:0:
320,192,67353,128,0,67437:0:0:0:0:
320,192,67520,128,2,67603:0:0:0:0:
448,192,67520,128,0,67603:0:0:0:0:
64,192,67687,1,0,0:0:0:0:
192,192,67687,1,0,0:0:0:0:
320,192,67770,128,0,67853:0:0:0:0:
448,192,67770,128,0,67853:0:0:0:0:
320,192,68020,128,0,68103:0:0:0:0:
448,192,68020,128,0,68103:0:0:0:0:
64,192,68187,1,2,0:0:0:0:
192,192,68187,1,0,0:0:0:0:
320,192,68270,1,0,0:0:0:0:
448,192,68270,1,0,0:0:0:0:
64,192,68353,128,0,68437:0:0:0:0:
192,192,68353,128,0,68437:0:0:0:0:
320,192,68520,128,2,68603:0:0:0:0:
448,192,68520,128,0,68603:0:0:0:0:
192,192,68687,128,2,68770:0:0:0:0:
448,192,68687,128,0,68770:0:0:0:0:
64,192,68853,128,2,68937:0:0:0:0:
320,192,68853,128,0,68937:0:0:0:0:
64,192,69020,128,0,69103:0:0:0:0:
320,192,69020,128,0,69103:0:0:0:0:
192,192,69187,128,2,69270:0:0:0:0:
448,192,69187,128,0,69270:0:0:0:0:
192,192,69353,128,0,69437:0:0:0:0:
448,192,69353,128,0,69437:0:0:0:0:
192,192,69520,1,2,0:0:0:0:
320,192,69520,1,0,0:0:0:0:
64,192,69603,128,0,69687:0:0:0:0:
448,192,69603,128,0,69687:0:0:0:0:
192,192,69770,1,0,0:0:0:0:
448,192,69770,1,0,0:0:0:0:
64,192,69853,1,2,0:0:0:0:
320,192,69853,1,0,0:0:0:0:
192,192,69937,1,0,0:0:0:0:
448,192,69937,1,0,0:0:0:0:
64,192,70020,128,0,70103:0:0:0:0:
320,192,70020,128,0,70103:0:0:0:0:
64,192,70187,128,2,70270:0:0:0:0:
192,192,70187,128,0,70270:0:0:0:0:
320,192,70353,1,0,0:0:0:0:
448,192,70353,1,0,0:0:0:0:
192,192,70437,1,0,0:0:0:0:
64,192,70437,1,0,0:0:0:0:
448,192,70520,128,2,70603:0:0:0:0:
320,192,70520,128,0,70603:0:0:0:0:
64,192,70687,128,0,70770:0:0:0:0:
192,192,70687,128,0,70770:0:0:0:0:
320,192,70853,1,2,0:0:0:0:
448,192,70853,1,0,0:0:0:0:
64,192,70937,1,0,0:0:0:0:
192,192,70937,1,0,0:0:0:0:
320,192,71020,128,0,71103:0:0:0:0:
448,192,71020,128,0,71103:0:0:0:0:
192,192,71187,128,2,71270:0:0:0:0:
320,192,71187,128,0,71270:0:0:0:0:
192,192,71353,128,2,71437:0:0:0:0:
448,192,71353,128,0,71437:0:0:0:0:
320,192,71520,128,2,71603:0:0:0:0:
448,192,71520,128,0,71603:0:0:0:0:
64,192,71687,1,0,0:0:0:0:
192,192,71687,1,0,0:0:0:0:
320,192,71770,1,0,0:0:0:0:
448,192,71770,1,0,0:0:0:0:
64,192,71853,128,2,71937:0:0:0:0:
192,192,71853,128,0,71937:0:0:0:0:
320,192,72020,128,0,72103:0:0:0:0:
448,192,72020,128,0,72103:0:0:0:0:
64,192,72187,128,2,72270:0:0:0:0:
192,192,72187,128,0,72270:0:0:0:0:
320,192,72520,128,2,72603:0:0:0:0:
448,192,72520,128,0,72603:0:0:0:0:
64,192,72687,128,0,72770:0:0:0:0:
192,192,72687,128,0,72770:0:0:0:0:
64,192,72853,128,2,72937:0:0:0:0:
320,192,72853,128,0,72937:0:0:0:0:
192,192,73020,1,0,0:0:0:0:
448,192,73020,1,0,0:0:0:0:
64,192,73103,128,0,73187:0:0:0:0:
320,192,73103,128,0,73187:0:0:0:0:
192,192,73187,1,2,0:0:0:0:
448,192,73187,1,0,0:0:0:0:
64,192,73353,128,0,73437:0:0:0:0:
320,192,73353,128,0,73437:0:0:0:0:
64,192,73520,1,2,0:0:0:0:
448,192,73520,1,0,0:0:0:0:
192,192,73603,1,0,0:0:0:0:
320,192,73603,1,0,0:0:0:0:
64,192,73687,128,0,73770:0:0:0:0:
448,192,73687,128,0,73770:0:0:0:0:
64,192,73853,1,2,0:0:0:0:
320,192,73853,1,0,0:0:0:0:
192,192,73937,1,0,0:0:0:0:
448,192,73937,1,0,0:0:0:0:
64,192,74020,128,0,74103:0:0:0:0:
320,192,74020,128,0,74103:0:0:0:0:
64,192,74187,128,2,74270:0:0:0:0:
192,192,74187,128,0,74270:0:0:0:0:
320,192,74353,1,0,0:0:0:0:
448,192,74353,1,0,0:0:0:0:
64,192,74437,128,0,74520:0:0:0:0:
192,192,74437,128,0,74520:0:0:0:0:
320,192,74520,1,2,0:0:0:0:
448,192,74520,1,0,0:0:0:0:
64,192,74603,1,0,0:0:0:0:
192,192,74603,1,0,0:0:0:0:
320,192,74687,128,0,74770:0:0:0:0:
448,192,74687,128,0,74770:0:0:0:0:
64,192,74853,1,2,0:0:0:0:
448,192,74853,1,0,0:0:0:0:
192,192,74937,1,0,0:0:0:0:
320,192,74937,1,0,0:0:0:0:
64,192,75020,128,0,75103:0:0:0:0:
448,192,75020,128,0,75103:0:0:0:0:
192,192,75187,1,2,0:0:0:0:
448,192,75187,1,0,0:0:0:0:
64,192,75270,1,0,0:0:0:0:
320,192,75270,1,0,0:0:0:0:
192,192,75353,128,0,75437:0:0:0:0:
448,192,75353,128,0,75437:0:0:0:0:
320,192,75520,128,2,75603:0:0:0:0:
448,192,75520,128,0,75603:0:0:0:0:
64,192,75687,1,0,0:0:0:0:
192,192,75687,1,0,0:0:0:0:
320,192,75770,128,0,75853:0:0:0:0:
448,192,75770,128,0,75853:0:0:0:0:
64,192,75853,1,2,0:0:0:0:
192,192,75853,1,0,0:0:0:0:
320,192,75937,1,0,0:0:0:0:
448,192,75937,1,0,0:0:0:0:
64,192,76020,128,0,76103:0:0:0:0:
192,192,76020,128,0,76103:0:0:0:0:
64,192,76187,1,2,0:0:0:0:
448,192,76187,1,0,0:0:0:0:
192,192,76270,1,0,0:0:0:0:
320,192,76270,1,0,0:0:0:0:
64,192,76353,1,0,0:0:0:0:
448,192,76353,1,0,0:0:0:0:
192,192,76437,1,0,0:0:0:0:
320,192,76437,1,0,0:0:0:0:
64,192,76520,1,2,0:0:0:0:
448,192,76520,128,0,76853:0:0:0:0:
64,192,76687,128,2,76853:0:0:0:0:
192,192,76687,1,0,0:0:0:0:
192,192,76853,1,2,0:0:0:0:
320,192,76853,1,4,0:0:0:0:
448,192,76937,1,0,0:0:0:0:
64,192,77020,1,0,0:0:0:0:
192,192,77103,1,0,0:0:0:0:
320,192,77187,128,2,77437:0:0:0:0:
448,192,77187,1,0,0:0:0:0:
64,192,77270,128,0,77353:0:0:0:0:
192,192,77353,128,0,77437:0:0:0:0:
448,192,77437,128,0,77520:0:0:0:0:
192,192,77520,128,2,77770:0:0:0:0:
320,192,77520,1,0,0:0:0:0:
64,192,77603,1,0,0:0:0:0:
320,192,77687,128,0,77770:0:0:0:0:
448,192,77770,128,0,77853:0:0:0:0:
64,192,77853,128,2,78103:0:0:0:0:
192,192,77853,1,0,0:0:0:0:
320,192,77937,128,0,78020:0:0:0:0:
192,192,78020,128,0,78103:0:0:0:0:
448,192,78103,128,0,78187:0:0:0:0:
64,192,78187,1,2,0:0:0:0:
192,192,78187,1,0,0:0:0:0:
320,192,78270,1,0,0:0:0:0:
64,192,78353,128,0,78437:0:0:0:0:
192,192,78437,128,0,78520:0:0:0:0:
320,192,78520,128,2,78687:0:0:0:0:
448,192,78520,1,0,0:0:0:0:
64,192,78603,1,0,0:0:0:0:
192,192,78687,128,0,78770:0:0:0:0:
320,192,78770,128,0,78853:0:0:0:0:
64,192,78853,1,2,0:0:0:0:
448,192,78853,128,0,79020:0:0:0:0:
192,192,78937,1,0,0:0:0:0:
320,192,79020,128,0,79103:0:0:0:0:
448,192,79103,128,0,79187:0:0:0:0:
64,192,79187,128,2,79437:0:0:0:0:
192,192,79187,1,0,0:0:0:0:
320,192,79270,128,0,79353:0:0:0:0:
192,192,79353,128,2,79437:0:0:0:0:
448,192,79353,1,0,0:0:0:0:
320,192,79437,128,0,79520:0:0:0:0:
64,192,79520,1,2,0:0:0:0:
192,192,79520,1,0,0:0:0:0:
448,192,79603,1,0,0:0:0:0:
320,192,79687,1,0,0:0:0:0:
64,192,79770,1,0,0:0:0:0:
192,192,79853,1,2,0:0:0:0:
448,192,79853,1,0,0:0:0:0:
320,192,79920,1,0,0:0:0:0:
64,192,79987,128,0,80053:0:0:0:0:
192,192,80053,128,0,80120:0:0:0:0:
320,192,80120,128,0,80187:0:0:0:0:
64,192,80187,128,2,80270:0:0:0:0:
448,192,80187,128,0,80253:0:0:0:0:
192,192,80270,128,0,80437:0:0:0:0:
320,192,80353,128,0,80520:0:0:0:0:
64,192,80437,128,0,80520:0:0:0:0:
192,192,80520,1,2,0:0:0:0:
448,192,80520,128,0,80603:0:0:0:0:
320,192,80603,128,0,80770:0:0:0:0:
192,192,80687,128,0,80770:0:0:0:0:
64,192,80770,128,0,80853:0:0:0:0:
320,192,80853,1,2,0:0:0:0:
448,192,80853,128,0,80909:0:0:0:0:
192,192,80920,128,0,80987:0:0:0:0:
64,192,80987,128,0,81053:0:0:0:0:
320,192,81053,128,0,81120:0:0:0:0:
192,192,81120,128,0,81187:0:0:0:0:
320,192,81187,128,2,81253:0:0:0:0:
448,192,81187,1,0,0:0:0:0:
192,192,81253,128,0,81320:0:0:0:0:
64,192,81298,128,0,81353:0:0:0:0:
448,192,81353,128,0,81409:0:0:0:0:
320,192,81409,128,0,81465:0:0:0:0:
64,192,81465,128,0,81520:0:0:0:0:
192,192,81520,128,2,81576:0:0:0:0:
448,192,81520,1,0,0:0:0:0:
320,192,81576,128,0,81631:0:0:0:0:
64,192,81631,128,0,81687:0:0:0:0:
448,192,81687,128,0,81742:0:0:0:0:
192,192,81742,128,0,81798:0:0:0:0:
320,192,81798,128,0,81853:0:0:0:0:
448,192,81853,128,0,81909:0:0:0:0:
192,192,81909,128,0,81965:0:0:0:0:
320,192,81965,128,0,82020:0:0:0:0:
64,192,82020,128,2,82076:0:0:0:0:
448,192,82076,128,0,82131:0:0:0:0:
192,192,82131,128,0,82187:0:0:0:0:
320,192,82187,1,2,0:0:0:0:
448,192,82187,1,0,0:0:0:0:
64,192,82270,1,0,0:0:0:0:
192,192,82353,128,0,82437:0:0:0:0:
320,192,82437,128,0,82520:0:0:0:0:
64,192,82520,1,2,0:0:0:0:
448,192,82520,128,0,82770:0:0:0:0:
192,192,82603,128,0,82687:0:0:0:0:
64,192,82687,128,0,82770:0:0:0:0:
320,192,82770,128,0,82853:0:0:0:0:
192,192,82853,1,2,0:0:0:0:
448,192,82853,128,0,82937:0:0:0:0:
64,192,82937,128,0,83020:0:0:0:0:
320,192,83020,128,0,83103:0:0:0:0:
192,192,83103,128,0,83187:0:0:0:0:
64,192,83187,128,2,83353:0:0:0:0:
448,192,83187,1,0,0:0:0:0:
320,192,83270,128,0,83437:0:0:0:0:
192,192,83353,128,0,83437:0:0:0:0:
448,192,83437,128,0,83520:0:0:0:0:
64,192,83520,1,2,0:0:0:0:
192,192,83520,1,0,0:0:0:0:
320,192,83603,1,0,0:0:0:0:
64,192,83687,128,0,83770:0:0:0:0:
192,192,83770,128,0,83853:0:0:0:0:
320,192,83853,1,2,0:0:0:0:
448,192,83853,128,0,84103:0:0:0:0:
64,192,83937,128,0,84020:0:0:0:0:
192,192,84020,128,0,84103:0:0:0:0:
320,192,84103,128,0,84187:0:0:0:0:
64,192,84187,1,2,0:0:0:0:
448,192,84187,128,0,84270:0:0:0:0:
192,192,84270,128,0,84353:0:0:0:0:
64,192,84353,128,0,84437:0:0:0:0:
320,192,84437,128,0,84520:0:0:0:0:
192,192,84520,128,2,84653:0:0:0:0:
448,192,84520,1,0,0:0:0:0:
64,192,84587,128,0,84720:0:0:0:0:
448,192,84653,128,0,84720:0:0:0:0:
192,192,84720,128,0,84787:0:0:0:0:
320,192,84787,1,0,0:0:0:0:
64,192,84853,1,2,0:0:0:0:
448,192,84853,128,0,84937:0:0:0:0:
192,192,84909,128,0,84992:0:0:0:0:
320,192,84965,128,0,85048:0:0:0:0:
64,192,85020,128,0,85103:0:0:0:0:
192,192,85076,128,0,85159:0:0:0:0:
448,192,85131,128,0,85187:0:0:0:0:
64,192,85187,1,2,0:0:0:0:
320,192,85187,128,0,85242:0:0:0:0:
192,192,85242,128,0,85298:0:0:0:0:
448,192,85298,128,0,85353:0:0:0:0:
320,192,85353,128,0,85409:0:0:0:0:
64,192,85409,128,0,85465:0:0:0:0:
192,192,85465,128,0,85520:0:0:0:0:
320,192,85520,1,2,0:0:0:0:
448,192,85520,128,0,85587:0:0:0:0:
192,192,85587,128,0,85720:0:0:0:0:
64,192,85653,128,0,85787:0:0:0:0:
320,192,85720,128,0,85787:0:0:0:0:
192,192,85787,128,0,85853:0:0:0:0:
64,192,85853,128,2,85920:0:0:0:0:
448,192,85853,1,0,0:0:0:0:
320,192,85920,128,0,86053:0:0:0:0:
448,192,85987,128,0,86120:0:0:0:0:
192,192,86053,128,0,86120:0:0:0:0:
320,192,86120,128,0,86187:0:0:0:0:
64,192,86187,1,2,0:0:0:0:
448,192,86187,1,0,0:0:0:0:
192,192,86253,1,0,0:0:0:0:
320,192,86320,1,0,0:0:0:0:
64,192,86387,1,0,0:0:0:0:
192,192,86465,1,0,0:0:0:0:
320,192,86520,128,2,86587:0:0:0:0:
448,192,86520,1,0,0:0:0:0:
64,192,86587,128,0,86653:0:0:0:0:
320,192,86653,128,0,86720:0:0:0:0:
448,192,86720,128,0,86787:0:0:0:0:
64,192,86787,128,0,86853:0:0:0:0:
192,192,86853,128,2,86909:0:0:0:0:
320,192,86853,1,0,0:0:0:0:
448,192,86909,128,0,86965:0:0:0:0:
64,192,86965,128,0,87020:0:0:0:0:
320,192,87020,128,0,87076:0:0:0:0:
192,192,87076,128,0,87131:0:0:0:0:
448,192,87131,128,0,87187:0:0:0:0:
64,192,87187,128,2,87249:0:0:0:0:
320,192,87187,1,0,0:0:0:0:
192,192,87249,128,0,87312:0:0:0:0:
320,192,87312,128,0,87374:0:0:0:0:
448,192,87353,1,2,0:0:0:0:
64,192,87374,128,0,87458:0:0:0:0:
320,192,87458,128,0,87520:0:0:0:0:
64,192,87520,128,2,87770:0:0:0:0:
448,192,87520,1,0,0:0:0:0:
192,192,87603,1,0,0:0:0:0:
320,192,87687,1,0,0:0:0:0:
448,192,87770,128,0,87853:0:0:0:0:
64,192,87853,1,2,0:0:0:0:
192,192,87853,128,0,88103:0:0:0:0:
448,192,87937,1,0,0:0:0:0:
320,192,88020,1,0,0:0:0:0:
64,192,88103,128,0,88187:0:0:0:0:
192,192,88187,1,2,0:0:0:0:
320,192,88187,128,0,88437:0:0:0:0:
448,192,88270,1,0,0:0:0:0:
64,192,88353,1,0,0:0:0:0:
192,192,88437,1,0,0:0:0:0:
320,192,88520,1,2,0:0:0:0:
448,192,88520,128,0,88603:0:0:0:0:
64,192,88603,128,0,88687:0:0:0:0:
192,192,88687,128,0,88770:0:0:0:0:
448,192,88770,128,0,88853:0:0:0:0:
192,192,88853,128,2,89103:0:0:0:0:
320,192,88853,1,0,0:0:0:0:
64,192,88937,1,0,0:0:0:0:
448,192,89020,1,0,0:0:0:0:
64,192,89103,128,0,89187:0:0:0:0:
192,192,89187,1,2,0:0:0:0:
320,192,89187,128,0,89437:0:0:0:0:
448,192,89270,1,0,0:0:0:0:
64,192,89353,1,0,0:0:0:0:
192,192,89437,128,0,89520:0:0:0:0:
320,192,89520,128,2,89603:0:0:0:0:
448,192,89520,1,0,0:0:0:0:
64,192,89603,128,0,89687:0:0:0:0:
192,192,89687,128,0,89770:0:0:0:0:
448,192,89770,128,0,89853:0:0:0:0:
64,192,89853,128,2,89937:0:0:0:0:
320,192,89853,1,0,0:0:0:0:
192,192,89937,128,0,90103:0:0:0:0:
320,192,90020,128,0,90103:0:0:0:0:
448,192,90103,128,0,90187:0:0:0:0:
64,192,90187,128,2,90437:0:0:0:0:
192,192,90187,1,0,0:0:0:0:
320,192,90270,1,0,0:0:0:0:
448,192,90353,1,0,0:0:0:0:
192,192,90437,128,0,90520:0:0:0:0:
64,192,90520,1,2,0:0:0:0:
320,192,90520,128,0,90770:0:0:0:0:
448,192,90603,1,0,0:0:0:0:
64,192,90687,1,0,0:0:0:0:
192,192,90770,128,0,90853:0:0:0:0:
320,192,90853,128,2,90937:0:0:0:0:
448,192,90853,1,0,0:0:0:0:
192,192,90937,128,0,91020:0:0:0:0:
64,192,91020,128,0,91103:0:0:0:0:
320,192,91103,128,0,91187:0:0:0:0:
192,192,91187,128,2,91353:0:0:0:0:
448,192,91187,1,0,0:0:0:0:
64,192,91270,128,0,91353:0:0:0:0:
320,192,91353,128,0,91520:0:0:0:0:
448,192,91437,128,0,91520:0:0:0:0:
64,192,91520,1,2,0:0:0:0:
192,192,91520,128,0,91687:0:0:0:0:
448,192,91603,1,0,0:0:0:0:
320,192,91687,128,0,91770:0:0:0:0:
64,192,91770,128,0,91937:0:0:0:0:
320,192,91853,1,2,0:0:0:0:
448,192,91853,128,0,91937:0:0:0:0:
192,192,91937,128,0,92020:0:0:0:0:
320,192,92020,128,0,92103:0:0:0:0:
192,192,92103,128,0,92187:0:0:0:0:
64,192,92187,128,2,92353:0:0:0:0:
448,192,92187,1,0,0:0:0:0:
320,192,92270,1,0,0:0:0:0:
192,192,92353,1,0,0:0:0:0:
448,192,92437,128,0,92520:0:0:0:0:
64,192,92520,128,0,92576:0:0:0:0:
192,192,92520,1,2,0:0:0:0:
320,192,92576,128,0,92631:0:0:0:0:
192,192,92631,128,0,92687:0:0:0:0:
64,192,92687,128,2,92742:0:0:0:0:
448,192,92687,1,0,0:0:0:0:
320,192,92742,128,0,92798:0:0:0:0:
192,192,92798,128,0,92853:0:0:0:0:
64,192,92853,128,2,93103:0:0:0:0:
448,192,92853,1,0,0:0:0:0:
320,192,92937,1,0,0:0:0:0:
192,192,93020,1,0,0:0:0:0:
448,192,93103,128,0,93187:0:0:0:0:
192,192,93187,128,2,93437:0:0:0:0:
64,192,93187,1,0,0:0:0:0:
320,192,93270,1,0,0:0:0:0:
64,192,93353,1,0,0:0:0:0:
448,192,93437,128,0,93520:0:0:0:0:
64,192,93520,1,2,0:0:0:0:
320,192,93520,128,0,93770:0:0:0:0:
192,192,93603,1,0,0:0:0:0:
448,192,93687,1,0,0:0:0:0:
64,192,93770,128,0,93853:0:0:0:0:
192,192,93853,128,2,93937:0:0:0:0:
320,192,93853,1,0,0:0:0:0:
448,192,93937,128,0,94020:0:0:0:0:
64,192,94020,128,0,94103:0:0:0:0:
448,192,94103,128,0,94187:0:0:0:0:
64,192,94187,1,2,0:0:0:0:
192,192,94187,128,0,94437:0:0:0:0:
320,192,94270,1,0,0:0:0:0:
64,192,94353,1,0,0:0:0:0:
448,192,94437,128,0,94520:0:0:0:0:
192,192,94520,1,2,0:0:0:0:
320,192,94520,128,0,94770:0:0:0:0:
448,192,94603,1,0,0:0:0:0:
64,192,94687,128,0,94770:0:0:0:0:
192,192,94770,128,0,94853:0:0:0:0:
64,192,94853,128,2,94937:0:0:0:0:
320,192,94853,1,0,0:0:0:0:
448,192,94937,128,0,95020:0:0:0:0:
192,192,95020,128,0,95103:0:0:0:0:
320,192,95103,128,0,95187:0:0:0:0:
192,192,95187,1,2,0:0:0:0:
448,192,95187,128,0,95270:0:0:0:0:
64,192,95270,128,0,95353:0:0:0:0:
192,192,95353,1,2,0:0:0:0:
320,192,95353,128,0,95437:0:0:0:0:
448,192,95437,128,0,95520:0:0:0:0:
64,192,95520,1,2,0:0:0:0:
320,192,95520,1,0,0:0:0:0:
64,192,95687,1,2,0:0:0:0:
192,192,95687,1,0,0:0:0:0:
320,192,95853,1,2,0:0:0:0:
448,192,95853,1,0,0:0:0:0:
64,192,96020,1,2,0:0:0:0:
448,192,96020,1,0,0:0:0:0:
192,192,96187,1,2,0:0:0:0:
320,192,96187,1,0,0:0:0:0:
64,192,96353,1,2,0:0:0:0:
320,192,96353,1,0,0:0:0:0:
192,192,96520,1,2,0:0:0:0:
448,192,96520,1,0,0:0:0:0:
192,192,96687,1,2,0:0:0:0:
320,192,96687,1,0,0:0:0:0:
448,192,96770,1,0,0:0:0:0:
64,192,96853,1,2,0:0:0:0:
320,192,96853,1,0,0:0:0:0:
192,192,97020,1,2,0:0:0:0:
448,192,97020,1,0,0:0:0:0:
320,192,97103,1,2,0:0:0:0:
64,192,97187,1,2,0:0:0:0:
448,192,97187,1,0,0:0:0:0:
192,192,97353,1,2,0:0:0:0:
320,192,97353,1,0,0:0:0:0:
448,192,97437,1,2,0:0:0:0:
64,192,97520,1,2,0:0:0:0:
192,192,97520,1,0,0:0:0:0:
320,192,97603,1,2,0:0:0:0:
448,192,97603,1,0,0:0:0:0:
64,192,97687,1,2,0:0:0:0:
192,192,97687,1,0,0:0:0:0:
320,192,97770,1,2,0:0:0:0:
448,192,97770,1,0,0:0:0:0:
64,192,97853,1,2,0:0:0:0:
192,192,97853,1,0,0:0:0:0:
320,192,97937,1,2,0:0:0:0:
448,192,97937,1,0,0:0:0:0:
64,192,98020,1,2,0:0:0:0:
192,192,98020,1,0,0:0:0:0:
320,192,98103,1,2,0:0:0:0:
448,192,98103,1,0,0:0:0:0:
64,192,98187,128,2,98270:0:0:0:0:
192,192,98187,128,4,98270:0:0:0:0:
320,192,98353,1,0,0:0:0:0:
448,192,98353,128,0,98520:0:0:0:0:
64,192,98437,128,0,98520:0:0:0:0:
192,192,98520,128,2,98603:0:0:0:0:
320,192,98520,1,0,0:0:0:0:
448,192,98603,128,0,98687:0:0:0:0:
192,192,98687,128,0,98853:0:0:0:0:
64,192,98770,128,0,98853:0:0:0:0:
320,192,98853,128,2,98937:0:0:0:0:
448,192,98853,128,0,98937:0:0:0:0:
64,192,99020,1,0,0:0:0:0:
192,192,99020,128,0,99103:0:0:0:0:
320,192,99103,128,0,99187:0:0:0:0:
192,192,99187,128,2,99353:0:0:0:0:
448,192,99187,1,0,0:0:0:0:
64,192,99270,128,0,99353:0:0:0:0:
320,192,99353,128,0,99520:0:0:0:0:
192,192,99437,128,0,99520:0:0:0:0:
64,192,99520,128,2,99603:0:0:0:0:
448,192,99520,128,0,99603:0:0:0:0:
192,192,99687,128,0,99770:0:0:0:0:
320,192,99770,128,0,99853:0:0:0:0:
64,192,99853,1,2,0:0:0:0:
448,192,99853,128,0,100020:0:0:0:0:
192,192,99937,128,0,100020:0:0:0:0:
64,192,100020,128,0,100103:0:0:0:0:
320,192,100020,128,0,100103:0:0:0:0:
64,192,100187,128,2,100270:0:0:0:0:
192,192,100187,128,0,100520:0:0:0:0:
448,192,100270,128,0,100353:0:0:0:0:
320,192,100353,128,0,100437:0:0:0:0:
64,192,100437,128,0,100520:0:0:0:0:
320,192,100520,1,2,0:0:0:0:
448,192,100520,128,0,100603:0:0:0:0:
64,192,100687,1,2,0:0:0:0:
192,192,100687,1,0,0:0:0:0:
320,192,100770,128,0,100853:0:0:0:0:
64,192,100853,128,2,101020:0:0:0:0:
448,192,100853,1,0,0:0:0:0:
192,192,101020,128,0,101103:0:0:0:0:
320,192,101103,128,0,101187:0:0:0:0:
64,192,101187,128,2,101270:0:0:0:0:
448,192,101187,128,0,101353:0:0:0:0:
320,192,101353,128,0,101437:0:0:0:0:
192,192,101437,128,0,101520:0:0:0:0:
64,192,101520,1,2,0:0:0:0:
448,192,101520,128,0,101687:0:0:0:0:
320,192,101603,128,0,101687:0:0:0:0:
192,192,101687,128,0,101770:0:0:0:0:
320,192,101770,128,0,101853:0:0:0:0:
64,192,101853,128,2,101937:0:0:0:0:
192,192,101853,1,0,0:0:0:0:
320,192,102020,128,0,102103:0:0:0:0:
448,192,102103,128,0,102187:0:0:0:0:
64,192,102187,128,2,102353:0:0:0:0:
192,192,102187,1,0,0:0:0:0:
320,192,102353,128,0,102437:0:0:0:0:
192,192,102437,128,0,102520:0:0:0:0:
320,192,102520,1,2,0:0:0:0:
448,192,102520,128,0,102687:0:0:0:0:
192,192,102603,128,0,102687:0:0:0:0:
320,192,102687,128,0,102853:0:0:0:0:
64,192,102770,128,0,102853:0:0:0:0:
192,192,102853,128,2,102937:0:0:0:0:
448,192,102853,1,0,0:0:0:0:
320,192,102937,128,0,103020:0:0:0:0:
192,192,103020,128,0,103103:0:0:0:0:
64,192,103103,128,2,103187:0:0:0:0:
448,192,103103,1,0,0:0:0:0:
320,192,103187,128,0,103353:0:0:0:0:
64,192,103270,128,0,103353:0:0:0:0:
192,192,103353,128,2,103437:0:0:0:0:
448,192,103353,1,0,0:0:0:0:
320,192,103437,128,0,103520:0:0:0:0:
64,192,103520,128,2,103603:0:0:0:0:
448,192,103520,1,0,0:0:0:0:
192,192,103603,128,0,103687:0:0:0:0:
320,192,103687,128,0,103770:0:0:0:0:
192,192,103770,128,0,103853:0:0:0:0:
64,192,103853,1,2,0:0:0:0:
448,192,103853,128,0,104020:0:0:0:0:
320,192,103937,128,0,104020:0:0:0:0:
192,192,104020,128,0,104103:0:0:0:0:
448,192,104103,128,0,104270:0:0:0:0:
64,192,104187,1,2,0:0:0:0:
320,192,104187,128,0,104270:0:0:0:0:
192,192,104270,128,0,104353:0:0:0:0:
448,192,104353,128,0,104520:0:0:0:0:
320,192,104437,128,0,104520:0:0:0:0:
64,192,104520,1,2,0:0:0:0:
192,192,104520,128,0,104603:0:0:0:0:
448,192,104603,128,0,104687:0:0:0:0:
320,192,104687,128,0,104770:0:0:0:0:
448,192,104770,128,0,104853:0:0:0:0:
192,192,104853,128,2,104937:0:0:0:0:
320,192,104853,1,0,0:0:0:0:
64,192,104937,128,0,105020:0:0:0:0:
320,192,105020,128,0,105103:0:0:0:0:
64,192,105103,128,0,105187:0:0:0:0:
192,192,105187,1,2,0:0:0:0:
448,192,105187,128,0,105270:0:0:0:0:
448,192,105353,128,0,105520:0:0:0:0:
320,192,105437,128,0,105520:0:0:0:0:
64,192,105520,1,2,0:0:0:0:
192,192,105520,128,0,105603:0:0:0:0:
320,192,105603,128,0,105687:0:0:0:0:
192,192,105687,128,0,105770:0:0:0:0:
64,192,105770,128,0,105853:0:0:0:0:
192,192,105853,128,2,105937:0:0:0:0:
448,192,105853,1,0,0:0:0:0:
320,192,106020,128,2,106103:0:0:0:0:
448,192,106020,1,0,0:0:0:0:
64,192,106103,128,0,106187:0:0:0:0:
192,192,106187,1,2,0:0:0:0:
320,192,106187,128,0,106270:0:0:0:0:
64,192,106270,128,0,106353:0:0:0:0:
448,192,106353,128,0,106520:0:0:0:0:
320,192,106437,128,0,106520:0:0:0:0:
64,192,106520,1,2,0:0:0:0:
192,192,106520,128,0,106687:0:0:0:0:
320,192,106603,128,0,106687:0:0:0:0:
64,192,106687,128,0,106770:0:0:0:0:
192,192,106770,128,0,106853:0:0:0:0:
64,192,106853,128,2,106937:0:0:0:0:
448,192,106853,1,0,0:0:0:0:
320,192,106937,128,0,107187:0:0:0:0:
192,192,107020,128,0,107103:0:0:0:0:
64,192,107103,128,0,107187:0:0:0:0:
192,192,107187,128,2,107270:0:0:0:0:
448,192,107187,1,0,0:0:0:0:
320,192,107270,128,0,107353:0:0:0:0:
64,192,107353,128,0,107437:0:0:0:0:
448,192,107437,128,0,107520:0:0:0:0:
64,192,107520,1,2,0:0:0:0:
192,192,107520,128,0,107603:0:0:0:0:
320,192,107603,128,0,107687:0:0:0:0:
448,192,107687,128,0,107853:0:0:0:0:
192,192,107770,128,0,107853:0:0:0:0:
64,192,107853,128,2,107937:0:0:0:0:
320,192,107853,1,0,0:0:0:0:
192,192,108020,1,2,0:0:0:0:
320,192,108020,128,0,108103:0:0:0:0:
448,192,108103,128,0,108187:0:0:0:0:
64,192,108187,1,2,0:0:0:0:
192,192,108187,128,0,108353:0:0:0:0:
320,192,108270,128,0,108353:0:0:0:0:
64,192,108353,128,2,108520:0:0:0:0:
448,192,108353,1,0,0:0:0:0:
192,192,108437,128,0,108520:0:0:0:0:
320,192,108520,128,0,108603:0:0:0:0:
64,192,108603,1,2,0:0:0:0:
448,192,108603,1,0,0:0:0:0:
192,192,108687,1,2,0:0:0:0:
320,192,108770,1,2,0:0:0:0:
448,192,108770,1,0,0:0:0:0:
64,192,108853,1,2,0:0:0:0:
192,192,108853,1,4,0:0:0:0:
64,192,109020,1,0,0:0:0:0:
320,192,109020,1,0,0:0:0:0:
320,192,109187,1,2,0:0:0:0:
448,192,109187,1,0,0:0:0:0:
64,192,109353,1,0,0:0:0:0:
448,192,109353,1,0,0:0:0:0:
64,192,109520,1,0,0:0:0:0:
192,192,109520,1,0,0:0:0:0:
192,192,109687,1,2,0:0:0:0:
448,192,109687,1,0,0:0:0:0:
320,192,109853,1,0,0:0:0:0:
448,192,109853,1,0,0:0:0:0:
64,192,110020,1,2,0:0:0:0:
192,192,110020,1,0,0:0:0:0:
64,192,110187,1,2,0:0:0:0:
192,192,110187,1,0,0:0:0:0:
64,192,110353,1,0,0:0:0:0:
320,192,110353,1,0,0:0:0:0:
320,192,110520,1,2,0:0:0:0:
448,192,110520,1,0,0:0:0:0:
64,192,110687,1,0,0:0:0:0:
448,192,110687,1,0,0:0:0:0:
64,192,110853,1,0,0:0:0:0:
192,192,110853,1,0,0:0:0:0:
192,192,111020,1,0,0:0:0:0:
448,192,111020,1,0,0:0:0:0:
320,192,111187,1,2,0:0:0:0:
448,192,111187,1,0,0:0:0:0:
192,192,111353,1,2,0:0:0:0:
320,192,111353,1,0,0:0:0:0:
64,192,111520,1,2,0:0:0:0:
192,192,111520,1,0,0:0:0:0:
64,192,111687,1,0,0:0:0:0:
320,192,111687,1,0,0:0:0:0:
192,192,111853,1,2,0:0:0:0:
448,192,111853,1,0,0:0:0:0:
64,192,112020,1,0,0:0:0:0:
448,192,112020,1,0,0:0:0:0:
192,192,112187,1,2,0:0:0:0:
320,192,112187,1,0,0:0:0:0:
192,192,112353,1,0,0:0:0:0:
448,192,112353,1,0,0:0:0:0:
64,192,112520,1,2,0:0:0:0:
320,192,112520,1,0,0:0:0:0:
320,192,112687,1,0,0:0:0:0:
448,192,112687,1,0,0:0:0:0:
64,192,112853,1,2,0:0:0:0:
192,192,112853,1,0,0:0:0:0:
64,192,113020,1,0,0:0:0:0:
320,192,113020,1,0,0:0:0:0:
320,192,113187,1,2,0:0:0:0:
448,192,113187,1,0,0:0:0:0:
64,192,113353,1,0,0:0:0:0:
448,192,113353,1,0,0:0:0:0:
64,192,113520,1,0,0:0:0:0:
192,192,113520,1,0,0:0:0:0:
192,192,113687,1,2,0:0:0:0:
448,192,113687,1,0,0:0:0:0:
320,192,113853,1,0,0:0:0:0:
448,192,113853,1,0,0:0:0:0:
64,192,114020,1,2,0:0:0:0:
192,192,114020,1,0,0:0:0:0:
64,192,114187,1,2,0:0:0:0:
192,192,114187,1,0,0:0:0:0:
64,192,114353,1,0,0:0:0:0:
320,192,114353,1,0,0:0:0:0:
192,192,114520,1,2,0:0:0:0:
448,192,114520,1,0,0:0:0:0:
320,192,114687,1,0,0:0:0:0:
448,192,114687,1,0,0:0:0:0:
64,192,114853,1,2,0:0:0:0:
192,192,114853,1,0,0:0:0:0:
192,192,115020,1,0,0:0:0:0:
448,192,115020,1,0,0:0:0:0:
64,192,115187,1,2,0:0:0:0:
320,192,115187,1,0,0:0:0:0:
64,192,115353,1,2,0:0:0:0:
192,192,115353,1,0,0:0:0:0:
64,192,115520,1,2,0:0:0:0:
192,192,115520,1,0,0:0:0:0:
64,192,115687,1,2,0:0:0:0:
448,192,115687,1,0,0:0:0:0:
192,192,115853,1,2,0:0:0:0:
320,192,115853,1,0,0:0:0:0:
192,192,116020,1,2,0:0:0:0:
448,192,116020,1,0,0:0:0:0:
64,192,116187,1,2,0:0:0:0:
320,192,116187,1,0,0:0:0:0:
64,192,116353,1,2,0:0:0:0:
448,192,116353,1,0,0:0:0:0:
320,192,116520,1,2,0:0:0:0:
448,192,116520,1,0,0:0:0:0:
64,192,116687,1,2,0:0:0:0:
192,192,116687,1,0,0:0:0:0:
320,192,116853,1,2,0:0:0:0:
448,192,116853,1,0,0:0:0:0:
192,192,116937,1,0,0:0:0:0:
320,192,117020,1,2,0:0:0:0:
448,192,117020,1,0,0:0:0:0:
192,192,117103,1,0,0:0:0:0:
320,192,117187,1,2,0:0:0:0:
448,192,117187,1,0,0:0:0:0:
192,192,117270,1,0,0:0:0:0:
320,192,117353,1,2,0:0:0:0:
448,192,117353,1,0,0:0:0:0:
192,192,117437,1,0,0:0:0:0:
320,192,117520,1,2,0:0:0:0:
448,192,117520,1,0,0:0:0:0:
192,192,117603,1,0,0:0:0:0:
320,192,117687,1,2,0:0:0:0:
448,192,117687,1,0,0:0:0:0:
192,192,117770,1,0,0:0:0:0:
320,192,117853,1,2,0:0:0:0:
448,192,117853,1,0,0:0:0:0:
192,192,117937,1,0,0:0:0:0:
320,192,118020,1,2,0:0:0:0:
448,192,118020,1,0,0:0:0:0:
192,192,118103,1,0,0:0:0:0:
320,192,118187,1,2,0:0:0:0:
448,192,118187,1,0,0:0:0:0:
64,192,118242,1,0,0:0:0:0:
192,192,118298,1,0,0:0:0:0:
448,192,118353,1,2,0:0:0:0:
320,192,118395,1,0,0:0:0:0:
192,192,118437,1,2,0:0:0:0:
448,192,118520,1,2,0:0:0:0:
320,192,118576,1,0,0:0:0:0:
192,192,118631,1,0,0:0:0:0:
64,192,118687,1,2,0:0:0:0:
320,192,118728,1,0,0:0:0:0:
448,192,118770,1,2,0:0:0:0:
64,192,118853,1,2,0:0:0:0:
192,192,118895,1,0,0:0:0:0:
320,192,118937,1,2,0:0:0:0:
448,192,118978,1,0,0:0:0:0:
64,192,119020,1,2,0:0:0:0:
192,192,119062,1,0,0:0:0:0:
320,192,119103,1,2,0:0:0:0:
448,192,119145,1,0,0:0:0:0:
64,192,119187,1,2,0:0:0:0:
192,192,119228,1,0,0:0:0:0:
320,192,119270,1,2,0:0:0:0:
448,192,119312,1,0,0:0:0:0:
64,192,119353,1,2,0:0:0:0:
192,192,119395,1,0,0:0:0:0:
320,192,119437,1,2,0:0:0:0:
448,192,119478,1,0,0:0:0:0:
64,192,119520,1,4,0:0:0:0:
448,192,120520,1,0,0:0:0:0:
64,192,120853,1,0,0:0:0:0:
448,192,120853,1,0,0:0:0:0:
320,192,121187,1,0,0:0:0:0:
192,192,121520,1,0,0:0:0:0:
64,192,121853,1,0,0:0:0:0:
192,192,122187,1,0,0:0:0:0:
320,192,122187,1,0,0:0:0:0:
320,192,123187,1,0,0:0:0:0:
192,192,123525,1,0,0:0:0:0:
320,192,123525,1,0,0:0:0:0:
64,192,123806,1,0,0:0:0:0:
320,192,124087,1,0,0:0:0:0:
64,192,124275,1,0,0:0:0:0:
448,192,124675,1,0,0:0:0:0:
64,192,125075,1,0,0:0:0:0:
192,192,125075,1,0,0:0:0:0:
64,192,126548,1,0,0:0:0:0:
320,192,126548,1,0,0:0:0:0:
64,192,127405,1,0,0:0:0:0:
192,192,128280,1,0,0:0:0:0:
64,192,128335,1,0,0:0:0:0:
320,192,128391,1,0,0:0:0:0:
448,192,128446,1,0,0:0:0:0:
