osu file format v14

[General]
AudioFilename: audio.mp3
AudioLeadIn: 0
PreviewTime: 76833
Countdown: 0
SampleSet: Normal
StackLeniency: 0.7
Mode: 3
LetterboxInBreaks: 0
SpecialStyle: 0
WidescreenStoryboard: 1

[Editor]
Bookmarks: 12853,23520,34187,55520,76853,98187,108853,119520
DistanceSpacing: 0.3
BeatDivisor: 4
GridSize: 8
TimelineZoom: 2.799999

[Metadata]
Title:End Time
TitleUnicode:End Time
Artist:Cres.
ArtistUnicode:Cres.
Creator:AHHHHHHHHHHHHHH
Version:Hard
Source:BOF III - THE BMS OF FIGHTERS 2006 -
Tags:mg mappers' guild requiem trance piano fa featured artist CHUNITHM AMAZON チュウニズム maimai finale O.N.G.E.K.I. ONGEKI オンゲキ SUMMER PLUS 音撃 electronic instrumental o2jam ahx14
BeatmapID:2978269
BeatmapSetID:1448292

[Difficulty]
HPDrainRate:8
CircleSize:4
OverallDifficulty:7.5
ApproachRate:5
SliderMultiplier:1.4
SliderTickRate:1

[Events]
//Background and Video events
0,0,"pexels-isaac-weatherly-3054252.jpg",0,0
//Break Periods
//Storyboard Layer 0 (Background)
//Storyboard Layer 1 (Fail)
//Storyboard Layer 2 (Pass)
//Storyboard Layer 3 (Foreground)
//Storyboard Layer 4 (Overlay)
//Storyboard Sound Samples

[TimingPoints]
854,333.333333333333,4,1,1,100,1,0
123187,338.983050847457,4,1,1,100,1,8
123187,-98.0392156862745,4,1,1,100,0,8
123525,375,4,1,1,100,1,0
123525,-88.495575221239,4,1,1,100,0,0
124275,400,4,1,1,100,1,8
124275,-83.3333333333333,4,1,1,100,0,8
125075,352.941176470588,4,1,1,100,1,0
125075,-94.3396226415094,4,1,1,100,0,0
125780,375,4,1,1,100,1,8
125780,-88.495575221239,4,1,1,100,0,8
126548,428.571428571429,4,1,1,100,1,0
126548,-77.5193798449612,4,1,1,100,0,0
128280,500,4,1,1,100,1,0
128280,-66.6666666666667,4,1,1,100,0,0

[HitObjects]
192,192,853,5,0,0:0:0:0:
320,192,853,1,0,0:0:0:0:
448,192,1853,1,0,0:0:0:0:
192,192,2187,1,0,0:0:0:0:
448,192,2187,1,0,0:0:0:0:
320,192,2520,1,0,0:0:0:0:
192,192,2853,1,0,0:0:0:0:
64,192,3187,1,0,0:0:0:0:
192,192,3520,1,0,0:0:0:0:
320,192,3520,1,0,0:0:0:0:
448,192,4520,1,0,0:0:0:0:
192,192,4853,1,0,0:0:0:0:
448,192,4853,1,0,0:0:0:0:
320,192,5187,1,0,0:0:0:0:
192,192,5520,1,0,0:0:0:0:
320,192,5853,1,0,0:0:0:0:
64,192,6187,1,0,0:0:0:0:
192,192,6187,1,0,0:0:0:0:
192,192,7520,1,0,0:0:0:0:
320,192,7520,1,0,0:0:0:0:
320,192,8853,1,0,0:0:0:0:
448,192,8853,1,0,0:0:0:0:
320,192,11187,128,0,12853:0:0:0:0:
64,192,12853,128,4,13187:0:0:0:0:
192,192,12853,1,2,0:0:0:0:
448,192,12853,1,0,0:0:0:0:
320,192,13020,1,0,0:0:0:0:
192,192,13187,1,2,0:0:0:0:
448,192,13187,1,0,0:0:0:0:
448,192,13353,128,0,13687:0:0:0:0:
64,192,13520,1,2,0:0:0:0:
320,192,13520,1,0,0:0:0:0:
64,192,13687,1,0,0:0:0:0:
320,192,13853,1,2,0:0:0:0:
448,192,13853,1,0,0:0:0:0:
192,192,14020,1,0,0:0:0:0:
64,192,14187,128,2,14520:0:0:0:0:
448,192,14187,1,0,0:0:0:0:
192,192,14353,1,0,0:0:0:0:
320,192,14520,1,2,0:0:0:0:
448,192,14520,1,0,0:0:0:0:
320,192,14687,128,0,15020:0:0:0:0:
64,192,14853,1,2,0:0:0:0:
192,192,14853,1,0,0:0:0:0:
192,192,15020,1,0,0:0:0:0:
320,192,15187,1,2,0:0:0:0:
448,192,15187,1,0,0:0:0:0:
64,192,15353,1,2,0:0:0:0:
192,192,15353,1,0,0:0:0:0:
192,192,15520,128,2,15853:0:0:0:0:
448,192,15520,1,0,0:0:0:0:
320,192,15687,1,0,0:0:0:0:
64,192,15853,1,2,0:0:0:0:
448,192,15853,1,0,0:0:0:0:
448,192,16020,128,0,16353:0:0:0:0:
192,192,16187,1,2,0:0:0:0:
320,192,16187,1,0,0:0:0:0:
192,192,16353,1,0,0:0:0:0:
320,192,16520,1,2,0:0:0:0:
448,192,16520,1,0,0:0:0:0:
192,192,16687,1,0,0:0:0:0:
64,192,16853,128,2,17187:0:0:0:0:
320,192,16853,1,0,0:0:0:0:
448,192,17020,1,0,0:0:0:0:
192,192,17187,1,2,0:0:0:0:
320,192,17187,1,0,0:0:0:0:
320,192,17353,128,0,17687:0:0:0:0:
64,192,17520,1,2,0:0:0:0:
448,192,17520,1,0,0:0:0:0:
64,192,17687,1,0,0:0:0:0:
320,192,17853,1,2,0:0:0:0:
448,192,17853,1,0,0:0:0:0:
192,192,18020,1,0,0:0:0:0:
64,192,18187,128,2,18520:0:0:0:0:
448,192,18187,1,0,0:0:0:0:
320,192,18353,1,0,0:0:0:0:
192,192,18520,1,2,0:0:0:0:
448,192,18520,1,0,0:0:0:0:
192,192,18687,128,0,19020:0:0:0:0:
64,192,18853,1,2,0:0:0:0:
320,192,18853,1,0,0:0:0:0:
320,192,19020,1,0,0:0:0:0:
64,192,19187,1,2,0:0:0:0:
448,192,19187,1,0,0:0:0:0:
192,192,19353,1,0,0:0:0:0:
320,192,19520,128,2,19853:0:0:0:0:
448,192,19520,1,0,0:0:0:0:
64,192,19687,1,0,0:0:0:0:
192,192,19853,1,2,0:0:0:0:
448,192,19853,1,0,0:0:0:0:
448,192,20020,128,0,20353:0:0:0:0:
64,192,20187,1,2,0:0:0:0:
320,192,20187,1,0,0:0:0:0:
64,192,20353,1,0,0:0:0:0:
192,192,20520,1,2,0:0:0:0:
320,192,20520,1,0,0:0:0:0:
64,192,20687,1,2,0:0:0:0:
448,192,20687,1,0,0:0:0:0:
64,192,20853,128,2,21187:0:0:0:0:
320,192,20853,1,0,0:0:0:0:
192,192,21020,1,0,0:0:0:0:
320,192,21187,1,2,0:0:0:0:
448,192,21187,1,0,0:0:0:0:
320,192,21353,128,0,21687:0:0:0:0:
64,192,21520,1,2,0:0:0:0:
192,192,21520,1,0,0:0:0:0:
64,192,21687,1,0,0:0:0:0:
320,192,21853,1,2,0:0:0:0:
448,192,21853,1,0,0:0:0:0:
192,192,22020,1,0,0:0:0:0:
64,192,22187,128,2,22520:0:0:0:0:
320,192,22187,1,0,0:0:0:0:
192,192,22353,1,0,0:0:0:0:
320,192,22520,1,2,0:0:0:0:
448,192,22520,1,0,0:0:0:0:
192,192,22687,1,2,0:0:0:0:
448,192,22687,128,0,23020:0:0:0:0:
64,192,22853,1,2,0:0:0:0:
320,192,22853,1,0,0:0:0:0:
192,192,23020,1,0,0:0:0:0:
64,192,23103,1,2,0:0:0:0:
320,192,23103,1,0,0:0:0:0:
448,192,23187,1,0,0:0:0:0:
64,192,23353,1,2,0:0:0:0:
192,192,23353,1,0,0:0:0:0:
320,192,23520,1,2,0:0:0:0:
448,192,23520,1,4,0:0:0:0:
64,192,23603,1,0,0:0:0:0:
192,192,23687,1,0,0:0:0:0:
320,192,23770,1,0,0:0:0:0:
64,192,23853,1,2,0:0:0:0:
448,192,23853,1,0,0:0:0:0:
320,192,23937,1,0,0:0:0:0:
192,192,24020,1,0,0:0:0:0:
64,192,24103,1,0,0:0:0:0:
320,192,24187,1,2,0:0:0:0:
448,192,24187,1,0,0:0:0:0:
192,192,24270,1,0,0:0:0:0:
448,192,24353,1,0,0:0:0:0:
320,192,24437,1,0,0:0:0:0:
64,192,24520,1,2,0:0:0:0:
192,192,24520,1,0,0:0:0:0:
448,192,24603,1,0,0:0:0:0:
64,192,24687,1,0,0:0:0:0:
192,192,24770,1,0,0:0:0:0:
320,192,24853,1,2,0:0:0:0:
448,192,24853,1,0,0:0:0:0:
192,192,24937,1,0,0:0:0:0:
64,192,25020,1,0,0:0:0:0:
320,192,25103,1,0,0:0:0:0:
192,192,25187,1,2,0:0:0:0:
448,192,25187,1,0,0:0:0:0:
64,192,25270,1,0,0:0:0:0:
192,192,25353,1,0,0:0:0:0:
320,192,25437,1,0,0:0:0:0:
64,192,25520,1,2,0:0:0:0:
448,192,25520,1,0,0:0:0:0:
192,192,25603,1,0,0:0:0:0:
320,192,25687,1,0,0:0:0:0:
64,192,25770,1,0,0:0:0:0:
192,192,25853,1,2,0:0:0:0:
448,192,25853,1,0,0:0:0:0:
320,192,25937,1,0,0:0:0:0:
64,192,26020,1,2,0:0:0:0:
448,192,26103,1,0,0:0:0:0:
64,192,26187,1,2,0:0:0:0:
192,192,26187,1,0,0:0:0:0:
320,192,26270,1,0,0:0:0:0:
448,192,26353,1,0,0:0:0:0:
64,192,26437,1,0,0:0:0:0:
192,192,26520,1,2,0:0:0:0:
320,192,26520,1,0,0:0:0:0:
448,192,26603,1,0,0:0:0:0:
64,192,26687,1,0,0:0:0:0:
192,192,26770,1,0,0:0:0:0:
320,192,26853,1,2,0:0:0:0:
448,192,26853,1,0,0:0:0:0:
192,192,26937,1,0,0:0:0:0:
64,192,27020,1,0,0:0:0:0:
448,192,27103,1,0,0:0:0:0:
192,192,27187,1,2,0:0:0:0:
320,192,27187,1,0,0:0:0:0:
64,192,27270,1,0,0:0:0:0:
448,192,27353,1,0,0:0:0:0:
192,192,27437,1,0,0:0:0:0:
320,192,27520,1,2,0:0:0:0:
448,192,27520,1,0,0:0:0:0:
64,192,27603,1,0,0:0:0:0:
192,192,27687,1,0,0:0:0:0:
320,192,27770,1,0,0:0:0:0:
64,192,27853,1,2,0:0:0:0:
448,192,27853,1,0,0:0:0:0:
320,192,27937,1,0,0:0:0:0:
192,192,28020,1,0,0:0:0:0:
448,192,28103,1,0,0:0:0:0:
64,192,28187,1,2,0:0:0:0:
320,192,28187,1,0,0:0:0:0:
192,192,28270,1,0,0:0:0:0:
448,192,28353,1,0,0:0:0:0:
320,192,28437,1,0,0:0:0:0:
64,192,28520,1,2,0:0:0:0:
192,192,28520,1,0,0:0:0:0:
448,192,28603,1,0,0:0:0:0:
64,192,28687,1,2,0:0:0:0:
192,192,28770,1,0,0:0:0:0:
320,192,28853,1,2,0:0:0:0:
448,192,28853,1,0,0:0:0:0:
64,192,29020,1,2,0:0:0:0:
192,192,29020,1,0,0:0:0:0:
64,192,29187,1,2,0:0:0:0:
448,192,29187,1,0,0:0:0:0:
192,192,29353,1,2,0:0:0:0:
320,192,29353,1,0,0:0:0:0:
320,192,29520,1,2,0:0:0:0:
448,192,29520,1,0,0:0:0:0:
64,192,29687,1,2,0:0:0:0:
192,192,29687,1,0,0:0:0:0:
192,192,29853,1,2,0:0:0:0:
320,192,29853,1,0,0:0:0:0:
64,192,30020,1,2,0:0:0:0:
448,192,30020,1,0,0:0:0:0:
320,192,30187,1,2,0:0:0:0:
448,192,30187,1,0,0:0:0:0:
64,192,30353,1,2,0:0:0:0:
192,192,30353,1,0,0:0:0:0:
192,192,30520,1,2,0:0:0:0:
448,192,30520,1,0,0:0:0:0:
64,192,30687,1,2,0:0:0:0:
320,192,30687,1,0,0:0:0:0:
320,192,30853,1,2,0:0:0:0:
448,192,30853,1,0,0:0:0:0:
64,192,31020,1,2,0:0:0:0:
192,192,31020,1,0,0:0:0:0:
64,192,31187,1,2,0:0:0:0:
320,192,31187,1,0,0:0:0:0:
192,192,31353,1,2,0:0:0:0:
448,192,31353,1,0,0:0:0:0:
320,192,31520,1,2,0:0:0:0:
448,192,31520,1,0,0:0:0:0:
64,192,31603,1,0,0:0:0:0:
320,192,31687,1,2,0:0:0:0:
192,192,31770,1,0,0:0:0:0:
64,192,31853,1,2,0:0:0:0:
448,192,31853,1,0,0:0:0:0:
320,192,31937,1,0,0:0:0:0:
64,192,32020,1,2,0:0:0:0:
192,192,32103,1,0,0:0:0:0:
320,192,32187,1,2,0:0:0:0:
448,192,32187,1,0,0:0:0:0:
64,192,32270,1,0,0:0:0:0:
320,192,32353,1,2,0:0:0:0:
192,192,32437,1,0,0:0:0:0:
64,192,32520,1,2,0:0:0:0:
448,192,32520,1,0,0:0:0:0:
320,192,32603,1,0,0:0:0:0:
64,192,32687,1,2,0:0:0:0:
192,192,32770,1,0,0:0:0:0:
320,192,32853,1,2,0:0:0:0:
448,192,32853,1,0,0:0:0:0:
64,192,32937,1,2,0:0:0:0:
448,192,33020,1,2,0:0:0:0:
64,192,33103,1,2,0:0:0:0:
448,192,33187,1,2,0:0:0:0:
64,192,33270,1,2,0:0:0:0:
448,192,33353,1,2,0:0:0:0:
64,192,33437,1,2,0:0:0:0:
320,192,33520,1,2,0:0:0:0:
192,192,33603,1,2,0:0:0:0:
320,192,33687,1,2,0:0:0:0:
192,192,33770,1,2,0:0:0:0:
320,192,33853,1,2,0:0:0:0:
192,192,33937,1,2,0:0:0:0:
320,192,34020,1,2,0:0:0:0:
192,192,34103,1,2,0:0:0:0:
448,192,34187,1,0,0:0:0:0:
192,192,35187,1,0,0:0:0:0:
448,192,35353,1,0,0:0:0:0:
192,192,35520,1,0,0:0:0:0:
320,192,35520,1,0,0:0:0:0:
192,192,36520,1,0,0:0:0:0:
320,192,36687,1,0,0:0:0:0:
192,192,36853,1,0,0:0:0:0:
448,192,36853,1,0,0:0:0:0:
64,192,37853,1,0,0:0:0:0:
448,192,38020,1,0,0:0:0:0:
64,192,38187,1,0,0:0:0:0:
320,192,38187,1,0,0:0:0:0:
64,192,38853,1,0,0:0:0:0:
192,192,39520,1,0,0:0:0:0:
320,192,39520,1,0,0:0:0:0:
64,192,40853,1,0,0:0:0:0:
320,192,40853,1,0,0:0:0:0:
448,192,41520,1,0,0:0:0:0:
192,192,42187,1,0,0:0:0:0:
320,192,42187,1,0,0:0:0:0:
64,192,43520,1,0,0:0:0:0:
192,192,43520,1,0,0:0:0:0:
64,192,44853,1,0,0:0:0:0:
320,192,44853,1,0,0:0:0:0:
448,192,45520,1,0,0:0:0:0:
192,192,46187,1,0,0:0:0:0:
320,192,46187,1,0,0:0:0:0:
64,192,46853,1,0,0:0:0:0:
192,192,47520,1,0,0:0:0:0:
448,192,47520,1,0,0:0:0:0:
192,192,48853,1,0,0:0:0:0:
320,192,48853,1,0,0:0:0:0:
448,192,49520,1,0,0:0:0:0:
64,192,50187,1,0,0:0:0:0:
192,192,50187,1,0,0:0:0:0:
192,192,51187,1,0,0:0:0:0:
320,192,51353,1,0,0:0:0:0:
64,192,51520,1,0,0:0:0:0:
448,192,51520,1,0,0:0:0:0:
320,192,52187,1,0,0:0:0:0:
64,192,52853,1,0,0:0:0:0:
192,192,52853,1,0,0:0:0:0:
64,192,54187,1,0,0:0:0:0:
448,192,54187,1,0,0:0:0:0:
64,192,54853,1,0,0:0:0:0:
320,192,54937,1,0,0:0:0:0:
64,192,55020,1,0,0:0:0:0:
192,192,55103,1,0,0:0:0:0:
320,192,55187,1,0,0:0:0:0:
64,192,55270,1,0,0:0:0:0:
320,192,55353,1,0,0:0:0:0:
448,192,55437,1,0,0:0:0:0:
64,192,55520,1,4,0:0:0:0:
192,192,55520,128,2,55603:0:0:0:0:
192,192,55687,128,0,55770:0:0:0:0:
192,192,56020,128,0,56103:0:0:0:0:
192,192,56187,128,0,56270:0:0:0:0:
192,192,56520,128,0,56603:0:0:0:0:
192,192,56687,128,0,56770:0:0:0:0:
64,192,56853,1,2,0:0:0:0:
320,192,56853,128,0,56937:0:0:0:0:
320,192,57020,128,0,57103:0:0:0:0:
320,192,57353,128,0,57437:0:0:0:0:
320,192,57520,128,0,57603:0:0:0:0:
320,192,57853,128,0,57937:0:0:0:0:
192,192,58020,128,0,58103:0:0:0:0:
64,192,58187,128,2,58270:0:0:0:0:
448,192,58187,1,0,0:0:0:0:
320,192,58353,1,0,0:0:0:0:
64,192,58437,128,0,58520:0:0:0:0:
64,192,58687,128,0,58770:0:0:0:0:
320,192,58853,1,0,0:0:0:0:
192,192,58937,1,0,0:0:0:0:
64,192,59020,128,0,59103:0:0:0:0:
192,192,59187,128,0,59270:0:0:0:0:
320,192,59353,128,0,59437:0:0:0:0:
64,192,59520,1,2,0:0:0:0:
448,192,59520,128,0,59603:0:0:0:0:
192,192,59687,1,0,0:0:0:0:
448,192,59770,128,0,59853:0:0:0:0:
192,192,59937,1,0,0:0:0:0:
448,192,60020,128,0,60103:0:0:0:0:
448,192,60187,128,0,60520:0:0:0:0:
64,192,60353,128,0,60520:0:0:0:0:
320,192,60520,128,0,60603:0:0:0:0:
64,192,60687,1,2,0:0:0:0:
192,192,60687,1,0,0:0:0:0:
320,192,60853,128,2,60937:0:0:0:0:
448,192,60853,1,0,0:0:0:0:
64,192,61020,1,0,0:0:0:0:
320,192,61103,128,0,61187:0:0:0:0:
320,192,61353,128,0,61437:0:0:0:0:
320,192,61520,128,0,61603:0:0:0:0:
64,192,61853,128,0,61937:0:0:0:0:
192,192,62020,128,0,62103:0:0:0:0:
448,192,62187,128,2,62270:0:0:0:0:
192,192,62353,1,0,0:0:0:0:
448,192,62437,128,0,62520:0:0:0:0:
448,192,62687,128,0,62770:0:0:0:0:
448,192,62853,128,0,62937:0:0:0:0:
448,192,63187,128,0,63270:0:0:0:0:
320,192,63353,128,0,63437:0:0:0:0:
192,192,63520,128,2,63603:0:0:0:0:
448,192,63687,1,0,0:0:0:0:
192,192,63770,128,0,63853:0:0:0:0:
448,192,63937,1,0,0:0:0:0:
192,192,64020,128,0,64103:0:0:0:0:
448,192,64187,1,0,0:0:0:0:
192,192,64270,128,0,64353:0:0:0:0:
320,192,64437,1,0,0:0:0:0:
192,192,64520,1,0,0:0:0:0:
320,192,64603,1,0,0:0:0:0:
64,192,64687,128,0,64770:0:0:0:0:
64,192,64853,128,2,64937:0:0:0:0:
448,192,64853,1,0,0:0:0:0:
320,192,65020,1,0,0:0:0:0:
192,192,65103,128,0,65187:0:0:0:0:
320,192,65270,1,0,0:0:0:0:
192,192,65353,1,0,0:0:0:0:
320,192,65437,1,0,0:0:0:0:
64,192,65520,1,2,0:0:0:0:
192,192,65520,128,0,65603:0:0:0:0:
320,192,65687,128,0,65770:0:0:0:0:
64,192,65853,128,2,66187:0:0:0:0:
448,192,65853,1,0,0:0:0:0:
320,192,66020,128,0,66187:0:0:0:0:
192,192,66187,128,2,66270:0:0:0:0:
448,192,66187,1,0,0:0:0:0:
320,192,66353,1,0,0:0:0:0:
192,192,66437,128,0,66520:0:0:0:0:
192,192,66687,128,0,66770:0:0:0:0:
192,192,66853,128,2,66937:0:0:0:0:
448,192,66853,1,0,0:0:0:0:
192,192,67187,128,0,67270:0:0:0:0:
192,192,67353,128,0,67437:0:0:0:0:
64,192,67520,1,2,0:0:0:0:
320,192,67520,128,0,67603:0:0:0:0:
192,192,67687,1,0,0:0:0:0:
320,192,67770,128,0,67853:0:0:0:0:
320,192,68020,128,0,68103:0:0:0:0:
64,192,68187,1,2,0:0:0:0:
192,192,68187,1,0,0:0:0:0:
448,192,68270,1,0,0:0:0:0:
320,192,68353,128,0,68437:0:0:0:0:
192,192,68520,1,2,0:0:0:0:
448,192,68520,128,0,68603:0:0:0:0:
64,192,68687,1,2,0:0:0:0:
320,192,68687,128,0,68770:0:0:0:0:
192,192,68853,128,2,68937:0:0:0:0:
448,192,68853,1,0,0:0:0:0:
192,192,69020,128,0,69103:0:0:0:0:
64,192,69187,1,2,0:0:0:0:
320,192,69187,128,0,69270:0:0:0:0:
320,192,69353,128,0,69437:0:0:0:0:
64,192,69520,1,2,0:0:0:0:
448,192,69520,1,0,0:0:0:0:
192,192,69603,128,0,69687:0:0:0:0:
320,192,69770,1,0,0:0:0:0:
64,192,69853,1,2,0:0:0:0:
192,192,69853,1,0,0:0:0:0:
320,192,69937,1,0,0:0:0:0:
192,192,70020,128,0,70103:0:0:0:0:
64,192,70187,128,2,70270:0:0:0:0:
448,192,70187,1,0,0:0:0:0:
320,192,70353,1,0,0:0:0:0:
192,192,70437,1,0,0:0:0:0:
64,192,70520,128,2,70603:0:0:0:0:
448,192,70520,1,0,0:0:0:0:
64,192,70687,128,0,70770:0:0:0:0:
320,192,70853,1,2,0:0:0:0:
448,192,70853,1,0,0:0:0:0:
64,192,70937,1,0,0:0:0:0:
192,192,71020,128,0,71103:0:0:0:0:
192,192,71187,128,2,71270:0:0:0:0:
448,192,71187,1,0,0:0:0:0:
64,192,71353,1,2,0:0:0:0:
320,192,71353,128,0,71437:0:0:0:0:
192,192,71520,1,2,0:0:0:0:
448,192,71520,128,0,71603:0:0:0:0:
64,192,71687,1,0,0:0:0:0:
448,192,71770,128,0,71853:0:0:0:0:
192,192,71853,1,2,0:0:0:0:
320,192,71853,1,0,0:0:0:0:
448,192,72020,128,0,72103:0:0:0:0:
64,192,72187,1,2,0:0:0:0:
448,192,72187,128,0,72270:0:0:0:0:
192,192,72520,1,2,0:0:0:0:
448,192,72520,128,0,72603:0:0:0:0:
448,192,72687,128,0,72770:0:0:0:0:
64,192,72853,1,2,0:0:0:0:
320,192,72853,128,0,72937:0:0:0:0:
192,192,73020,1,0,0:0:0:0:
320,192,73103,128,0,73187:0:0:0:0:
64,192,73187,1,2,0:0:0:0:
448,192,73187,1,0,0:0:0:0:
320,192,73353,128,0,73437:0:0:0:0:
64,192,73520,1,2,0:0:0:0:
448,192,73520,1,0,0:0:0:0:
320,192,73603,1,0,0:0:0:0:
192,192,73687,128,0,73770:0:0:0:0:
320,192,73853,1,2,0:0:0:0:
448,192,73853,1,0,0:0:0:0:
192,192,73937,1,0,0:0:0:0:
64,192,74020,128,0,74103:0:0:0:0:
64,192,74187,128,2,74270:0:0:0:0:
448,192,74187,1,0,0:0:0:0:
320,192,74353,1,0,0:0:0:0:
64,192,74437,128,0,74520:0:0:0:0:
192,192,74520,1,2,0:0:0:0:
448,192,74520,1,0,0:0:0:0:
320,192,74603,1,0,0:0:0:0:
64,192,74687,128,0,74770:0:0:0:0:
320,192,74853,1,2,0:0:0:0:
448,192,74853,1,0,0:0:0:0:
192,192,74937,1,0,0:0:0:0:
64,192,75020,128,0,75103:0:0:0:0:
320,192,75187,1,2,0:0:0:0:
448,192,75187,1,0,0:0:0:0:
192,192,75270,1,0,0:0:0:0:
64,192,75353,128,0,75437:0:0:0:0:
64,192,75520,1,2,0:0:0:0:
448,192,75520,128,0,75603:0:0:0:0:
192,192,75687,1,0,0:0:0:0:
448,192,75770,128,0,75853:0:0:0:0:
64,192,75853,1,2,0:0:0:0:
320,192,75853,1,0,0:0:0:0:
192,192,75937,1,0,0:0:0:0:
448,192,76020,128,0,76103:0:0:0:0:
64,192,76187,1,2,0:0:0:0:
320,192,76187,1,0,0:0:0:0:
192,192,76270,1,0,0:0:0:0:
448,192,76353,1,0,0:0:0:0:
192,192,76437,1,0,0:0:0:0:
64,192,76520,1,2,0:0:0:0:
448,192,76520,128,0,76853:0:0:0:0:
320,192,76687,128,2,76853:0:0:0:0:
64,192,76853,1,2,0:0:0:0:
192,192,76853,1,4,0:0:0:0:
448,192,77020,1,0,0:0:0:0:
192,192,77103,1,0,0:0:0:0:
64,192,77187,1,2,0:0:0:0:
320,192,77187,1,0,0:0:0:0:
448,192,77270,1,0,0:0:0:0:
192,192,77353,1,0,0:0:0:0:
320,192,77437,1,0,0:0:0:0:
64,192,77520,1,2,0:0:0:0:
448,192,77520,1,0,0:0:0:0:
320,192,77687,1,0,0:0:0:0:
64,192,77770,1,0,0:0:0:0:
192,192,77853,1,2,0:0:0:0:
448,192,77853,1,0,0:0:0:0:
320,192,77937,1,0,0:0:0:0:
64,192,78020,1,0,0:0:0:0:
448,192,78103,1,0,0:0:0:0:
64,192,78187,1,2,0:0:0:0:
320,192,78187,1,0,0:0:0:0:
192,192,78353,1,0,0:0:0:0:
448,192,78437,1,0,0:0:0:0:
64,192,78520,1,2,0:0:0:0:
320,192,78520,1,0,0:0:0:0:
448,192,78687,1,0,0:0:0:0:
64,192,78770,1,0,0:0:0:0:
192,192,78853,1,2,0:0:0:0:
320,192,78853,1,0,0:0:0:0:
64,192,79020,1,0,0:0:0:0:
192,192,79103,1,0,0:0:0:0:
320,192,79187,1,2,0:0:0:0:
448,192,79187,1,0,0:0:0:0:
64,192,79353,1,2,0:0:0:0:
192,192,79353,1,0,0:0:0:0:
448,192,79437,1,0,0:0:0:0:
192,192,79520,1,2,0:0:0:0:
320,192,79520,1,0,0:0:0:0:
64,192,79687,1,0,0:0:0:0:
320,192,79770,1,0,0:0:0:0:
192,192,79853,1,2,0:0:0:0:
448,192,79853,1,0,0:0:0:0:
64,192,79920,1,0,0:0:0:0:
320,192,79987,1,0,0:0:0:0:
192,192,80053,1,0,0:0:0:0:
448,192,80120,1,0,0:0:0:0:
64,192,80187,1,2,0:0:0:0:
320,192,80187,1,0,0:0:0:0:
192,192,80270,1,0,0:0:0:0:
448,192,80353,1,0,0:0:0:0:
64,192,80437,1,0,0:0:0:0:
320,192,80520,1,2,0:0:0:0:
448,192,80520,1,0,0:0:0:0:
192,192,80603,1,0,0:0:0:0:
64,192,80687,1,0,0:0:0:0:
320,192,80770,1,0,0:0:0:0:
192,192,80853,1,2,0:0:0:0:
448,192,80853,1,0,0:0:0:0:
64,192,80920,1,0,0:0:0:0:
320,192,80987,1,0,0:0:0:0:
192,192,81053,1,0,0:0:0:0:
448,192,81120,1,0,0:0:0:0:
64,192,81187,1,2,0:0:0:0:
320,192,81187,1,0,0:0:0:0:
192,192,81298,1,0,0:0:0:0:
64,192,81409,1,0,0:0:0:0:
320,192,81520,1,2,0:0:0:0:
448,192,81520,1,0,0:0:0:0:
192,192,81631,1,0,0:0:0:0:
448,192,81742,1,0,0:0:0:0:
64,192,81853,1,0,0:0:0:0:
320,192,81853,1,0,0:0:0:0:
192,192,81965,1,0,0:0:0:0:
320,192,82076,1,0,0:0:0:0:
192,192,82187,1,2,0:0:0:0:
448,192,82187,1,0,0:0:0:0:
64,192,82353,1,0,0:0:0:0:
320,192,82437,1,0,0:0:0:0:
192,192,82520,1,2,0:0:0:0:
448,192,82520,1,0,0:0:0:0:
64,192,82603,1,0,0:0:0:0:
320,192,82687,1,0,0:0:0:0:
192,192,82770,1,0,0:0:0:0:
320,192,82853,1,2,0:0:0:0:
448,192,82853,1,0,0:0:0:0:
64,192,82937,1,0,0:0:0:0:
192,192,83020,1,0,0:0:0:0:
320,192,83103,1,0,0:0:0:0:
64,192,83187,1,2,0:0:0:0:
448,192,83187,1,0,0:0:0:0:
192,192,83270,1,0,0:0:0:0:
320,192,83353,1,0,0:0:0:0:
448,192,83437,1,0,0:0:0:0:
64,192,83520,1,2,0:0:0:0:
192,192,83520,1,0,0:0:0:0:
320,192,83687,1,0,0:0:0:0:
64,192,83770,1,0,0:0:0:0:
192,192,83853,1,2,0:0:0:0:
448,192,83853,1,0,0:0:0:0:
320,192,83937,1,0,0:0:0:0:
64,192,84020,1,0,0:0:0:0:
192,192,84103,1,0,0:0:0:0:
320,192,84187,1,2,0:0:0:0:
448,192,84187,1,0,0:0:0:0:
64,192,84270,1,0,0:0:0:0:
192,192,84353,1,0,0:0:0:0:
448,192,84437,1,0,0:0:0:0:
64,192,84520,1,2,0:0:0:0:
320,192,84520,1,0,0:0:0:0:
192,192,84587,1,0,0:0:0:0:
448,192,84653,1,0,0:0:0:0:
320,192,84720,1,0,0:0:0:0:
192,192,84787,1,0,0:0:0:0:
64,192,84853,1,2,0:0:0:0:
448,192,84853,1,0,0:0:0:0:
320,192,84909,1,0,0:0:0:0:
192,192,84965,1,0,0:0:0:0:
64,192,85020,1,0,0:0:0:0:
448,192,85076,1,0,0:0:0:0:
320,192,85187,1,2,0:0:0:0:
448,192,85187,1,0,0:0:0:0:
64,192,85298,1,0,0:0:0:0:
320,192,85409,1,0,0:0:0:0:
64,192,85520,1,2,0:0:0:0:
448,192,85520,1,0,0:0:0:0:
320,192,85587,1,0,0:0:0:0:
192,192,85653,1,0,0:0:0:0:
448,192,85720,1,0,0:0:0:0:
320,192,85787,1,0,0:0:0:0:
64,192,85853,1,2,0:0:0:0:
192,192,85853,1,0,0:0:0:0:
448,192,85920,1,0,0:0:0:0:
64,192,85987,1,0,0:0:0:0:
192,192,86053,1,0,0:0:0:0:
320,192,86120,1,0,0:0:0:0:
64,192,86187,1,2,0:0:0:0:
448,192,86187,1,0,0:0:0:0:
192,192,86387,1,0,0:0:0:0:
64,192,86453,1,0,0:0:0:0:
320,192,86520,1,2,0:0:0:0:
448,192,86520,1,0,0:0:0:0:
192,192,86587,1,0,0:0:0:0:
320,192,86653,1,0,0:0:0:0:
448,192,86720,1,0,0:0:0:0:
192,192,86787,1,0,0:0:0:0:
64,192,86853,1,2,0:0:0:0:
320,192,86853,1,0,0:0:0:0:
448,192,86965,1,0,0:0:0:0:
192,192,87076,1,0,0:0:0:0:
320,192,87187,1,2,0:0:0:0:
448,192,87187,1,0,0:0:0:0:
64,192,87249,1,0,0:0:0:0:
192,192,87312,1,0,0:0:0:0:
320,192,87374,1,0,0:0:0:0:
64,192,87458,1,0,0:0:0:0:
320,192,87520,1,2,0:0:0:0:
448,192,87520,1,0,0:0:0:0:
192,192,87687,1,0,0:0:0:0:
64,192,87770,1,0,0:0:0:0:
320,192,87853,1,2,0:0:0:0:
448,192,87853,1,0,0:0:0:0:
320,192,88020,1,0,0:0:0:0:
192,192,88103,1,0,0:0:0:0:
64,192,88187,1,2,0:0:0:0:
448,192,88187,1,0,0:0:0:0:
320,192,88353,1,0,0:0:0:0:
192,192,88520,1,2,0:0:0:0:
448,192,88520,1,0,0:0:0:0:
320,192,88603,1,0,0:0:0:0:
64,192,88687,1,0,0:0:0:0:
448,192,88770,1,0,0:0:0:0:
64,192,88853,1,2,0:0:0:0:
192,192,88853,1,0,0:0:0:0:
320,192,89020,1,0,0:0:0:0:
448,192,89103,1,0,0:0:0:0:
64,192,89187,1,2,0:0:0:0:
192,192,89187,1,0,0:0:0:0:
192,192,89353,1,0,0:0:0:0:
320,192,89437,1,0,0:0:0:0:
64,192,89520,1,2,0:0:0:0:
448,192,89520,1,0,0:0:0:0:
192,192,89603,1,0,0:0:0:0:
320,192,89687,1,0,0:0:0:0:
64,192,89770,1,0,0:0:0:0:
192,192,89853,1,2,0:0:0:0:
448,192,89853,1,0,0:0:0:0:
320,192,89937,1,0,0:0:0:0:
192,192,90020,1,0,0:0:0:0:
448,192,90103,1,0,0:0:0:0:
64,192,90187,1,2,0:0:0:0:
320,192,90187,1,0,0:0:0:0:
192,192,90353,1,0,0:0:0:0:
320,192,90437,1,0,0:0:0:0:
192,192,90520,1,2,0:0:0:0:
448,192,90520,1,0,0:0:0:0:
64,192,90687,1,0,0:0:0:0:
192,192,90770,1,0,0:0:0:0:
64,192,90853,1,2,0:0:0:0:
320,192,90853,1,0,0:0:0:0:
448,192,90937,1,0,0:0:0:0:
192,192,91020,1,0,0:0:0:0:
320,192,91103,1,0,0:0:0:0:
64,192,91187,1,2,0:0:0:0:
448,192,91187,1,0,0:0:0:0:
192,192,91270,1,0,0:0:0:0:
320,192,91353,1,0,0:0:0:0:
64,192,91437,1,0,0:0:0:0:
192,192,91520,1,2,0:0:0:0:
448,192,91520,1,0,0:0:0:0:
320,192,91603,1,0,0:0:0:0:
192,192,91687,1,0,0:0:0:0:
64,192,91770,1,0,0:0:0:0:
320,192,91853,1,2,0:0:0:0:
448,192,91853,1,0,0:0:0:0:
192,192,91937,1,0,0:0:0:0:
320,192,92020,1,0,0:0:0:0:
64,192,92103,1,0,0:0:0:0:
192,192,92187,1,2,0:0:0:0:
448,192,92187,1,0,0:0:0:0:
320,192,92353,1,0,0:0:0:0:
448,192,92437,1,0,0:0:0:0:
64,192,92520,1,2,0:0:0:0:
192,192,92520,1,0,0:0:0:0:
320,192,92631,1,0,0:0:0:0:
64,192,92742,1,0,0:0:0:0:
192,192,92853,1,2,0:0:0:0:
448,192,92853,1,0,0:0:0:0:
320,192,93020,1,0,0:0:0:0:
64,192,93103,1,0,0:0:0:0:
192,192,93187,1,2,0:0:0:0:
320,192,93187,1,0,0:0:0:0:
448,192,93353,1,0,0:0:0:0:
192,192,93437,1,0,0:0:0:0:
320,192,93520,1,2,0:0:0:0:
448,192,93520,1,0,0:0:0:0:
64,192,93687,1,0,0:0:0:0:
320,192,93770,1,0,0:0:0:0:
192,192,93853,1,2,0:0:0:0:
448,192,93853,1,0,0:0:0:0:
64,192,93937,1,0,0:0:0:0:
192,192,94020,1,0,0:0:0:0:
448,192,94103,1,0,0:0:0:0:
64,192,94187,1,2,0:0:0:0:
320,192,94187,1,0,0:0:0:0:
192,192,94353,1,0,0:0:0:0:
448,192,94437,1,0,0:0:0:0:
192,192,94520,1,2,0:0:0:0:
320,192,94520,1,0,0:0:0:0:
448,192,94687,1,0,0:0:0:0:
320,192,94770,1,0,0:0:0:0:
64,192,94853,1,2,0:0:0:0:
192,192,94853,1,0,0:0:0:0:
448,192,94937,1,0,0:0:0:0:
64,192,95020,1,0,0:0:0:0:
192,192,95103,1,0,0:0:0:0:
320,192,95187,1,2,0:0:0:0:
448,192,95187,1,0,0:0:0:0:
64,192,95270,1,0,0:0:0:0:
192,192,95353,1,2,0:0:0:0:
448,192,95437,1,0,0:0:0:0:
64,192,95520,1,2,0:0:0:0:
320,192,95520,1,0,0:0:0:0:
320,192,95687,1,2,0:0:0:0:
192,192,95853,1,2,0:0:0:0:
320,192,95853,1,0,0:0:0:0:
192,192,96020,1,2,0:0:0:0:
192,192,96187,1,2,0:0:0:0:
448,192,96187,1,0,0:0:0:0:
448,192,96353,1,2,0:0:0:0:
64,192,96520,1,2,0:0:0:0:
448,192,96520,1,0,0:0:0:0:
64,192,96687,1,2,0:0:0:0:
448,192,96770,1,0,0:0:0:0:
64,192,96853,1,2,0:0:0:0:
320,192,96853,1,0,0:0:0:0:
192,192,97020,1,2,0:0:0:0:
320,192,97103,1,2,0:0:0:0:
64,192,97187,1,2,0:0:0:0:
448,192,97187,1,0,0:0:0:0:
192,192,97353,1,2,0:0:0:0:
320,192,97437,1,2,0:0:0:0:
64,192,97520,1,2,0:0:0:0:
448,192,97520,1,0,0:0:0:0:
192,192,97603,1,2,0:0:0:0:
320,192,97687,1,2,0:0:0:0:
64,192,97770,1,2,0:0:0:0:
192,192,97853,1,2,0:0:0:0:
448,192,97853,1,0,0:0:0:0:
320,192,97937,1,2,0:0:0:0:
64,192,98020,1,2,0:0:0:0:
448,192,98103,1,2,0:0:0:0:
64,192,98187,1,2,0:0:0:0:
192,192,98187,1,4,0:0:0:0:
320,192,98353,1,0,0:0:0:0:
448,192,98437,1,0,0:0:0:0:
64,192,98520,1,2,0:0:0:0:
192,192,98520,1,0,0:0:0:0:
320,192,98603,1,0,0:0:0:0:
64,192,98687,1,0,0:0:0:0:
320,192,98853,1,2,0:0:0:0:
448,192,98853,1,0,0:0:0:0:
192,192,99020,1,0,0:0:0:0:
64,192,99103,1,0,0:0:0:0:
320,192,99187,1,2,0:0:0:0:
448,192,99187,1,0,0:0:0:0:
192,192,99270,1,0,0:0:0:0:
448,192,99353,1,0,0:0:0:0:
320,192,99437,1,0,0:0:0:0:
64,192,99520,1,2,0:0:0:0:
192,192,99520,1,0,0:0:0:0:
320,192,99687,1,0,0:0:0:0:
192,192,99770,1,0,0:0:0:0:
64,192,99853,1,2,0:0:0:0:
448,192,99853,1,0,0:0:0:0:
320,192,99937,1,0,0:0:0:0:
192,192,100020,1,0,0:0:0:0:
64,192,100187,1,2,0:0:0:0:
320,192,100187,1,0,0:0:0:0:
192,192,100270,1,0,0:0:0:0:
448,192,100353,1,0,0:0:0:0:
320,192,100437,1,0,0:0:0:0:
64,192,100520,1,2,0:0:0:0:
448,192,100520,1,0,0:0:0:0:
192,192,100687,1,2,0:0:0:0:
320,192,100687,1,0,0:0:0:0:
64,192,100770,1,0,0:0:0:0:
192,192,100853,1,2,0:0:0:0:
448,192,100853,1,0,0:0:0:0:
320,192,101020,1,0,0:0:0:0:
192,192,101103,1,0,0:0:0:0:
64,192,101187,1,2,0:0:0:0:
448,192,101187,1,0,0:0:0:0:
192,192,101353,1,0,0:0:0:0:
320,192,101437,1,0,0:0:0:0:
192,192,101520,1,2,0:0:0:0:
448,192,101520,1,0,0:0:0:0:
64,192,101603,1,0,0:0:0:0:
320,192,101687,1,0,0:0:0:0:
64,192,101770,1,0,0:0:0:0:
192,192,101853,1,2,0:0:0:0:
448,192,101853,1,0,0:0:0:0:
320,192,102020,1,0,0:0:0:0:
448,192,102103,1,0,0:0:0:0:
64,192,102187,1,2,0:0:0:0:
192,192,102187,1,0,0:0:0:0:
320,192,102353,1,0,0:0:0:0:
192,192,102437,1,0,0:0:0:0:
320,192,102520,1,2,0:0:0:0:
448,192,102520,1,0,0:0:0:0:
64,192,102603,1,0,0:0:0:0:
192,192,102687,1,0,0:0:0:0:
448,192,102770,1,0,0:0:0:0:
64,192,102853,1,2,0:0:0:0:
320,192,102853,1,0,0:0:0:0:
192,192,102937,1,0,0:0:0:0:
448,192,103020,1,0,0:0:0:0:
320,192,103103,1,2,0:0:0:0:
64,192,103187,1,0,0:0:0:0:
320,192,103270,1,0,0:0:0:0:
192,192,103353,1,2,0:0:0:0:
448,192,103437,1,0,0:0:0:0:
64,192,103520,1,2,0:0:0:0:
192,192,103520,1,0,0:0:0:0:
320,192,103687,1,0,0:0:0:0:
64,192,103770,1,0,0:0:0:0:
448,192,103853,1,2,0:0:0:0:
320,192,103937,1,0,0:0:0:0:
192,192,104020,1,0,0:0:0:0:
448,192,104103,1,0,0:0:0:0:
64,192,104187,1,2,0:0:0:0:
320,192,104187,1,0,0:0:0:0:
192,192,104270,1,0,0:0:0:0:
448,192,104353,1,0,0:0:0:0:
320,192,104437,1,0,0:0:0:0:
64,192,104520,1,2,0:0:0:0:
192,192,104520,1,0,0:0:0:0:
448,192,104603,1,0,0:0:0:0:
192,192,104687,1,0,0:0:0:0:
448,192,104770,1,0,0:0:0:0:
64,192,104853,1,2,0:0:0:0:
320,192,104853,1,0,0:0:0:0:
192,192,104937,1,0,0:0:0:0:
320,192,105020,1,0,0:0:0:0:
192,192,105103,1,0,0:0:0:0:
64,192,105187,1,2,0:0:0:0:
448,192,105187,1,0,0:0:0:0:
320,192,105353,1,0,0:0:0:0:
448,192,105437,1,0,0:0:0:0:
64,192,105520,1,2,0:0:0:0:
192,192,105520,1,0,0:0:0:0:
320,192,105603,1,0,0:0:0:0:
64,192,105687,1,0,0:0:0:0:
192,192,105770,1,0,0:0:0:0:
320,192,105853,1,2,0:0:0:0:
448,192,105853,1,0,0:0:0:0:
64,192,106020,1,2,0:0:0:0:
192,192,106020,1,0,0:0:0:0:
320,192,106103,1,0,0:0:0:0:
64,192,106187,1,2,0:0:0:0:
448,192,106187,1,0,0:0:0:0:
192,192,106353,1,0,0:0:0:0:
448,192,106437,1,0,0:0:0:0:
64,192,106520,1,2,0:0:0:0:
320,192,106520,1,0,0:0:0:0:
192,192,106603,1,0,0:0:0:0:
448,192,106687,1,0,0:0:0:0:
320,192,106770,1,0,0:0:0:0:
64,192,106853,1,2,0:0:0:0:
192,192,106853,1,0,0:0:0:0:
448,192,106937,1,0,0:0:0:0:
192,192,107020,1,0,0:0:0:0:
320,192,107103,1,0,0:0:0:0:
64,192,107187,1,2,0:0:0:0:
448,192,107187,1,0,0:0:0:0:
192,192,107353,1,0,0:0:0:0:
320,192,107437,1,0,0:0:0:0:
64,192,107520,1,2,0:0:0:0:
448,192,107520,1,0,0:0:0:0:
320,192,107687,1,0,0:0:0:0:
192,192,107770,1,0,0:0:0:0:
64,192,107853,1,2,0:0:0:0:
448,192,107853,1,0,0:0:0:0:
320,192,107937,1,0,0:0:0:0:
192,192,108020,1,2,0:0:0:0:
448,192,108103,1,0,0:0:0:0:
64,192,108187,1,2,0:0:0:0:
192,192,108187,1,0,0:0:0:0:
320,192,108353,1,2,0:0:0:0:
448,192,108353,1,0,0:0:0:0:
64,192,108520,1,0,0:0:0:0:
320,192,108603,1,2,0:0:0:0:
64,192,108687,1,2,0:0:0:0:
448,192,108770,1,2,0:0:0:0:
192,192,108853,1,2,0:0:0:0:
320,192,108853,1,4,0:0:0:0:
64,192,109020,1,0,0:0:0:0:
320,192,109187,1,2,0:0:0:0:
448,192,109187,1,0,0:0:0:0:
192,192,109353,1,0,0:0:0:0:
320,192,109520,1,0,0:0:0:0:
64,192,109687,1,2,0:0:0:0:
192,192,109687,1,0,0:0:0:0:
448,192,109853,1,0,0:0:0:0:
64,192,110020,1,2,0:0:0:0:
320,192,110020,1,0,0:0:0:0:
192,192,110187,1,2,0:0:0:0:
320,192,110187,1,0,0:0:0:0:
64,192,110353,1,0,0:0:0:0:
320,192,110520,1,2,0:0:0:0:
448,192,110520,1,0,0:0:0:0:
192,192,110687,1,0,0:0:0:0:
320,192,110853,1,0,0:0:0:0:
64,192,111020,1,0,0:0:0:0:
192,192,111187,1,2,0:0:0:0:
448,192,111187,1,0,0:0:0:0:
64,192,111353,1,2,0:0:0:0:
320,192,111353,1,0,0:0:0:0:
192,192,111520,1,2,0:0:0:0:
320,192,111520,1,0,0:0:0:0:
64,192,111687,1,0,0:0:0:0:
320,192,111853,1,2,0:0:0:0:
448,192,111853,1,0,0:0:0:0:
192,192,112020,1,0,0:0:0:0:
64,192,112187,1,2,0:0:0:0:
320,192,112187,1,0,0:0:0:0:
192,192,112353,1,0,0:0:0:0:
320,192,112520,1,2,0:0:0:0:
448,192,112520,1,0,0:0:0:0:
64,192,112687,1,0,0:0:0:0:
192,192,112853,1,2,0:0:0:0:
320,192,112853,1,0,0:0:0:0:
64,192,113020,1,0,0:0:0:0:
320,192,113187,1,2,0:0:0:0:
448,192,113187,1,0,0:0:0:0:
192,192,113353,1,0,0:0:0:0:
320,192,113520,1,0,0:0:0:0:
64,192,113687,1,2,0:0:0:0:
192,192,113687,1,0,0:0:0:0:
448,192,113853,1,0,0:0:0:0:
64,192,114020,1,2,0:0:0:0:
320,192,114020,1,0,0:0:0:0:
192,192,114187,1,2,0:0:0:0:
320,192,114187,1,0,0:0:0:0:
64,192,114353,1,0,0:0:0:0:
320,192,114520,1,2,0:0:0:0:
448,192,114520,1,0,0:0:0:0:
192,192,114687,1,0,0:0:0:0:
64,192,114853,1,2,0:0:0:0:
320,192,114853,1,0,0:0:0:0:
448,192,115020,1,0,0:0:0:0:
64,192,115187,1,2,0:0:0:0:
192,192,115187,1,0,0:0:0:0:
320,192,115353,1,2,0:0:0:0:
448,192,115353,1,0,0:0:0:0:
64,192,115520,1,2,0:0:0:0:
448,192,115520,1,0,0:0:0:0:
192,192,115687,1,2,0:0:0:0:
320,192,115687,1,0,0:0:0:0:
64,192,115853,1,2,0:0:0:0:
192,192,115853,1,0,0:0:0:0:
320,192,116020,1,2,0:0:0:0:
448,192,116020,1,0,0:0:0:0:
192,192,116187,1,2,0:0:0:0:
320,192,116187,1,0,0:0:0:0:
64,192,116353,1,2,0:0:0:0:
448,192,116353,1,0,0:0:0:0:
192,192,116520,1,2,0:0:0:0:
448,192,116520,1,0,0:0:0:0:
64,192,116687,1,2,0:0:0:0:
320,192,116687,1,0,0:0:0:0:
64,192,116853,1,2,0:0:0:0:
192,192,116853,1,0,0:0:0:0:
448,192,116937,1,0,0:0:0:0:
192,192,117020,1,2,0:0:0:0:
320,192,117103,1,0,0:0:0:0:
64,192,117187,1,2,0:0:0:0:
448,192,117187,1,0,0:0:0:0:
192,192,117270,1,0,0:0:0:0:
448,192,117353,1,2,0:0:0:0:
320,192,117437,1,0,0:0:0:0:
64,192,117520,1,2,0:0:0:0:
192,192,117520,1,0,0:0:0:0:
448,192,117603,1,0,0:0:0:0:
192,192,117687,1,2,0:0:0:0:
320,192,117770,1,0,0:0:0:0:
64,192,117853,1,2,0:0:0:0:
448,192,117853,1,0,0:0:0:0:
192,192,117937,1,0,0:0:0:0:
448,192,118020,1,2,0:0:0:0:
320,192,118103,1,0,0:0:0:0:
64,192,118187,1,2,0:0:0:0:
192,192,118187,1,0,0:0:0:0:
448,192,118270,1,2,0:0:0:0:
64,192,118353,1,2,0:0:0:0:
448,192,118437,1,2,0:0:0:0:
64,192,118520,1,2,0:0:0:0:
448,192,118603,1,2,0:0:0:0:
64,192,118687,1,2,0:0:0:0:
448,192,118770,1,2,0:0:0:0:
192,192,118853,1,2,0:0:0:0:
320,192,118937,1,2,0:0:0:0:
192,192,119020,1,2,0:0:0:0:
320,192,119103,1,2,0:0:0:0:
192,192,119187,1,2,0:0:0:0:
320,192,119270,1,2,0:0:0:0:
192,192,119353,1,2,0:0:0:0:
320,192,119437,1,2,0:0:0:0:
64,192,119520,1,4,0:0:0:0:
448,192,120520,1,0,0:0:0:0:
64,192,120853,1,0,0:0:0:0:
448,192,120853,1,0,0:0:0:0:
320,192,121187,1,0,0:0:0:0:
192,192,121520,1,0,0:0:0:0:
64,192,121853,1,0,0:0:0:0:
192,192,122187,1,0,0:0:0:0:
320,192,122187,1,0,0:0:0:0:
320,192,123187,1,0,0:0:0:0:
192,192,123525,1,0,0:0:0:0:
320,192,123525,1,0,0:0:0:0:
64,192,123806,1,0,0:0:0:0:
320,192,124087,1,0,0:0:0:0:
192,192,124275,1,0,0:0:0:0:
448,192,124675,1,0,0:0:0:0:
64,192,125075,1,0,0:0:0:0:
192,192,125075,1,0,0:0:0:0:
64,192,126548,1,0,0:0:0:0:
320,192,126548,1,0,0:0:0:0:
64,192,127405,1,0,0:0:0:0:
192,192,128280,1,0,0:0:0:0:
448,192,128446,1,0,0:0:0:0:
