osu file format v14

[General]
AudioFilename: End Time.mp3
AudioLeadIn: 0
PreviewTime: 55259
Countdown: 0
SampleSet: None
StackLeniency: 0.7
Mode: 3
LetterboxInBreaks: 0
SpecialStyle: 0
WidescreenStoryboard: 1

[Editor]
Bookmarks: 24002,32002,76669,92919,97336,98669,109002,109336
DistanceSpacing: 2
BeatDivisor: 4
GridSize: 16
TimelineZoom: 1.5

[Metadata]
Title:End Time
TitleUnicode:End Time
Artist:Cres
ArtistUnicode:Cres
Creator:PyaKura
Version:Afterword
Source:BMS
Tags:BOF 2006 requiem trance
BeatmapID:548945
BeatmapSetID:154929

[Difficulty]
HPDrainRate:8
CircleSize:7
OverallDifficulty:9
ApproachRate:5
SliderMultiplier:1.4
SliderTickRate:1

[Events]
//Background and Video events
0,0,"bg.jpg",0,0
//Break Periods
//Storyboard Layer 0 (Background)
//Storyboard Layer 1 (Fail)
//Storyboard Layer 2 (Pass)
//Storyboard Layer 3 (Foreground)
//Storyboard Sound Samples

[TimingPoints]
1343,333.333333333333,4,3,1,10,1,0
1343,-166.666666666667,4,3,1,10,0,0
12176,-153.846153846154,4,3,1,10,0,0
12342,-142.857142857143,4,3,1,10,0,0
12509,-133.333333333333,4,3,1,10,0,0
12676,-125,4,3,1,10,0,0
12842,-117.647058823529,4,3,1,10,0,0
13009,-111.111111111111,4,3,1,10,0,0
13176,-105.263157894737,4,3,1,10,0,0
13342,-100,4,3,1,20,0,0
34676,-166.666666666667,4,3,1,10,0,0
54676,-100,4,3,1,30,0,0
77342,-100,4,3,1,30,0,1
98676,-100,4,3,1,30,0,0
120009,-166.666666666667,4,3,1,10,0,0
124009,373.9693,4,3,1,10,1,0
124009,-149.253731343284,4,3,1,10,0,0
124382,371.0667,4,3,1,10,1,0
124382,-149.253731343284,4,3,1,10,0,0
124753,402.9929,4,3,1,10,1,0
124753,-136.986301369863,4,3,1,10,0,0
125155,395.7366,4,3,1,10,1,0
125155,-140.845070422535,4,3,1,10,0,0
125554,367.9808,4,3,1,10,1,0
125554,-151.515151515152,4,3,1,10,0,0
127025,429.8857,4,3,1,10,1,0
127025,-129.87012987013,4,3,1,10,0,0
127884,438.866,4,3,1,10,1,0
127884,-126.582278481013,4,3,1,10,0,0
128761,500,4,3,1,10,1,0
128761,-111.111111111111,4,3,1,10,0,0

[HitObjects]
182,192,1343,5,2,1:0:0:0:
256,192,1343,1,0,0:0:0:0:
402,192,2342,1,0,0:0:0:0:
402,192,2676,1,0,0:0:0:0:
109,192,2676,1,0,0:0:0:0:
329,192,3009,1,0,0:0:0:0:
256,192,3342,1,0,0:0:0:0:
182,192,3676,1,0,0:0:0:0:
256,192,4009,1,0,0:0:0:0:
36,192,4009,1,0,0:0:0:0:
402,192,5009,1,0,0:0:0:0:
402,192,5342,1,0,0:0:0:0:
475,192,5342,1,0,0:0:0:0:
329,192,5676,1,0,0:0:0:0:
256,192,6009,1,0,0:0:0:0:
182,192,6342,1,0,0:0:0:0:
109,192,6676,1,0,0:0:0:0:
36,192,6676,1,0,0:0:0:0:
182,192,8009,1,0,0:0:0:0:
256,192,8009,1,0,0:0:0:0:
402,192,9342,1,0,0:0:0:0:
329,192,9342,1,0,0:0:0:0:
36,192,13342,1,4,0:0:0:0:
109,192,13509,1,0,0:0:0:0:
256,192,13509,1,0,0:0:0:0:
36,192,13676,1,2,0:0:0:0:
475,192,13676,1,0,0:0:0:0:
329,192,13676,1,0,0:0:0:0:
402,192,13842,1,0,0:0:0:0:
256,192,13842,1,0,0:0:0:0:
36,192,14009,1,2,0:0:0:0:
182,192,14009,1,0,0:0:0:0:
329,192,14009,1,0,0:0:0:0:
402,192,14176,1,0,0:0:0:0:
256,192,14176,1,0,0:0:0:0:
36,192,14342,1,2,0:0:0:0:
329,192,14342,1,0,0:0:0:0:
182,192,14342,1,0,0:0:0:0:
109,192,14509,1,0,0:0:0:0:
256,192,14509,1,0,0:0:0:0:
36,192,14676,1,2,0:0:0:0:
109,192,14842,1,0,0:0:0:0:
182,192,14842,1,0,0:0:0:0:
36,192,15009,1,2,0:0:0:0:
475,192,15009,1,0,0:0:0:0:
256,192,15009,1,0,0:0:0:0:
402,192,15176,1,0,0:0:0:0:
329,192,15176,1,0,0:0:0:0:
36,192,15342,1,2,0:0:0:0:
475,192,15342,1,0,0:0:0:0:
182,192,15342,1,0,0:0:0:0:
256,192,15509,1,0,0:0:0:0:
329,192,15509,1,0,0:0:0:0:
36,192,15676,1,2,0:0:0:0:
109,192,15676,1,0,0:0:0:0:
402,192,15676,1,0,0:0:0:0:
182,192,15842,1,2,0:0:0:0:
256,192,15842,1,0,0:0:0:0:
36,192,15842,1,0,0:0:0:0:
36,192,16009,1,2,0:0:0:0:
109,192,16176,1,0,0:0:0:0:
329,192,16176,1,0,0:0:0:0:
36,192,16342,1,2,0:0:0:0:
475,192,16342,1,0,0:0:0:0:
256,192,16342,1,0,0:0:0:0:
402,192,16509,1,0,0:0:0:0:
182,192,16509,1,0,0:0:0:0:
36,192,16676,1,2,0:0:0:0:
109,192,16676,1,0,0:0:0:0:
329,192,16676,1,0,0:0:0:0:
475,192,16842,1,0,0:0:0:0:
256,192,16842,1,0,0:0:0:0:
36,192,17009,1,2,0:0:0:0:
182,192,17009,1,0,0:0:0:0:
402,192,17009,1,0,0:0:0:0:
109,192,17176,1,0,0:0:0:0:
329,192,17176,1,0,0:0:0:0:
36,192,17342,1,2,0:0:0:0:
109,192,17509,1,0,0:0:0:0:
256,192,17509,1,0,0:0:0:0:
36,192,17676,1,2,0:0:0:0:
475,192,17676,1,0,0:0:0:0:
329,192,17676,1,0,0:0:0:0:
402,192,17842,1,0,0:0:0:0:
256,192,17842,1,0,0:0:0:0:
36,192,18009,1,2,0:0:0:0:
329,192,18009,1,0,0:0:0:0:
182,192,18009,1,0,0:0:0:0:
256,192,18176,1,0,0:0:0:0:
475,192,18176,1,0,0:0:0:0:
36,192,18342,1,2,0:0:0:0:
402,192,18342,1,0,0:0:0:0:
182,192,18342,1,0,0:0:0:0:
109,192,18509,1,0,0:0:0:0:
329,192,18509,1,0,0:0:0:0:
475,192,18676,1,2,0:0:0:0:
36,192,18842,1,0,0:0:0:0:
182,192,18842,1,0,0:0:0:0:
475,192,19009,1,2,0:0:0:0:
402,192,19009,1,0,0:0:0:0:
256,192,19009,1,0,0:0:0:0:
329,192,19176,1,0,0:0:0:0:
182,192,19176,1,0,0:0:0:0:
475,192,19342,1,2,0:0:0:0:
109,192,19342,1,0,0:0:0:0:
256,192,19342,1,0,0:0:0:0:
329,192,19509,1,0,0:0:0:0:
182,192,19509,1,0,0:0:0:0:
475,192,19676,1,2,0:0:0:0:
256,192,19676,1,0,0:0:0:0:
109,192,19676,1,0,0:0:0:0:
36,192,19842,1,0,0:0:0:0:
182,192,19842,1,0,0:0:0:0:
475,192,20009,1,2,0:0:0:0:
36,192,20176,1,0,0:0:0:0:
109,192,20176,1,0,0:0:0:0:
475,192,20342,1,2,0:0:0:0:
402,192,20342,1,0,0:0:0:0:
182,192,20342,1,0,0:0:0:0:
329,192,20509,1,0,0:0:0:0:
256,192,20509,1,0,0:0:0:0:
475,192,20676,1,2,0:0:0:0:
402,192,20676,1,0,0:0:0:0:
109,192,20676,1,0,0:0:0:0:
256,192,20842,1,0,0:0:0:0:
182,192,20842,1,0,0:0:0:0:
475,192,21009,1,2,0:0:0:0:
109,192,21009,1,0,0:0:0:0:
36,192,21009,1,0,0:0:0:0:
475,192,21176,1,2,0:0:0:0:
256,192,21176,1,0,0:0:0:0:
329,192,21176,1,0,0:0:0:0:
475,192,21342,1,2,0:0:0:0:
109,192,21509,1,0,0:0:0:0:
256,192,21509,1,0,0:0:0:0:
475,192,21676,1,2,0:0:0:0:
402,192,21676,1,0,0:0:0:0:
182,192,21676,1,0,0:0:0:0:
329,192,21842,1,0,0:0:0:0:
109,192,21842,1,0,0:0:0:0:
475,192,22009,1,2,0:0:0:0:
256,192,22009,1,0,0:0:0:0:
36,192,22009,1,0,0:0:0:0:
182,192,22176,1,0,0:0:0:0:
329,192,22176,1,0,0:0:0:0:
475,192,22342,1,2,0:0:0:0:
109,192,22342,1,0,0:0:0:0:
256,192,22342,1,0,0:0:0:0:
182,192,22509,1,0,0:0:0:0:
36,192,22509,1,0,0:0:0:0:
475,192,22676,1,2,0:0:0:0:
36,192,22842,1,0,0:0:0:0:
256,192,22842,1,0,0:0:0:0:
182,192,23009,1,2,0:0:0:0:
402,192,23009,1,0,0:0:0:0:
475,192,23009,1,0,0:0:0:0:
109,192,23176,1,0,0:0:0:0:
329,192,23176,1,0,0:0:0:0:
36,192,23176,1,2,0:0:0:0:
36,192,23342,1,2,0:0:0:0:
475,192,23342,1,0,0:0:0:0:
256,192,23342,1,0,0:0:0:0:
402,192,23426,1,2,0:0:0:0:
109,192,23426,1,0,0:0:0:0:
329,192,23509,1,0,0:0:0:0:
36,192,23592,1,2,0:0:0:0:
475,192,23592,1,0,0:0:0:0:
402,192,23676,1,2,0:0:0:0:
109,192,23676,1,0,0:0:0:0:
256,192,23676,1,0,0:0:0:0:
36,192,23842,1,2,0:0:0:0:
475,192,23842,1,0,0:0:0:0:
182,192,23842,1,0,0:0:0:0:
109,192,23926,1,0,0:0:0:0:
402,192,23926,1,2,0:0:0:0:
475,192,24009,1,2,0:0:0:0:
36,192,24009,1,0,0:0:0:0:
402,192,24176,1,0,0:0:0:0:
182,192,24176,1,0,0:0:0:0:
36,192,24176,1,0,0:0:0:0:
475,192,24342,1,2,0:0:0:0:
329,192,24342,1,0,0:0:0:0:
109,192,24342,1,0,0:0:0:0:
402,192,24509,1,0,0:0:0:0:
256,192,24509,1,0,0:0:0:0:
36,192,24509,1,0,0:0:0:0:
475,192,24676,1,2,0:0:0:0:
182,192,24676,1,0,0:0:0:0:
329,192,24676,1,0,0:0:0:0:
402,192,24842,1,0,0:0:0:0:
256,192,24842,1,0,0:0:0:0:
109,192,24842,1,0,0:0:0:0:
475,192,25009,1,2,0:0:0:0:
182,192,25009,1,0,0:0:0:0:
36,192,25009,1,0,0:0:0:0:
402,192,25176,1,0,0:0:0:0:
256,192,25176,1,0,0:0:0:0:
109,192,25176,1,0,0:0:0:0:
475,192,25342,1,2,0:0:0:0:
182,192,25342,1,0,0:0:0:0:
402,192,25509,1,0,0:0:0:0:
109,192,25509,1,0,0:0:0:0:
36,192,25509,1,0,0:0:0:0:
475,192,25676,1,2,0:0:0:0:
182,192,25676,1,0,0:0:0:0:
329,192,25676,1,0,0:0:0:0:
402,192,25842,1,0,0:0:0:0:
256,192,25842,1,0,0:0:0:0:
109,192,25842,1,0,0:0:0:0:
475,192,26009,1,2,0:0:0:0:
182,192,26009,1,0,0:0:0:0:
36,192,26009,1,0,0:0:0:0:
402,192,26176,1,0,0:0:0:0:
109,192,26176,1,0,0:0:0:0:
329,192,26176,1,0,0:0:0:0:
475,192,26342,1,2,0:0:0:0:
256,192,26342,1,0,0:0:0:0:
182,192,26342,1,0,0:0:0:0:
402,192,26509,1,2,0:0:0:0:
36,192,26509,1,0,0:0:0:0:
475,192,26509,1,0,0:0:0:0:
109,192,26509,1,0,0:0:0:0:
36,192,26676,1,2,0:0:0:0:
402,192,26676,1,0,0:0:0:0:
109,192,26842,1,0,0:0:0:0:
329,192,26842,1,0,0:0:0:0:
182,192,26842,1,0,0:0:0:0:
36,192,27009,1,2,0:0:0:0:
475,192,27009,1,0,0:0:0:0:
256,192,27009,1,0,0:0:0:0:
109,192,27176,1,0,0:0:0:0:
182,192,27176,1,0,0:0:0:0:
402,192,27176,1,0,0:0:0:0:
36,192,27342,1,2,0:0:0:0:
475,192,27342,1,0,0:0:0:0:
329,192,27342,1,0,0:0:0:0:
109,192,27509,1,0,0:0:0:0:
402,192,27509,1,0,0:0:0:0:
256,192,27509,1,0,0:0:0:0:
36,192,27676,1,2,0:0:0:0:
329,192,27676,1,0,0:0:0:0:
182,192,27676,1,0,0:0:0:0:
109,192,27842,1,0,0:0:0:0:
256,192,27842,1,0,0:0:0:0:
402,192,27842,1,0,0:0:0:0:
36,192,28009,1,2,0:0:0:0:
329,192,28009,1,0,0:0:0:0:
109,192,28176,1,0,0:0:0:0:
402,192,28176,1,0,0:0:0:0:
256,192,28176,1,0,0:0:0:0:
36,192,28342,1,2,0:0:0:0:
329,192,28342,1,0,0:0:0:0:
475,192,28342,1,0,0:0:0:0:
109,192,28509,1,0,0:0:0:0:
402,192,28509,1,0,0:0:0:0:
256,192,28509,1,0,0:0:0:0:
36,192,28676,1,2,0:0:0:0:
329,192,28676,1,0,0:0:0:0:
182,192,28676,1,0,0:0:0:0:
109,192,28842,1,0,0:0:0:0:
402,192,28842,1,0,0:0:0:0:
475,192,28842,1,0,0:0:0:0:
36,192,29009,1,2,0:0:0:0:
329,192,29009,1,0,0:0:0:0:
256,192,29009,1,0,0:0:0:0:
36,192,29176,1,2,0:0:0:0:
182,192,29176,1,0,0:0:0:0:
109,192,29176,1,0,0:0:0:0:
402,192,29176,1,0,0:0:0:0:
475,192,29342,1,2,0:0:0:0:
109,192,29342,1,0,0:0:0:0:
475,192,29509,1,2,0:0:0:0:
36,192,29509,1,0,0:0:0:0:
256,192,29509,1,0,0:0:0:0:
475,192,29676,1,2,0:0:0:0:
182,192,29676,1,0,0:0:0:0:
329,192,29676,1,0,0:0:0:0:
475,192,29842,1,2,0:0:0:0:
256,192,29842,1,0,0:0:0:0:
109,192,29842,1,0,0:0:0:0:
475,192,30009,1,2,0:0:0:0:
182,192,30009,1,0,0:0:0:0:
36,192,30009,1,0,0:0:0:0:
475,192,30176,1,2,0:0:0:0:
109,192,30176,1,0,0:0:0:0:
329,192,30176,1,0,0:0:0:0:
475,192,30342,1,2,0:0:0:0:
256,192,30342,1,0,0:0:0:0:
36,192,30342,1,0,0:0:0:0:
475,192,30509,1,2,0:0:0:0:
329,192,30509,1,0,0:0:0:0:
109,192,30509,1,0,0:0:0:0:
36,192,30676,1,2,0:0:0:0:
256,192,30676,1,0,0:0:0:0:
36,192,30842,1,2,0:0:0:0:
182,192,30842,1,0,0:0:0:0:
402,192,30842,1,0,0:0:0:0:
36,192,31009,1,2,0:0:0:0:
329,192,31009,1,0,0:0:0:0:
475,192,31009,1,0,0:0:0:0:
36,192,31176,1,2,0:0:0:0:
402,192,31176,1,0,0:0:0:0:
256,192,31176,1,0,0:0:0:0:
36,192,31342,1,2,0:0:0:0:
182,192,31342,1,0,0:0:0:0:
329,192,31342,1,0,0:0:0:0:
36,192,31509,1,2,0:0:0:0:
256,192,31509,1,0,0:0:0:0:
402,192,31509,1,0,0:0:0:0:
36,192,31676,1,2,0:0:0:0:
109,192,31676,1,0,0:0:0:0:
329,192,31676,1,0,0:0:0:0:
36,192,31842,1,2,0:0:0:0:
475,192,31842,1,0,0:0:0:0:
256,192,31842,1,0,0:0:0:0:
36,192,32009,1,2,0:0:0:0:
475,192,32009,1,0,0:0:0:0:
109,192,32065,1,0,0:0:0:0:
402,192,32092,1,0,0:0:0:0:
182,192,32120,1,0,0:0:0:0:
36,192,32176,1,2,0:0:0:0:
329,192,32176,1,0,0:0:0:0:
109,192,32231,1,0,0:0:0:0:
256,192,32259,1,0,0:0:0:0:
182,192,32287,1,0,0:0:0:0:
475,192,32342,1,2,0:0:0:0:
36,192,32342,1,0,0:0:0:0:
402,192,32398,1,0,0:0:0:0:
109,192,32426,1,0,0:0:0:0:
329,192,32454,1,0,0:0:0:0:
475,192,32509,1,2,0:0:0:0:
182,192,32509,1,0,0:0:0:0:
402,192,32565,1,0,0:0:0:0:
256,192,32592,1,0,0:0:0:0:
329,192,32620,1,0,0:0:0:0:
475,192,32676,1,2,0:0:0:0:
36,192,32676,1,0,0:0:0:0:
109,192,32731,1,0,0:0:0:0:
402,192,32759,1,0,0:0:0:0:
182,192,32787,1,0,0:0:0:0:
36,192,32842,1,2,0:0:0:0:
329,192,32842,1,0,0:0:0:0:
109,192,32898,1,0,0:0:0:0:
256,192,32926,1,0,0:0:0:0:
182,192,32954,1,0,0:0:0:0:
475,192,33009,1,2,0:0:0:0:
36,192,33009,1,0,0:0:0:0:
402,192,33065,1,0,0:0:0:0:
109,192,33092,1,0,0:0:0:0:
329,192,33120,1,0,0:0:0:0:
475,192,33176,1,2,0:0:0:0:
182,192,33176,1,0,0:0:0:0:
402,192,33231,1,0,0:0:0:0:
256,192,33259,1,0,0:0:0:0:
329,192,33287,1,0,0:0:0:0:
36,192,33342,1,2,0:0:0:0:
182,192,33342,1,0,0:0:0:0:
329,192,33426,1,2,0:0:0:0:
402,192,33426,1,0,0:0:0:0:
109,192,33509,1,2,0:0:0:0:
36,192,33509,1,0,0:0:0:0:
402,192,33592,1,2,0:0:0:0:
475,192,33592,1,0,0:0:0:0:
182,192,33676,1,2,0:0:0:0:
36,192,33676,1,0,0:0:0:0:
329,192,33759,1,2,0:0:0:0:
475,192,33759,1,0,0:0:0:0:
182,192,33842,1,2,0:0:0:0:
109,192,33842,1,0,0:0:0:0:
402,192,33926,1,2,0:0:0:0:
329,192,33926,1,0,0:0:0:0:
36,192,34009,1,2,0:0:0:0:
475,192,34009,1,0,0:0:0:0:
109,192,34051,1,2,0:0:0:0:
182,192,34092,1,2,0:0:0:0:
402,192,34092,1,0,0:0:0:0:
36,192,34134,1,2,0:0:0:0:
109,192,34176,1,2,0:0:0:0:
329,192,34176,1,0,0:0:0:0:
182,192,34217,1,2,0:0:0:0:
475,192,34259,1,2,0:0:0:0:
256,192,34259,1,0,0:0:0:0:
402,192,34301,1,2,0:0:0:0:
329,192,34342,1,2,0:0:0:0:
109,192,34342,1,0,0:0:0:0:
475,192,34384,1,2,0:0:0:0:
402,192,34426,1,2,0:0:0:0:
182,192,34426,1,0,0:0:0:0:
329,192,34467,1,2,0:0:0:0:
256,192,34509,1,2,0:0:0:0:
36,192,34509,1,0,0:0:0:0:
109,192,34551,1,2,0:0:0:0:
329,192,34592,1,2,0:0:0:0:
182,192,34592,1,0,0:0:0:0:
402,192,34634,1,2,0:0:0:0:
475,192,34676,1,2,1:0:0:0:
402,192,35676,1,0,0:0:0:0:
475,192,35842,1,0,0:0:0:0:
329,192,36009,1,0,0:0:0:0:
256,192,36009,1,0,0:0:0:0:
329,192,37009,1,0,0:0:0:0:
402,192,37176,1,0,0:0:0:0:
256,192,37342,1,0,0:0:0:0:
182,192,37342,1,0,0:0:0:0:
256,192,38342,1,0,0:0:0:0:
329,192,38509,1,0,0:0:0:0:
109,192,38676,1,0,0:0:0:0:
182,192,38676,1,0,0:0:0:0:
36,192,39342,1,0,0:0:0:0:
256,192,40009,1,0,0:0:0:0:
109,192,40009,1,0,0:0:0:0:
329,192,41342,1,0,0:0:0:0:
182,192,41342,1,0,0:0:0:0:
475,192,42009,1,0,0:0:0:0:
256,192,42676,1,0,0:0:0:0:
402,192,42676,1,0,0:0:0:0:
329,192,44009,1,2,1:0:0:0:
329,192,45342,1,0,0:0:0:0:
256,192,45342,1,0,0:0:0:0:
475,192,46009,1,0,0:0:0:0:
402,192,46676,1,0,0:0:0:0:
182,192,46676,1,0,0:0:0:0:
256,192,47342,1,0,0:0:0:0:
109,192,48009,1,0,0:0:0:0:
329,192,48009,1,0,0:0:0:0:
256,192,49342,1,0,0:0:0:0:
36,192,49342,1,0,0:0:0:0:
182,192,50009,1,0,0:0:0:0:
109,192,50676,1,0,0:0:0:0:
36,192,50676,1,0,0:0:0:0:
182,192,51676,1,0,0:0:0:0:
256,192,51842,1,0,0:0:0:0:
109,192,52009,1,0,0:0:0:0:
329,192,52009,1,0,0:0:0:0:
182,192,52676,1,0,0:0:0:0:
109,192,53342,1,0,0:0:0:0:
402,192,53342,1,0,0:0:0:0:
475,192,54676,1,0,0:0:0:0:
36,192,55342,1,0,0:0:0:0:
109,192,55426,1,0,0:0:0:0:
182,192,55509,1,0,0:0:0:0:
256,192,55592,1,0,0:0:0:0:
182,192,55676,1,0,0:0:0:0:
256,192,55759,1,0,0:0:0:0:
329,192,55842,1,0,0:0:0:0:
402,192,55926,1,0,0:0:0:0:
475,192,56009,1,4,0:0:0:0:
109,192,56009,1,2,0:0:0:0:
36,192,56009,1,0,0:0:0:0:
182,192,56009,1,0,0:0:0:0:
475,192,56176,1,0,0:0:0:0:
329,192,56259,1,0,0:0:0:0:
475,192,56509,1,0,0:0:0:0:
475,192,56676,1,0,0:0:0:0:
329,192,56759,1,0,0:0:0:0:
475,192,57009,1,0,0:0:0:0:
475,192,57176,1,0,0:0:0:0:
36,192,57342,1,2,0:0:0:0:
402,192,57342,1,0,0:0:0:0:
182,192,57342,1,0,0:0:0:0:
256,192,57342,1,0,0:0:0:0:
182,192,57509,1,0,0:0:0:0:
329,192,57592,1,0,0:0:0:0:
182,192,57842,1,0,0:0:0:0:
182,192,58009,1,0,0:0:0:0:
329,192,58092,1,0,0:0:0:0:
402,192,58342,1,0,0:0:0:0:
329,192,58509,1,0,0:0:0:0:
36,192,58676,1,2,0:0:0:0:
256,192,58676,1,0,0:0:0:0:
109,192,58676,1,0,0:0:0:0:
475,192,58676,1,0,0:0:0:0:
36,192,58842,1,0,0:0:0:0:
182,192,58926,1,0,0:0:0:0:
36,192,59176,1,0,0:0:0:0:
36,192,59342,1,0,0:0:0:0:
182,192,59426,1,0,0:0:0:0:
329,192,59509,1,0,0:0:0:0:
36,192,59676,1,0,0:0:0:0:
182,192,59842,1,0,0:0:0:0:
329,192,60009,1,2,0:0:0:0:
109,192,60009,1,0,0:0:0:0:
36,192,60009,1,0,0:0:0:0:
256,192,60009,1,0,0:0:0:0:
329,192,60176,1,0,0:0:0:0:
402,192,60259,1,0,0:0:0:0:
329,192,60426,1,0,0:0:0:0:
402,192,60509,1,0,0:0:0:0:
475,192,60676,1,0,0:0:0:0:
182,192,60676,1,0,0:0:0:0:
402,192,60842,1,0,0:0:0:0:
109,192,60842,1,0,0:0:0:0:
329,192,61009,1,0,0:0:0:0:
36,192,61009,1,0,0:0:0:0:
109,192,61342,1,2,0:0:0:0:
256,192,61342,1,0,0:0:0:0:
36,192,61342,1,0,0:0:0:0:
402,192,61342,1,0,0:0:0:0:
109,192,61509,1,0,0:0:0:0:
182,192,61592,1,0,0:0:0:0:
109,192,61842,1,0,0:0:0:0:
109,192,62009,1,0,0:0:0:0:
182,192,62092,1,0,0:0:0:0:
109,192,62342,1,0,0:0:0:0:
402,192,62509,1,0,0:0:0:0:
329,192,62676,1,2,0:0:0:0:
182,192,62676,1,0,0:0:0:0:
475,192,62676,1,0,0:0:0:0:
36,192,62676,1,0,0:0:0:0:
329,192,62842,1,0,0:0:0:0:
182,192,62926,1,0,0:0:0:0:
329,192,63176,1,0,0:0:0:0:
329,192,63342,1,0,0:0:0:0:
182,192,63426,1,0,0:0:0:0:
329,192,63676,1,0,0:0:0:0:
182,192,63842,1,0,0:0:0:0:
256,192,64009,1,2,0:0:0:0:
475,192,64009,1,0,0:0:0:0:
329,192,64009,1,0,0:0:0:0:
36,192,64009,1,0,0:0:0:0:
402,192,64176,1,0,0:0:0:0:
182,192,64259,1,0,0:0:0:0:
402,192,64426,1,0,0:0:0:0:
182,192,64509,1,0,0:0:0:0:
402,192,64676,1,0,0:0:0:0:
182,192,64759,1,0,0:0:0:0:
402,192,64926,1,0,0:0:0:0:
182,192,65009,1,0,0:0:0:0:
109,192,65176,1,0,0:0:0:0:
36,192,65342,1,2,0:0:0:0:
182,192,65342,1,0,0:0:0:0:
475,192,65342,1,0,0:0:0:0:
329,192,65342,1,0,0:0:0:0:
329,192,65509,1,0,0:0:0:0:
109,192,65592,1,0,0:0:0:0:
329,192,65759,1,0,0:0:0:0:
109,192,65842,1,0,0:0:0:0:
329,192,65926,1,0,0:0:0:0:
109,192,66009,1,2,0:0:0:0:
402,192,66009,1,0,0:0:0:0:
475,192,66009,1,0,0:0:0:0:
182,192,66176,1,0,0:0:0:0:
329,192,66176,1,0,0:0:0:0:
36,192,66342,1,2,0:0:0:0:
256,192,66342,1,0,0:0:0:0:
475,192,66342,1,0,0:0:0:0:
109,192,66509,1,0,0:0:0:0:
329,192,66509,1,0,0:0:0:0:
475,192,66676,1,2,0:0:0:0:
36,192,66676,1,0,0:0:0:0:
256,192,66676,1,0,0:0:0:0:
329,192,66676,1,0,0:0:0:0:
182,192,66842,1,0,0:0:0:0:
402,192,66842,1,0,0:0:0:0:
256,192,66842,1,0,0:0:0:0:
109,192,66926,1,0,0:0:0:0:
36,192,66926,1,0,0:0:0:0:
402,192,67176,1,0,0:0:0:0:
182,192,67176,1,0,0:0:0:0:
256,192,67176,1,0,0:0:0:0:
475,192,67342,1,2,0:0:0:0:
182,192,67342,1,0,0:0:0:0:
256,192,67342,1,0,0:0:0:0:
109,192,67426,1,0,0:0:0:0:
36,192,67426,1,0,0:0:0:0:
402,192,67509,1,0,0:0:0:0:
182,192,67676,1,0,0:0:0:0:
256,192,67676,1,0,0:0:0:0:
109,192,67759,1,0,0:0:0:0:
36,192,67759,1,0,0:0:0:0:
402,192,67842,1,0,0:0:0:0:
182,192,67842,1,0,0:0:0:0:
256,192,67842,1,0,0:0:0:0:
475,192,68009,1,2,0:0:0:0:
182,192,68009,1,0,0:0:0:0:
256,192,68009,1,0,0:0:0:0:
329,192,68009,1,0,0:0:0:0:
329,192,68176,1,0,0:0:0:0:
109,192,68176,1,0,0:0:0:0:
256,192,68176,1,0,0:0:0:0:
475,192,68259,1,0,0:0:0:0:
402,192,68259,1,0,0:0:0:0:
109,192,68509,1,0,0:0:0:0:
329,192,68509,1,0,0:0:0:0:
256,192,68509,1,0,0:0:0:0:
36,192,68676,1,2,0:0:0:0:
329,192,68676,1,0,0:0:0:0:
256,192,68676,1,0,0:0:0:0:
402,192,68759,1,0,0:0:0:0:
475,192,68759,1,0,0:0:0:0:
109,192,68842,1,0,0:0:0:0:
475,192,69009,1,2,0:0:0:0:
256,192,69009,1,0,0:0:0:0:
182,192,69176,1,2,0:0:0:0:
36,192,69176,1,0,0:0:0:0:
402,192,69176,1,0,0:0:0:0:
475,192,69342,1,2,0:0:0:0:
36,192,69342,1,0,0:0:0:0:
256,192,69342,1,0,0:0:0:0:
329,192,69342,1,0,0:0:0:0:
109,192,69509,1,0,0:0:0:0:
36,192,69676,1,2,0:0:0:0:
256,192,69676,1,0,0:0:0:0:
402,192,69676,1,0,0:0:0:0:
109,192,69842,1,0,0:0:0:0:
329,192,70009,1,2,0:0:0:0:
182,192,70009,1,0,0:0:0:0:
475,192,70009,1,0,0:0:0:0:
256,192,70009,1,0,0:0:0:0:
402,192,70176,1,0,0:0:0:0:
329,192,70259,1,0,0:0:0:0:
182,192,70259,1,0,0:0:0:0:
256,192,70342,1,2,0:0:0:0:
109,192,70342,1,0,0:0:0:0:
475,192,70342,1,0,0:0:0:0:
182,192,70509,1,0,0:0:0:0:
36,192,70509,1,0,0:0:0:0:
329,192,70509,1,0,0:0:0:0:
475,192,70676,1,2,0:0:0:0:
36,192,70676,1,0,0:0:0:0:
402,192,70676,1,0,0:0:0:0:
182,192,70676,1,0,0:0:0:0:
475,192,70842,1,0,0:0:0:0:
109,192,70842,1,0,0:0:0:0:
402,192,70842,1,0,0:0:0:0:
256,192,70926,1,0,0:0:0:0:
329,192,70926,1,0,0:0:0:0:
475,192,71009,1,2,0:0:0:0:
36,192,71009,1,0,0:0:0:0:
402,192,71009,1,0,0:0:0:0:
109,192,71176,1,0,0:0:0:0:
256,192,71176,1,0,0:0:0:0:
475,192,71176,1,0,0:0:0:0:
36,192,71342,1,2,0:0:0:0:
475,192,71342,1,0,0:0:0:0:
182,192,71342,1,0,0:0:0:0:
109,192,71342,1,0,0:0:0:0:
329,192,71426,1,0,0:0:0:0:
256,192,71426,1,0,0:0:0:0:
109,192,71509,1,0,0:0:0:0:
402,192,71509,1,0,0:0:0:0:
475,192,71509,1,0,0:0:0:0:
36,192,71676,1,2,0:0:0:0:
182,192,71676,1,0,0:0:0:0:
329,192,71676,1,0,0:0:0:0:
402,192,71676,1,0,0:0:0:0:
109,192,71842,1,2,0:0:0:0:
256,192,71842,1,0,0:0:0:0:
475,192,71842,1,0,0:0:0:0:
36,192,71842,1,0,0:0:0:0:
36,192,72009,1,2,0:0:0:0:
475,192,72009,1,0,0:0:0:0:
182,192,72009,1,0,0:0:0:0:
402,192,72009,1,0,0:0:0:0:
329,192,72009,1,0,0:0:0:0:
36,192,72176,1,0,0:0:0:0:
182,192,72176,1,0,0:0:0:0:
329,192,72176,1,0,0:0:0:0:
402,192,72259,1,0,0:0:0:0:
109,192,72259,1,0,0:0:0:0:
475,192,72342,1,2,0:0:0:0:
36,192,72509,1,0,0:0:0:0:
182,192,72509,1,0,0:0:0:0:
329,192,72509,1,0,0:0:0:0:
36,192,72676,1,2,0:0:0:0:
182,192,72676,1,0,0:0:0:0:
475,192,72676,1,0,0:0:0:0:
402,192,72676,1,0,0:0:0:0:
329,192,72676,1,0,0:0:0:0:
109,192,72759,1,0,0:0:0:0:
256,192,72759,1,0,0:0:0:0:
402,192,72842,1,0,0:0:0:0:
36,192,73009,1,2,0:0:0:0:
182,192,73009,1,0,0:0:0:0:
475,192,73009,1,0,0:0:0:0:
402,192,73176,1,0,0:0:0:0:
182,192,73342,1,2,0:0:0:0:
329,192,73342,1,0,0:0:0:0:
475,192,73342,1,0,0:0:0:0:
36,192,73342,1,0,0:0:0:0:
256,192,73342,1,0,0:0:0:0:
329,192,73509,1,0,0:0:0:0:
182,192,73509,1,0,0:0:0:0:
36,192,73509,1,0,0:0:0:0:
109,192,73592,1,0,0:0:0:0:
402,192,73592,1,0,0:0:0:0:
475,192,73676,1,2,0:0:0:0:
109,192,73842,1,0,0:0:0:0:
256,192,73842,1,0,0:0:0:0:
36,192,73842,1,0,0:0:0:0:
182,192,74009,1,2,0:0:0:0:
329,192,74009,1,0,0:0:0:0:
475,192,74009,1,0,0:0:0:0:
36,192,74009,1,0,0:0:0:0:
256,192,74009,1,0,0:0:0:0:
109,192,74176,1,0,0:0:0:0:
256,192,74342,1,2,0:0:0:0:
402,192,74342,1,0,0:0:0:0:
36,192,74342,1,0,0:0:0:0:
109,192,74509,1,0,0:0:0:0:
329,192,74676,1,2,0:0:0:0:
475,192,74676,1,0,0:0:0:0:
36,192,74676,1,0,0:0:0:0:
182,192,74676,1,0,0:0:0:0:
109,192,74676,1,0,0:0:0:0:
402,192,74842,1,0,0:0:0:0:
475,192,74842,1,0,0:0:0:0:
109,192,74842,1,0,0:0:0:0:
329,192,74926,1,0,0:0:0:0:
256,192,74926,1,0,0:0:0:0:
36,192,75009,1,2,0:0:0:0:
475,192,75092,1,0,0:0:0:0:
402,192,75092,1,0,0:0:0:0:
109,192,75176,1,0,0:0:0:0:
329,192,75176,1,0,0:0:0:0:
256,192,75176,1,0,0:0:0:0:
475,192,75342,1,2,0:0:0:0:
402,192,75342,1,0,0:0:0:0:
182,192,75342,1,0,0:0:0:0:
36,192,75342,1,0,0:0:0:0:
109,192,75342,1,0,0:0:0:0:
256,192,75426,1,0,0:0:0:0:
329,192,75426,1,0,0:0:0:0:
402,192,75509,1,0,0:0:0:0:
475,192,75509,1,0,0:0:0:0:
109,192,75509,1,0,0:0:0:0:
475,192,75676,1,2,0:0:0:0:
402,192,75676,1,0,0:0:0:0:
36,192,75676,1,0,0:0:0:0:
329,192,75759,1,0,0:0:0:0:
256,192,75759,1,0,0:0:0:0:
402,192,75842,1,0,0:0:0:0:
475,192,75842,1,0,0:0:0:0:
109,192,75842,1,0,0:0:0:0:
36,192,76009,1,2,0:0:0:0:
182,192,76009,1,0,0:0:0:0:
256,192,76009,1,0,0:0:0:0:
475,192,76009,1,0,0:0:0:0:
329,192,76009,1,0,0:0:0:0:
36,192,76176,1,0,0:0:0:0:
109,192,76176,1,0,0:0:0:0:
402,192,76176,1,0,0:0:0:0:
256,192,76259,1,0,0:0:0:0:
182,192,76259,1,0,0:0:0:0:
475,192,76342,1,2,0:0:0:0:
36,192,76426,1,0,0:0:0:0:
109,192,76426,1,0,0:0:0:0:
402,192,76509,1,0,0:0:0:0:
182,192,76509,1,0,0:0:0:0:
256,192,76509,1,0,0:0:0:0:
475,192,76676,1,2,0:0:0:0:
402,192,76676,1,0,0:0:0:0:
256,192,76676,1,0,0:0:0:0:
182,192,76676,1,0,0:0:0:0:
329,192,76759,1,0,0:0:0:0:
36,192,76759,1,0,0:0:0:0:
109,192,76759,1,0,0:0:0:0:
475,192,76842,1,0,0:0:0:0:
402,192,76842,1,0,0:0:0:0:
182,192,76842,1,0,0:0:0:0:
36,192,76926,1,0,0:0:0:0:
329,192,76926,1,0,0:0:0:0:
109,192,76926,1,0,0:0:0:0:
402,192,77009,1,2,0:0:0:0:
256,192,77009,1,0,0:0:0:0:
475,192,77009,1,0,0:0:0:0:
329,192,77092,1,0,0:0:0:0:
182,192,77092,1,0,0:0:0:0:
256,192,77176,1,2,0:0:0:0:
109,192,77342,1,4,0:0:0:0:
256,192,77342,1,2,0:0:0:0:
402,192,77342,1,0,0:0:0:0:
475,192,77342,1,0,0:0:0:0:
36,192,77426,1,0,0:0:0:0:
109,192,77509,1,0,0:0:0:0:
329,192,77509,1,0,0:0:0:0:
182,192,77592,1,0,0:0:0:0:
402,192,77592,1,0,0:0:0:0:
329,192,77676,1,2,0:0:0:0:
36,192,77676,1,0,0:0:0:0:
109,192,77759,1,0,0:0:0:0:
256,192,77759,1,0,0:0:0:0:
182,192,77842,1,0,0:0:0:0:
475,192,77842,1,0,0:0:0:0:
256,192,77926,1,0,0:0:0:0:
402,192,77926,1,0,0:0:0:0:
329,192,78009,1,2,0:0:0:0:
182,192,78009,1,0,0:0:0:0:
402,192,78092,1,0,0:0:0:0:
109,192,78092,1,0,0:0:0:0:
256,192,78176,1,0,0:0:0:0:
36,192,78176,1,0,0:0:0:0:
329,192,78259,1,0,0:0:0:0:
109,192,78259,1,0,0:0:0:0:
402,192,78342,1,2,0:0:0:0:
182,192,78342,1,0,0:0:0:0:
256,192,78426,1,0,0:0:0:0:
109,192,78426,1,0,0:0:0:0:
329,192,78509,1,0,0:0:0:0:
36,192,78509,1,0,0:0:0:0:
475,192,78592,1,0,0:0:0:0:
109,192,78592,1,0,0:0:0:0:
182,192,78676,1,2,0:0:0:0:
402,192,78676,1,0,0:0:0:0:
256,192,78676,1,0,0:0:0:0:
109,192,78759,1,0,0:0:0:0:
36,192,78842,1,0,0:0:0:0:
475,192,78842,1,0,0:0:0:0:
109,192,78926,1,0,0:0:0:0:
402,192,78926,1,0,0:0:0:0:
182,192,79009,1,2,0:0:0:0:
329,192,79009,1,0,0:0:0:0:
36,192,79092,1,0,0:0:0:0:
256,192,79092,1,0,0:0:0:0:
109,192,79176,1,0,0:0:0:0:
475,192,79176,1,0,0:0:0:0:
182,192,79259,1,0,0:0:0:0:
402,192,79259,1,0,0:0:0:0:
256,192,79342,1,2,0:0:0:0:
329,192,79342,1,0,0:0:0:0:
402,192,79426,1,0,0:0:0:0:
109,192,79426,1,0,0:0:0:0:
475,192,79509,1,0,0:0:0:0:
182,192,79509,1,0,0:0:0:0:
36,192,79592,1,0,0:0:0:0:
256,192,79592,1,0,0:0:0:0:
109,192,79676,1,2,0:0:0:0:
329,192,79676,1,0,0:0:0:0:
402,192,79676,1,0,0:0:0:0:
182,192,79759,1,0,0:0:0:0:
475,192,79759,1,0,0:0:0:0:
256,192,79842,1,2,0:0:0:0:
36,192,79842,1,0,0:0:0:0:
329,192,79842,1,0,0:0:0:0:
402,192,79926,1,0,0:0:0:0:
109,192,79926,1,0,0:0:0:0:
182,192,80009,1,2,0:0:0:0:
475,192,80009,1,0,0:0:0:0:
256,192,80009,1,0,0:0:0:0:
109,192,80092,1,0,0:0:0:0:
36,192,80176,1,0,0:0:0:0:
402,192,80176,1,0,0:0:0:0:
109,192,80259,1,0,0:0:0:0:
329,192,80259,1,0,0:0:0:0:
182,192,80342,1,2,0:0:0:0:
402,192,80342,1,0,0:0:0:0:
36,192,80426,1,0,0:0:0:0:
475,192,80426,1,0,0:0:0:0:
109,192,80509,1,0,0:0:0:0:
256,192,80509,1,0,0:0:0:0:
182,192,80592,1,0,0:0:0:0:
329,192,80592,1,0,0:0:0:0:
402,192,80676,1,2,0:0:0:0:
36,192,80676,1,0,0:0:0:0:
109,192,80759,1,0,0:0:0:0:
329,192,80759,1,0,0:0:0:0:
182,192,80842,1,0,0:0:0:0:
475,192,80842,1,0,0:0:0:0:
256,192,80926,1,0,0:0:0:0:
402,192,80926,1,0,0:0:0:0:
329,192,81009,1,2,0:0:0:0:
109,192,81009,1,0,0:0:0:0:
256,192,81092,1,0,0:0:0:0:
36,192,81092,1,0,0:0:0:0:
182,192,81176,1,0,0:0:0:0:
402,192,81176,1,0,0:0:0:0:
109,192,81259,1,0,0:0:0:0:
329,192,81259,1,0,0:0:0:0:
475,192,81342,1,2,0:0:0:0:
182,192,81342,1,0,0:0:0:0:
36,192,81342,1,0,0:0:0:0:
402,192,81398,1,0,0:0:0:0:
256,192,81454,1,0,0:0:0:0:
475,192,81509,1,0,0:0:0:0:
36,192,81509,1,0,0:0:0:0:
329,192,81565,1,0,0:0:0:0:
182,192,81620,1,0,0:0:0:0:
402,192,81676,1,2,0:0:0:0:
109,192,81676,1,0,0:0:0:0:
329,192,81731,1,0,0:0:0:0:
182,192,81787,1,0,0:0:0:0:
402,192,81842,1,0,0:0:0:0:
36,192,81842,1,0,0:0:0:0:
256,192,81898,1,0,0:0:0:0:
182,192,81954,1,0,0:0:0:0:
329,192,82009,1,2,0:0:0:0:
475,192,82009,1,0,0:0:0:0:
36,192,82009,1,0,0:0:0:0:
256,192,82065,1,0,0:0:0:0:
109,192,82120,1,0,0:0:0:0:
329,192,82176,1,0,0:0:0:0:
402,192,82176,1,0,0:0:0:0:
182,192,82231,1,0,0:0:0:0:
36,192,82287,1,0,0:0:0:0:
256,192,82342,1,2,0:0:0:0:
475,192,82342,1,0,0:0:0:0:
109,192,82398,1,0,0:0:0:0:
36,192,82454,1,0,0:0:0:0:
256,192,82509,1,2,0:0:0:0:
402,192,82509,1,0,0:0:0:0:
329,192,82592,1,0,0:0:0:0:
182,192,82676,1,2,0:0:0:0:
475,192,82676,1,0,0:0:0:0:
109,192,82676,1,0,0:0:0:0:
329,192,82759,1,0,0:0:0:0:
36,192,82842,1,0,0:0:0:0:
256,192,82842,1,0,0:0:0:0:
109,192,82926,1,0,0:0:0:0:
329,192,82926,1,0,0:0:0:0:
182,192,83009,1,2,0:0:0:0:
402,192,83009,1,0,0:0:0:0:
475,192,83092,1,0,0:0:0:0:
256,192,83092,1,0,0:0:0:0:
329,192,83176,1,0,0:0:0:0:
109,192,83176,1,0,0:0:0:0:
402,192,83259,1,0,0:0:0:0:
182,192,83259,1,0,0:0:0:0:
256,192,83342,1,2,0:0:0:0:
475,192,83342,1,0,0:0:0:0:
329,192,83426,1,0,0:0:0:0:
36,192,83426,1,0,0:0:0:0:
109,192,83509,1,0,0:0:0:0:
256,192,83509,1,0,0:0:0:0:
329,192,83592,1,0,0:0:0:0:
36,192,83592,1,0,0:0:0:0:
402,192,83676,1,2,0:0:0:0:
182,192,83676,1,0,0:0:0:0:
256,192,83759,1,0,0:0:0:0:
109,192,83759,1,0,0:0:0:0:
329,192,83842,1,0,0:0:0:0:
36,192,83842,1,0,0:0:0:0:
402,192,83926,1,0,0:0:0:0:
182,192,83926,1,0,0:0:0:0:
109,192,84009,1,2,0:0:0:0:
256,192,84009,1,0,0:0:0:0:
475,192,84009,1,0,0:0:0:0:
36,192,84092,1,0,0:0:0:0:
109,192,84176,1,0,0:0:0:0:
329,192,84176,1,0,0:0:0:0:
182,192,84259,1,0,0:0:0:0:
402,192,84259,1,0,0:0:0:0:
256,192,84342,1,2,0:0:0:0:
475,192,84342,1,0,0:0:0:0:
109,192,84426,1,0,0:0:0:0:
402,192,84426,1,0,0:0:0:0:
182,192,84509,1,0,0:0:0:0:
329,192,84509,1,0,0:0:0:0:
256,192,84592,1,0,0:0:0:0:
475,192,84592,1,0,0:0:0:0:
182,192,84676,1,2,0:0:0:0:
402,192,84676,1,0,0:0:0:0:
109,192,84759,1,0,0:0:0:0:
329,192,84759,1,0,0:0:0:0:
256,192,84842,1,0,0:0:0:0:
36,192,84842,1,0,0:0:0:0:
329,192,84926,1,0,0:0:0:0:
109,192,84926,1,0,0:0:0:0:
402,192,85009,1,2,0:0:0:0:
182,192,85009,1,0,0:0:0:0:
256,192,85092,1,0,0:0:0:0:
109,192,85092,1,0,0:0:0:0:
36,192,85176,1,0,0:0:0:0:
329,192,85176,1,0,0:0:0:0:
402,192,85259,1,0,0:0:0:0:
256,192,85259,1,0,0:0:0:0:
475,192,85342,1,2,0:0:0:0:
36,192,85342,1,0,0:0:0:0:
182,192,85342,1,0,0:0:0:0:
402,192,85398,1,0,0:0:0:0:
256,192,85454,1,0,0:0:0:0:
475,192,85509,1,0,0:0:0:0:
109,192,85509,1,0,0:0:0:0:
329,192,85565,1,0,0:0:0:0:
182,192,85620,1,0,0:0:0:0:
402,192,85676,1,2,0:0:0:0:
36,192,85676,1,0,0:0:0:0:
329,192,85731,1,0,0:0:0:0:
256,192,85787,1,0,0:0:0:0:
402,192,85842,1,0,0:0:0:0:
109,192,85842,1,0,0:0:0:0:
329,192,85898,1,0,0:0:0:0:
182,192,85954,1,0,0:0:0:0:
402,192,86009,1,2,0:0:0:0:
36,192,86009,1,0,0:0:0:0:
256,192,86065,1,0,0:0:0:0:
109,192,86120,1,0,0:0:0:0:
329,192,86176,1,0,0:0:0:0:
475,192,86176,1,0,0:0:0:0:
256,192,86231,1,0,0:0:0:0:
182,192,86287,1,0,0:0:0:0:
402,192,86342,1,2,0:0:0:0:
36,192,86342,1,0,0:0:0:0:
256,192,86398,1,0,0:0:0:0:
109,192,86454,1,0,0:0:0:0:
329,192,86509,1,0,0:0:0:0:
475,192,86509,1,0,0:0:0:0:
182,192,86592,1,0,0:0:0:0:
36,192,86676,1,2,0:0:0:0:
475,192,86676,1,0,0:0:0:0:
329,192,86676,1,0,0:0:0:0:
109,192,86731,1,0,0:0:0:0:
256,192,86787,1,0,0:0:0:0:
402,192,86842,1,0,0:0:0:0:
36,192,86842,1,0,0:0:0:0:
182,192,86898,1,0,0:0:0:0:
256,192,86954,1,0,0:0:0:0:
329,192,87009,1,2,0:0:0:0:
109,192,87009,1,0,0:0:0:0:
182,192,87065,1,0,0:0:0:0:
256,192,87120,1,0,0:0:0:0:
36,192,87176,1,0,0:0:0:0:
402,192,87176,1,0,0:0:0:0:
182,192,87231,1,0,0:0:0:0:
329,192,87287,1,0,0:0:0:0:
475,192,87342,1,2,0:0:0:0:
109,192,87342,1,0,0:0:0:0:
256,192,87398,1,0,0:0:0:0:
402,192,87454,1,0,0:0:0:0:
182,192,87509,1,0,0:0:0:0:
36,192,87509,1,0,0:0:0:0:
256,192,87565,1,0,0:0:0:0:
329,192,87620,1,0,0:0:0:0:
109,192,87676,1,2,0:0:0:0:
475,192,87676,1,0,0:0:0:0:
256,192,87731,1,0,0:0:0:0:
402,192,87787,1,0,0:0:0:0:
182,192,87842,1,2,0:0:0:0:
36,192,87842,1,0,0:0:0:0:
329,192,87926,1,0,0:0:0:0:
109,192,88009,1,2,0:0:0:0:
475,192,88009,1,0,0:0:0:0:
182,192,88009,1,0,0:0:0:0:
329,192,88092,1,0,0:0:0:0:
256,192,88176,1,0,0:0:0:0:
36,192,88176,1,0,0:0:0:0:
329,192,88259,1,0,0:0:0:0:
109,192,88259,1,0,0:0:0:0:
402,192,88342,1,2,0:0:0:0:
182,192,88342,1,0,0:0:0:0:
256,192,88426,1,0,0:0:0:0:
36,192,88426,1,0,0:0:0:0:
329,192,88509,1,0,0:0:0:0:
109,192,88509,1,0,0:0:0:0:
402,192,88592,1,0,0:0:0:0:
182,192,88592,1,0,0:0:0:0:
256,192,88676,1,2,0:0:0:0:
475,192,88676,1,0,0:0:0:0:
329,192,88759,1,0,0:0:0:0:
182,192,88759,1,0,0:0:0:0:
402,192,88842,1,0,0:0:0:0:
109,192,88842,1,0,0:0:0:0:
475,192,88926,1,0,0:0:0:0:
36,192,88926,1,0,0:0:0:0:
109,192,89009,1,2,0:0:0:0:
402,192,89009,1,0,0:0:0:0:
329,192,89092,1,0,0:0:0:0:
182,192,89092,1,0,0:0:0:0:
402,192,89176,1,0,0:0:0:0:
109,192,89176,1,0,0:0:0:0:
475,192,89259,1,0,0:0:0:0:
36,192,89259,1,0,0:0:0:0:
329,192,89342,1,2,0:0:0:0:
182,192,89342,1,0,0:0:0:0:
256,192,89342,1,0,0:0:0:0:
36,192,89426,1,0,0:0:0:0:
402,192,89426,1,0,0:0:0:0:
109,192,89509,1,0,0:0:0:0:
475,192,89509,1,0,0:0:0:0:
182,192,89592,1,0,0:0:0:0:
402,192,89592,1,0,0:0:0:0:
256,192,89676,1,2,0:0:0:0:
36,192,89676,1,0,0:0:0:0:
109,192,89759,1,0,0:0:0:0:
475,192,89759,1,0,0:0:0:0:
182,192,89842,1,0,0:0:0:0:
402,192,89842,1,0,0:0:0:0:
329,192,89926,1,0,0:0:0:0:
109,192,89926,1,0,0:0:0:0:
36,192,90009,1,2,0:0:0:0:
402,192,90009,1,0,0:0:0:0:
182,192,90092,1,0,0:0:0:0:
475,192,90092,1,0,0:0:0:0:
256,192,90176,1,0,0:0:0:0:
36,192,90176,1,0,0:0:0:0:
329,192,90259,1,0,0:0:0:0:
109,192,90259,1,0,0:0:0:0:
182,192,90342,1,2,0:0:0:0:
402,192,90342,1,0,0:0:0:0:
256,192,90426,1,0,0:0:0:0:
36,192,90426,1,0,0:0:0:0:
329,192,90509,1,2,0:0:0:0:
109,192,90509,1,0,0:0:0:0:
402,192,90592,1,0,0:0:0:0:
182,192,90592,1,0,0:0:0:0:
36,192,90676,1,2,0:0:0:0:
475,192,90676,1,0,0:0:0:0:
256,192,90676,1,0,0:0:0:0:
109,192,90759,1,0,0:0:0:0:
475,192,90842,1,0,0:0:0:0:
182,192,90842,1,0,0:0:0:0:
402,192,90926,1,0,0:0:0:0:
256,192,90926,1,0,0:0:0:0:
329,192,91009,1,2,0:0:0:0:
109,192,91009,1,0,0:0:0:0:
402,192,91092,1,0,0:0:0:0:
182,192,91092,1,0,0:0:0:0:
475,192,91176,1,0,0:0:0:0:
256,192,91176,1,0,0:0:0:0:
109,192,91259,1,0,0:0:0:0:
329,192,91259,1,0,0:0:0:0:
36,192,91342,1,2,0:0:0:0:
402,192,91342,1,0,0:0:0:0:
109,192,91426,1,0,0:0:0:0:
329,192,91426,1,0,0:0:0:0:
182,192,91509,1,0,0:0:0:0:
402,192,91509,1,0,0:0:0:0:
109,192,91592,1,0,0:0:0:0:
475,192,91592,1,0,0:0:0:0:
36,192,91676,1,2,0:0:0:0:
256,192,91676,1,0,0:0:0:0:
109,192,91759,1,0,0:0:0:0:
329,192,91759,1,0,0:0:0:0:
182,192,91842,1,0,0:0:0:0:
402,192,91842,1,0,0:0:0:0:
109,192,91926,1,0,0:0:0:0:
329,192,91926,1,0,0:0:0:0:
475,192,92009,1,2,0:0:0:0:
256,192,92009,1,0,0:0:0:0:
36,192,92009,1,0,0:0:0:0:
402,192,92092,1,0,0:0:0:0:
182,192,92092,1,0,0:0:0:0:
329,192,92176,1,0,0:0:0:0:
109,192,92176,1,0,0:0:0:0:
256,192,92259,1,0,0:0:0:0:
36,192,92259,1,0,0:0:0:0:
109,192,92342,1,2,0:0:0:0:
402,192,92342,1,0,0:0:0:0:
329,192,92426,1,0,0:0:0:0:
182,192,92426,1,0,0:0:0:0:
402,192,92509,1,0,0:0:0:0:
109,192,92509,1,0,0:0:0:0:
475,192,92592,1,0,0:0:0:0:
36,192,92592,1,0,0:0:0:0:
402,192,92676,1,2,0:0:0:0:
109,192,92676,1,0,0:0:0:0:
182,192,92759,1,0,0:0:0:0:
329,192,92759,1,0,0:0:0:0:
109,192,92842,1,0,0:0:0:0:
402,192,92842,1,0,0:0:0:0:
182,192,92926,1,0,0:0:0:0:
329,192,92926,1,0,0:0:0:0:
475,192,93009,1,2,0:0:0:0:
36,192,93009,1,0,0:0:0:0:
109,192,93051,1,0,0:0:0:0:
402,192,93051,1,0,0:0:0:0:
182,192,93092,1,0,0:0:0:0:
329,192,93092,1,0,0:0:0:0:
256,192,93134,1,0,0:0:0:0:
36,192,93176,1,2,0:0:0:0:
475,192,93176,1,0,0:0:0:0:
402,192,93217,1,0,0:0:0:0:
109,192,93217,1,0,0:0:0:0:
329,192,93259,1,0,0:0:0:0:
182,192,93259,1,0,0:0:0:0:
256,192,93301,1,0,0:0:0:0:
475,192,93342,1,2,0:0:0:0:
36,192,93342,1,0,0:0:0:0:
109,192,93426,1,0,0:0:0:0:
182,192,93509,1,0,0:0:0:0:
402,192,93509,1,0,0:0:0:0:
256,192,93592,1,0,0:0:0:0:
475,192,93592,1,0,0:0:0:0:
182,192,93676,1,2,0:0:0:0:
36,192,93676,1,0,0:0:0:0:
402,192,93676,1,0,0:0:0:0:
256,192,93759,1,0,0:0:0:0:
109,192,93759,1,0,0:0:0:0:
329,192,93842,1,0,0:0:0:0:
182,192,93842,1,0,0:0:0:0:
402,192,93926,1,0,0:0:0:0:
256,192,93926,1,0,0:0:0:0:
109,192,94009,1,2,0:0:0:0:
475,192,94009,1,0,0:0:0:0:
36,192,94009,1,0,0:0:0:0:
182,192,94092,1,0,0:0:0:0:
402,192,94092,1,0,0:0:0:0:
329,192,94176,1,0,0:0:0:0:
109,192,94176,1,0,0:0:0:0:
475,192,94259,1,0,0:0:0:0:
36,192,94259,1,0,0:0:0:0:
256,192,94342,1,2,0:0:0:0:
402,192,94342,1,0,0:0:0:0:
109,192,94342,1,0,0:0:0:0:
329,192,94426,1,0,0:0:0:0:
182,192,94426,1,0,0:0:0:0:
402,192,94509,1,0,0:0:0:0:
109,192,94509,1,0,0:0:0:0:
475,192,94592,1,0,0:0:0:0:
36,192,94592,1,0,0:0:0:0:
402,192,94676,1,2,0:0:0:0:
182,192,94676,1,0,0:0:0:0:
256,192,94676,1,0,0:0:0:0:
36,192,94759,1,0,0:0:0:0:
329,192,94842,1,0,0:0:0:0:
109,192,94842,1,0,0:0:0:0:
182,192,94926,1,0,0:0:0:0:
475,192,94926,1,0,0:0:0:0:
256,192,95009,1,2,0:0:0:0:
402,192,95009,1,0,0:0:0:0:
36,192,95009,1,0,0:0:0:0:
109,192,95092,1,0,0:0:0:0:
329,192,95092,1,0,0:0:0:0:
182,192,95176,1,0,0:0:0:0:
475,192,95176,1,0,0:0:0:0:
256,192,95259,1,0,0:0:0:0:
402,192,95259,1,0,0:0:0:0:
329,192,95342,1,2,0:0:0:0:
109,192,95342,1,0,0:0:0:0:
36,192,95342,1,0,0:0:0:0:
182,192,95426,1,0,0:0:0:0:
402,192,95426,1,0,0:0:0:0:
256,192,95509,1,0,0:0:0:0:
475,192,95509,1,0,0:0:0:0:
329,192,95592,1,0,0:0:0:0:
109,192,95592,1,0,0:0:0:0:
402,192,95676,1,2,0:0:0:0:
182,192,95676,1,0,0:0:0:0:
475,192,95676,1,0,0:0:0:0:
256,192,95759,1,0,0:0:0:0:
36,192,95759,1,0,0:0:0:0:
475,192,95842,1,2,0:0:0:0:
329,192,95842,1,0,0:0:0:0:
109,192,95842,1,0,0:0:0:0:
402,192,95926,1,0,0:0:0:0:
182,192,95926,1,0,0:0:0:0:
475,192,96009,1,2,0:0:0:0:
36,192,96009,1,0,0:0:0:0:
256,192,96009,1,0,0:0:0:0:
182,192,96092,1,0,0:0:0:0:
402,192,96092,1,0,0:0:0:0:
109,192,96176,1,2,0:0:0:0:
329,192,96176,1,0,0:0:0:0:
36,192,96176,1,0,0:0:0:0:
182,192,96259,1,0,0:0:0:0:
402,192,96259,1,0,0:0:0:0:
475,192,96342,1,2,0:0:0:0:
36,192,96342,1,0,0:0:0:0:
256,192,96342,1,0,0:0:0:0:
109,192,96426,1,0,0:0:0:0:
329,192,96426,1,0,0:0:0:0:
182,192,96509,1,2,0:0:0:0:
402,192,96509,1,0,0:0:0:0:
475,192,96509,1,0,0:0:0:0:
329,192,96592,1,0,0:0:0:0:
256,192,96592,1,0,0:0:0:0:
36,192,96676,1,2,0:0:0:0:
109,192,96676,1,0,0:0:0:0:
475,192,96676,1,0,0:0:0:0:
329,192,96759,1,0,0:0:0:0:
256,192,96759,1,0,0:0:0:0:
109,192,96842,1,2,0:0:0:0:
182,192,96842,1,0,0:0:0:0:
402,192,96842,1,0,0:0:0:0:
36,192,96926,1,0,0:0:0:0:
475,192,96926,1,0,0:0:0:0:
109,192,97009,1,2,0:0:0:0:
182,192,97009,1,0,0:0:0:0:
329,192,97009,1,0,0:0:0:0:
256,192,97092,1,0,0:0:0:0:
402,192,97092,1,0,0:0:0:0:
36,192,97176,1,2,0:0:0:0:
475,192,97176,1,0,0:0:0:0:
109,192,97176,1,0,0:0:0:0:
182,192,97259,1,0,0:0:0:0:
329,192,97259,1,0,0:0:0:0:
475,192,97342,1,2,0:0:0:0:
402,192,97342,1,0,0:0:0:0:
256,192,97342,1,0,0:0:0:0:
36,192,97426,1,2,0:0:0:0:
182,192,97426,1,0,0:0:0:0:
329,192,97426,1,0,0:0:0:0:
402,192,97509,1,2,0:0:0:0:
475,192,97509,1,0,0:0:0:0:
109,192,97509,1,0,0:0:0:0:
256,192,97592,1,2,0:0:0:0:
182,192,97592,1,0,0:0:0:0:
329,192,97592,1,0,0:0:0:0:
475,192,97676,1,2,0:0:0:0:
402,192,97676,1,0,0:0:0:0:
36,192,97676,1,0,0:0:0:0:
109,192,97759,1,2,0:0:0:0:
329,192,97759,1,0,0:0:0:0:
256,192,97759,1,0,0:0:0:0:
402,192,97842,1,2,0:0:0:0:
475,192,97842,1,0,0:0:0:0:
182,192,97842,1,0,0:0:0:0:
36,192,97926,1,2,0:0:0:0:
256,192,97926,1,0,0:0:0:0:
329,192,97926,1,0,0:0:0:0:
475,192,98009,1,2,0:0:0:0:
182,192,98009,1,0,0:0:0:0:
402,192,98009,1,0,0:0:0:0:
329,192,98092,1,2,0:0:0:0:
36,192,98092,1,0,0:0:0:0:
109,192,98092,1,0,0:0:0:0:
402,192,98176,1,2,0:0:0:0:
256,192,98176,1,0,0:0:0:0:
182,192,98176,1,0,0:0:0:0:
475,192,98259,1,2,0:0:0:0:
109,192,98259,1,0,0:0:0:0:
36,192,98259,1,0,0:0:0:0:
256,192,98342,1,2,0:0:0:0:
182,192,98342,1,0,0:0:0:0:
402,192,98342,1,0,0:0:0:0:
36,192,98426,1,2,0:0:0:0:
329,192,98426,1,0,0:0:0:0:
109,192,98426,1,0,0:0:0:0:
182,192,98509,1,2,0:0:0:0:
256,192,98509,1,0,0:0:0:0:
402,192,98509,1,0,0:0:0:0:
109,192,98592,1,2,0:0:0:0:
36,192,98592,1,0,0:0:0:0:
475,192,98592,1,0,0:0:0:0:
329,192,98676,1,4,0:0:0:0:
182,192,98676,1,2,0:0:0:0:
256,192,98676,1,0,0:0:0:0:
402,192,98676,1,0,0:0:0:0:
109,192,98842,1,0,0:0:0:0:
329,192,98842,1,0,0:0:0:0:
182,192,98926,1,0,0:0:0:0:
402,192,98926,1,0,0:0:0:0:
256,192,99009,1,2,0:0:0:0:
475,192,99009,1,0,0:0:0:0:
36,192,99009,1,0,0:0:0:0:
329,192,99092,1,0,0:0:0:0:
182,192,99092,1,0,0:0:0:0:
109,192,99176,1,0,0:0:0:0:
475,192,99176,1,0,0:0:0:0:
402,192,99259,1,0,0:0:0:0:
256,192,99259,1,0,0:0:0:0:
329,192,99342,1,2,0:0:0:0:
36,192,99342,1,0,0:0:0:0:
182,192,99342,1,0,0:0:0:0:
109,192,99426,1,0,0:0:0:0:
475,192,99426,1,0,0:0:0:0:
256,192,99509,1,0,0:0:0:0:
402,192,99509,1,0,0:0:0:0:
182,192,99592,1,0,0:0:0:0:
329,192,99592,1,0,0:0:0:0:
109,192,99676,1,2,0:0:0:0:
475,192,99676,1,0,0:0:0:0:
256,192,99676,1,0,0:0:0:0:
402,192,99759,1,0,0:0:0:0:
36,192,99759,1,0,0:0:0:0:
329,192,99842,1,0,0:0:0:0:
109,192,99842,1,0,0:0:0:0:
182,192,99926,1,0,0:0:0:0:
475,192,99926,1,0,0:0:0:0:
402,192,100009,1,0,0:0:0:0:
36,192,100009,1,0,0:0:0:0:
256,192,100009,1,0,0:0:0:0:
109,192,100092,1,0,0:0:0:0:
329,192,100092,1,0,0:0:0:0:
402,192,100176,1,0,0:0:0:0:
182,192,100176,1,0,0:0:0:0:
329,192,100259,1,0,0:0:0:0:
109,192,100259,1,0,0:0:0:0:
36,192,100342,1,0,0:0:0:0:
256,192,100342,1,0,0:0:0:0:
402,192,100342,1,2,0:0:0:0:
475,192,100426,1,0,0:0:0:0:
109,192,100426,1,0,0:0:0:0:
329,192,100509,1,0,0:0:0:0:
182,192,100509,1,0,0:0:0:0:
402,192,100592,1,0,0:0:0:0:
36,192,100592,1,0,0:0:0:0:
109,192,100676,1,2,0:0:0:0:
475,192,100676,1,0,0:0:0:0:
256,192,100676,1,0,0:0:0:0:
402,192,100759,1,0,0:0:0:0:
182,192,100759,1,0,0:0:0:0:
256,192,100842,1,0,0:0:0:0:
36,192,100842,1,0,0:0:0:0:
329,192,100926,1,0,0:0:0:0:
109,192,100926,1,0,0:0:0:0:
402,192,101009,1,2,0:0:0:0:
182,192,101009,1,0,0:0:0:0:
475,192,101009,1,0,0:0:0:0:
256,192,101092,1,0,0:0:0:0:
36,192,101092,1,0,0:0:0:0:
475,192,101176,1,2,0:0:0:0:
402,192,101176,1,0,0:0:0:0:
109,192,101176,1,0,0:0:0:0:
329,192,101259,1,0,0:0:0:0:
182,192,101259,1,0,0:0:0:0:
402,192,101342,1,2,0:0:0:0:
109,192,101342,1,0,0:0:0:0:
475,192,101342,1,0,0:0:0:0:
182,192,101426,1,0,0:0:0:0:
256,192,101509,1,0,0:0:0:0:
36,192,101509,1,0,0:0:0:0:
329,192,101592,1,0,0:0:0:0:
109,192,101592,1,0,0:0:0:0:
402,192,101676,1,2,0:0:0:0:
475,192,101676,1,0,0:0:0:0:
182,192,101676,1,0,0:0:0:0:
329,192,101759,1,0,0:0:0:0:
109,192,101842,1,0,0:0:0:0:
256,192,101842,1,0,0:0:0:0:
182,192,101926,1,0,0:0:0:0:
329,192,101926,1,0,0:0:0:0:
36,192,102009,1,2,0:0:0:0:
402,192,102009,1,0,0:0:0:0:
475,192,102009,1,0,0:0:0:0:
109,192,102092,1,0,0:0:0:0:
329,192,102092,1,0,0:0:0:0:
256,192,102176,1,0,0:0:0:0:
182,192,102176,1,0,0:0:0:0:
329,192,102259,1,0,0:0:0:0:
109,192,102259,1,0,0:0:0:0:
475,192,102342,1,2,0:0:0:0:
36,192,102342,1,0,0:0:0:0:
402,192,102342,1,0,0:0:0:0:
256,192,102426,1,0,0:0:0:0:
329,192,102426,1,0,0:0:0:0:
109,192,102509,1,0,0:0:0:0:
182,192,102509,1,0,0:0:0:0:
402,192,102592,1,0,0:0:0:0:
329,192,102592,1,0,0:0:0:0:
256,192,102676,1,2,0:0:0:0:
36,192,102676,1,0,0:0:0:0:
182,192,102676,1,0,0:0:0:0:
475,192,102676,1,0,0:0:0:0:
329,192,102842,1,0,0:0:0:0:
256,192,102842,1,0,0:0:0:0:
182,192,102842,1,0,0:0:0:0:
109,192,103009,1,2,0:0:0:0:
475,192,103009,1,0,0:0:0:0:
329,192,103009,1,0,0:0:0:0:
256,192,103009,1,0,0:0:0:0:
402,192,103092,1,0,0:0:0:0:
329,192,103176,1,0,0:0:0:0:
256,192,103259,1,0,0:0:0:0:
36,192,103342,1,2,0:0:0:0:
182,192,103342,1,0,0:0:0:0:
475,192,103342,1,0,0:0:0:0:
402,192,103384,1,0,0:0:0:0:
109,192,103426,1,2,0:0:0:0:
329,192,103426,1,0,0:0:0:0:
256,192,103467,1,0,0:0:0:0:
182,192,103509,1,0,0:0:0:0:
109,192,103592,1,2,0:0:0:0:
475,192,103592,1,0,0:0:0:0:
402,192,103676,1,2,0:0:0:0:
329,192,103676,1,0,0:0:0:0:
256,192,103717,1,0,0:0:0:0:
182,192,103759,1,0,0:0:0:0:
109,192,103801,1,0,0:0:0:0:
36,192,103842,1,2,0:0:0:0:
475,192,103842,1,0,0:0:0:0:
402,192,103842,1,0,0:0:0:0:
182,192,103926,1,0,0:0:0:0:
329,192,103926,1,0,0:0:0:0:
475,192,104009,1,2,0:0:0:0:
256,192,104009,1,0,0:0:0:0:
36,192,104009,1,0,0:0:0:0:
329,192,104092,1,0,0:0:0:0:
109,192,104092,1,0,0:0:0:0:
402,192,104176,1,0,0:0:0:0:
182,192,104176,1,0,0:0:0:0:
256,192,104259,1,0,0:0:0:0:
475,192,104259,1,0,0:0:0:0:
36,192,104342,1,2,0:0:0:0:
109,192,104342,1,0,0:0:0:0:
329,192,104342,1,0,0:0:0:0:
182,192,104426,1,0,0:0:0:0:
402,192,104426,1,0,0:0:0:0:
256,192,104509,1,0,0:0:0:0:
36,192,104509,1,0,0:0:0:0:
109,192,104592,1,0,0:0:0:0:
402,192,104592,1,0,0:0:0:0:
182,192,104676,1,2,0:0:0:0:
475,192,104676,1,0,0:0:0:0:
256,192,104676,1,0,0:0:0:0:
109,192,104759,1,0,0:0:0:0:
329,192,104759,1,0,0:0:0:0:
182,192,104842,1,0,0:0:0:0:
402,192,104842,1,0,0:0:0:0:
256,192,104926,1,0,0:0:0:0:
329,192,105009,1,2,0:0:0:0:
109,192,105009,1,0,0:0:0:0:
36,192,105009,1,0,0:0:0:0:
402,192,105092,1,0,0:0:0:0:
182,192,105092,1,0,0:0:0:0:
256,192,105176,1,0,0:0:0:0:
475,192,105176,1,0,0:0:0:0:
329,192,105259,1,0,0:0:0:0:
109,192,105259,1,0,0:0:0:0:
475,192,105342,1,2,0:0:0:0:
182,192,105342,1,0,0:0:0:0:
402,192,105342,1,0,0:0:0:0:
109,192,105426,1,0,0:0:0:0:
256,192,105426,1,0,0:0:0:0:
36,192,105509,1,0,0:0:0:0:
329,192,105509,1,0,0:0:0:0:
182,192,105592,1,0,0:0:0:0:
475,192,105592,1,0,0:0:0:0:
402,192,105676,1,2,0:0:0:0:
36,192,105676,1,0,0:0:0:0:
256,192,105676,1,0,0:0:0:0:
329,192,105759,1,0,0:0:0:0:
109,192,105759,1,0,0:0:0:0:
182,192,105842,1,0,0:0:0:0:
36,192,105926,1,0,0:0:0:0:
329,192,105926,1,0,0:0:0:0:
256,192,106009,1,2,0:0:0:0:
475,192,106009,1,0,0:0:0:0:
109,192,106009,1,0,0:0:0:0:
402,192,106092,1,0,0:0:0:0:
182,192,106176,1,0,0:0:0:0:
329,192,106176,1,0,0:0:0:0:
402,192,106259,1,0,0:0:0:0:
109,192,106259,1,0,0:0:0:0:
475,192,106342,1,2,0:0:0:0:
36,192,106342,1,0,0:0:0:0:
182,192,106342,1,0,0:0:0:0:
109,192,106426,1,0,0:0:0:0:
256,192,106426,1,0,0:0:0:0:
182,192,106509,1,2,0:0:0:0:
475,192,106509,1,0,0:0:0:0:
329,192,106509,1,0,0:0:0:0:
402,192,106592,1,0,0:0:0:0:
256,192,106592,1,0,0:0:0:0:
109,192,106676,1,2,0:0:0:0:
475,192,106676,1,0,0:0:0:0:
36,192,106676,1,0,0:0:0:0:
182,192,106759,1,0,0:0:0:0:
329,192,106759,1,0,0:0:0:0:
109,192,106842,1,0,0:0:0:0:
402,192,106842,1,0,0:0:0:0:
182,192,106926,1,0,0:0:0:0:
329,192,106926,1,0,0:0:0:0:
475,192,107009,1,2,0:0:0:0:
256,192,107009,1,0,0:0:0:0:
36,192,107009,1,0,0:0:0:0:
329,192,107092,1,0,0:0:0:0:
402,192,107176,1,0,0:0:0:0:
109,192,107176,1,0,0:0:0:0:
329,192,107259,1,0,0:0:0:0:
182,192,107259,1,0,0:0:0:0:
475,192,107342,1,2,0:0:0:0:
256,192,107342,1,0,0:0:0:0:
36,192,107342,1,0,0:0:0:0:
182,192,107426,1,0,0:0:0:0:
402,192,107426,1,0,0:0:0:0:
329,192,107509,1,0,0:0:0:0:
109,192,107509,1,0,0:0:0:0:
182,192,107592,1,0,0:0:0:0:
402,192,107592,1,0,0:0:0:0:
256,192,107676,1,2,0:0:0:0:
475,192,107676,1,0,0:0:0:0:
36,192,107676,1,0,0:0:0:0:
109,192,107759,1,0,0:0:0:0:
329,192,107759,1,0,0:0:0:0:
182,192,107842,1,0,0:0:0:0:
402,192,107842,1,0,0:0:0:0:
256,192,107926,1,0,0:0:0:0:
475,192,107926,1,0,0:0:0:0:
36,192,108009,1,2,0:0:0:0:
402,192,108009,1,0,0:0:0:0:
329,192,108009,1,0,0:0:0:0:
109,192,108092,1,0,0:0:0:0:
256,192,108092,1,0,0:0:0:0:
475,192,108176,1,0,0:0:0:0:
182,192,108176,1,0,0:0:0:0:
36,192,108259,1,0,0:0:0:0:
402,192,108259,1,0,0:0:0:0:
256,192,108342,1,2,0:0:0:0:
182,192,108342,1,0,0:0:0:0:
329,192,108342,1,0,0:0:0:0:
402,192,108426,1,0,0:0:0:0:
109,192,108426,1,0,0:0:0:0:
475,192,108509,1,0,0:0:0:0:
36,192,108509,1,0,0:0:0:0:
256,192,108509,1,0,0:0:0:0:
182,192,108592,1,0,0:0:0:0:
109,192,108592,1,0,0:0:0:0:
402,192,108676,1,2,0:0:0:0:
475,192,108676,1,0,0:0:0:0:
329,192,108676,1,0,0:0:0:0:
182,192,108759,1,2,0:0:0:0:
109,192,108759,1,0,0:0:0:0:
36,192,108759,1,0,0:0:0:0:
402,192,108842,1,2,0:0:0:0:
329,192,108842,1,0,0:0:0:0:
475,192,108842,1,0,0:0:0:0:
109,192,108926,1,0,0:0:0:0:
256,192,108926,1,0,0:0:0:0:
36,192,109009,1,0,0:0:0:0:
329,192,109092,1,2,0:0:0:0:
109,192,109092,1,0,0:0:0:0:
402,192,109176,1,0,0:0:0:0:
182,192,109176,1,2,0:0:0:0:
475,192,109259,1,0,0:0:0:0:
402,192,109342,1,0,0:0:0:0:
256,192,109342,1,2,0:0:0:0:
109,192,109509,1,0,0:0:0:0:
329,192,109509,1,0,0:0:0:0:
256,192,109676,1,0,0:0:0:0:
475,192,109676,1,0,0:0:0:0:
182,192,109842,1,0,0:0:0:0:
402,192,109842,1,0,0:0:0:0:
329,192,110009,1,0,0:0:0:0:
109,192,110009,1,0,0:0:0:0:
402,192,110176,1,0,0:0:0:0:
182,192,110176,1,0,0:0:0:0:
109,192,110342,1,0,0:0:0:0:
329,192,110342,1,0,0:0:0:0:
256,192,110509,1,0,0:0:0:0:
36,192,110509,1,0,0:0:0:0:
256,192,110842,1,0,0:0:0:0:
109,192,110842,1,0,0:0:0:0:
475,192,111009,1,0,0:0:0:0:
329,192,111009,1,0,0:0:0:0:
402,192,111176,1,0,0:0:0:0:
256,192,111176,1,0,0:0:0:0:
182,192,111342,1,0,0:0:0:0:
329,192,111342,1,0,0:0:0:0:
256,192,111509,1,0,0:0:0:0:
402,192,111509,1,0,0:0:0:0:
182,192,111676,1,0,0:0:0:0:
329,192,111676,1,0,0:0:0:0:
256,192,111842,1,0,0:0:0:0:
109,192,111842,1,0,0:0:0:0:
182,192,112176,1,0,0:0:0:0:
402,192,112176,1,0,0:0:0:0:
256,192,112342,1,0,0:0:0:0:
36,192,112342,1,0,0:0:0:0:
109,192,112509,1,0,0:0:0:0:
329,192,112509,1,0,0:0:0:0:
402,192,112676,1,0,0:0:0:0:
182,192,112676,1,0,0:0:0:0:
109,192,112842,1,0,0:0:0:0:
329,192,112842,1,0,0:0:0:0:
182,192,113009,1,0,0:0:0:0:
402,192,113009,1,0,0:0:0:0:
256,192,113176,1,0,0:0:0:0:
475,192,113176,1,0,0:0:0:0:
256,192,113509,1,0,0:0:0:0:
402,192,113509,1,0,0:0:0:0:
36,192,113676,1,0,0:0:0:0:
182,192,113676,1,0,0:0:0:0:
109,192,113842,1,0,0:0:0:0:
256,192,113842,1,0,0:0:0:0:
329,192,114009,1,0,0:0:0:0:
182,192,114009,1,0,0:0:0:0:
109,192,114176,1,0,0:0:0:0:
256,192,114176,1,0,0:0:0:0:
329,192,114342,1,0,0:0:0:0:
182,192,114342,1,0,0:0:0:0:
402,192,114509,1,0,0:0:0:0:
256,192,114509,1,0,0:0:0:0:
329,192,114842,1,0,0:0:0:0:
109,192,114842,1,0,0:0:0:0:
182,192,115009,1,0,0:0:0:0:
475,192,115009,1,0,0:0:0:0:
256,192,115176,1,0,0:0:0:0:
329,192,115176,1,0,0:0:0:0:
402,192,115342,1,0,0:0:0:0:
109,192,115342,1,0,0:0:0:0:
182,192,115509,1,0,0:0:0:0:
256,192,115509,1,0,0:0:0:0:
329,192,115676,1,0,0:0:0:0:
36,192,115676,1,0,0:0:0:0:
182,192,115842,1,0,0:0:0:0:
109,192,115842,1,0,0:0:0:0:
36,192,116176,1,0,0:0:0:0:
329,192,116176,1,0,0:0:0:0:
256,192,116342,1,0,0:0:0:0:
182,192,116342,1,0,0:0:0:0:
109,192,116509,1,0,0:0:0:0:
402,192,116509,1,0,0:0:0:0:
329,192,116676,1,0,0:0:0:0:
256,192,116676,1,0,0:0:0:0:
475,192,116842,1,0,0:0:0:0:
182,192,116842,1,0,0:0:0:0:
402,192,117009,1,0,0:0:0:0:
329,192,117009,1,0,0:0:0:0:
109,192,117176,1,0,0:0:0:0:
256,192,117176,1,0,0:0:0:0:
109,192,117342,1,2,0:0:0:0:
36,192,117342,1,0,0:0:0:0:
475,192,117342,1,0,0:0:0:0:
402,192,117398,1,0,0:0:0:0:
182,192,117426,1,2,0:0:0:0:
329,192,117454,1,0,0:0:0:0:
475,192,117509,1,2,0:0:0:0:
36,192,117509,1,0,0:0:0:0:
109,192,117509,1,0,0:0:0:0:
256,192,117509,1,0,0:0:0:0:
402,192,117565,1,0,0:0:0:0:
329,192,117620,1,0,0:0:0:0:
109,192,117676,1,2,0:0:0:0:
475,192,117676,1,0,0:0:0:0:
36,192,117676,1,0,0:0:0:0:
402,192,117731,1,0,0:0:0:0:
182,192,117759,1,2,0:0:0:0:
329,192,117787,1,0,0:0:0:0:
36,192,117842,1,2,0:0:0:0:
109,192,117842,1,0,0:0:0:0:
256,192,117842,1,0,0:0:0:0:
475,192,117842,1,0,0:0:0:0:
402,192,117898,1,0,0:0:0:0:
329,192,117954,1,0,0:0:0:0:
475,192,118009,1,0,0:0:0:0:
36,192,118009,1,0,0:0:0:0:
109,192,118009,1,0,0:0:0:0:
402,192,118065,1,0,0:0:0:0:
182,192,118092,1,2,0:0:0:0:
329,192,118120,1,0,0:0:0:0:
36,192,118176,1,2,0:0:0:0:
109,192,118176,1,0,0:0:0:0:
475,192,118176,1,0,0:0:0:0:
256,192,118176,1,0,0:0:0:0:
402,192,118231,1,0,0:0:0:0:
182,192,118259,1,2,0:0:0:0:
329,192,118287,1,0,0:0:0:0:
36,192,118342,1,2,0:0:0:0:
475,192,118342,1,0,0:0:0:0:
109,192,118342,1,0,0:0:0:0:
402,192,118398,1,0,0:0:0:0:
182,192,118426,1,2,0:0:0:0:
329,192,118454,1,0,0:0:0:0:
109,192,118509,1,2,0:0:0:0:
475,192,118509,1,0,0:0:0:0:
36,192,118509,1,0,0:0:0:0:
256,192,118509,1,0,0:0:0:0:
402,192,118565,1,0,0:0:0:0:
182,192,118592,1,2,0:0:0:0:
329,192,118620,1,0,0:0:0:0:
256,192,118676,1,2,0:0:0:0:
36,192,118676,1,0,0:0:0:0:
109,192,118731,1,0,0:0:0:0:
402,192,118759,1,2,0:0:0:0:
475,192,118759,1,0,0:0:0:0:
182,192,118787,1,0,0:0:0:0:
36,192,118842,1,0,0:0:0:0:
329,192,118842,1,0,0:0:0:0:
256,192,118842,1,0,0:0:0:0:
109,192,118898,1,0,0:0:0:0:
402,192,118926,1,2,0:0:0:0:
475,192,118926,1,0,0:0:0:0:
182,192,118954,1,0,0:0:0:0:
329,192,119009,1,2,0:0:0:0:
36,192,119009,1,0,0:0:0:0:
256,192,119009,1,0,0:0:0:0:
109,192,119065,1,0,0:0:0:0:
402,192,119092,1,2,0:0:0:0:
475,192,119092,1,0,0:0:0:0:
182,192,119120,1,0,0:0:0:0:
329,192,119176,1,2,0:0:0:0:
256,192,119176,1,0,0:0:0:0:
36,192,119176,1,0,0:0:0:0:
109,192,119231,1,0,0:0:0:0:
402,192,119259,1,2,0:0:0:0:
475,192,119259,1,0,0:0:0:0:
182,192,119287,1,0,0:0:0:0:
256,192,119342,1,0,0:0:0:0:
36,192,119342,1,2,0:0:0:0:
329,192,119342,1,0,0:0:0:0:
109,192,119398,1,0,0:0:0:0:
475,192,119426,1,2,0:0:0:0:
402,192,119426,1,0,0:0:0:0:
182,192,119454,1,0,0:0:0:0:
36,192,119509,1,2,0:0:0:0:
329,192,119509,1,0,0:0:0:0:
256,192,119509,1,0,0:0:0:0:
109,192,119565,1,0,0:0:0:0:
475,192,119592,1,2,0:0:0:0:
402,192,119592,1,0,0:0:0:0:
182,192,119620,1,0,0:0:0:0:
329,192,119676,1,2,0:0:0:0:
256,192,119676,1,0,0:0:0:0:
36,192,119676,1,0,0:0:0:0:
109,192,119731,1,0,0:0:0:0:
402,192,119759,1,2,0:0:0:0:
475,192,119759,1,0,0:0:0:0:
182,192,119787,1,0,0:0:0:0:
256,192,119842,1,2,0:0:0:0:
36,192,119842,1,0,0:0:0:0:
329,192,119842,1,0,0:0:0:0:
109,192,119898,1,0,0:0:0:0:
475,192,119926,1,2,0:0:0:0:
402,192,119926,1,0,0:0:0:0:
182,192,119954,1,0,0:0:0:0:
256,192,120009,1,2,1:0:0:0:
475,192,121009,1,0,0:0:0:0:
475,192,121342,1,0,0:0:0:0:
256,192,121342,1,0,0:0:0:0:
402,192,121676,1,0,0:0:0:0:
182,192,122009,1,0,0:0:0:0:
109,192,122342,1,0,0:0:0:0:
256,192,122676,1,0,0:0:0:0:
402,192,122676,1,0,0:0:0:0:
329,192,123676,1,0,0:0:0:0:
329,192,124009,1,0,0:0:0:0:
109,192,124009,1,0,0:0:0:0:
256,192,124289,1,0,0:0:0:0:
182,192,124567,1,0,0:0:0:0:
109,192,124753,1,0,0:0:0:0:
329,192,125155,1,0,0:0:0:0:
36,192,125554,1,0,0:0:0:0:
182,192,125554,1,0,0:0:0:0:
109,192,127025,1,0,0:0:0:0:
256,192,127025,1,0,0:0:0:0:
36,192,127884,1,0,0:0:0:0:
109,192,128761,1,0,0:0:0:0:
402,192,128761,1,0,0:0:0:0:
256,192,128761,1,0,0:0:0:0:
