osu file format v14

[General]
AudioFilename: audio.mp3
AudioLeadIn: 0
PreviewTime: 269339
Countdown: 0
SampleSet: None
StackLeniency: 0.7
Mode: 1
LetterboxInBreaks: 0
WidescreenStoryboard: 0

[Editor]
Bookmarks: 109339,141339,173339,205339,237339,269339
DistanceSpacing: 0.8
BeatDivisor: 16
GridSize: 32
TimelineZoom: 3.599998

[Metadata]
Title:End Time
TitleUnicode:End Time
Artist:Cres
ArtistUnicode:Cres
Creator:Konpaku Sariel
Version:applerss die
Source:
Tags:
BeatmapID:1990381
BeatmapSetID:953264

[Difficulty]
HPDrainRate:3
CircleSize:5
OverallDifficulty:7
ApproachRate:5
SliderMultiplier:1.4
SliderTickRate:1

[Events]
//Background and Video events
0,0,"10788225_p0.jpg",0,0
//Break Periods
//Storyboard Layer 0 (Background)
//Storyboard Layer 1 (Fail)
//Storyboard Layer 2 (Pass)
//Storyboard Layer 3 (Foreground)
//Storyboard Sound Samples

[TimingPoints]
1336.78614535182,333.333333333333,4,1,0,50,1,0
13336,333.333333333333,4,1,0,50,1,0
32002,-83.3333333333333,4,1,0,50,0,0
34002,-66.6666666666667,4,1,0,50,0,0
34752,-100,4,1,0,50,0,0
77335,-83.3333333333333,4,1,0,50,0,1
269335,-83.3333333333333,4,1,0,50,0,0
269669,-47.6190476190476,4,1,0,50,0,0
269690,-50,4,1,0,50,0,0
269752,-47.6190476190476,4,1,0,50,0,0
269773,-50,4,1,0,50,0,0
269835,-47.6190476190476,4,1,0,50,0,0
269856,-50,4,1,0,50,0,0
269919,-47.6190476190476,4,1,0,50,0,0
269940,-50,4,1,0,50,0,0
270002,-83.3333333333333,4,1,0,50,0,0
271002,-47.6190476190476,4,1,0,50,0,0
271023,-50,4,1,0,50,0,0
271085,-47.6190476190476,4,1,0,50,0,0
271106,-50,4,1,0,50,0,0
271169,-47.6190476190476,4,1,0,50,0,0
271190,-50,4,1,0,50,0,0
271252,-47.6190476190476,4,1,0,50,0,0
271273,-50,4,1,0,50,0,0
271335,-83.3333333333333,4,1,0,50,0,0
272335,-47.6190476190476,4,1,0,50,0,0
272356,-50,4,1,0,50,0,0
272419,-47.6190476190476,4,1,0,50,0,0
272440,-50,4,1,0,50,0,0
272502,-47.6190476190476,4,1,0,50,0,0
272523,-50,4,1,0,50,0,0
272585,-47.6190476190476,4,1,0,50,0,0
272606,-50,4,1,0,50,0,0
272669,-83.3333333333333,4,1,0,50,0,0
273669,-47.6190476190476,4,1,0,50,0,0
273690,-50,4,1,0,50,0,0
273752,-47.6190476190476,4,1,0,50,0,0
273773,-50,4,1,0,50,0,0
273835,-47.6190476190476,4,1,0,50,0,0
273856,-50,4,1,0,50,0,0
273919,-47.6190476190476,4,1,0,50,0,0
273940,-50,4,1,0,50,0,0
274002,-83.3333333333333,4,1,0,50,0,0
275002,-47.6190476190476,4,1,0,50,0,0
275023,-50,4,1,0,50,0,0
275085,-47.6190476190476,4,1,0,50,0,0
275106,-50,4,1,0,50,0,0
275169,-47.6190476190476,4,1,0,50,0,0
275190,-50,4,1,0,50,0,0
275252,-47.6190476190476,4,1,0,50,0,0
275273,-50,4,1,0,50,0,0
275335,-83.3333333333333,4,1,0,50,0,0
276335,-47.6190476190476,4,1,0,50,0,0
276356,-50,4,1,0,50,0,0
276419,-47.6190476190476,4,1,0,50,0,0
276440,-50,4,1,0,50,0,0
276502,-47.6190476190476,4,1,0,50,0,0
276523,-50,4,1,0,50,0,0
276585,-47.6190476190476,4,1,0,50,0,0
276606,-50,4,1,0,50,0,0
276669,-83.3333333333333,4,1,0,50,0,0
278669,-66.6666666666667,4,1,0,50,0,0
281002,-100,4,1,0,50,0,0
284002,375,4,1,0,50,1,8
284752,400,4,1,0,50,1,8
285552,352.941176470588,4,1,0,50,1,0
286257,375,4,1,0,50,1,8
286819,413.793103448276,4,1,0,50,1,8
287025,428.571428571429,4,1,0,50,1,0
288632,500,4,1,0,50,1,8
288757,500,4,1,0,50,1,0

[HitObjects]
256,192,1336,5,0,0:0:0:0:
256,192,2336,1,8,0:0:0:0:
256,192,2670,1,8,0:0:0:0:
256,192,3003,1,8,0:0:0:0:
256,192,3336,1,0,0:0:0:0:
256,192,3670,1,0,0:0:0:0:
256,192,4003,1,8,0:0:0:0:
256,192,5003,1,8,0:0:0:0:
256,192,5336,1,8,0:0:0:0:
256,192,5670,1,8,0:0:0:0:
256,192,6003,1,0,0:0:0:0:
256,192,6336,1,0,0:0:0:0:
256,192,6670,1,0,0:0:0:0:
256,192,8003,1,8,0:0:0:0:
256,192,9336,1,8,0:0:0:0:
256,192,11836,12,8,13170,0:0:0:0:
256,192,13336,5,4,0:0:0:0:
256,192,13502,1,0,0:0:0:0:
256,192,13669,1,8,0:0:0:0:
256,192,13836,1,0,0:0:0:0:
256,192,14002,1,8,0:0:0:0:
256,192,14169,1,8,0:0:0:0:
256,192,14336,1,0,0:0:0:0:
256,192,14502,1,0,0:0:0:0:
256,192,14586,1,0,0:0:0:0:
256,192,14669,1,0,0:0:0:0:
256,192,14836,1,0,0:0:0:0:
256,192,15002,1,8,0:0:0:0:
256,192,15169,1,0,0:0:0:0:
256,192,15336,1,8,0:0:0:0:
256,192,15502,1,8,0:0:0:0:
256,192,15669,1,0,0:0:0:0:
256,192,15836,1,8,0:0:0:0:
256,192,15919,1,8,0:0:0:0:
256,192,16002,1,0,0:0:0:0:
256,192,16169,1,0,0:0:0:0:
256,192,16336,1,8,0:0:0:0:
256,192,16502,1,0,0:0:0:0:
256,192,16669,1,8,0:0:0:0:
256,192,16836,1,8,0:0:0:0:
256,192,17002,1,0,0:0:0:0:
256,192,17169,1,0,0:0:0:0:
256,192,17252,1,0,0:0:0:0:
256,192,17336,1,0,0:0:0:0:
256,192,17502,1,0,0:0:0:0:
256,192,17669,1,8,0:0:0:0:
256,192,17836,1,0,0:0:0:0:
256,192,18002,1,8,0:0:0:0:
256,192,18169,1,8,0:0:0:0:
256,192,18336,1,0,0:0:0:0:
256,192,18502,1,8,0:0:0:0:
256,192,18586,1,8,0:0:0:0:
256,192,18669,1,0,0:0:0:0:
256,192,18836,1,0,0:0:0:0:
256,192,19002,1,8,0:0:0:0:
256,192,19169,1,0,0:0:0:0:
256,192,19336,1,8,0:0:0:0:
256,192,19502,1,8,0:0:0:0:
256,192,19669,1,0,0:0:0:0:
256,192,19835,1,8,0:0:0:0:
256,192,20002,1,0,0:0:0:0:
256,192,20169,1,0,0:0:0:0:
256,192,20335,1,8,0:0:0:0:
256,192,20502,1,0,0:0:0:0:
256,192,20669,1,8,0:0:0:0:
256,192,20835,1,8,0:0:0:0:
256,192,21002,1,0,0:0:0:0:
256,192,21169,1,8,0:0:0:0:
256,192,21252,1,8,0:0:0:0:
256,192,21335,1,0,0:0:0:0:
256,192,21502,1,0,0:0:0:0:
256,192,21669,1,8,0:0:0:0:
256,192,21835,1,0,0:0:0:0:
256,192,22002,1,8,0:0:0:0:
256,192,22169,1,8,0:0:0:0:
256,192,22335,1,0,0:0:0:0:
256,192,22502,1,0,0:0:0:0:
256,192,22669,1,0,0:0:0:0:
256,192,22835,1,0,0:0:0:0:
256,192,23002,1,8,0:0:0:0:
256,192,23169,1,0,0:0:0:0:
256,192,23335,1,8,0:0:0:0:
256,192,23419,1,8,0:0:0:0:
256,192,23585,1,8,0:0:0:0:
256,192,23669,1,8,0:0:0:0:
256,192,23835,1,8,0:0:0:0:
256,192,23919,1,8,0:0:0:0:
256,192,24002,1,0,0:0:0:0:
256,192,24169,1,0,0:0:0:0:
256,192,24252,1,0,0:0:0:0:
256,192,24335,1,8,0:0:0:0:
256,192,24419,1,0,0:0:0:0:
256,192,24502,1,8,0:0:0:0:
256,192,24585,1,0,0:0:0:0:
256,192,24669,1,8,0:0:0:0:
256,192,24752,1,8,0:0:0:0:
256,192,24835,1,0,0:0:0:0:
256,192,24919,1,0,0:0:0:0:
256,192,25002,1,8,0:0:0:0:
256,192,25085,1,0,0:0:0:0:
256,192,25169,1,8,0:0:0:0:
256,192,25252,1,0,0:0:0:0:
256,192,25335,1,0,0:0:0:0:
256,192,25502,1,0,0:0:0:0:
256,192,25585,1,0,0:0:0:0:
256,192,25669,1,8,0:0:0:0:
256,192,25752,1,0,0:0:0:0:
256,192,25835,1,8,0:0:0:0:
256,192,25919,1,0,0:0:0:0:
256,192,26002,1,8,0:0:0:0:
256,192,26085,1,8,0:0:0:0:
256,192,26169,1,0,0:0:0:0:
256,192,26252,1,8,0:0:0:0:
256,192,26335,1,8,0:0:0:0:
256,192,26419,1,0,0:0:0:0:
256,192,26502,1,8,0:0:0:0:
256,192,26585,1,0,0:0:0:0:
256,192,26669,1,0,0:0:0:0:
256,192,26835,1,0,0:0:0:0:
256,192,26919,1,0,0:0:0:0:
256,192,27002,1,8,0:0:0:0:
256,192,27085,1,0,0:0:0:0:
256,192,27169,1,8,0:0:0:0:
256,192,27252,1,0,0:0:0:0:
256,192,27335,1,8,0:0:0:0:
256,192,27419,1,8,0:0:0:0:
256,192,27502,1,0,0:0:0:0:
256,192,27585,1,0,0:0:0:0:
256,192,27669,1,8,0:0:0:0:
256,192,27752,1,8,0:0:0:0:
256,192,27835,1,0,0:0:0:0:
256,192,27919,1,8,0:0:0:0:
256,192,28002,1,0,0:0:0:0:
256,192,28169,1,0,0:0:0:0:
256,192,28252,1,0,0:0:0:0:
256,192,28335,1,8,0:0:0:0:
256,192,28419,1,0,0:0:0:0:
256,192,28502,1,8,0:0:0:0:
256,192,28585,1,0,0:0:0:0:
256,192,28669,1,8,0:0:0:0:
256,192,28752,1,8,0:0:0:0:
256,192,28835,1,0,0:0:0:0:
256,192,28919,1,8,0:0:0:0:
256,192,29002,1,8,0:0:0:0:
256,192,29085,1,0,0:0:0:0:
256,192,29169,1,8,0:0:0:0:
256,192,29252,1,0,0:0:0:0:
256,192,29335,1,0,0:0:0:0:
256,192,29502,1,0,0:0:0:0:
256,192,29585,1,0,0:0:0:0:
256,192,29669,1,8,0:0:0:0:
256,192,29752,1,0,0:0:0:0:
256,192,29835,1,8,0:0:0:0:
256,192,29919,1,0,0:0:0:0:
256,192,30002,1,8,0:0:0:0:
256,192,30085,1,0,0:0:0:0:
256,192,30169,1,8,0:0:0:0:
256,192,30252,1,8,0:0:0:0:
256,192,30335,1,0,0:0:0:0:
256,192,30419,1,0,0:0:0:0:
256,192,30502,1,8,0:0:0:0:
256,192,30585,1,0,0:0:0:0:
256,192,30669,1,0,0:0:0:0:
256,192,30835,1,0,0:0:0:0:
256,192,30919,1,0,0:0:0:0:
256,192,31002,1,8,0:0:0:0:
256,192,31085,1,0,0:0:0:0:
256,192,31169,1,8,0:0:0:0:
256,192,31252,1,0,0:0:0:0:
256,192,31335,1,8,0:0:0:0:
256,192,31419,1,0,0:0:0:0:
256,192,31502,1,8,0:0:0:0:
256,192,31585,1,8,0:0:0:0:
256,192,31669,1,0,0:0:0:0:
256,192,31752,1,0,0:0:0:0:
256,192,31835,1,8,0:0:0:0:
256,192,31919,1,0,0:0:0:0:
256,192,32002,5,8,0:0:0:0:
256,192,32058,1,0,0:0:0:0:
256,192,32113,1,0,0:0:0:0:
256,192,32169,1,8,0:0:0:0:
256,192,32224,1,0,0:0:0:0:
256,192,32280,1,0,0:0:0:0:
256,192,32335,1,8,0:0:0:0:
256,192,32391,1,0,0:0:0:0:
256,192,32447,1,0,0:0:0:0:
256,192,32502,1,8,0:0:0:0:
256,192,32558,1,0,0:0:0:0:
256,192,32613,1,0,0:0:0:0:
256,192,32669,1,8,0:0:0:0:
256,192,32724,1,0,0:0:0:0:
256,192,32780,1,0,0:0:0:0:
256,192,32835,1,8,0:0:0:0:
256,192,32891,1,0,0:0:0:0:
256,192,32947,1,0,0:0:0:0:
256,192,33002,1,8,0:0:0:0:
256,192,33058,1,0,0:0:0:0:
256,192,33113,1,0,0:0:0:0:
256,192,33169,1,8,0:0:0:0:
256,192,33224,1,0,0:0:0:0:
256,192,33280,1,0,0:0:0:0:
256,192,33335,1,8,0:0:0:0:
256,192,33391,1,0,0:0:0:0:
256,192,33447,1,0,0:0:0:0:
256,192,33502,1,8,0:0:0:0:
256,192,33558,1,0,0:0:0:0:
256,192,33613,1,0,0:0:0:0:
256,192,33669,1,8,0:0:0:0:
256,192,33724,1,0,0:0:0:0:
256,192,33780,1,0,0:0:0:0:
256,192,33835,1,8,0:0:0:0:
256,192,33891,1,0,0:0:0:0:
256,192,33947,1,0,0:0:0:0:
256,192,34002,1,8,0:0:0:0:
256,192,34044,1,0,0:0:0:0:
256,192,34085,1,0,0:0:0:0:
256,192,34127,1,0,0:0:0:0:
256,192,34169,1,8,0:0:0:0:
256,192,34210,1,0,0:0:0:0:
256,192,34252,1,0,0:0:0:0:
256,192,34294,1,0,0:0:0:0:
256,192,34335,1,8,0:0:0:0:
256,192,34377,1,0,0:0:0:0:
256,192,34419,1,0,0:0:0:0:
256,192,34460,1,0,0:0:0:0:
256,192,34502,1,8,0:0:0:0:
256,192,34544,1,0,0:0:0:0:
256,192,34585,1,0,0:0:0:0:
256,192,34627,1,0,0:0:0:0:
256,192,34669,1,8,0:0:0:0:
256,192,35669,1,0,0:0:0:0:
256,192,35835,1,8,0:0:0:0:
256,192,36002,1,0,0:0:0:0:
256,192,37002,1,0,0:0:0:0:
256,192,37169,1,8,0:0:0:0:
256,192,37335,1,0,0:0:0:0:
256,192,38335,1,0,0:0:0:0:
256,192,38502,1,8,0:0:0:0:
256,192,38669,1,0,0:0:0:0:
256,192,39335,1,0,0:0:0:0:
256,192,40002,1,0,0:0:0:0:
256,192,41335,1,0,0:0:0:0:
256,192,42002,1,8,0:0:0:0:
256,192,42669,1,0,0:0:0:0:
256,192,44002,1,0,0:0:0:0:
256,192,45335,1,0,0:0:0:0:
256,192,46002,1,8,0:0:0:0:
256,192,46669,1,8,0:0:0:0:
256,192,47335,1,0,0:0:0:0:
256,192,48002,1,8,0:0:0:0:
256,192,49335,1,8,0:0:0:0:
256,192,50002,1,0,0:0:0:0:
256,192,50669,1,0,0:0:0:0:
256,192,51669,1,0,0:0:0:0:
256,192,51835,1,0,0:0:0:0:
256,192,52002,1,8,0:0:0:0:
256,192,52669,1,0,0:0:0:0:
256,192,53335,1,0,0:0:0:0:
256,192,54669,1,8,0:0:0:0:
256,192,55335,1,0,0:0:0:0:
256,192,55419,1,0,0:0:0:0:
256,192,55502,1,0,0:0:0:0:
256,192,55585,1,8,0:0:0:0:
256,192,55669,1,0,0:0:0:0:
256,192,55752,1,0,0:0:0:0:
256,192,55835,1,8,0:0:0:0:
256,192,55919,1,8,0:0:0:0:
256,192,56002,1,8,0:0:0:0:
256,192,56169,1,8,0:0:0:0:
256,192,56252,1,8,0:0:0:0:
256,192,56502,1,8,0:0:0:0:
256,192,56669,1,8,0:0:0:0:
256,192,56752,1,8,0:0:0:0:
256,192,57002,1,8,0:0:0:0:
256,192,57169,1,8,0:0:0:0:
256,192,57335,1,8,0:0:0:0:
256,192,57502,1,8,0:0:0:0:
256,192,57585,1,8,0:0:0:0:
256,192,57835,1,8,0:0:0:0:
256,192,58002,1,8,0:0:0:0:
256,192,58085,1,8,0:0:0:0:
256,192,58335,1,8,0:0:0:0:
256,192,58502,1,8,0:0:0:0:
256,192,58669,1,8,0:0:0:0:
256,192,58835,1,8,0:0:0:0:
256,192,58919,1,8,0:0:0:0:
256,192,59169,1,8,0:0:0:0:
256,192,59335,1,8,0:0:0:0:
256,192,59419,1,8,0:0:0:0:
256,192,59502,1,8,0:0:0:0:
256,192,59669,1,8,0:0:0:0:
256,192,59835,1,8,0:0:0:0:
256,192,60002,1,8,0:0:0:0:
256,192,60169,1,8,0:0:0:0:
256,192,60252,1,8,0:0:0:0:
256,192,60419,1,8,0:0:0:0:
256,192,60502,1,8,0:0:0:0:
256,192,60669,1,8,0:0:0:0:
256,192,60752,1,0,0:0:0:0:
256,192,60835,1,8,0:0:0:0:
256,192,61002,1,8,0:0:0:0:
256,192,61335,1,8,0:0:0:0:
256,192,61502,1,8,0:0:0:0:
256,192,61585,1,8,0:0:0:0:
256,192,61835,1,8,0:0:0:0:
256,192,62002,1,8,0:0:0:0:
256,192,62085,1,8,0:0:0:0:
256,192,62335,1,8,0:0:0:0:
256,192,62502,1,8,0:0:0:0:
256,192,62669,1,8,0:0:0:0:
256,192,62835,1,8,0:0:0:0:
256,192,62919,1,8,0:0:0:0:
256,192,63169,1,8,0:0:0:0:
256,192,63335,1,8,0:0:0:0:
256,192,63419,1,8,0:0:0:0:
256,192,63669,1,8,0:0:0:0:
256,192,63835,1,8,0:0:0:0:
256,192,64002,1,8,0:0:0:0:
256,192,64169,1,8,0:0:0:0:
256,192,64252,1,8,0:0:0:0:
256,192,64419,1,8,0:0:0:0:
256,192,64502,1,8,0:0:0:0:
256,192,64669,1,8,0:0:0:0:
256,192,64752,1,8,0:0:0:0:
256,192,64919,1,8,0:0:0:0:
256,192,65002,1,8,0:0:0:0:
256,192,65085,1,0,0:0:0:0:
256,192,65169,1,8,0:0:0:0:
256,192,65335,1,0,0:0:0:0:
256,192,65502,1,8,0:0:0:0:
256,192,65585,1,0,0:0:0:0:
256,192,65752,1,8,0:0:0:0:
256,192,65835,1,0,0:0:0:0:
256,192,65919,1,8,0:0:0:0:
256,192,66002,1,8,0:0:0:0:
256,192,66169,1,8,0:0:0:0:
256,192,66335,1,0,0:0:0:0:
256,192,66502,1,8,0:0:0:0:
256,192,66669,1,8,0:0:0:0:
256,192,66835,1,8,0:0:0:0:
256,192,66919,1,8,0:0:0:0:
256,192,67002,1,0,0:0:0:0:
256,192,67169,1,8,0:0:0:0:
256,192,67335,1,0,0:0:0:0:
256,192,67419,1,8,0:0:0:0:
256,192,67502,1,8,0:0:0:0:
256,192,67669,1,0,0:0:0:0:
256,192,67835,1,8,0:0:0:0:
256,192,68002,1,8,0:0:0:0:
256,192,68169,1,8,0:0:0:0:
256,192,68252,1,8,0:0:0:0:
256,192,68335,1,0,0:0:0:0:
256,192,68502,1,8,0:0:0:0:
256,192,68669,1,0,0:0:0:0:
256,192,68752,1,8,0:0:0:0:
256,192,68835,1,8,0:0:0:0:
256,192,68919,1,0,0:0:0:0:
256,192,69002,1,8,0:0:0:0:
256,192,69169,1,0,0:0:0:0:
256,192,69335,1,8,0:0:0:0:
256,192,69502,1,8,0:0:0:0:
256,192,69585,1,0,0:0:0:0:
256,192,69669,1,8,0:0:0:0:
256,192,69835,1,8,0:0:0:0:
256,192,69919,1,0,0:0:0:0:
256,192,70002,1,8,0:0:0:0:
256,192,70085,1,0,0:0:0:0:
256,192,70252,1,8,0:0:0:0:
256,192,70335,1,0,0:0:0:0:
256,192,70419,1,0,0:0:0:0:
256,192,70502,1,8,0:0:0:0:
256,192,70669,1,8,0:0:0:0:
256,192,70835,1,8,0:0:0:0:
256,192,70919,1,0,0:0:0:0:
256,192,71002,1,0,0:0:0:0:
256,192,71169,1,8,0:0:0:0:
256,192,71335,1,8,0:0:0:0:
256,192,71419,1,0,0:0:0:0:
256,192,71502,1,8,0:0:0:0:
256,192,71669,1,8,0:0:0:0:
256,192,71835,1,8,0:0:0:0:
256,192,72002,1,8,0:0:0:0:
256,192,72169,1,8,0:0:0:0:
256,192,72252,1,8,0:0:0:0:
256,192,72335,1,0,0:0:0:0:
256,192,72502,1,8,0:0:0:0:
256,192,72585,1,8,0:0:0:0:
256,192,72669,1,0,0:0:0:0:
256,192,72752,1,8,0:0:0:0:
256,192,72919,1,8,0:0:0:0:
256,192,73002,1,0,0:0:0:0:
256,192,73169,1,8,0:0:0:0:
256,192,73335,1,8,0:0:0:0:
256,192,73502,1,8,0:0:0:0:
256,192,73585,1,8,0:0:0:0:
256,192,73669,1,0,0:0:0:0:
256,192,73835,1,8,0:0:0:0:
256,192,74002,1,8,0:0:0:0:
256,192,74085,1,8,0:0:0:0:
256,192,74169,1,0,0:0:0:0:
256,192,74252,1,8,0:0:0:0:
256,192,74335,1,8,0:0:0:0:
256,192,74419,1,8,0:0:0:0:
256,192,74502,1,0,0:0:0:0:
256,192,74669,1,8,0:0:0:0:
256,192,74835,1,8,0:0:0:0:
256,192,74919,1,8,0:0:0:0:
256,192,75002,1,0,0:0:0:0:
256,192,75085,1,8,0:0:0:0:
256,192,75169,1,8,0:0:0:0:
256,192,75335,1,8,0:0:0:0:
256,192,75419,1,0,0:0:0:0:
256,192,75502,1,8,0:0:0:0:
256,192,75669,1,8,0:0:0:0:
256,192,75752,1,0,0:0:0:0:
256,192,75835,1,8,0:0:0:0:
256,192,76002,1,8,0:0:0:0:
256,192,76169,1,8,0:0:0:0:
256,192,76252,1,8,0:0:0:0:
256,192,76335,1,0,0:0:0:0:
256,192,76419,1,8,0:0:0:0:
256,192,76502,1,8,0:0:0:0:
256,192,76669,1,8,0:0:0:0:
256,192,76752,1,0,0:0:0:0:
256,192,76835,1,8,0:0:0:0:
256,192,77002,1,8,0:0:0:0:
256,192,77169,1,8,0:0:0:0:
256,192,77335,1,0,0:0:0:0:
256,192,77419,1,0,0:0:0:0:
256,192,77502,1,0,0:0:0:0:
256,192,77585,1,8,0:0:0:0:
256,192,77669,1,0,0:0:0:0:
256,192,77752,1,0,0:0:0:0:
256,192,77835,1,0,0:0:0:0:
256,192,77919,1,8,0:0:0:0:
256,192,78002,1,8,0:0:0:0:
256,192,78085,1,0,0:0:0:0:
256,192,78169,1,0,0:0:0:0:
256,192,78252,1,8,0:0:0:0:
256,192,78335,1,8,0:0:0:0:
256,192,78419,1,0,0:0:0:0:
256,192,78502,1,8,0:0:0:0:
256,192,78585,1,8,0:0:0:0:
256,192,78669,1,0,0:0:0:0:
256,192,78752,1,0,0:0:0:0:
256,192,78835,1,0,0:0:0:0:
256,192,78919,1,8,0:0:0:0:
256,192,79002,1,0,0:0:0:0:
256,192,79085,1,0,0:0:0:0:
256,192,79169,1,0,0:0:0:0:
256,192,79252,1,8,0:0:0:0:
256,192,79335,1,8,0:0:0:0:
256,192,79419,1,0,0:0:0:0:
256,192,79502,1,0,0:0:0:0:
256,192,79585,1,8,0:0:0:0:
256,192,79669,1,8,0:0:0:0:
256,192,79752,1,0,0:0:0:0:
256,192,79835,1,8,0:0:0:0:
256,192,79919,1,8,0:0:0:0:
256,192,80002,1,0,0:0:0:0:
256,192,80058,1,0,0:0:0:0:
256,192,80113,1,0,0:0:0:0:
256,192,80169,1,8,0:0:0:0:
256,192,80224,1,8,0:0:0:0:
256,192,80280,1,8,0:0:0:0:
256,192,80335,1,0,0:0:0:0:
256,192,80391,1,0,0:0:0:0:
256,192,80447,1,8,0:0:0:0:
256,192,80502,1,0,0:0:0:0:
256,192,80558,1,8,0:0:0:0:
256,192,80613,1,8,0:0:0:0:
256,192,80669,1,0,0:0:0:0:
256,192,80752,1,8,0:0:0:0:
256,192,80835,1,8,0:0:0:0:
256,192,80919,1,8,0:0:0:0:
256,192,81002,1,0,0:0:0:0:
256,192,81085,1,8,0:0:0:0:
256,192,81169,1,8,0:0:0:0:
256,192,81252,1,0,0:0:0:0:
256,192,81335,1,8,0:0:0:0:
256,192,81391,1,8,0:0:0:0:
256,192,81447,1,0,0:0:0:0:
256,192,81502,1,8,0:0:0:0:
256,192,81558,1,0,0:0:0:0:
256,192,81613,1,0,0:0:0:0:
256,192,81669,1,8,0:0:0:0:
256,192,81724,1,8,0:0:0:0:
256,192,81780,1,0,0:0:0:0:
256,192,81835,1,8,0:0:0:0:
256,192,81891,1,0,0:0:0:0:
256,192,81947,1,0,0:0:0:0:
256,192,82002,1,8,0:0:0:0:
256,192,82058,1,8,0:0:0:0:
256,192,82113,1,0,0:0:0:0:
256,192,82169,1,8,0:0:0:0:
256,192,82224,1,0,0:0:0:0:
256,192,82280,1,0,0:0:0:0:
256,192,82335,1,8,0:0:0:0:
256,192,82391,1,0,0:0:0:0:
256,192,82447,1,0,0:0:0:0:
256,192,82502,1,0,0:0:0:0:
256,192,82558,1,8,0:0:0:0:
256,192,82613,1,0,0:0:0:0:
256,192,82669,1,0,0:0:0:0:
256,192,82752,1,0,0:0:0:0:
256,192,82835,1,0,0:0:0:0:
256,192,82919,1,8,0:0:0:0:
256,192,83002,1,0,0:0:0:0:
256,192,83085,1,0,0:0:0:0:
256,192,83169,1,8,0:0:0:0:
256,192,83252,1,0,0:0:0:0:
256,192,83335,1,8,0:0:0:0:
256,192,83419,1,0,0:0:0:0:
256,192,83502,1,0,0:0:0:0:
256,192,83585,1,8,0:0:0:0:
256,192,83669,1,0,0:0:0:0:
256,192,83752,1,8,0:0:0:0:
256,192,83835,1,8,0:0:0:0:
256,192,83919,1,8,0:0:0:0:
256,192,84002,1,0,0:0:0:0:
256,192,84085,1,0,0:0:0:0:
256,192,84169,1,0,0:0:0:0:
256,192,84252,1,8,0:0:0:0:
256,192,84335,1,0,0:0:0:0:
256,192,84419,1,0,0:0:0:0:
256,192,84502,1,8,0:0:0:0:
256,192,84585,1,8,0:0:0:0:
256,192,84669,1,8,0:0:0:0:
256,192,84752,1,0,0:0:0:0:
256,192,84835,1,0,0:0:0:0:
256,192,84919,1,8,0:0:0:0:
256,192,85002,1,0,0:0:0:0:
256,192,85058,1,8,0:0:0:0:
256,192,85113,1,0,0:0:0:0:
256,192,85169,1,8,0:0:0:0:
256,192,85224,1,8,0:0:0:0:
256,192,85280,1,0,0:0:0:0:
256,192,85335,1,8,0:0:0:0:
256,192,85391,1,8,0:0:0:0:
256,192,85447,1,8,0:0:0:0:
256,192,85502,1,0,0:0:0:0:
256,192,85558,1,0,0:0:0:0:
256,192,85613,1,0,0:0:0:0:
256,192,85669,1,8,0:0:0:0:
256,192,85724,1,8,0:0:0:0:
256,192,85780,1,0,0:0:0:0:
256,192,85835,1,8,0:0:0:0:
256,192,85891,1,0,0:0:0:0:
256,192,85947,1,0,0:0:0:0:
256,192,86002,1,8,0:0:0:0:
256,192,86058,1,8,0:0:0:0:
256,192,86113,1,0,0:0:0:0:
256,192,86169,1,8,0:0:0:0:
256,192,86224,1,0,0:0:0:0:
256,192,86280,1,0,0:0:0:0:
256,192,86335,1,8,0:0:0:0:
256,192,86419,1,0,0:0:0:0:
256,192,86502,1,0,0:0:0:0:
256,192,86585,1,8,0:0:0:0:
256,192,86669,1,0,0:0:0:0:
256,192,86724,1,0,0:0:0:0:
256,192,86780,1,0,0:0:0:0:
256,192,86835,1,8,0:0:0:0:
256,192,86891,1,8,0:0:0:0:
256,192,86947,1,8,0:0:0:0:
256,192,87002,1,0,0:0:0:0:
256,192,87058,1,0,0:0:0:0:
256,192,87113,1,8,0:0:0:0:
256,192,87169,1,0,0:0:0:0:
256,192,87224,1,8,0:0:0:0:
256,192,87280,1,8,0:0:0:0:
256,192,87335,1,0,0:0:0:0:
256,192,87391,1,8,0:0:0:0:
256,192,87447,1,0,0:0:0:0:
256,192,87502,1,8,0:0:0:0:
256,192,87558,1,8,0:0:0:0:
256,192,87613,1,8,0:0:0:0:
256,192,87669,1,0,0:0:0:0:
256,192,87724,1,0,0:0:0:0:
256,192,87780,1,8,0:0:0:0:
256,192,87835,1,0,0:0:0:0:
256,192,87891,1,8,0:0:0:0:
256,192,87947,1,8,0:0:0:0:
256,192,88002,1,0,0:0:0:0:
256,192,88085,1,0,0:0:0:0:
256,192,88169,1,0,0:0:0:0:
256,192,88252,1,8,0:0:0:0:
256,192,88335,1,0,0:0:0:0:
256,192,88419,1,0,0:0:0:0:
256,192,88502,1,0,0:0:0:0:
256,192,88585,1,8,0:0:0:0:
256,192,88669,1,0,0:0:0:0:
256,192,88752,1,0,0:0:0:0:
256,192,88835,1,8,0:0:0:0:
256,192,88919,1,8,0:0:0:0:
256,192,89002,1,8,0:0:0:0:
256,192,89085,1,0,0:0:0:0:
256,192,89169,1,8,0:0:0:0:
256,192,89252,1,8,0:0:0:0:
256,192,89335,1,0,0:0:0:0:
256,192,89419,1,0,0:0:0:0:
256,192,89502,1,0,0:0:0:0:
256,192,89585,1,8,0:0:0:0:
256,192,89669,1,0,0:0:0:0:
256,192,89752,1,0,0:0:0:0:
256,192,89835,1,0,0:0:0:0:
256,192,89919,1,8,0:0:0:0:
256,192,90002,1,0,0:0:0:0:
256,192,90085,1,0,0:0:0:0:
256,192,90169,1,8,0:0:0:0:
256,192,90252,1,8,0:0:0:0:
256,192,90335,1,0,0:0:0:0:
256,192,90419,1,8,0:0:0:0:
256,192,90502,1,8,0:0:0:0:
256,192,90585,1,8,0:0:0:0:
256,192,90669,1,0,0:0:0:0:
256,192,90724,1,0,0:0:0:0:
256,192,90780,1,0,0:0:0:0:
256,192,90835,1,8,0:0:0:0:
256,192,90891,1,0,0:0:0:0:
256,192,90947,1,8,0:0:0:0:
256,192,91002,1,0,0:0:0:0:
256,192,91058,1,0,0:0:0:0:
256,192,91113,1,0,0:0:0:0:
256,192,91169,1,8,0:0:0:0:
256,192,91224,1,8,0:0:0:0:
256,192,91280,1,8,0:0:0:0:
256,192,91335,1,0,0:0:0:0:
256,192,91419,1,0,0:0:0:0:
256,192,91502,1,8,0:0:0:0:
256,192,91585,1,8,0:0:0:0:
256,192,91669,1,0,0:0:0:0:
256,192,91724,1,0,0:0:0:0:
256,192,91780,1,8,0:0:0:0:
256,192,91835,1,0,0:0:0:0:
256,192,91891,1,8,0:0:0:0:
256,192,91947,1,0,0:0:0:0:
256,192,92002,1,8,0:0:0:0:
256,192,92058,1,0,0:0:0:0:
256,192,92113,1,0,0:0:0:0:
256,192,92169,1,8,0:0:0:0:
256,192,92224,1,0,0:0:0:0:
256,192,92280,1,0,0:0:0:0:
256,192,92335,1,8,0:0:0:0:
256,192,92391,1,8,0:0:0:0:
256,192,92447,1,0,0:0:0:0:
256,192,92502,1,8,0:0:0:0:
256,192,92558,1,0,0:0:0:0:
256,192,92613,1,0,0:0:0:0:
256,192,92669,1,8,0:0:0:0:
256,192,92752,1,8,0:0:0:0:
256,192,92835,1,0,0:0:0:0:
256,192,92919,1,0,0:0:0:0:
256,192,93002,1,8,0:0:0:0:
256,192,93085,1,0,0:0:0:0:
256,192,93169,1,0,0:0:0:0:
256,192,93252,1,0,0:0:0:0:
256,192,93335,1,0,0:0:0:0:
256,192,93391,1,0,0:0:0:0:
256,192,93447,1,0,0:0:0:0:
256,192,93502,1,8,0:0:0:0:
256,192,93558,1,8,0:0:0:0:
256,192,93613,1,8,0:0:0:0:
256,192,93669,1,0,0:0:0:0:
256,192,93724,1,0,0:0:0:0:
256,192,93780,1,0,0:0:0:0:
256,192,93835,1,8,0:0:0:0:
256,192,93891,1,8,0:0:0:0:
256,192,93947,1,8,0:0:0:0:
256,192,94002,1,0,0:0:0:0:
256,192,94058,1,0,0:0:0:0:
256,192,94113,1,8,0:0:0:0:
256,192,94169,1,0,0:0:0:0:
256,192,94224,1,0,0:0:0:0:
256,192,94280,1,8,0:0:0:0:
256,192,94335,1,0,0:0:0:0:
256,192,94419,1,0,0:0:0:0:
256,192,94502,1,8,0:0:0:0:
256,192,94585,1,8,0:0:0:0:
256,192,94669,1,0,0:0:0:0:
256,192,94724,1,0,0:0:0:0:
256,192,94780,1,0,0:0:0:0:
256,192,94835,1,8,0:0:0:0:
256,192,94891,1,8,0:0:0:0:
256,192,94947,1,8,0:0:0:0:
256,192,95002,1,0,0:0:0:0:
256,192,95058,1,0,0:0:0:0:
256,192,95113,1,0,0:0:0:0:
256,192,95169,1,8,0:0:0:0:
256,192,95224,1,8,0:0:0:0:
256,192,95280,1,8,0:0:0:0:
256,192,95335,1,0,0:0:0:0:
256,192,95391,1,8,0:0:0:0:
256,192,95447,1,0,0:0:0:0:
256,192,95502,1,8,0:0:0:0:
256,192,95558,1,8,0:0:0:0:
256,192,95613,1,8,0:0:0:0:
256,192,95669,1,0,0:0:0:0:
256,192,95752,1,8,0:0:0:0:
256,192,95835,1,8,0:0:0:0:
256,192,95919,1,8,0:0:0:0:
256,192,96002,1,0,0:0:0:0:
256,192,96085,1,0,0:0:0:0:
256,192,96169,1,0,0:0:0:0:
256,192,96252,1,0,0:0:0:0:
256,192,96335,1,8,0:0:0:0:
256,192,96419,1,8,0:0:0:0:
256,192,96502,1,8,0:0:0:0:
256,192,96585,1,8,0:0:0:0:
256,192,96669,1,0,0:0:0:0:
256,192,96752,1,0,0:0:0:0:
256,192,96835,1,0,0:0:0:0:
256,192,96919,1,0,0:0:0:0:
256,192,97002,1,8,0:0:0:0:
256,192,97085,1,8,0:0:0:0:
256,192,97169,1,8,0:0:0:0:
256,192,97252,1,8,0:0:0:0:
256,192,97335,1,0,0:0:0:0:
256,192,97419,1,0,0:0:0:0:
256,192,97502,1,8,0:0:0:0:
256,192,97585,1,0,0:0:0:0:
256,192,97669,1,8,0:0:0:0:
256,192,97752,1,8,0:0:0:0:
256,192,97835,1,0,0:0:0:0:
256,192,97919,1,8,0:0:0:0:
256,192,98002,1,8,0:0:0:0:
256,192,98085,1,0,0:0:0:0:
256,192,98169,1,8,0:0:0:0:
256,192,98252,1,8,0:0:0:0:
256,192,98335,1,0,0:0:0:0:
256,192,98419,1,8,0:0:0:0:
256,192,98502,1,8,0:0:0:0:
256,192,98585,1,8,0:0:0:0:
256,192,98669,1,8,0:0:0:0:
256,192,98752,1,0,0:0:0:0:
256,192,98835,1,8,0:0:0:0:
256,192,98891,1,8,0:0:0:0:
256,192,98947,1,0,0:0:0:0:
256,192,99002,1,8,0:0:0:0:
256,192,99085,1,8,0:0:0:0:
256,192,99169,1,0,0:0:0:0:
256,192,99252,1,0,0:0:0:0:
256,192,99335,1,8,0:0:0:0:
256,192,99419,1,0,0:0:0:0:
256,192,99502,1,8,0:0:0:0:
256,192,99558,1,0,0:0:0:0:
256,192,99613,1,0,0:0:0:0:
256,192,99669,1,8,0:0:0:0:
256,192,99724,1,8,0:0:0:0:
256,192,99780,1,0,0:0:0:0:
256,192,99835,1,8,0:0:0:0:
256,192,99891,1,0,0:0:0:0:
256,192,99947,1,8,0:0:0:0:
256,192,100002,1,8,0:0:0:0:
256,192,100085,1,0,0:0:0:0:
256,192,100169,1,0,0:0:0:0:
256,192,100252,1,8,0:0:0:0:
256,192,100335,1,8,0:0:0:0:
256,192,100419,1,0,0:0:0:0:
256,192,100502,1,8,0:0:0:0:
256,192,100585,1,8,0:0:0:0:
256,192,100669,1,8,0:0:0:0:
256,192,100752,1,0,0:0:0:0:
256,192,100835,1,0,0:0:0:0:
256,192,100919,1,8,0:0:0:0:
256,192,101002,1,8,0:0:0:0:
256,192,101085,1,0,0:0:0:0:
256,192,101169,1,8,0:0:0:0:
256,192,101252,1,8,0:0:0:0:
256,192,101335,1,8,0:0:0:0:
256,192,101419,1,0,0:0:0:0:
256,192,101502,1,0,0:0:0:0:
256,192,101558,1,0,0:0:0:0:
256,192,101613,1,8,0:0:0:0:
256,192,101669,1,8,0:0:0:0:
256,192,101752,1,0,0:0:0:0:
256,192,101835,1,0,0:0:0:0:
256,192,101891,1,8,0:0:0:0:
256,192,101947,1,0,0:0:0:0:
256,192,102002,1,8,0:0:0:0:
256,192,102085,1,0,0:0:0:0:
256,192,102169,1,0,0:0:0:0:
256,192,102252,1,8,0:0:0:0:
256,192,102335,1,0,0:0:0:0:
256,192,102419,1,0,0:0:0:0:
256,192,102502,1,8,0:0:0:0:
256,192,102585,1,8,0:0:0:0:
256,192,102669,1,0,0:0:0:0:
256,192,102752,1,0,0:0:0:0:
256,192,102835,1,8,0:0:0:0:
256,192,102919,1,0,0:0:0:0:
256,192,103002,1,8,0:0:0:0:
256,192,103058,1,8,0:0:0:0:
256,192,103113,1,0,0:0:0:0:
256,192,103169,1,0,0:0:0:0:
256,192,103252,1,0,0:0:0:0:
256,192,103335,1,8,0:0:0:0:
256,192,103391,1,0,0:0:0:0:
256,192,103447,1,0,0:0:0:0:
256,192,103502,1,8,0:0:0:0:
256,192,103585,1,0,0:0:0:0:
256,192,103669,1,0,0:0:0:0:
256,192,103724,1,0,0:0:0:0:
256,192,103780,1,0,0:0:0:0:
256,192,103835,1,8,0:0:0:0:
256,192,103891,1,8,0:0:0:0:
256,192,103947,1,8,0:0:0:0:
256,192,104002,1,0,0:0:0:0:
256,192,104085,1,8,0:0:0:0:
256,192,104169,1,0,0:0:0:0:
256,192,104252,1,8,0:0:0:0:
256,192,104335,1,8,0:0:0:0:
256,192,104419,1,0,0:0:0:0:
256,192,104502,1,0,0:0:0:0:
256,192,104585,1,8,0:0:0:0:
256,192,104669,1,0,0:0:0:0:
256,192,104752,1,0,0:0:0:0:
256,192,104835,1,8,0:0:0:0:
256,192,104919,1,0,0:0:0:0:
256,192,105002,1,0,0:0:0:0:
256,192,105085,1,8,0:0:0:0:
256,192,105169,1,8,0:0:0:0:
256,192,105224,1,0,0:0:0:0:
256,192,105280,1,0,0:0:0:0:
256,192,105335,1,8,0:0:0:0:
256,192,105419,1,0,0:0:0:0:
256,192,105502,1,8,0:0:0:0:
256,192,105585,1,0,0:0:0:0:
256,192,105669,1,8,0:0:0:0:
256,192,105752,1,8,0:0:0:0:
256,192,105835,1,0,0:0:0:0:
256,192,105919,1,0,0:0:0:0:
256,192,106002,1,8,0:0:0:0:
256,192,106085,1,0,0:0:0:0:
256,192,106169,1,0,0:0:0:0:
256,192,106252,1,8,0:0:0:0:
256,192,106335,1,0,0:0:0:0:
256,192,106419,1,0,0:0:0:0:
256,192,106502,1,8,0:0:0:0:
256,192,106585,1,8,0:0:0:0:
256,192,106669,1,8,0:0:0:0:
256,192,106724,1,0,0:0:0:0:
256,192,106780,1,0,0:0:0:0:
256,192,106835,1,8,0:0:0:0:
256,192,106891,1,0,0:0:0:0:
256,192,106947,1,0,0:0:0:0:
256,192,107002,1,8,0:0:0:0:
256,192,107058,1,8,0:0:0:0:
256,192,107113,1,0,0:0:0:0:
256,192,107169,1,8,0:0:0:0:
256,192,107224,1,0,0:0:0:0:
256,192,107280,1,0,0:0:0:0:
256,192,107335,1,8,0:0:0:0:
256,192,107391,1,0,0:0:0:0:
256,192,107447,1,0,0:0:0:0:
256,192,107502,1,8,0:0:0:0:
256,192,107558,1,8,0:0:0:0:
256,192,107613,1,0,0:0:0:0:
256,192,107669,1,0,0:0:0:0:
256,192,107724,1,8,0:0:0:0:
256,192,107780,1,8,0:0:0:0:
256,192,107835,1,0,0:0:0:0:
256,192,107891,1,8,0:0:0:0:
256,192,107947,1,8,0:0:0:0:
256,192,108002,1,8,0:0:0:0:
256,192,108058,1,0,0:0:0:0:
256,192,108113,1,0,0:0:0:0:
256,192,108169,1,8,0:0:0:0:
256,192,108224,1,8,0:0:0:0:
256,192,108280,1,0,0:0:0:0:
256,192,108335,1,8,0:0:0:0:
256,192,108391,1,0,0:0:0:0:
256,192,108447,1,0,0:0:0:0:
256,192,108502,1,8,0:0:0:0:
256,192,108558,1,0,0:0:0:0:
256,192,108613,1,0,0:0:0:0:
256,192,108669,1,8,0:0:0:0:
256,192,108752,1,8,0:0:0:0:
256,192,108835,1,0,0:0:0:0:
256,192,108919,1,0,0:0:0:0:
256,192,109002,1,8,0:0:0:0:
256,192,109085,1,0,0:0:0:0:
256,192,109169,1,8,0:0:0:0:
256,192,109252,1,8,0:0:0:0:
256,192,109335,1,0,0:0:0:0:
256,192,109419,1,0,0:0:0:0:
256,192,109502,1,0,0:0:0:0:
256,192,109585,1,8,0:0:0:0:
256,192,109669,1,0,0:0:0:0:
256,192,109752,1,0,0:0:0:0:
256,192,109835,1,0,0:0:0:0:
256,192,109919,1,8,0:0:0:0:
256,192,110002,1,8,0:0:0:0:
256,192,110085,1,0,0:0:0:0:
256,192,110169,1,0,0:0:0:0:
256,192,110252,1,8,0:0:0:0:
256,192,110335,1,8,0:0:0:0:
256,192,110419,1,0,0:0:0:0:
256,192,110502,1,8,0:0:0:0:
256,192,110585,1,8,0:0:0:0:
256,192,110669,1,0,0:0:0:0:
256,192,110752,1,0,0:0:0:0:
256,192,110835,1,0,0:0:0:0:
256,192,110919,1,8,0:0:0:0:
256,192,111002,1,0,0:0:0:0:
256,192,111085,1,0,0:0:0:0:
256,192,111169,1,0,0:0:0:0:
256,192,111252,1,8,0:0:0:0:
256,192,111335,1,8,0:0:0:0:
256,192,111419,1,0,0:0:0:0:
256,192,111502,1,0,0:0:0:0:
256,192,111585,1,8,0:0:0:0:
256,192,111669,1,8,0:0:0:0:
256,192,111752,1,0,0:0:0:0:
256,192,111835,1,8,0:0:0:0:
256,192,111919,1,8,0:0:0:0:
256,192,112002,1,0,0:0:0:0:
256,192,112058,1,0,0:0:0:0:
256,192,112113,1,0,0:0:0:0:
256,192,112169,1,8,0:0:0:0:
256,192,112224,1,8,0:0:0:0:
256,192,112280,1,8,0:0:0:0:
256,192,112335,1,0,0:0:0:0:
256,192,112391,1,0,0:0:0:0:
256,192,112447,1,8,0:0:0:0:
256,192,112502,1,0,0:0:0:0:
256,192,112558,1,8,0:0:0:0:
256,192,112613,1,8,0:0:0:0:
256,192,112669,1,0,0:0:0:0:
256,192,112752,1,8,0:0:0:0:
256,192,112835,1,8,0:0:0:0:
256,192,112919,1,8,0:0:0:0:
256,192,113002,1,0,0:0:0:0:
256,192,113085,1,8,0:0:0:0:
256,192,113169,1,8,0:0:0:0:
256,192,113252,1,0,0:0:0:0:
256,192,113335,1,8,0:0:0:0:
256,192,113391,1,8,0:0:0:0:
256,192,113447,1,0,0:0:0:0:
256,192,113502,1,8,0:0:0:0:
256,192,113558,1,0,0:0:0:0:
256,192,113613,1,0,0:0:0:0:
256,192,113669,1,8,0:0:0:0:
256,192,113724,1,8,0:0:0:0:
256,192,113780,1,0,0:0:0:0:
256,192,113835,1,8,0:0:0:0:
256,192,113891,1,0,0:0:0:0:
256,192,113947,1,0,0:0:0:0:
256,192,114002,1,8,0:0:0:0:
256,192,114058,1,8,0:0:0:0:
256,192,114113,1,0,0:0:0:0:
256,192,114169,1,8,0:0:0:0:
256,192,114224,1,0,0:0:0:0:
256,192,114280,1,0,0:0:0:0:
256,192,114335,1,8,0:0:0:0:
256,192,114391,1,0,0:0:0:0:
256,192,114447,1,0,0:0:0:0:
256,192,114502,1,0,0:0:0:0:
256,192,114558,1,8,0:0:0:0:
256,192,114613,1,0,0:0:0:0:
256,192,114669,1,0,0:0:0:0:
256,192,114752,1,0,0:0:0:0:
256,192,114835,1,0,0:0:0:0:
256,192,114919,1,8,0:0:0:0:
256,192,115002,1,0,0:0:0:0:
256,192,115085,1,0,0:0:0:0:
256,192,115169,1,8,0:0:0:0:
256,192,115252,1,0,0:0:0:0:
256,192,115335,1,8,0:0:0:0:
256,192,115419,1,0,0:0:0:0:
256,192,115502,1,0,0:0:0:0:
256,192,115585,1,8,0:0:0:0:
256,192,115669,1,0,0:0:0:0:
256,192,115752,1,8,0:0:0:0:
256,192,115835,1,8,0:0:0:0:
256,192,115919,1,8,0:0:0:0:
256,192,116002,1,0,0:0:0:0:
256,192,116085,1,0,0:0:0:0:
256,192,116169,1,0,0:0:0:0:
256,192,116252,1,8,0:0:0:0:
256,192,116335,1,0,0:0:0:0:
256,192,116419,1,0,0:0:0:0:
256,192,116502,1,8,0:0:0:0:
256,192,116585,1,8,0:0:0:0:
256,192,116669,1,8,0:0:0:0:
256,192,116752,1,0,0:0:0:0:
256,192,116835,1,0,0:0:0:0:
256,192,116919,1,8,0:0:0:0:
256,192,117002,1,0,0:0:0:0:
256,192,117058,1,8,0:0:0:0:
256,192,117113,1,0,0:0:0:0:
256,192,117169,1,8,0:0:0:0:
256,192,117224,1,8,0:0:0:0:
256,192,117280,1,0,0:0:0:0:
256,192,117335,1,8,0:0:0:0:
256,192,117391,1,8,0:0:0:0:
256,192,117447,1,8,0:0:0:0:
256,192,117502,1,0,0:0:0:0:
256,192,117558,1,0,0:0:0:0:
256,192,117613,1,0,0:0:0:0:
256,192,117669,1,8,0:0:0:0:
256,192,117724,1,8,0:0:0:0:
256,192,117780,1,0,0:0:0:0:
256,192,117835,1,8,0:0:0:0:
256,192,117891,1,0,0:0:0:0:
256,192,117947,1,0,0:0:0:0:
256,192,118002,1,8,0:0:0:0:
256,192,118058,1,8,0:0:0:0:
256,192,118113,1,0,0:0:0:0:
256,192,118169,1,8,0:0:0:0:
256,192,118224,1,0,0:0:0:0:
256,192,118280,1,0,0:0:0:0:
256,192,118335,1,8,0:0:0:0:
256,192,118419,1,0,0:0:0:0:
256,192,118502,1,0,0:0:0:0:
256,192,118585,1,8,0:0:0:0:
256,192,118669,1,0,0:0:0:0:
256,192,118724,1,0,0:0:0:0:
256,192,118780,1,0,0:0:0:0:
256,192,118835,1,8,0:0:0:0:
256,192,118891,1,8,0:0:0:0:
256,192,118947,1,8,0:0:0:0:
256,192,119002,1,0,0:0:0:0:
256,192,119058,1,0,0:0:0:0:
256,192,119113,1,8,0:0:0:0:
256,192,119169,1,0,0:0:0:0:
256,192,119224,1,8,0:0:0:0:
256,192,119280,1,8,0:0:0:0:
256,192,119335,1,0,0:0:0:0:
256,192,119391,1,8,0:0:0:0:
256,192,119447,1,0,0:0:0:0:
256,192,119502,1,8,0:0:0:0:
256,192,119558,1,8,0:0:0:0:
256,192,119613,1,8,0:0:0:0:
256,192,119669,1,0,0:0:0:0:
256,192,119724,1,0,0:0:0:0:
256,192,119780,1,8,0:0:0:0:
256,192,119835,1,0,0:0:0:0:
256,192,119891,1,8,0:0:0:0:
256,192,119947,1,8,0:0:0:0:
256,192,120002,1,0,0:0:0:0:
256,192,120085,1,0,0:0:0:0:
256,192,120169,1,0,0:0:0:0:
256,192,120252,1,8,0:0:0:0:
256,192,120335,1,0,0:0:0:0:
256,192,120419,1,0,0:0:0:0:
256,192,120502,1,0,0:0:0:0:
256,192,120585,1,8,0:0:0:0:
256,192,120669,1,0,0:0:0:0:
256,192,120752,1,0,0:0:0:0:
256,192,120835,1,8,0:0:0:0:
256,192,120919,1,8,0:0:0:0:
256,192,121002,1,8,0:0:0:0:
256,192,121085,1,0,0:0:0:0:
256,192,121169,1,8,0:0:0:0:
256,192,121252,1,8,0:0:0:0:
256,192,121335,1,0,0:0:0:0:
256,192,121419,1,0,0:0:0:0:
256,192,121502,1,0,0:0:0:0:
256,192,121585,1,8,0:0:0:0:
256,192,121669,1,0,0:0:0:0:
256,192,121752,1,0,0:0:0:0:
256,192,121835,1,0,0:0:0:0:
256,192,121919,1,8,0:0:0:0:
256,192,122002,1,0,0:0:0:0:
256,192,122085,1,0,0:0:0:0:
256,192,122169,1,8,0:0:0:0:
256,192,122252,1,8,0:0:0:0:
256,192,122335,1,0,0:0:0:0:
256,192,122419,1,8,0:0:0:0:
256,192,122502,1,8,0:0:0:0:
256,192,122585,1,8,0:0:0:0:
256,192,122669,1,0,0:0:0:0:
256,192,122724,1,0,0:0:0:0:
256,192,122780,1,0,0:0:0:0:
256,192,122835,1,8,0:0:0:0:
256,192,122891,1,0,0:0:0:0:
256,192,122947,1,8,0:0:0:0:
256,192,123002,1,0,0:0:0:0:
256,192,123058,1,0,0:0:0:0:
256,192,123113,1,0,0:0:0:0:
256,192,123169,1,8,0:0:0:0:
256,192,123224,1,8,0:0:0:0:
256,192,123280,1,8,0:0:0:0:
256,192,123335,1,0,0:0:0:0:
256,192,123419,1,0,0:0:0:0:
256,192,123502,1,8,0:0:0:0:
256,192,123585,1,8,0:0:0:0:
256,192,123669,1,0,0:0:0:0:
256,192,123724,1,0,0:0:0:0:
256,192,123780,1,8,0:0:0:0:
256,192,123835,1,0,0:0:0:0:
256,192,123891,1,8,0:0:0:0:
256,192,123947,1,0,0:0:0:0:
256,192,124002,1,8,0:0:0:0:
256,192,124058,1,0,0:0:0:0:
256,192,124113,1,0,0:0:0:0:
256,192,124169,1,8,0:0:0:0:
256,192,124224,1,0,0:0:0:0:
256,192,124280,1,0,0:0:0:0:
256,192,124335,1,8,0:0:0:0:
256,192,124391,1,8,0:0:0:0:
256,192,124447,1,0,0:0:0:0:
256,192,124502,1,8,0:0:0:0:
256,192,124558,1,0,0:0:0:0:
256,192,124613,1,0,0:0:0:0:
256,192,124669,1,8,0:0:0:0:
256,192,124752,1,8,0:0:0:0:
256,192,124835,1,0,0:0:0:0:
256,192,124919,1,0,0:0:0:0:
256,192,125002,1,8,0:0:0:0:
256,192,125085,1,0,0:0:0:0:
256,192,125169,1,0,0:0:0:0:
256,192,125252,1,0,0:0:0:0:
256,192,125335,1,0,0:0:0:0:
256,192,125391,1,0,0:0:0:0:
256,192,125447,1,0,0:0:0:0:
256,192,125502,1,8,0:0:0:0:
256,192,125558,1,8,0:0:0:0:
256,192,125613,1,8,0:0:0:0:
256,192,125669,1,0,0:0:0:0:
256,192,125724,1,0,0:0:0:0:
256,192,125780,1,0,0:0:0:0:
256,192,125835,1,8,0:0:0:0:
256,192,125891,1,8,0:0:0:0:
256,192,125947,1,8,0:0:0:0:
256,192,126002,1,0,0:0:0:0:
256,192,126058,1,0,0:0:0:0:
256,192,126113,1,8,0:0:0:0:
256,192,126169,1,0,0:0:0:0:
256,192,126224,1,0,0:0:0:0:
256,192,126280,1,8,0:0:0:0:
256,192,126335,1,0,0:0:0:0:
256,192,126419,1,0,0:0:0:0:
256,192,126502,1,8,0:0:0:0:
256,192,126585,1,8,0:0:0:0:
256,192,126669,1,0,0:0:0:0:
256,192,126724,1,0,0:0:0:0:
256,192,126780,1,0,0:0:0:0:
256,192,126835,1,8,0:0:0:0:
256,192,126891,1,8,0:0:0:0:
256,192,126947,1,8,0:0:0:0:
256,192,127002,1,0,0:0:0:0:
256,192,127058,1,0,0:0:0:0:
256,192,127113,1,0,0:0:0:0:
256,192,127169,1,8,0:0:0:0:
256,192,127224,1,8,0:0:0:0:
256,192,127280,1,8,0:0:0:0:
256,192,127335,1,0,0:0:0:0:
256,192,127391,1,8,0:0:0:0:
256,192,127447,1,0,0:0:0:0:
256,192,127502,1,8,0:0:0:0:
256,192,127558,1,8,0:0:0:0:
256,192,127613,1,8,0:0:0:0:
256,192,127669,1,0,0:0:0:0:
256,192,127752,1,8,0:0:0:0:
256,192,127835,1,8,0:0:0:0:
256,192,127919,1,8,0:0:0:0:
256,192,128002,1,0,0:0:0:0:
256,192,128085,1,0,0:0:0:0:
256,192,128169,1,0,0:0:0:0:
256,192,128252,1,0,0:0:0:0:
256,192,128335,1,8,0:0:0:0:
256,192,128419,1,8,0:0:0:0:
256,192,128502,1,8,0:0:0:0:
256,192,128585,1,8,0:0:0:0:
256,192,128669,1,0,0:0:0:0:
256,192,128752,1,0,0:0:0:0:
256,192,128835,1,0,0:0:0:0:
256,192,128919,1,0,0:0:0:0:
256,192,129002,1,8,0:0:0:0:
256,192,129085,1,8,0:0:0:0:
256,192,129169,1,8,0:0:0:0:
256,192,129252,1,8,0:0:0:0:
256,192,129335,1,0,0:0:0:0:
256,192,129419,1,0,0:0:0:0:
256,192,129502,1,8,0:0:0:0:
256,192,129585,1,0,0:0:0:0:
256,192,129669,1,8,0:0:0:0:
256,192,129752,1,8,0:0:0:0:
256,192,129835,1,0,0:0:0:0:
256,192,129919,1,8,0:0:0:0:
256,192,130002,1,8,0:0:0:0:
256,192,130085,1,0,0:0:0:0:
256,192,130169,1,8,0:0:0:0:
256,192,130252,1,8,0:0:0:0:
256,192,130335,1,0,0:0:0:0:
256,192,130419,1,8,0:0:0:0:
256,192,130502,1,8,0:0:0:0:
256,192,130585,1,8,0:0:0:0:
256,192,130669,1,8,0:0:0:0:
256,192,130752,1,0,0:0:0:0:
256,192,130835,1,8,0:0:0:0:
256,192,130891,1,8,0:0:0:0:
256,192,130947,1,0,0:0:0:0:
256,192,131002,1,8,0:0:0:0:
256,192,131085,1,8,0:0:0:0:
256,192,131169,1,0,0:0:0:0:
256,192,131252,1,0,0:0:0:0:
256,192,131335,1,8,0:0:0:0:
256,192,131419,1,0,0:0:0:0:
256,192,131502,1,8,0:0:0:0:
256,192,131558,1,0,0:0:0:0:
256,192,131613,1,0,0:0:0:0:
256,192,131669,1,8,0:0:0:0:
256,192,131724,1,8,0:0:0:0:
256,192,131780,1,0,0:0:0:0:
256,192,131835,1,8,0:0:0:0:
256,192,131891,1,0,0:0:0:0:
256,192,131947,1,8,0:0:0:0:
256,192,132002,1,8,0:0:0:0:
256,192,132085,1,0,0:0:0:0:
256,192,132169,1,0,0:0:0:0:
256,192,132252,1,8,0:0:0:0:
256,192,132335,1,8,0:0:0:0:
256,192,132419,1,0,0:0:0:0:
256,192,132502,1,8,0:0:0:0:
256,192,132585,1,8,0:0:0:0:
256,192,132669,1,8,0:0:0:0:
256,192,132752,1,0,0:0:0:0:
256,192,132835,1,0,0:0:0:0:
256,192,132919,1,8,0:0:0:0:
256,192,133002,1,8,0:0:0:0:
256,192,133085,1,0,0:0:0:0:
256,192,133169,1,8,0:0:0:0:
256,192,133252,1,8,0:0:0:0:
256,192,133335,1,8,0:0:0:0:
256,192,133419,1,0,0:0:0:0:
256,192,133502,1,0,0:0:0:0:
256,192,133558,1,0,0:0:0:0:
256,192,133613,1,8,0:0:0:0:
256,192,133669,1,8,0:0:0:0:
256,192,133752,1,0,0:0:0:0:
256,192,133835,1,0,0:0:0:0:
256,192,133891,1,8,0:0:0:0:
256,192,133947,1,0,0:0:0:0:
256,192,134002,1,8,0:0:0:0:
256,192,134085,1,0,0:0:0:0:
256,192,134169,1,0,0:0:0:0:
256,192,134252,1,8,0:0:0:0:
256,192,134335,1,0,0:0:0:0:
256,192,134419,1,0,0:0:0:0:
256,192,134502,1,8,0:0:0:0:
256,192,134585,1,8,0:0:0:0:
256,192,134669,1,0,0:0:0:0:
256,192,134752,1,0,0:0:0:0:
256,192,134835,1,8,0:0:0:0:
256,192,134919,1,0,0:0:0:0:
256,192,135002,1,8,0:0:0:0:
256,192,135058,1,8,0:0:0:0:
256,192,135113,1,0,0:0:0:0:
256,192,135169,1,0,0:0:0:0:
256,192,135252,1,0,0:0:0:0:
256,192,135335,1,8,0:0:0:0:
256,192,135391,1,0,0:0:0:0:
256,192,135447,1,0,0:0:0:0:
256,192,135502,1,8,0:0:0:0:
256,192,135585,1,0,0:0:0:0:
256,192,135669,1,0,0:0:0:0:
256,192,135724,1,0,0:0:0:0:
256,192,135780,1,0,0:0:0:0:
256,192,135835,1,8,0:0:0:0:
256,192,135891,1,8,0:0:0:0:
256,192,135947,1,8,0:0:0:0:
256,192,136002,1,0,0:0:0:0:
256,192,136085,1,8,0:0:0:0:
256,192,136169,1,0,0:0:0:0:
256,192,136252,1,8,0:0:0:0:
256,192,136335,1,8,0:0:0:0:
256,192,136419,1,0,0:0:0:0:
256,192,136502,1,0,0:0:0:0:
256,192,136585,1,8,0:0:0:0:
256,192,136669,1,0,0:0:0:0:
256,192,136752,1,0,0:0:0:0:
256,192,136835,1,8,0:0:0:0:
256,192,136919,1,0,0:0:0:0:
256,192,137002,1,0,0:0:0:0:
256,192,137085,1,8,0:0:0:0:
256,192,137169,1,8,0:0:0:0:
256,192,137224,1,0,0:0:0:0:
256,192,137280,1,0,0:0:0:0:
256,192,137335,1,8,0:0:0:0:
256,192,137419,1,0,0:0:0:0:
256,192,137502,1,8,0:0:0:0:
256,192,137585,1,0,0:0:0:0:
256,192,137669,1,8,0:0:0:0:
256,192,137752,1,8,0:0:0:0:
256,192,137835,1,0,0:0:0:0:
256,192,137919,1,0,0:0:0:0:
256,192,138002,1,8,0:0:0:0:
256,192,138085,1,0,0:0:0:0:
256,192,138169,1,0,0:0:0:0:
256,192,138252,1,8,0:0:0:0:
256,192,138335,1,0,0:0:0:0:
256,192,138419,1,0,0:0:0:0:
256,192,138502,1,8,0:0:0:0:
256,192,138585,1,8,0:0:0:0:
256,192,138669,1,8,0:0:0:0:
256,192,138724,1,0,0:0:0:0:
256,192,138780,1,0,0:0:0:0:
256,192,138835,1,8,0:0:0:0:
256,192,138891,1,0,0:0:0:0:
256,192,138947,1,0,0:0:0:0:
256,192,139002,1,8,0:0:0:0:
256,192,139058,1,8,0:0:0:0:
256,192,139113,1,0,0:0:0:0:
256,192,139169,1,8,0:0:0:0:
256,192,139224,1,0,0:0:0:0:
256,192,139280,1,0,0:0:0:0:
256,192,139335,1,8,0:0:0:0:
256,192,139391,1,0,0:0:0:0:
256,192,139447,1,0,0:0:0:0:
256,192,139502,1,8,0:0:0:0:
256,192,139558,1,8,0:0:0:0:
256,192,139613,1,0,0:0:0:0:
256,192,139669,1,0,0:0:0:0:
256,192,139724,1,8,0:0:0:0:
256,192,139780,1,8,0:0:0:0:
256,192,139835,1,0,0:0:0:0:
256,192,139891,1,8,0:0:0:0:
256,192,139947,1,8,0:0:0:0:
256,192,140002,1,8,0:0:0:0:
256,192,140058,1,0,0:0:0:0:
256,192,140113,1,0,0:0:0:0:
256,192,140169,1,8,0:0:0:0:
256,192,140224,1,8,0:0:0:0:
256,192,140280,1,0,0:0:0:0:
256,192,140335,1,8,0:0:0:0:
256,192,140391,1,0,0:0:0:0:
256,192,140447,1,0,0:0:0:0:
256,192,140502,1,8,0:0:0:0:
256,192,140558,1,0,0:0:0:0:
256,192,140613,1,0,0:0:0:0:
256,192,140669,1,8,0:0:0:0:
256,192,140752,1,8,0:0:0:0:
256,192,140835,1,0,0:0:0:0:
256,192,140919,1,0,0:0:0:0:
256,192,141002,1,8,0:0:0:0:
256,192,141085,1,0,0:0:0:0:
256,192,141169,1,8,0:0:0:0:
256,192,141252,1,8,0:0:0:0:
256,192,141335,1,0,0:0:0:0:
256,192,141419,1,0,0:0:0:0:
256,192,141502,1,0,0:0:0:0:
256,192,141585,1,8,0:0:0:0:
256,192,141669,1,0,0:0:0:0:
256,192,141752,1,0,0:0:0:0:
256,192,141835,1,0,0:0:0:0:
256,192,141919,1,8,0:0:0:0:
256,192,142002,1,8,0:0:0:0:
256,192,142085,1,0,0:0:0:0:
256,192,142169,1,0,0:0:0:0:
256,192,142252,1,8,0:0:0:0:
256,192,142335,1,8,0:0:0:0:
256,192,142419,1,0,0:0:0:0:
256,192,142502,1,8,0:0:0:0:
256,192,142585,1,8,0:0:0:0:
256,192,142669,1,0,0:0:0:0:
256,192,142752,1,0,0:0:0:0:
256,192,142835,1,0,0:0:0:0:
256,192,142919,1,8,0:0:0:0:
256,192,143002,1,0,0:0:0:0:
256,192,143085,1,0,0:0:0:0:
256,192,143169,1,0,0:0:0:0:
256,192,143252,1,8,0:0:0:0:
256,192,143335,1,8,0:0:0:0:
256,192,143419,1,0,0:0:0:0:
256,192,143502,1,0,0:0:0:0:
256,192,143585,1,8,0:0:0:0:
256,192,143669,1,8,0:0:0:0:
256,192,143752,1,0,0:0:0:0:
256,192,143835,1,8,0:0:0:0:
256,192,143919,1,8,0:0:0:0:
256,192,144002,1,0,0:0:0:0:
256,192,144058,1,0,0:0:0:0:
256,192,144113,1,0,0:0:0:0:
256,192,144169,1,8,0:0:0:0:
256,192,144224,1,8,0:0:0:0:
256,192,144280,1,8,0:0:0:0:
256,192,144335,1,0,0:0:0:0:
256,192,144391,1,0,0:0:0:0:
256,192,144447,1,8,0:0:0:0:
256,192,144502,1,0,0:0:0:0:
256,192,144558,1,8,0:0:0:0:
256,192,144613,1,8,0:0:0:0:
256,192,144669,1,0,0:0:0:0:
256,192,144752,1,8,0:0:0:0:
256,192,144835,1,8,0:0:0:0:
256,192,144919,1,8,0:0:0:0:
256,192,145002,1,0,0:0:0:0:
256,192,145085,1,8,0:0:0:0:
256,192,145169,1,8,0:0:0:0:
256,192,145252,1,0,0:0:0:0:
256,192,145335,1,8,0:0:0:0:
256,192,145391,1,8,0:0:0:0:
256,192,145447,1,0,0:0:0:0:
256,192,145502,1,8,0:0:0:0:
256,192,145558,1,0,0:0:0:0:
256,192,145613,1,0,0:0:0:0:
256,192,145669,1,8,0:0:0:0:
256,192,145724,1,8,0:0:0:0:
256,192,145780,1,0,0:0:0:0:
256,192,145835,1,8,0:0:0:0:
256,192,145891,1,0,0:0:0:0:
256,192,145947,1,0,0:0:0:0:
256,192,146002,1,8,0:0:0:0:
256,192,146058,1,8,0:0:0:0:
256,192,146113,1,0,0:0:0:0:
256,192,146169,1,8,0:0:0:0:
256,192,146224,1,0,0:0:0:0:
256,192,146280,1,0,0:0:0:0:
256,192,146335,1,8,0:0:0:0:
256,192,146391,1,0,0:0:0:0:
256,192,146447,1,0,0:0:0:0:
256,192,146502,1,0,0:0:0:0:
256,192,146558,1,8,0:0:0:0:
256,192,146613,1,0,0:0:0:0:
256,192,146669,1,0,0:0:0:0:
256,192,146752,1,0,0:0:0:0:
256,192,146835,1,0,0:0:0:0:
256,192,146919,1,8,0:0:0:0:
256,192,147002,1,0,0:0:0:0:
256,192,147085,1,0,0:0:0:0:
256,192,147169,1,8,0:0:0:0:
256,192,147252,1,0,0:0:0:0:
256,192,147335,1,8,0:0:0:0:
256,192,147419,1,0,0:0:0:0:
256,192,147502,1,0,0:0:0:0:
256,192,147585,1,8,0:0:0:0:
256,192,147669,1,0,0:0:0:0:
256,192,147752,1,8,0:0:0:0:
256,192,147835,1,8,0:0:0:0:
256,192,147919,1,8,0:0:0:0:
256,192,148002,1,0,0:0:0:0:
256,192,148085,1,0,0:0:0:0:
256,192,148169,1,0,0:0:0:0:
256,192,148252,1,8,0:0:0:0:
256,192,148335,1,0,0:0:0:0:
256,192,148419,1,0,0:0:0:0:
256,192,148502,1,8,0:0:0:0:
256,192,148585,1,8,0:0:0:0:
256,192,148669,1,8,0:0:0:0:
256,192,148752,1,0,0:0:0:0:
256,192,148835,1,0,0:0:0:0:
256,192,148919,1,8,0:0:0:0:
256,192,149002,1,0,0:0:0:0:
256,192,149058,1,8,0:0:0:0:
256,192,149113,1,0,0:0:0:0:
256,192,149169,1,8,0:0:0:0:
256,192,149224,1,8,0:0:0:0:
256,192,149280,1,0,0:0:0:0:
256,192,149335,1,8,0:0:0:0:
256,192,149391,1,8,0:0:0:0:
256,192,149447,1,8,0:0:0:0:
256,192,149502,1,0,0:0:0:0:
256,192,149558,1,0,0:0:0:0:
256,192,149613,1,0,0:0:0:0:
256,192,149669,1,8,0:0:0:0:
256,192,149724,1,8,0:0:0:0:
256,192,149780,1,0,0:0:0:0:
256,192,149835,1,8,0:0:0:0:
256,192,149891,1,0,0:0:0:0:
256,192,149947,1,0,0:0:0:0:
256,192,150002,1,8,0:0:0:0:
256,192,150058,1,8,0:0:0:0:
256,192,150113,1,0,0:0:0:0:
256,192,150169,1,8,0:0:0:0:
256,192,150224,1,0,0:0:0:0:
256,192,150280,1,0,0:0:0:0:
256,192,150335,1,8,0:0:0:0:
256,192,150419,1,0,0:0:0:0:
256,192,150502,1,0,0:0:0:0:
256,192,150585,1,8,0:0:0:0:
256,192,150669,1,0,0:0:0:0:
256,192,150724,1,0,0:0:0:0:
256,192,150780,1,0,0:0:0:0:
256,192,150835,1,8,0:0:0:0:
256,192,150891,1,8,0:0:0:0:
256,192,150947,1,8,0:0:0:0:
256,192,151002,1,0,0:0:0:0:
256,192,151058,1,0,0:0:0:0:
256,192,151113,1,8,0:0:0:0:
256,192,151169,1,0,0:0:0:0:
256,192,151224,1,8,0:0:0:0:
256,192,151280,1,8,0:0:0:0:
256,192,151335,1,0,0:0:0:0:
256,192,151391,1,8,0:0:0:0:
256,192,151447,1,0,0:0:0:0:
256,192,151502,1,8,0:0:0:0:
256,192,151558,1,8,0:0:0:0:
256,192,151613,1,8,0:0:0:0:
256,192,151669,1,0,0:0:0:0:
256,192,151724,1,0,0:0:0:0:
256,192,151780,1,8,0:0:0:0:
256,192,151835,1,0,0:0:0:0:
256,192,151891,1,8,0:0:0:0:
256,192,151947,1,8,0:0:0:0:
256,192,152002,1,0,0:0:0:0:
256,192,152085,1,0,0:0:0:0:
256,192,152169,1,0,0:0:0:0:
256,192,152252,1,8,0:0:0:0:
256,192,152335,1,0,0:0:0:0:
256,192,152419,1,0,0:0:0:0:
256,192,152502,1,0,0:0:0:0:
256,192,152585,1,8,0:0:0:0:
256,192,152669,1,0,0:0:0:0:
256,192,152752,1,0,0:0:0:0:
256,192,152835,1,8,0:0:0:0:
256,192,152919,1,8,0:0:0:0:
256,192,153002,1,8,0:0:0:0:
256,192,153085,1,0,0:0:0:0:
256,192,153169,1,8,0:0:0:0:
256,192,153252,1,8,0:0:0:0:
256,192,153335,1,0,0:0:0:0:
256,192,153419,1,0,0:0:0:0:
256,192,153502,1,0,0:0:0:0:
256,192,153585,1,8,0:0:0:0:
256,192,153669,1,0,0:0:0:0:
256,192,153752,1,0,0:0:0:0:
256,192,153835,1,0,0:0:0:0:
256,192,153919,1,8,0:0:0:0:
256,192,154002,1,0,0:0:0:0:
256,192,154085,1,0,0:0:0:0:
256,192,154169,1,8,0:0:0:0:
256,192,154252,1,8,0:0:0:0:
256,192,154335,1,0,0:0:0:0:
256,192,154419,1,8,0:0:0:0:
256,192,154502,1,8,0:0:0:0:
256,192,154585,1,8,0:0:0:0:
256,192,154669,1,0,0:0:0:0:
256,192,154724,1,0,0:0:0:0:
256,192,154780,1,0,0:0:0:0:
256,192,154835,1,8,0:0:0:0:
256,192,154891,1,0,0:0:0:0:
256,192,154947,1,8,0:0:0:0:
256,192,155002,1,0,0:0:0:0:
256,192,155058,1,0,0:0:0:0:
256,192,155113,1,0,0:0:0:0:
256,192,155169,1,8,0:0:0:0:
256,192,155224,1,8,0:0:0:0:
256,192,155280,1,8,0:0:0:0:
256,192,155335,1,0,0:0:0:0:
256,192,155419,1,0,0:0:0:0:
256,192,155502,1,8,0:0:0:0:
256,192,155585,1,8,0:0:0:0:
256,192,155669,1,0,0:0:0:0:
256,192,155724,1,0,0:0:0:0:
256,192,155780,1,8,0:0:0:0:
256,192,155835,1,0,0:0:0:0:
256,192,155891,1,8,0:0:0:0:
256,192,155947,1,0,0:0:0:0:
256,192,156002,1,8,0:0:0:0:
256,192,156058,1,0,0:0:0:0:
256,192,156113,1,0,0:0:0:0:
256,192,156169,1,8,0:0:0:0:
256,192,156224,1,0,0:0:0:0:
256,192,156280,1,0,0:0:0:0:
256,192,156335,1,8,0:0:0:0:
256,192,156391,1,8,0:0:0:0:
256,192,156447,1,0,0:0:0:0:
256,192,156502,1,8,0:0:0:0:
256,192,156558,1,0,0:0:0:0:
256,192,156613,1,0,0:0:0:0:
256,192,156669,1,8,0:0:0:0:
256,192,156752,1,8,0:0:0:0:
256,192,156835,1,0,0:0:0:0:
256,192,156919,1,0,0:0:0:0:
256,192,157002,1,8,0:0:0:0:
256,192,157085,1,0,0:0:0:0:
256,192,157169,1,0,0:0:0:0:
256,192,157252,1,0,0:0:0:0:
256,192,157335,1,0,0:0:0:0:
256,192,157391,1,0,0:0:0:0:
256,192,157447,1,0,0:0:0:0:
256,192,157502,1,8,0:0:0:0:
256,192,157558,1,8,0:0:0:0:
256,192,157613,1,8,0:0:0:0:
256,192,157669,1,0,0:0:0:0:
256,192,157724,1,0,0:0:0:0:
256,192,157780,1,0,0:0:0:0:
256,192,157835,1,8,0:0:0:0:
256,192,157891,1,8,0:0:0:0:
256,192,157947,1,8,0:0:0:0:
256,192,158002,1,0,0:0:0:0:
256,192,158058,1,0,0:0:0:0:
256,192,158113,1,8,0:0:0:0:
256,192,158169,1,0,0:0:0:0:
256,192,158224,1,0,0:0:0:0:
256,192,158280,1,8,0:0:0:0:
256,192,158335,1,0,0:0:0:0:
256,192,158419,1,0,0:0:0:0:
256,192,158502,1,8,0:0:0:0:
256,192,158585,1,8,0:0:0:0:
256,192,158669,1,0,0:0:0:0:
256,192,158724,1,0,0:0:0:0:
256,192,158780,1,0,0:0:0:0:
256,192,158835,1,8,0:0:0:0:
256,192,158891,1,8,0:0:0:0:
256,192,158947,1,8,0:0:0:0:
256,192,159002,1,0,0:0:0:0:
256,192,159058,1,0,0:0:0:0:
256,192,159113,1,0,0:0:0:0:
256,192,159169,1,8,0:0:0:0:
256,192,159224,1,8,0:0:0:0:
256,192,159280,1,8,0:0:0:0:
256,192,159335,1,0,0:0:0:0:
256,192,159391,1,8,0:0:0:0:
256,192,159447,1,0,0:0:0:0:
256,192,159502,1,8,0:0:0:0:
256,192,159558,1,8,0:0:0:0:
256,192,159613,1,8,0:0:0:0:
256,192,159669,1,0,0:0:0:0:
256,192,159752,1,8,0:0:0:0:
256,192,159835,1,8,0:0:0:0:
256,192,159919,1,8,0:0:0:0:
256,192,160002,1,0,0:0:0:0:
256,192,160085,1,0,0:0:0:0:
256,192,160169,1,0,0:0:0:0:
256,192,160252,1,0,0:0:0:0:
256,192,160335,1,8,0:0:0:0:
256,192,160419,1,8,0:0:0:0:
256,192,160502,1,8,0:0:0:0:
256,192,160585,1,8,0:0:0:0:
256,192,160669,1,0,0:0:0:0:
256,192,160752,1,0,0:0:0:0:
256,192,160835,1,0,0:0:0:0:
256,192,160919,1,0,0:0:0:0:
256,192,161002,1,8,0:0:0:0:
256,192,161085,1,8,0:0:0:0:
256,192,161169,1,8,0:0:0:0:
256,192,161252,1,8,0:0:0:0:
256,192,161335,1,0,0:0:0:0:
256,192,161419,1,0,0:0:0:0:
256,192,161502,1,8,0:0:0:0:
256,192,161585,1,0,0:0:0:0:
256,192,161669,1,8,0:0:0:0:
256,192,161752,1,8,0:0:0:0:
256,192,161835,1,0,0:0:0:0:
256,192,161919,1,8,0:0:0:0:
256,192,162002,1,8,0:0:0:0:
256,192,162085,1,0,0:0:0:0:
256,192,162169,1,8,0:0:0:0:
256,192,162252,1,8,0:0:0:0:
256,192,162335,1,0,0:0:0:0:
256,192,162419,1,8,0:0:0:0:
256,192,162502,1,8,0:0:0:0:
256,192,162585,1,8,0:0:0:0:
256,192,162669,1,8,0:0:0:0:
256,192,162752,1,0,0:0:0:0:
256,192,162835,1,8,0:0:0:0:
256,192,162891,1,8,0:0:0:0:
256,192,162947,1,0,0:0:0:0:
256,192,163002,1,8,0:0:0:0:
256,192,163085,1,8,0:0:0:0:
256,192,163169,1,0,0:0:0:0:
256,192,163252,1,0,0:0:0:0:
256,192,163335,1,8,0:0:0:0:
256,192,163419,1,0,0:0:0:0:
256,192,163502,1,8,0:0:0:0:
256,192,163558,1,0,0:0:0:0:
256,192,163613,1,0,0:0:0:0:
256,192,163669,1,8,0:0:0:0:
256,192,163724,1,8,0:0:0:0:
256,192,163780,1,0,0:0:0:0:
256,192,163835,1,8,0:0:0:0:
256,192,163891,1,0,0:0:0:0:
256,192,163947,1,8,0:0:0:0:
256,192,164002,1,8,0:0:0:0:
256,192,164085,1,0,0:0:0:0:
256,192,164169,1,0,0:0:0:0:
256,192,164252,1,8,0:0:0:0:
256,192,164335,1,8,0:0:0:0:
256,192,164419,1,0,0:0:0:0:
256,192,164502,1,8,0:0:0:0:
256,192,164585,1,8,0:0:0:0:
256,192,164669,1,8,0:0:0:0:
256,192,164752,1,0,0:0:0:0:
256,192,164835,1,0,0:0:0:0:
256,192,164919,1,8,0:0:0:0:
256,192,165002,1,8,0:0:0:0:
256,192,165085,1,0,0:0:0:0:
256,192,165169,1,8,0:0:0:0:
256,192,165252,1,8,0:0:0:0:
256,192,165335,1,8,0:0:0:0:
256,192,165419,1,0,0:0:0:0:
256,192,165502,1,0,0:0:0:0:
256,192,165558,1,0,0:0:0:0:
256,192,165613,1,8,0:0:0:0:
256,192,165669,1,8,0:0:0:0:
256,192,165752,1,0,0:0:0:0:
256,192,165835,1,0,0:0:0:0:
256,192,165891,1,8,0:0:0:0:
256,192,165947,1,0,0:0:0:0:
256,192,166002,1,8,0:0:0:0:
256,192,166085,1,0,0:0:0:0:
256,192,166169,1,0,0:0:0:0:
256,192,166252,1,8,0:0:0:0:
256,192,166335,1,0,0:0:0:0:
256,192,166419,1,0,0:0:0:0:
256,192,166502,1,8,0:0:0:0:
256,192,166585,1,8,0:0:0:0:
256,192,166669,1,0,0:0:0:0:
256,192,166752,1,0,0:0:0:0:
256,192,166835,1,8,0:0:0:0:
256,192,166919,1,0,0:0:0:0:
256,192,167002,1,8,0:0:0:0:
256,192,167058,1,8,0:0:0:0:
256,192,167113,1,0,0:0:0:0:
256,192,167169,1,0,0:0:0:0:
256,192,167252,1,0,0:0:0:0:
256,192,167335,1,8,0:0:0:0:
256,192,167391,1,0,0:0:0:0:
256,192,167447,1,0,0:0:0:0:
256,192,167502,1,8,0:0:0:0:
256,192,167585,1,0,0:0:0:0:
256,192,167669,1,0,0:0:0:0:
256,192,167724,1,0,0:0:0:0:
256,192,167780,1,0,0:0:0:0:
256,192,167835,1,8,0:0:0:0:
256,192,167891,1,8,0:0:0:0:
256,192,167947,1,8,0:0:0:0:
256,192,168002,1,0,0:0:0:0:
256,192,168085,1,8,0:0:0:0:
256,192,168169,1,0,0:0:0:0:
256,192,168252,1,8,0:0:0:0:
256,192,168335,1,8,0:0:0:0:
256,192,168419,1,0,0:0:0:0:
256,192,168502,1,0,0:0:0:0:
256,192,168585,1,8,0:0:0:0:
256,192,168669,1,0,0:0:0:0:
256,192,168752,1,0,0:0:0:0:
256,192,168835,1,8,0:0:0:0:
256,192,168919,1,0,0:0:0:0:
256,192,169002,1,0,0:0:0:0:
256,192,169085,1,8,0:0:0:0:
256,192,169169,1,8,0:0:0:0:
256,192,169224,1,0,0:0:0:0:
256,192,169280,1,0,0:0:0:0:
256,192,169335,1,8,0:0:0:0:
256,192,169419,1,0,0:0:0:0:
256,192,169502,1,8,0:0:0:0:
256,192,169585,1,0,0:0:0:0:
256,192,169669,1,8,0:0:0:0:
256,192,169752,1,8,0:0:0:0:
256,192,169835,1,0,0:0:0:0:
256,192,169919,1,0,0:0:0:0:
256,192,170002,1,8,0:0:0:0:
256,192,170085,1,0,0:0:0:0:
256,192,170169,1,0,0:0:0:0:
256,192,170252,1,8,0:0:0:0:
256,192,170335,1,0,0:0:0:0:
256,192,170419,1,0,0:0:0:0:
256,192,170502,1,8,0:0:0:0:
256,192,170585,1,8,0:0:0:0:
256,192,170669,1,8,0:0:0:0:
256,192,170724,1,0,0:0:0:0:
256,192,170780,1,0,0:0:0:0:
256,192,170835,1,8,0:0:0:0:
256,192,170891,1,0,0:0:0:0:
256,192,170947,1,0,0:0:0:0:
256,192,171002,1,8,0:0:0:0:
256,192,171058,1,8,0:0:0:0:
256,192,171113,1,0,0:0:0:0:
256,192,171169,1,8,0:0:0:0:
256,192,171224,1,0,0:0:0:0:
256,192,171280,1,0,0:0:0:0:
256,192,171335,1,8,0:0:0:0:
256,192,171391,1,0,0:0:0:0:
256,192,171447,1,0,0:0:0:0:
256,192,171502,1,8,0:0:0:0:
256,192,171558,1,8,0:0:0:0:
256,192,171613,1,0,0:0:0:0:
256,192,171669,1,0,0:0:0:0:
256,192,171724,1,8,0:0:0:0:
256,192,171780,1,8,0:0:0:0:
256,192,171835,1,0,0:0:0:0:
256,192,171891,1,8,0:0:0:0:
256,192,171947,1,8,0:0:0:0:
256,192,172002,1,8,0:0:0:0:
256,192,172058,1,0,0:0:0:0:
256,192,172113,1,0,0:0:0:0:
256,192,172169,1,8,0:0:0:0:
256,192,172224,1,8,0:0:0:0:
256,192,172280,1,0,0:0:0:0:
256,192,172335,1,8,0:0:0:0:
256,192,172391,1,0,0:0:0:0:
256,192,172447,1,0,0:0:0:0:
256,192,172502,1,8,0:0:0:0:
256,192,172558,1,0,0:0:0:0:
256,192,172613,1,0,0:0:0:0:
256,192,172669,1,8,0:0:0:0:
256,192,172752,1,8,0:0:0:0:
256,192,172835,1,0,0:0:0:0:
256,192,172919,1,0,0:0:0:0:
256,192,173002,1,8,0:0:0:0:
256,192,173085,1,0,0:0:0:0:
256,192,173169,1,8,0:0:0:0:
256,192,173252,1,8,0:0:0:0:
256,192,173335,1,0,0:0:0:0:
256,192,173419,1,0,0:0:0:0:
256,192,173502,1,0,0:0:0:0:
256,192,173585,1,8,0:0:0:0:
256,192,173669,1,0,0:0:0:0:
256,192,173752,1,0,0:0:0:0:
256,192,173835,1,0,0:0:0:0:
256,192,173919,1,8,0:0:0:0:
256,192,174002,1,8,0:0:0:0:
256,192,174085,1,0,0:0:0:0:
256,192,174169,1,0,0:0:0:0:
256,192,174252,1,8,0:0:0:0:
256,192,174335,1,8,0:0:0:0:
256,192,174419,1,0,0:0:0:0:
256,192,174502,1,8,0:0:0:0:
256,192,174585,1,8,0:0:0:0:
256,192,174669,1,0,0:0:0:0:
256,192,174752,1,0,0:0:0:0:
256,192,174835,1,0,0:0:0:0:
256,192,174919,1,8,0:0:0:0:
256,192,175002,1,0,0:0:0:0:
256,192,175085,1,0,0:0:0:0:
256,192,175169,1,0,0:0:0:0:
256,192,175252,1,8,0:0:0:0:
256,192,175335,1,8,0:0:0:0:
256,192,175419,1,0,0:0:0:0:
256,192,175502,1,0,0:0:0:0:
256,192,175585,1,8,0:0:0:0:
256,192,175669,1,8,0:0:0:0:
256,192,175752,1,0,0:0:0:0:
256,192,175835,1,8,0:0:0:0:
256,192,175919,1,8,0:0:0:0:
256,192,176002,1,0,0:0:0:0:
256,192,176058,1,0,0:0:0:0:
256,192,176113,1,0,0:0:0:0:
256,192,176169,1,8,0:0:0:0:
256,192,176224,1,8,0:0:0:0:
256,192,176280,1,8,0:0:0:0:
256,192,176335,1,0,0:0:0:0:
256,192,176391,1,0,0:0:0:0:
256,192,176447,1,8,0:0:0:0:
256,192,176502,1,0,0:0:0:0:
256,192,176558,1,8,0:0:0:0:
256,192,176613,1,8,0:0:0:0:
256,192,176669,1,0,0:0:0:0:
256,192,176752,1,8,0:0:0:0:
256,192,176835,1,8,0:0:0:0:
256,192,176919,1,8,0:0:0:0:
256,192,177002,1,0,0:0:0:0:
256,192,177085,1,8,0:0:0:0:
256,192,177169,1,8,0:0:0:0:
256,192,177252,1,0,0:0:0:0:
256,192,177335,1,8,0:0:0:0:
256,192,177391,1,8,0:0:0:0:
256,192,177447,1,0,0:0:0:0:
256,192,177502,1,8,0:0:0:0:
256,192,177558,1,0,0:0:0:0:
256,192,177613,1,0,0:0:0:0:
256,192,177669,1,8,0:0:0:0:
256,192,177724,1,8,0:0:0:0:
256,192,177780,1,0,0:0:0:0:
256,192,177835,1,8,0:0:0:0:
256,192,177891,1,0,0:0:0:0:
256,192,177947,1,0,0:0:0:0:
256,192,178002,1,8,0:0:0:0:
256,192,178058,1,8,0:0:0:0:
256,192,178113,1,0,0:0:0:0:
256,192,178169,1,8,0:0:0:0:
256,192,178224,1,0,0:0:0:0:
256,192,178280,1,0,0:0:0:0:
256,192,178335,1,8,0:0:0:0:
256,192,178391,1,0,0:0:0:0:
256,192,178447,1,0,0:0:0:0:
256,192,178502,1,0,0:0:0:0:
256,192,178558,1,8,0:0:0:0:
256,192,178613,1,0,0:0:0:0:
256,192,178669,1,0,0:0:0:0:
256,192,178752,1,0,0:0:0:0:
256,192,178835,1,0,0:0:0:0:
256,192,178919,1,8,0:0:0:0:
256,192,179002,1,0,0:0:0:0:
256,192,179085,1,0,0:0:0:0:
256,192,179169,1,8,0:0:0:0:
256,192,179252,1,0,0:0:0:0:
256,192,179335,1,8,0:0:0:0:
256,192,179419,1,0,0:0:0:0:
256,192,179502,1,0,0:0:0:0:
256,192,179585,1,8,0:0:0:0:
256,192,179669,1,0,0:0:0:0:
256,192,179752,1,8,0:0:0:0:
256,192,179835,1,8,0:0:0:0:
256,192,179919,1,8,0:0:0:0:
256,192,180002,1,0,0:0:0:0:
256,192,180085,1,0,0:0:0:0:
256,192,180169,1,0,0:0:0:0:
256,192,180252,1,8,0:0:0:0:
256,192,180335,1,0,0:0:0:0:
256,192,180419,1,0,0:0:0:0:
256,192,180502,1,8,0:0:0:0:
256,192,180585,1,8,0:0:0:0:
256,192,180669,1,8,0:0:0:0:
256,192,180752,1,0,0:0:0:0:
256,192,180835,1,0,0:0:0:0:
256,192,180919,1,8,0:0:0:0:
256,192,181002,1,0,0:0:0:0:
256,192,181058,1,8,0:0:0:0:
256,192,181113,1,0,0:0:0:0:
256,192,181169,1,8,0:0:0:0:
256,192,181224,1,8,0:0:0:0:
256,192,181280,1,0,0:0:0:0:
256,192,181335,1,8,0:0:0:0:
256,192,181391,1,8,0:0:0:0:
256,192,181447,1,8,0:0:0:0:
256,192,181502,1,0,0:0:0:0:
256,192,181558,1,0,0:0:0:0:
256,192,181613,1,0,0:0:0:0:
256,192,181669,1,8,0:0:0:0:
256,192,181724,1,8,0:0:0:0:
256,192,181780,1,0,0:0:0:0:
256,192,181835,1,8,0:0:0:0:
256,192,181891,1,0,0:0:0:0:
256,192,181947,1,0,0:0:0:0:
256,192,182002,1,8,0:0:0:0:
256,192,182058,1,8,0:0:0:0:
256,192,182113,1,0,0:0:0:0:
256,192,182169,1,8,0:0:0:0:
256,192,182224,1,0,0:0:0:0:
256,192,182280,1,0,0:0:0:0:
256,192,182335,1,8,0:0:0:0:
256,192,182419,1,0,0:0:0:0:
256,192,182502,1,0,0:0:0:0:
256,192,182585,1,8,0:0:0:0:
256,192,182669,1,0,0:0:0:0:
256,192,182724,1,0,0:0:0:0:
256,192,182780,1,0,0:0:0:0:
256,192,182835,1,8,0:0:0:0:
256,192,182891,1,8,0:0:0:0:
256,192,182947,1,8,0:0:0:0:
256,192,183002,1,0,0:0:0:0:
256,192,183058,1,0,0:0:0:0:
256,192,183113,1,8,0:0:0:0:
256,192,183169,1,0,0:0:0:0:
256,192,183224,1,8,0:0:0:0:
256,192,183280,1,8,0:0:0:0:
256,192,183335,1,0,0:0:0:0:
256,192,183391,1,8,0:0:0:0:
256,192,183447,1,0,0:0:0:0:
256,192,183502,1,8,0:0:0:0:
256,192,183558,1,8,0:0:0:0:
256,192,183613,1,8,0:0:0:0:
256,192,183669,1,0,0:0:0:0:
256,192,183724,1,0,0:0:0:0:
256,192,183780,1,8,0:0:0:0:
256,192,183835,1,0,0:0:0:0:
256,192,183891,1,8,0:0:0:0:
256,192,183947,1,8,0:0:0:0:
256,192,184002,1,0,0:0:0:0:
256,192,184085,1,0,0:0:0:0:
256,192,184169,1,0,0:0:0:0:
256,192,184252,1,8,0:0:0:0:
256,192,184335,1,0,0:0:0:0:
256,192,184419,1,0,0:0:0:0:
256,192,184502,1,0,0:0:0:0:
256,192,184585,1,8,0:0:0:0:
256,192,184669,1,0,0:0:0:0:
256,192,184752,1,0,0:0:0:0:
256,192,184835,1,8,0:0:0:0:
256,192,184919,1,8,0:0:0:0:
256,192,185002,1,8,0:0:0:0:
256,192,185085,1,0,0:0:0:0:
256,192,185169,1,8,0:0:0:0:
256,192,185252,1,8,0:0:0:0:
256,192,185335,1,0,0:0:0:0:
256,192,185419,1,0,0:0:0:0:
256,192,185502,1,0,0:0:0:0:
256,192,185585,1,8,0:0:0:0:
256,192,185669,1,0,0:0:0:0:
256,192,185752,1,0,0:0:0:0:
256,192,185835,1,0,0:0:0:0:
256,192,185919,1,8,0:0:0:0:
256,192,186002,1,0,0:0:0:0:
256,192,186085,1,0,0:0:0:0:
256,192,186169,1,8,0:0:0:0:
256,192,186252,1,8,0:0:0:0:
256,192,186335,1,0,0:0:0:0:
256,192,186419,1,8,0:0:0:0:
256,192,186502,1,8,0:0:0:0:
256,192,186585,1,8,0:0:0:0:
256,192,186669,1,0,0:0:0:0:
256,192,186724,1,0,0:0:0:0:
256,192,186780,1,0,0:0:0:0:
256,192,186835,1,8,0:0:0:0:
256,192,186891,1,0,0:0:0:0:
256,192,186947,1,8,0:0:0:0:
256,192,187002,1,0,0:0:0:0:
256,192,187058,1,0,0:0:0:0:
256,192,187113,1,0,0:0:0:0:
256,192,187169,1,8,0:0:0:0:
256,192,187224,1,8,0:0:0:0:
256,192,187280,1,8,0:0:0:0:
256,192,187335,1,0,0:0:0:0:
256,192,187419,1,0,0:0:0:0:
256,192,187502,1,8,0:0:0:0:
256,192,187585,1,8,0:0:0:0:
256,192,187669,1,0,0:0:0:0:
256,192,187724,1,0,0:0:0:0:
256,192,187780,1,8,0:0:0:0:
256,192,187835,1,0,0:0:0:0:
256,192,187891,1,8,0:0:0:0:
256,192,187947,1,0,0:0:0:0:
256,192,188002,1,8,0:0:0:0:
256,192,188058,1,0,0:0:0:0:
256,192,188113,1,0,0:0:0:0:
256,192,188169,1,8,0:0:0:0:
256,192,188224,1,0,0:0:0:0:
256,192,188280,1,0,0:0:0:0:
256,192,188335,1,8,0:0:0:0:
256,192,188391,1,8,0:0:0:0:
256,192,188447,1,0,0:0:0:0:
256,192,188502,1,8,0:0:0:0:
256,192,188558,1,0,0:0:0:0:
256,192,188613,1,0,0:0:0:0:
256,192,188669,1,8,0:0:0:0:
256,192,188752,1,8,0:0:0:0:
256,192,188835,1,0,0:0:0:0:
256,192,188919,1,0,0:0:0:0:
256,192,189002,1,8,0:0:0:0:
256,192,189085,1,0,0:0:0:0:
256,192,189169,1,0,0:0:0:0:
256,192,189252,1,0,0:0:0:0:
256,192,189335,1,0,0:0:0:0:
256,192,189391,1,0,0:0:0:0:
256,192,189447,1,0,0:0:0:0:
256,192,189502,1,8,0:0:0:0:
256,192,189558,1,8,0:0:0:0:
256,192,189613,1,8,0:0:0:0:
256,192,189669,1,0,0:0:0:0:
256,192,189724,1,0,0:0:0:0:
256,192,189780,1,0,0:0:0:0:
256,192,189835,1,8,0:0:0:0:
256,192,189891,1,8,0:0:0:0:
256,192,189947,1,8,0:0:0:0:
256,192,190002,1,0,0:0:0:0:
256,192,190058,1,0,0:0:0:0:
256,192,190113,1,8,0:0:0:0:
256,192,190169,1,0,0:0:0:0:
256,192,190224,1,0,0:0:0:0:
256,192,190280,1,8,0:0:0:0:
256,192,190335,1,0,0:0:0:0:
256,192,190419,1,0,0:0:0:0:
256,192,190502,1,8,0:0:0:0:
256,192,190585,1,8,0:0:0:0:
256,192,190669,1,0,0:0:0:0:
256,192,190724,1,0,0:0:0:0:
256,192,190780,1,0,0:0:0:0:
256,192,190835,1,8,0:0:0:0:
256,192,190891,1,8,0:0:0:0:
256,192,190947,1,8,0:0:0:0:
256,192,191002,1,0,0:0:0:0:
256,192,191058,1,0,0:0:0:0:
256,192,191113,1,0,0:0:0:0:
256,192,191169,1,8,0:0:0:0:
256,192,191224,1,8,0:0:0:0:
256,192,191280,1,8,0:0:0:0:
256,192,191335,1,0,0:0:0:0:
256,192,191391,1,8,0:0:0:0:
256,192,191447,1,0,0:0:0:0:
256,192,191502,1,8,0:0:0:0:
256,192,191558,1,8,0:0:0:0:
256,192,191613,1,8,0:0:0:0:
256,192,191669,1,0,0:0:0:0:
256,192,191752,1,8,0:0:0:0:
256,192,191835,1,8,0:0:0:0:
256,192,191919,1,8,0:0:0:0:
256,192,192002,1,0,0:0:0:0:
256,192,192085,1,0,0:0:0:0:
256,192,192169,1,0,0:0:0:0:
256,192,192252,1,0,0:0:0:0:
256,192,192335,1,8,0:0:0:0:
256,192,192419,1,8,0:0:0:0:
256,192,192502,1,8,0:0:0:0:
256,192,192585,1,8,0:0:0:0:
256,192,192669,1,0,0:0:0:0:
256,192,192752,1,0,0:0:0:0:
256,192,192835,1,0,0:0:0:0:
256,192,192919,1,0,0:0:0:0:
256,192,193002,1,8,0:0:0:0:
256,192,193085,1,8,0:0:0:0:
256,192,193169,1,8,0:0:0:0:
256,192,193252,1,8,0:0:0:0:
256,192,193335,1,0,0:0:0:0:
256,192,193419,1,0,0:0:0:0:
256,192,193502,1,8,0:0:0:0:
256,192,193585,1,0,0:0:0:0:
256,192,193669,1,8,0:0:0:0:
256,192,193752,1,8,0:0:0:0:
256,192,193835,1,0,0:0:0:0:
256,192,193919,1,8,0:0:0:0:
256,192,194002,1,8,0:0:0:0:
256,192,194085,1,0,0:0:0:0:
256,192,194169,1,8,0:0:0:0:
256,192,194252,1,8,0:0:0:0:
256,192,194335,1,0,0:0:0:0:
256,192,194419,1,8,0:0:0:0:
256,192,194502,1,8,0:0:0:0:
256,192,194585,1,8,0:0:0:0:
256,192,194669,1,8,0:0:0:0:
256,192,194752,1,0,0:0:0:0:
256,192,194835,1,8,0:0:0:0:
256,192,194891,1,8,0:0:0:0:
256,192,194947,1,0,0:0:0:0:
256,192,195002,1,8,0:0:0:0:
256,192,195085,1,8,0:0:0:0:
256,192,195169,1,0,0:0:0:0:
256,192,195252,1,0,0:0:0:0:
256,192,195335,1,8,0:0:0:0:
256,192,195419,1,0,0:0:0:0:
256,192,195502,1,8,0:0:0:0:
256,192,195558,1,0,0:0:0:0:
256,192,195613,1,0,0:0:0:0:
256,192,195669,1,8,0:0:0:0:
256,192,195724,1,8,0:0:0:0:
256,192,195780,1,0,0:0:0:0:
256,192,195835,1,8,0:0:0:0:
256,192,195891,1,0,0:0:0:0:
256,192,195947,1,8,0:0:0:0:
256,192,196002,1,8,0:0:0:0:
256,192,196085,1,0,0:0:0:0:
256,192,196169,1,0,0:0:0:0:
256,192,196252,1,8,0:0:0:0:
256,192,196335,1,8,0:0:0:0:
256,192,196419,1,0,0:0:0:0:
256,192,196502,1,8,0:0:0:0:
256,192,196585,1,8,0:0:0:0:
256,192,196669,1,8,0:0:0:0:
256,192,196752,1,0,0:0:0:0:
256,192,196835,1,0,0:0:0:0:
256,192,196919,1,8,0:0:0:0:
256,192,197002,1,8,0:0:0:0:
256,192,197085,1,0,0:0:0:0:
256,192,197169,1,8,0:0:0:0:
256,192,197252,1,8,0:0:0:0:
256,192,197335,1,8,0:0:0:0:
256,192,197419,1,0,0:0:0:0:
256,192,197502,1,0,0:0:0:0:
256,192,197558,1,0,0:0:0:0:
256,192,197613,1,8,0:0:0:0:
256,192,197669,1,8,0:0:0:0:
256,192,197752,1,0,0:0:0:0:
256,192,197835,1,0,0:0:0:0:
256,192,197891,1,8,0:0:0:0:
256,192,197947,1,0,0:0:0:0:
256,192,198002,1,8,0:0:0:0:
256,192,198085,1,0,0:0:0:0:
256,192,198169,1,0,0:0:0:0:
256,192,198252,1,8,0:0:0:0:
256,192,198335,1,0,0:0:0:0:
256,192,198419,1,0,0:0:0:0:
256,192,198502,1,8,0:0:0:0:
256,192,198585,1,8,0:0:0:0:
256,192,198669,1,0,0:0:0:0:
256,192,198752,1,0,0:0:0:0:
256,192,198835,1,8,0:0:0:0:
256,192,198919,1,0,0:0:0:0:
256,192,199002,1,8,0:0:0:0:
256,192,199058,1,8,0:0:0:0:
256,192,199113,1,0,0:0:0:0:
256,192,199169,1,0,0:0:0:0:
256,192,199252,1,0,0:0:0:0:
256,192,199335,1,8,0:0:0:0:
256,192,199391,1,0,0:0:0:0:
256,192,199447,1,0,0:0:0:0:
256,192,199502,1,8,0:0:0:0:
256,192,199585,1,0,0:0:0:0:
256,192,199669,1,0,0:0:0:0:
256,192,199724,1,0,0:0:0:0:
256,192,199780,1,0,0:0:0:0:
256,192,199835,1,8,0:0:0:0:
256,192,199891,1,8,0:0:0:0:
256,192,199947,1,8,0:0:0:0:
256,192,200002,1,0,0:0:0:0:
256,192,200085,1,8,0:0:0:0:
256,192,200169,1,0,0:0:0:0:
256,192,200252,1,8,0:0:0:0:
256,192,200335,1,8,0:0:0:0:
256,192,200419,1,0,0:0:0:0:
256,192,200502,1,0,0:0:0:0:
256,192,200585,1,8,0:0:0:0:
256,192,200669,1,0,0:0:0:0:
256,192,200752,1,0,0:0:0:0:
256,192,200835,1,8,0:0:0:0:
256,192,200919,1,0,0:0:0:0:
256,192,201002,1,0,0:0:0:0:
256,192,201085,1,8,0:0:0:0:
256,192,201169,1,8,0:0:0:0:
256,192,201224,1,0,0:0:0:0:
256,192,201280,1,0,0:0:0:0:
256,192,201335,1,8,0:0:0:0:
256,192,201419,1,0,0:0:0:0:
256,192,201502,1,8,0:0:0:0:
256,192,201585,1,0,0:0:0:0:
256,192,201669,1,8,0:0:0:0:
256,192,201752,1,8,0:0:0:0:
256,192,201835,1,0,0:0:0:0:
256,192,201919,1,0,0:0:0:0:
256,192,202002,1,8,0:0:0:0:
256,192,202085,1,0,0:0:0:0:
256,192,202169,1,0,0:0:0:0:
256,192,202252,1,8,0:0:0:0:
256,192,202335,1,0,0:0:0:0:
256,192,202419,1,0,0:0:0:0:
256,192,202502,1,8,0:0:0:0:
256,192,202585,1,8,0:0:0:0:
256,192,202669,1,8,0:0:0:0:
256,192,202724,1,0,0:0:0:0:
256,192,202780,1,0,0:0:0:0:
256,192,202835,1,8,0:0:0:0:
256,192,202891,1,0,0:0:0:0:
256,192,202947,1,0,0:0:0:0:
256,192,203002,1,8,0:0:0:0:
256,192,203058,1,8,0:0:0:0:
256,192,203113,1,0,0:0:0:0:
256,192,203169,1,8,0:0:0:0:
256,192,203224,1,0,0:0:0:0:
256,192,203280,1,0,0:0:0:0:
256,192,203335,1,8,0:0:0:0:
256,192,203391,1,0,0:0:0:0:
256,192,203447,1,0,0:0:0:0:
256,192,203502,1,8,0:0:0:0:
256,192,203558,1,8,0:0:0:0:
256,192,203613,1,0,0:0:0:0:
256,192,203669,1,0,0:0:0:0:
256,192,203724,1,8,0:0:0:0:
256,192,203780,1,8,0:0:0:0:
256,192,203835,1,0,0:0:0:0:
256,192,203891,1,8,0:0:0:0:
256,192,203947,1,8,0:0:0:0:
256,192,204002,1,8,0:0:0:0:
256,192,204058,1,0,0:0:0:0:
256,192,204113,1,0,0:0:0:0:
256,192,204169,1,8,0:0:0:0:
256,192,204224,1,8,0:0:0:0:
256,192,204280,1,0,0:0:0:0:
256,192,204335,1,8,0:0:0:0:
256,192,204391,1,0,0:0:0:0:
256,192,204447,1,0,0:0:0:0:
256,192,204502,1,8,0:0:0:0:
256,192,204558,1,0,0:0:0:0:
256,192,204613,1,0,0:0:0:0:
256,192,204669,1,8,0:0:0:0:
256,192,204752,1,8,0:0:0:0:
256,192,204835,1,0,0:0:0:0:
256,192,204919,1,0,0:0:0:0:
256,192,205002,1,8,0:0:0:0:
256,192,205085,1,0,0:0:0:0:
256,192,205169,1,8,0:0:0:0:
256,192,205252,1,8,0:0:0:0:
256,192,205335,1,0,0:0:0:0:
256,192,205419,1,0,0:0:0:0:
256,192,205502,1,0,0:0:0:0:
256,192,205585,1,8,0:0:0:0:
256,192,205669,1,0,0:0:0:0:
256,192,205752,1,0,0:0:0:0:
256,192,205835,1,0,0:0:0:0:
256,192,205919,1,8,0:0:0:0:
256,192,206002,1,8,0:0:0:0:
256,192,206085,1,0,0:0:0:0:
256,192,206169,1,0,0:0:0:0:
256,192,206252,1,8,0:0:0:0:
256,192,206335,1,8,0:0:0:0:
256,192,206419,1,0,0:0:0:0:
256,192,206502,1,8,0:0:0:0:
256,192,206585,1,8,0:0:0:0:
256,192,206669,1,0,0:0:0:0:
256,192,206752,1,0,0:0:0:0:
256,192,206835,1,0,0:0:0:0:
256,192,206919,1,8,0:0:0:0:
256,192,207002,1,0,0:0:0:0:
256,192,207085,1,0,0:0:0:0:
256,192,207169,1,0,0:0:0:0:
256,192,207252,1,8,0:0:0:0:
256,192,207335,1,8,0:0:0:0:
256,192,207419,1,0,0:0:0:0:
256,192,207502,1,0,0:0:0:0:
256,192,207585,1,8,0:0:0:0:
256,192,207669,1,8,0:0:0:0:
256,192,207752,1,0,0:0:0:0:
256,192,207835,1,8,0:0:0:0:
256,192,207919,1,8,0:0:0:0:
256,192,208002,1,0,0:0:0:0:
256,192,208058,1,0,0:0:0:0:
256,192,208113,1,0,0:0:0:0:
256,192,208169,1,8,0:0:0:0:
256,192,208224,1,8,0:0:0:0:
256,192,208280,1,8,0:0:0:0:
256,192,208335,1,0,0:0:0:0:
256,192,208391,1,0,0:0:0:0:
256,192,208447,1,8,0:0:0:0:
256,192,208502,1,0,0:0:0:0:
256,192,208558,1,8,0:0:0:0:
256,192,208613,1,8,0:0:0:0:
256,192,208669,1,0,0:0:0:0:
256,192,208752,1,8,0:0:0:0:
256,192,208835,1,8,0:0:0:0:
256,192,208919,1,8,0:0:0:0:
256,192,209002,1,0,0:0:0:0:
256,192,209085,1,8,0:0:0:0:
256,192,209169,1,8,0:0:0:0:
256,192,209252,1,0,0:0:0:0:
256,192,209335,1,8,0:0:0:0:
256,192,209391,1,8,0:0:0:0:
256,192,209447,1,0,0:0:0:0:
256,192,209502,1,8,0:0:0:0:
256,192,209558,1,0,0:0:0:0:
256,192,209613,1,0,0:0:0:0:
256,192,209669,1,8,0:0:0:0:
256,192,209724,1,8,0:0:0:0:
256,192,209780,1,0,0:0:0:0:
256,192,209835,1,8,0:0:0:0:
256,192,209891,1,0,0:0:0:0:
256,192,209947,1,0,0:0:0:0:
256,192,210002,1,8,0:0:0:0:
256,192,210058,1,8,0:0:0:0:
256,192,210113,1,0,0:0:0:0:
256,192,210169,1,8,0:0:0:0:
256,192,210224,1,0,0:0:0:0:
256,192,210280,1,0,0:0:0:0:
256,192,210335,1,8,0:0:0:0:
256,192,210391,1,0,0:0:0:0:
256,192,210447,1,0,0:0:0:0:
256,192,210502,1,0,0:0:0:0:
256,192,210558,1,8,0:0:0:0:
256,192,210613,1,0,0:0:0:0:
256,192,210669,1,0,0:0:0:0:
256,192,210752,1,0,0:0:0:0:
256,192,210835,1,0,0:0:0:0:
256,192,210919,1,8,0:0:0:0:
256,192,211002,1,0,0:0:0:0:
256,192,211085,1,0,0:0:0:0:
256,192,211169,1,8,0:0:0:0:
256,192,211252,1,0,0:0:0:0:
256,192,211335,1,8,0:0:0:0:
256,192,211419,1,0,0:0:0:0:
256,192,211502,1,0,0:0:0:0:
256,192,211585,1,8,0:0:0:0:
256,192,211669,1,0,0:0:0:0:
256,192,211752,1,8,0:0:0:0:
256,192,211835,1,8,0:0:0:0:
256,192,211919,1,8,0:0:0:0:
256,192,212002,1,0,0:0:0:0:
256,192,212085,1,0,0:0:0:0:
256,192,212169,1,0,0:0:0:0:
256,192,212252,1,8,0:0:0:0:
256,192,212335,1,0,0:0:0:0:
256,192,212419,1,0,0:0:0:0:
256,192,212502,1,8,0:0:0:0:
256,192,212585,1,8,0:0:0:0:
256,192,212669,1,8,0:0:0:0:
256,192,212752,1,0,0:0:0:0:
256,192,212835,1,0,0:0:0:0:
256,192,212919,1,8,0:0:0:0:
256,192,213002,1,0,0:0:0:0:
256,192,213058,1,8,0:0:0:0:
256,192,213113,1,0,0:0:0:0:
256,192,213169,1,8,0:0:0:0:
256,192,213224,1,8,0:0:0:0:
256,192,213280,1,0,0:0:0:0:
256,192,213335,1,8,0:0:0:0:
256,192,213391,1,8,0:0:0:0:
256,192,213447,1,8,0:0:0:0:
256,192,213502,1,0,0:0:0:0:
256,192,213558,1,0,0:0:0:0:
256,192,213613,1,0,0:0:0:0:
256,192,213669,1,8,0:0:0:0:
256,192,213724,1,8,0:0:0:0:
256,192,213780,1,0,0:0:0:0:
256,192,213835,1,8,0:0:0:0:
256,192,213891,1,0,0:0:0:0:
256,192,213947,1,0,0:0:0:0:
256,192,214002,1,8,0:0:0:0:
256,192,214058,1,8,0:0:0:0:
256,192,214113,1,0,0:0:0:0:
256,192,214169,1,8,0:0:0:0:
256,192,214224,1,0,0:0:0:0:
256,192,214280,1,0,0:0:0:0:
256,192,214335,1,8,0:0:0:0:
256,192,214419,1,0,0:0:0:0:
256,192,214502,1,0,0:0:0:0:
256,192,214585,1,8,0:0:0:0:
256,192,214669,1,0,0:0:0:0:
256,192,214724,1,0,0:0:0:0:
256,192,214780,1,0,0:0:0:0:
256,192,214835,1,8,0:0:0:0:
256,192,214891,1,8,0:0:0:0:
256,192,214947,1,8,0:0:0:0:
256,192,215002,1,0,0:0:0:0:
256,192,215058,1,0,0:0:0:0:
256,192,215113,1,8,0:0:0:0:
256,192,215169,1,0,0:0:0:0:
256,192,215224,1,8,0:0:0:0:
256,192,215280,1,8,0:0:0:0:
256,192,215335,1,0,0:0:0:0:
256,192,215391,1,8,0:0:0:0:
256,192,215447,1,0,0:0:0:0:
256,192,215502,1,8,0:0:0:0:
256,192,215558,1,8,0:0:0:0:
256,192,215613,1,8,0:0:0:0:
256,192,215669,1,0,0:0:0:0:
256,192,215724,1,0,0:0:0:0:
256,192,215780,1,8,0:0:0:0:
256,192,215835,1,0,0:0:0:0:
256,192,215891,1,8,0:0:0:0:
256,192,215947,1,8,0:0:0:0:
256,192,216002,1,0,0:0:0:0:
256,192,216085,1,0,0:0:0:0:
256,192,216169,1,0,0:0:0:0:
256,192,216252,1,8,0:0:0:0:
256,192,216335,1,0,0:0:0:0:
256,192,216419,1,0,0:0:0:0:
256,192,216502,1,0,0:0:0:0:
256,192,216585,1,8,0:0:0:0:
256,192,216669,1,0,0:0:0:0:
256,192,216752,1,0,0:0:0:0:
256,192,216835,1,8,0:0:0:0:
256,192,216919,1,8,0:0:0:0:
256,192,217002,1,8,0:0:0:0:
256,192,217085,1,0,0:0:0:0:
256,192,217169,1,8,0:0:0:0:
256,192,217252,1,8,0:0:0:0:
256,192,217335,1,0,0:0:0:0:
256,192,217419,1,0,0:0:0:0:
256,192,217502,1,0,0:0:0:0:
256,192,217585,1,8,0:0:0:0:
256,192,217669,1,0,0:0:0:0:
256,192,217752,1,0,0:0:0:0:
256,192,217835,1,0,0:0:0:0:
256,192,217919,1,8,0:0:0:0:
256,192,218002,1,0,0:0:0:0:
256,192,218085,1,0,0:0:0:0:
256,192,218169,1,8,0:0:0:0:
256,192,218252,1,8,0:0:0:0:
256,192,218335,1,0,0:0:0:0:
256,192,218419,1,8,0:0:0:0:
256,192,218502,1,8,0:0:0:0:
256,192,218585,1,8,0:0:0:0:
256,192,218669,1,0,0:0:0:0:
256,192,218724,1,0,0:0:0:0:
256,192,218780,1,0,0:0:0:0:
256,192,218835,1,8,0:0:0:0:
256,192,218891,1,0,0:0:0:0:
256,192,218947,1,8,0:0:0:0:
256,192,219002,1,0,0:0:0:0:
256,192,219058,1,0,0:0:0:0:
256,192,219113,1,0,0:0:0:0:
256,192,219169,1,8,0:0:0:0:
256,192,219224,1,8,0:0:0:0:
256,192,219280,1,8,0:0:0:0:
256,192,219335,1,0,0:0:0:0:
256,192,219419,1,0,0:0:0:0:
256,192,219502,1,8,0:0:0:0:
256,192,219585,1,8,0:0:0:0:
256,192,219669,1,0,0:0:0:0:
256,192,219724,1,0,0:0:0:0:
256,192,219780,1,8,0:0:0:0:
256,192,219835,1,0,0:0:0:0:
256,192,219891,1,8,0:0:0:0:
256,192,219947,1,0,0:0:0:0:
256,192,220002,1,8,0:0:0:0:
256,192,220058,1,0,0:0:0:0:
256,192,220113,1,0,0:0:0:0:
256,192,220169,1,8,0:0:0:0:
256,192,220224,1,0,0:0:0:0:
256,192,220280,1,0,0:0:0:0:
256,192,220335,1,8,0:0:0:0:
256,192,220391,1,8,0:0:0:0:
256,192,220447,1,0,0:0:0:0:
256,192,220502,1,8,0:0:0:0:
256,192,220558,1,0,0:0:0:0:
256,192,220613,1,0,0:0:0:0:
256,192,220669,1,8,0:0:0:0:
256,192,220752,1,8,0:0:0:0:
256,192,220835,1,0,0:0:0:0:
256,192,220919,1,0,0:0:0:0:
256,192,221002,1,8,0:0:0:0:
256,192,221085,1,0,0:0:0:0:
256,192,221169,1,0,0:0:0:0:
256,192,221252,1,0,0:0:0:0:
256,192,221335,1,0,0:0:0:0:
256,192,221391,1,0,0:0:0:0:
256,192,221447,1,0,0:0:0:0:
256,192,221502,1,8,0:0:0:0:
256,192,221558,1,8,0:0:0:0:
256,192,221613,1,8,0:0:0:0:
256,192,221669,1,0,0:0:0:0:
256,192,221724,1,0,0:0:0:0:
256,192,221780,1,0,0:0:0:0:
256,192,221835,1,8,0:0:0:0:
256,192,221891,1,8,0:0:0:0:
256,192,221947,1,8,0:0:0:0:
256,192,222002,1,0,0:0:0:0:
256,192,222058,1,0,0:0:0:0:
256,192,222113,1,8,0:0:0:0:
256,192,222169,1,0,0:0:0:0:
256,192,222224,1,0,0:0:0:0:
256,192,222280,1,8,0:0:0:0:
256,192,222335,1,0,0:0:0:0:
256,192,222419,1,0,0:0:0:0:
256,192,222502,1,8,0:0:0:0:
256,192,222585,1,8,0:0:0:0:
256,192,222669,1,0,0:0:0:0:
256,192,222724,1,0,0:0:0:0:
256,192,222780,1,0,0:0:0:0:
256,192,222835,1,8,0:0:0:0:
256,192,222891,1,8,0:0:0:0:
256,192,222947,1,8,0:0:0:0:
256,192,223002,1,0,0:0:0:0:
256,192,223058,1,0,0:0:0:0:
256,192,223113,1,0,0:0:0:0:
256,192,223169,1,8,0:0:0:0:
256,192,223224,1,8,0:0:0:0:
256,192,223280,1,8,0:0:0:0:
256,192,223335,1,0,0:0:0:0:
256,192,223391,1,8,0:0:0:0:
256,192,223447,1,0,0:0:0:0:
256,192,223502,1,8,0:0:0:0:
256,192,223558,1,8,0:0:0:0:
256,192,223613,1,8,0:0:0:0:
256,192,223669,1,0,0:0:0:0:
256,192,223752,1,8,0:0:0:0:
256,192,223835,1,8,0:0:0:0:
256,192,223919,1,8,0:0:0:0:
256,192,224002,1,0,0:0:0:0:
256,192,224085,1,0,0:0:0:0:
256,192,224169,1,0,0:0:0:0:
256,192,224252,1,0,0:0:0:0:
256,192,224335,1,8,0:0:0:0:
256,192,224419,1,8,0:0:0:0:
256,192,224502,1,8,0:0:0:0:
256,192,224585,1,8,0:0:0:0:
256,192,224669,1,0,0:0:0:0:
256,192,224752,1,0,0:0:0:0:
256,192,224835,1,0,0:0:0:0:
256,192,224919,1,0,0:0:0:0:
256,192,225002,1,8,0:0:0:0:
256,192,225085,1,8,0:0:0:0:
256,192,225169,1,8,0:0:0:0:
256,192,225252,1,8,0:0:0:0:
256,192,225335,1,0,0:0:0:0:
256,192,225419,1,0,0:0:0:0:
256,192,225502,1,8,0:0:0:0:
256,192,225585,1,0,0:0:0:0:
256,192,225669,1,8,0:0:0:0:
256,192,225752,1,8,0:0:0:0:
256,192,225835,1,0,0:0:0:0:
256,192,225919,1,8,0:0:0:0:
256,192,226002,1,8,0:0:0:0:
256,192,226085,1,0,0:0:0:0:
256,192,226169,1,8,0:0:0:0:
256,192,226252,1,8,0:0:0:0:
256,192,226335,1,0,0:0:0:0:
256,192,226419,1,8,0:0:0:0:
256,192,226502,1,8,0:0:0:0:
256,192,226585,1,8,0:0:0:0:
256,192,226669,1,8,0:0:0:0:
256,192,226752,1,0,0:0:0:0:
256,192,226835,1,8,0:0:0:0:
256,192,226891,1,8,0:0:0:0:
256,192,226947,1,0,0:0:0:0:
256,192,227002,1,8,0:0:0:0:
256,192,227085,1,8,0:0:0:0:
256,192,227169,1,0,0:0:0:0:
256,192,227252,1,0,0:0:0:0:
256,192,227335,1,8,0:0:0:0:
256,192,227419,1,0,0:0:0:0:
256,192,227502,1,8,0:0:0:0:
256,192,227558,1,0,0:0:0:0:
256,192,227613,1,0,0:0:0:0:
256,192,227669,1,8,0:0:0:0:
256,192,227724,1,8,0:0:0:0:
256,192,227780,1,0,0:0:0:0:
256,192,227835,1,8,0:0:0:0:
256,192,227891,1,0,0:0:0:0:
256,192,227947,1,8,0:0:0:0:
256,192,228002,1,8,0:0:0:0:
256,192,228085,1,0,0:0:0:0:
256,192,228169,1,0,0:0:0:0:
256,192,228252,1,8,0:0:0:0:
256,192,228335,1,8,0:0:0:0:
256,192,228419,1,0,0:0:0:0:
256,192,228502,1,8,0:0:0:0:
256,192,228585,1,8,0:0:0:0:
256,192,228669,1,8,0:0:0:0:
256,192,228752,1,0,0:0:0:0:
256,192,228835,1,0,0:0:0:0:
256,192,228919,1,8,0:0:0:0:
256,192,229002,1,8,0:0:0:0:
256,192,229085,1,0,0:0:0:0:
256,192,229169,1,8,0:0:0:0:
256,192,229252,1,8,0:0:0:0:
256,192,229335,1,8,0:0:0:0:
256,192,229419,1,0,0:0:0:0:
256,192,229502,1,0,0:0:0:0:
256,192,229558,1,0,0:0:0:0:
256,192,229613,1,8,0:0:0:0:
256,192,229669,1,8,0:0:0:0:
256,192,229752,1,0,0:0:0:0:
256,192,229835,1,0,0:0:0:0:
256,192,229891,1,8,0:0:0:0:
256,192,229947,1,0,0:0:0:0:
256,192,230002,1,8,0:0:0:0:
256,192,230085,1,0,0:0:0:0:
256,192,230169,1,0,0:0:0:0:
256,192,230252,1,8,0:0:0:0:
256,192,230335,1,0,0:0:0:0:
256,192,230419,1,0,0:0:0:0:
256,192,230502,1,8,0:0:0:0:
256,192,230585,1,8,0:0:0:0:
256,192,230669,1,0,0:0:0:0:
256,192,230752,1,0,0:0:0:0:
256,192,230835,1,8,0:0:0:0:
256,192,230919,1,0,0:0:0:0:
256,192,231002,1,8,0:0:0:0:
256,192,231058,1,8,0:0:0:0:
256,192,231113,1,0,0:0:0:0:
256,192,231169,1,0,0:0:0:0:
256,192,231252,1,0,0:0:0:0:
256,192,231335,1,8,0:0:0:0:
256,192,231391,1,0,0:0:0:0:
256,192,231447,1,0,0:0:0:0:
256,192,231502,1,8,0:0:0:0:
256,192,231585,1,0,0:0:0:0:
256,192,231669,1,0,0:0:0:0:
256,192,231724,1,0,0:0:0:0:
256,192,231780,1,0,0:0:0:0:
256,192,231835,1,8,0:0:0:0:
256,192,231891,1,8,0:0:0:0:
256,192,231947,1,8,0:0:0:0:
256,192,232002,1,0,0:0:0:0:
256,192,232085,1,8,0:0:0:0:
256,192,232169,1,0,0:0:0:0:
256,192,232252,1,8,0:0:0:0:
256,192,232335,1,8,0:0:0:0:
256,192,232419,1,0,0:0:0:0:
256,192,232502,1,0,0:0:0:0:
256,192,232585,1,8,0:0:0:0:
256,192,232669,1,0,0:0:0:0:
256,192,232752,1,0,0:0:0:0:
256,192,232835,1,8,0:0:0:0:
256,192,232919,1,0,0:0:0:0:
256,192,233002,1,0,0:0:0:0:
256,192,233085,1,8,0:0:0:0:
256,192,233169,1,8,0:0:0:0:
256,192,233224,1,0,0:0:0:0:
256,192,233280,1,0,0:0:0:0:
256,192,233335,1,8,0:0:0:0:
256,192,233419,1,0,0:0:0:0:
256,192,233502,1,8,0:0:0:0:
256,192,233585,1,0,0:0:0:0:
256,192,233669,1,8,0:0:0:0:
256,192,233752,1,8,0:0:0:0:
256,192,233835,1,0,0:0:0:0:
256,192,233919,1,0,0:0:0:0:
256,192,234002,1,8,0:0:0:0:
256,192,234085,1,0,0:0:0:0:
256,192,234169,1,0,0:0:0:0:
256,192,234252,1,8,0:0:0:0:
256,192,234335,1,0,0:0:0:0:
256,192,234419,1,0,0:0:0:0:
256,192,234502,1,8,0:0:0:0:
256,192,234585,1,8,0:0:0:0:
256,192,234669,1,8,0:0:0:0:
256,192,234724,1,0,0:0:0:0:
256,192,234780,1,0,0:0:0:0:
256,192,234835,1,8,0:0:0:0:
256,192,234891,1,0,0:0:0:0:
256,192,234947,1,0,0:0:0:0:
256,192,235002,1,8,0:0:0:0:
256,192,235058,1,8,0:0:0:0:
256,192,235113,1,0,0:0:0:0:
256,192,235169,1,8,0:0:0:0:
256,192,235224,1,0,0:0:0:0:
256,192,235280,1,0,0:0:0:0:
256,192,235335,1,8,0:0:0:0:
256,192,235391,1,0,0:0:0:0:
256,192,235447,1,0,0:0:0:0:
256,192,235502,1,8,0:0:0:0:
256,192,235558,1,8,0:0:0:0:
256,192,235613,1,0,0:0:0:0:
256,192,235669,1,0,0:0:0:0:
256,192,235724,1,8,0:0:0:0:
256,192,235780,1,8,0:0:0:0:
256,192,235835,1,0,0:0:0:0:
256,192,235891,1,8,0:0:0:0:
256,192,235947,1,8,0:0:0:0:
256,192,236002,1,8,0:0:0:0:
256,192,236058,1,0,0:0:0:0:
256,192,236113,1,0,0:0:0:0:
256,192,236169,1,8,0:0:0:0:
256,192,236224,1,8,0:0:0:0:
256,192,236280,1,0,0:0:0:0:
256,192,236335,1,8,0:0:0:0:
256,192,236391,1,0,0:0:0:0:
256,192,236447,1,0,0:0:0:0:
256,192,236502,1,8,0:0:0:0:
256,192,236558,1,0,0:0:0:0:
256,192,236613,1,0,0:0:0:0:
256,192,236669,1,8,0:0:0:0:
256,192,236752,1,8,0:0:0:0:
256,192,236835,1,0,0:0:0:0:
256,192,236919,1,0,0:0:0:0:
256,192,237002,1,8,0:0:0:0:
256,192,237085,1,0,0:0:0:0:
256,192,237169,1,8,0:0:0:0:
256,192,237252,1,8,0:0:0:0:
256,192,237335,1,0,0:0:0:0:
256,192,237419,1,0,0:0:0:0:
256,192,237502,1,0,0:0:0:0:
256,192,237585,1,8,0:0:0:0:
256,192,237669,1,0,0:0:0:0:
256,192,237752,1,0,0:0:0:0:
256,192,237835,1,0,0:0:0:0:
256,192,237919,1,8,0:0:0:0:
256,192,238002,1,8,0:0:0:0:
256,192,238085,1,0,0:0:0:0:
256,192,238169,1,0,0:0:0:0:
256,192,238252,1,8,0:0:0:0:
256,192,238335,1,8,0:0:0:0:
256,192,238419,1,0,0:0:0:0:
256,192,238502,1,8,0:0:0:0:
256,192,238585,1,8,0:0:0:0:
256,192,238669,1,0,0:0:0:0:
256,192,238752,1,0,0:0:0:0:
256,192,238835,1,0,0:0:0:0:
256,192,238919,1,8,0:0:0:0:
256,192,239002,1,0,0:0:0:0:
256,192,239085,1,0,0:0:0:0:
256,192,239169,1,0,0:0:0:0:
256,192,239252,1,8,0:0:0:0:
256,192,239335,1,8,0:0:0:0:
256,192,239419,1,0,0:0:0:0:
256,192,239502,1,0,0:0:0:0:
256,192,239585,1,8,0:0:0:0:
256,192,239669,1,8,0:0:0:0:
256,192,239752,1,0,0:0:0:0:
256,192,239835,1,8,0:0:0:0:
256,192,239919,1,8,0:0:0:0:
256,192,240002,1,0,0:0:0:0:
256,192,240058,1,0,0:0:0:0:
256,192,240113,1,0,0:0:0:0:
256,192,240169,1,8,0:0:0:0:
256,192,240224,1,8,0:0:0:0:
256,192,240280,1,8,0:0:0:0:
256,192,240335,1,0,0:0:0:0:
256,192,240391,1,0,0:0:0:0:
256,192,240447,1,8,0:0:0:0:
256,192,240502,1,0,0:0:0:0:
256,192,240558,1,8,0:0:0:0:
256,192,240613,1,8,0:0:0:0:
256,192,240669,1,0,0:0:0:0:
256,192,240752,1,8,0:0:0:0:
256,192,240835,1,8,0:0:0:0:
256,192,240919,1,8,0:0:0:0:
256,192,241002,1,0,0:0:0:0:
256,192,241085,1,8,0:0:0:0:
256,192,241169,1,8,0:0:0:0:
256,192,241252,1,0,0:0:0:0:
256,192,241335,1,8,0:0:0:0:
256,192,241391,1,8,0:0:0:0:
256,192,241447,1,0,0:0:0:0:
256,192,241502,1,8,0:0:0:0:
256,192,241558,1,0,0:0:0:0:
256,192,241613,1,0,0:0:0:0:
256,192,241669,1,8,0:0:0:0:
256,192,241724,1,8,0:0:0:0:
256,192,241780,1,0,0:0:0:0:
256,192,241835,1,8,0:0:0:0:
256,192,241891,1,0,0:0:0:0:
256,192,241947,1,0,0:0:0:0:
256,192,242002,1,8,0:0:0:0:
256,192,242058,1,8,0:0:0:0:
256,192,242113,1,0,0:0:0:0:
256,192,242169,1,8,0:0:0:0:
256,192,242224,1,0,0:0:0:0:
256,192,242280,1,0,0:0:0:0:
256,192,242335,1,8,0:0:0:0:
256,192,242391,1,0,0:0:0:0:
256,192,242447,1,0,0:0:0:0:
256,192,242502,1,0,0:0:0:0:
256,192,242558,1,8,0:0:0:0:
256,192,242613,1,0,0:0:0:0:
256,192,242669,1,0,0:0:0:0:
256,192,242752,1,0,0:0:0:0:
256,192,242835,1,0,0:0:0:0:
256,192,242919,1,8,0:0:0:0:
256,192,243002,1,0,0:0:0:0:
256,192,243085,1,0,0:0:0:0:
256,192,243169,1,8,0:0:0:0:
256,192,243252,1,0,0:0:0:0:
256,192,243335,1,8,0:0:0:0:
256,192,243419,1,0,0:0:0:0:
256,192,243502,1,0,0:0:0:0:
256,192,243585,1,8,0:0:0:0:
256,192,243669,1,0,0:0:0:0:
256,192,243752,1,8,0:0:0:0:
256,192,243835,1,8,0:0:0:0:
256,192,243919,1,8,0:0:0:0:
256,192,244002,1,0,0:0:0:0:
256,192,244085,1,0,0:0:0:0:
256,192,244169,1,0,0:0:0:0:
256,192,244252,1,8,0:0:0:0:
256,192,244335,1,0,0:0:0:0:
256,192,244419,1,0,0:0:0:0:
256,192,244502,1,8,0:0:0:0:
256,192,244585,1,8,0:0:0:0:
256,192,244669,1,8,0:0:0:0:
256,192,244752,1,0,0:0:0:0:
256,192,244835,1,0,0:0:0:0:
256,192,244919,1,8,0:0:0:0:
256,192,245002,1,0,0:0:0:0:
256,192,245058,1,8,0:0:0:0:
256,192,245113,1,0,0:0:0:0:
256,192,245169,1,8,0:0:0:0:
256,192,245224,1,8,0:0:0:0:
256,192,245280,1,0,0:0:0:0:
256,192,245335,1,8,0:0:0:0:
256,192,245391,1,8,0:0:0:0:
256,192,245447,1,8,0:0:0:0:
256,192,245502,1,0,0:0:0:0:
256,192,245558,1,0,0:0:0:0:
256,192,245613,1,0,0:0:0:0:
256,192,245669,1,8,0:0:0:0:
256,192,245724,1,8,0:0:0:0:
256,192,245780,1,0,0:0:0:0:
256,192,245835,1,8,0:0:0:0:
256,192,245891,1,0,0:0:0:0:
256,192,245947,1,0,0:0:0:0:
256,192,246002,1,8,0:0:0:0:
256,192,246058,1,8,0:0:0:0:
256,192,246113,1,0,0:0:0:0:
256,192,246169,1,8,0:0:0:0:
256,192,246224,1,0,0:0:0:0:
256,192,246280,1,0,0:0:0:0:
256,192,246335,1,8,0:0:0:0:
256,192,246419,1,0,0:0:0:0:
256,192,246502,1,0,0:0:0:0:
256,192,246585,1,8,0:0:0:0:
256,192,246669,1,0,0:0:0:0:
256,192,246724,1,0,0:0:0:0:
256,192,246780,1,0,0:0:0:0:
256,192,246835,1,8,0:0:0:0:
256,192,246891,1,8,0:0:0:0:
256,192,246947,1,8,0:0:0:0:
256,192,247002,1,0,0:0:0:0:
256,192,247058,1,0,0:0:0:0:
256,192,247113,1,8,0:0:0:0:
256,192,247169,1,0,0:0:0:0:
256,192,247224,1,8,0:0:0:0:
256,192,247280,1,8,0:0:0:0:
256,192,247335,1,0,0:0:0:0:
256,192,247391,1,8,0:0:0:0:
256,192,247447,1,0,0:0:0:0:
256,192,247502,1,8,0:0:0:0:
256,192,247558,1,8,0:0:0:0:
256,192,247613,1,8,0:0:0:0:
256,192,247669,1,0,0:0:0:0:
256,192,247724,1,0,0:0:0:0:
256,192,247780,1,8,0:0:0:0:
256,192,247835,1,0,0:0:0:0:
256,192,247891,1,8,0:0:0:0:
256,192,247947,1,8,0:0:0:0:
256,192,248002,1,0,0:0:0:0:
256,192,248085,1,0,0:0:0:0:
256,192,248169,1,0,0:0:0:0:
256,192,248252,1,8,0:0:0:0:
256,192,248335,1,0,0:0:0:0:
256,192,248419,1,0,0:0:0:0:
256,192,248502,1,0,0:0:0:0:
256,192,248585,1,8,0:0:0:0:
256,192,248669,1,0,0:0:0:0:
256,192,248752,1,0,0:0:0:0:
256,192,248835,1,8,0:0:0:0:
256,192,248919,1,8,0:0:0:0:
256,192,249002,1,8,0:0:0:0:
256,192,249085,1,0,0:0:0:0:
256,192,249169,1,8,0:0:0:0:
256,192,249252,1,8,0:0:0:0:
256,192,249335,1,0,0:0:0:0:
256,192,249419,1,0,0:0:0:0:
256,192,249502,1,0,0:0:0:0:
256,192,249585,1,8,0:0:0:0:
256,192,249669,1,0,0:0:0:0:
256,192,249752,1,0,0:0:0:0:
256,192,249835,1,0,0:0:0:0:
256,192,249919,1,8,0:0:0:0:
256,192,250002,1,0,0:0:0:0:
256,192,250085,1,0,0:0:0:0:
256,192,250169,1,8,0:0:0:0:
256,192,250252,1,8,0:0:0:0:
256,192,250335,1,0,0:0:0:0:
256,192,250419,1,8,0:0:0:0:
256,192,250502,1,8,0:0:0:0:
256,192,250585,1,8,0:0:0:0:
256,192,250669,1,0,0:0:0:0:
256,192,250724,1,0,0:0:0:0:
256,192,250780,1,0,0:0:0:0:
256,192,250835,1,8,0:0:0:0:
256,192,250891,1,0,0:0:0:0:
256,192,250947,1,8,0:0:0:0:
256,192,251002,1,0,0:0:0:0:
256,192,251058,1,0,0:0:0:0:
256,192,251113,1,0,0:0:0:0:
256,192,251169,1,8,0:0:0:0:
256,192,251224,1,8,0:0:0:0:
256,192,251280,1,8,0:0:0:0:
256,192,251335,1,0,0:0:0:0:
256,192,251419,1,0,0:0:0:0:
256,192,251502,1,8,0:0:0:0:
256,192,251585,1,8,0:0:0:0:
256,192,251669,1,0,0:0:0:0:
256,192,251724,1,0,0:0:0:0:
256,192,251780,1,8,0:0:0:0:
256,192,251835,1,0,0:0:0:0:
256,192,251891,1,8,0:0:0:0:
256,192,251947,1,0,0:0:0:0:
256,192,252002,1,8,0:0:0:0:
256,192,252058,1,0,0:0:0:0:
256,192,252113,1,0,0:0:0:0:
256,192,252169,1,8,0:0:0:0:
256,192,252224,1,0,0:0:0:0:
256,192,252280,1,0,0:0:0:0:
256,192,252335,1,8,0:0:0:0:
256,192,252391,1,8,0:0:0:0:
256,192,252447,1,0,0:0:0:0:
256,192,252502,1,8,0:0:0:0:
256,192,252558,1,0,0:0:0:0:
256,192,252613,1,0,0:0:0:0:
256,192,252669,1,8,0:0:0:0:
256,192,252752,1,8,0:0:0:0:
256,192,252835,1,0,0:0:0:0:
256,192,252919,1,0,0:0:0:0:
256,192,253002,1,8,0:0:0:0:
256,192,253085,1,0,0:0:0:0:
256,192,253169,1,0,0:0:0:0:
256,192,253252,1,0,0:0:0:0:
256,192,253335,1,0,0:0:0:0:
256,192,253391,1,0,0:0:0:0:
256,192,253447,1,0,0:0:0:0:
256,192,253502,1,8,0:0:0:0:
256,192,253558,1,8,0:0:0:0:
256,192,253613,1,8,0:0:0:0:
256,192,253669,1,0,0:0:0:0:
256,192,253724,1,0,0:0:0:0:
256,192,253780,1,0,0:0:0:0:
256,192,253835,1,8,0:0:0:0:
256,192,253891,1,8,0:0:0:0:
256,192,253947,1,8,0:0:0:0:
256,192,254002,1,0,0:0:0:0:
256,192,254058,1,0,0:0:0:0:
256,192,254113,1,8,0:0:0:0:
256,192,254169,1,0,0:0:0:0:
256,192,254224,1,0,0:0:0:0:
256,192,254280,1,8,0:0:0:0:
256,192,254335,1,0,0:0:0:0:
256,192,254419,1,0,0:0:0:0:
256,192,254502,1,8,0:0:0:0:
256,192,254585,1,8,0:0:0:0:
256,192,254669,1,0,0:0:0:0:
256,192,254724,1,0,0:0:0:0:
256,192,254780,1,0,0:0:0:0:
256,192,254835,1,8,0:0:0:0:
256,192,254891,1,8,0:0:0:0:
256,192,254947,1,8,0:0:0:0:
256,192,255002,1,0,0:0:0:0:
256,192,255058,1,0,0:0:0:0:
256,192,255113,1,0,0:0:0:0:
256,192,255169,1,8,0:0:0:0:
256,192,255224,1,8,0:0:0:0:
256,192,255280,1,8,0:0:0:0:
256,192,255335,1,0,0:0:0:0:
256,192,255391,1,8,0:0:0:0:
256,192,255447,1,0,0:0:0:0:
256,192,255502,1,8,0:0:0:0:
256,192,255558,1,8,0:0:0:0:
256,192,255613,1,8,0:0:0:0:
256,192,255669,1,0,0:0:0:0:
256,192,255752,1,8,0:0:0:0:
256,192,255835,1,8,0:0:0:0:
256,192,255919,1,8,0:0:0:0:
256,192,256002,1,0,0:0:0:0:
256,192,256085,1,0,0:0:0:0:
256,192,256169,1,0,0:0:0:0:
256,192,256252,1,0,0:0:0:0:
256,192,256335,1,8,0:0:0:0:
256,192,256419,1,8,0:0:0:0:
256,192,256502,1,8,0:0:0:0:
256,192,256585,1,8,0:0:0:0:
256,192,256669,1,0,0:0:0:0:
256,192,256752,1,0,0:0:0:0:
256,192,256835,1,0,0:0:0:0:
256,192,256919,1,0,0:0:0:0:
256,192,257002,1,8,0:0:0:0:
256,192,257085,1,8,0:0:0:0:
256,192,257169,1,8,0:0:0:0:
256,192,257252,1,8,0:0:0:0:
256,192,257335,1,0,0:0:0:0:
256,192,257419,1,0,0:0:0:0:
256,192,257502,1,8,0:0:0:0:
256,192,257585,1,0,0:0:0:0:
256,192,257669,1,8,0:0:0:0:
256,192,257752,1,8,0:0:0:0:
256,192,257835,1,0,0:0:0:0:
256,192,257919,1,8,0:0:0:0:
256,192,258002,1,8,0:0:0:0:
256,192,258085,1,0,0:0:0:0:
256,192,258169,1,8,0:0:0:0:
256,192,258252,1,8,0:0:0:0:
256,192,258335,1,0,0:0:0:0:
256,192,258419,1,8,0:0:0:0:
256,192,258502,1,8,0:0:0:0:
256,192,258585,1,8,0:0:0:0:
256,192,258669,1,8,0:0:0:0:
256,192,258752,1,0,0:0:0:0:
256,192,258835,1,8,0:0:0:0:
256,192,258891,1,8,0:0:0:0:
256,192,258947,1,0,0:0:0:0:
256,192,259002,1,8,0:0:0:0:
256,192,259085,1,8,0:0:0:0:
256,192,259169,1,0,0:0:0:0:
256,192,259252,1,0,0:0:0:0:
256,192,259335,1,8,0:0:0:0:
256,192,259419,1,0,0:0:0:0:
256,192,259502,1,8,0:0:0:0:
256,192,259558,1,0,0:0:0:0:
256,192,259613,1,0,0:0:0:0:
256,192,259669,1,8,0:0:0:0:
256,192,259724,1,8,0:0:0:0:
256,192,259780,1,0,0:0:0:0:
256,192,259835,1,8,0:0:0:0:
256,192,259891,1,0,0:0:0:0:
256,192,259947,1,8,0:0:0:0:
256,192,260002,1,8,0:0:0:0:
256,192,260085,1,0,0:0:0:0:
256,192,260169,1,0,0:0:0:0:
256,192,260252,1,8,0:0:0:0:
256,192,260335,1,8,0:0:0:0:
256,192,260419,1,0,0:0:0:0:
256,192,260502,1,8,0:0:0:0:
256,192,260585,1,8,0:0:0:0:
256,192,260669,1,8,0:0:0:0:
256,192,260752,1,0,0:0:0:0:
256,192,260835,1,0,0:0:0:0:
256,192,260919,1,8,0:0:0:0:
256,192,261002,1,8,0:0:0:0:
256,192,261085,1,0,0:0:0:0:
256,192,261169,1,8,0:0:0:0:
256,192,261252,1,8,0:0:0:0:
256,192,261335,1,8,0:0:0:0:
256,192,261419,1,0,0:0:0:0:
256,192,261502,1,0,0:0:0:0:
256,192,261558,1,0,0:0:0:0:
256,192,261613,1,8,0:0:0:0:
256,192,261669,1,8,0:0:0:0:
256,192,261752,1,0,0:0:0:0:
256,192,261835,1,0,0:0:0:0:
256,192,261891,1,8,0:0:0:0:
256,192,261947,1,0,0:0:0:0:
256,192,262002,1,8,0:0:0:0:
256,192,262085,1,0,0:0:0:0:
256,192,262169,1,0,0:0:0:0:
256,192,262252,1,8,0:0:0:0:
256,192,262335,1,0,0:0:0:0:
256,192,262419,1,0,0:0:0:0:
256,192,262502,1,8,0:0:0:0:
256,192,262585,1,8,0:0:0:0:
256,192,262669,1,0,0:0:0:0:
256,192,262752,1,0,0:0:0:0:
256,192,262835,1,8,0:0:0:0:
256,192,262919,1,0,0:0:0:0:
256,192,263002,1,8,0:0:0:0:
256,192,263058,1,8,0:0:0:0:
256,192,263113,1,0,0:0:0:0:
256,192,263169,1,0,0:0:0:0:
256,192,263252,1,0,0:0:0:0:
256,192,263335,1,8,0:0:0:0:
256,192,263391,1,0,0:0:0:0:
256,192,263447,1,0,0:0:0:0:
256,192,263502,1,8,0:0:0:0:
256,192,263585,1,0,0:0:0:0:
256,192,263669,1,0,0:0:0:0:
256,192,263724,1,0,0:0:0:0:
256,192,263780,1,0,0:0:0:0:
256,192,263835,1,8,0:0:0:0:
256,192,263891,1,8,0:0:0:0:
256,192,263947,1,8,0:0:0:0:
256,192,264002,1,0,0:0:0:0:
256,192,264085,1,8,0:0:0:0:
256,192,264169,1,0,0:0:0:0:
256,192,264252,1,8,0:0:0:0:
256,192,264335,1,8,0:0:0:0:
256,192,264419,1,0,0:0:0:0:
256,192,264502,1,0,0:0:0:0:
256,192,264585,1,8,0:0:0:0:
256,192,264669,1,0,0:0:0:0:
256,192,264752,1,0,0:0:0:0:
256,192,264835,1,8,0:0:0:0:
256,192,264919,1,0,0:0:0:0:
256,192,265002,1,0,0:0:0:0:
256,192,265085,1,8,0:0:0:0:
256,192,265169,1,8,0:0:0:0:
256,192,265224,1,0,0:0:0:0:
256,192,265280,1,0,0:0:0:0:
256,192,265335,1,8,0:0:0:0:
256,192,265419,1,0,0:0:0:0:
256,192,265502,1,8,0:0:0:0:
256,192,265585,1,0,0:0:0:0:
256,192,265669,1,8,0:0:0:0:
256,192,265752,1,8,0:0:0:0:
256,192,265835,1,0,0:0:0:0:
256,192,265919,1,0,0:0:0:0:
256,192,266002,1,8,0:0:0:0:
256,192,266085,1,0,0:0:0:0:
256,192,266169,1,0,0:0:0:0:
256,192,266252,1,8,0:0:0:0:
256,192,266335,1,0,0:0:0:0:
256,192,266419,1,0,0:0:0:0:
256,192,266502,1,8,0:0:0:0:
256,192,266585,1,8,0:0:0:0:
256,192,266669,1,8,0:0:0:0:
256,192,266724,1,0,0:0:0:0:
256,192,266780,1,0,0:0:0:0:
256,192,266835,1,8,0:0:0:0:
256,192,266891,1,0,0:0:0:0:
256,192,266947,1,0,0:0:0:0:
256,192,267002,1,8,0:0:0:0:
256,192,267058,1,8,0:0:0:0:
256,192,267113,1,0,0:0:0:0:
256,192,267169,1,8,0:0:0:0:
256,192,267224,1,0,0:0:0:0:
256,192,267280,1,0,0:0:0:0:
256,192,267335,1,8,0:0:0:0:
256,192,267391,1,0,0:0:0:0:
256,192,267447,1,0,0:0:0:0:
256,192,267502,1,8,0:0:0:0:
256,192,267558,1,8,0:0:0:0:
256,192,267613,1,0,0:0:0:0:
256,192,267669,1,0,0:0:0:0:
256,192,267724,1,8,0:0:0:0:
256,192,267780,1,8,0:0:0:0:
256,192,267835,1,0,0:0:0:0:
256,192,267891,1,8,0:0:0:0:
256,192,267947,1,8,0:0:0:0:
256,192,268002,1,8,0:0:0:0:
256,192,268058,1,0,0:0:0:0:
256,192,268113,1,0,0:0:0:0:
256,192,268169,5,8,0:0:0:0:
256,192,268224,1,8,0:0:0:0:
256,192,268280,1,0,0:0:0:0:
256,192,268335,1,8,0:0:0:0:
256,192,268391,1,0,0:0:0:0:
256,192,268447,1,0,0:0:0:0:
256,192,268502,1,8,0:0:0:0:
256,192,268558,1,0,0:0:0:0:
256,192,268613,1,0,0:0:0:0:
256,192,268669,1,8,0:0:0:0:
256,192,268752,1,8,0:0:0:0:
256,192,268835,1,0,0:0:0:0:
256,192,268919,1,0,0:0:0:0:
256,192,269002,1,8,0:0:0:0:
256,192,269085,1,0,0:0:0:0:
256,192,269169,1,8,0:0:0:0:
256,192,269252,1,8,0:0:0:0:
256,192,269335,1,0,0:0:0:0:
256,192,269502,1,0,0:0:0:0:
256,192,269669,1,8,0:0:0:0:
256,192,269690,1,0,0:0:0:0:
256,192,269752,1,8,0:0:0:0:
256,192,269773,1,0,0:0:0:0:
256,192,269835,1,8,0:0:0:0:
256,192,269856,1,0,0:0:0:0:
256,192,269919,1,8,0:0:0:0:
256,192,269940,1,0,0:0:0:0:
256,192,270002,1,8,0:0:0:0:
256,192,270169,1,8,0:0:0:0:
256,192,270335,1,0,0:0:0:0:
256,192,270502,1,0,0:0:0:0:
256,192,270669,1,0,0:0:0:0:
256,192,270835,1,0,0:0:0:0:
256,192,271002,1,8,0:0:0:0:
256,192,271023,1,0,0:0:0:0:
256,192,271085,1,8,0:0:0:0:
256,192,271106,1,0,0:0:0:0:
256,192,271169,1,8,0:0:0:0:
256,192,271190,1,0,0:0:0:0:
256,192,271252,1,8,0:0:0:0:
256,192,271273,1,0,0:0:0:0:
256,192,271335,1,8,0:0:0:0:
256,192,271502,1,8,0:0:0:0:
256,192,271669,1,0,0:0:0:0:
256,192,271835,1,0,0:0:0:0:
256,192,272002,1,0,0:0:0:0:
256,192,272169,1,0,0:0:0:0:
256,192,272335,1,8,0:0:0:0:
256,192,272356,1,0,0:0:0:0:
256,192,272419,1,8,0:0:0:0:
256,192,272440,1,0,0:0:0:0:
256,192,272502,1,8,0:0:0:0:
256,192,272523,1,0,0:0:0:0:
256,192,272585,1,8,0:0:0:0:
256,192,272606,1,0,0:0:0:0:
256,192,272669,1,8,0:0:0:0:
256,192,272835,1,8,0:0:0:0:
256,192,273002,1,0,0:0:0:0:
256,192,273169,1,0,0:0:0:0:
256,192,273335,1,0,0:0:0:0:
256,192,273502,1,0,0:0:0:0:
256,192,273669,1,8,0:0:0:0:
256,192,273690,1,0,0:0:0:0:
256,192,273752,1,8,0:0:0:0:
256,192,273773,1,0,0:0:0:0:
256,192,273835,1,8,0:0:0:0:
256,192,273856,1,0,0:0:0:0:
256,192,273919,1,8,0:0:0:0:
256,192,273940,1,0,0:0:0:0:
256,192,274002,1,8,0:0:0:0:
256,192,274169,1,8,0:0:0:0:
256,192,274335,1,0,0:0:0:0:
256,192,274502,1,0,0:0:0:0:
256,192,274669,1,0,0:0:0:0:
256,192,274835,1,0,0:0:0:0:
256,192,275002,1,8,0:0:0:0:
256,192,275023,1,0,0:0:0:0:
256,192,275085,1,8,0:0:0:0:
256,192,275106,1,0,0:0:0:0:
256,192,275169,1,8,0:0:0:0:
256,192,275190,1,0,0:0:0:0:
256,192,275252,1,8,0:0:0:0:
256,192,275273,1,0,0:0:0:0:
256,192,275335,1,8,0:0:0:0:
256,192,275502,1,8,0:0:0:0:
256,192,275669,1,0,0:0:0:0:
256,192,275835,1,0,0:0:0:0:
256,192,276002,1,0,0:0:0:0:
256,192,276169,1,0,0:0:0:0:
256,192,276335,1,8,0:0:0:0:
256,192,276356,1,0,0:0:0:0:
256,192,276419,1,8,0:0:0:0:
256,192,276440,1,0,0:0:0:0:
256,192,276502,1,8,0:0:0:0:
256,192,276523,1,0,0:0:0:0:
256,192,276585,1,8,0:0:0:0:
256,192,276606,1,0,0:0:0:0:
256,192,276669,1,8,0:0:0:0:
256,192,276835,1,8,0:0:0:0:
256,192,277002,1,0,0:0:0:0:
256,192,277169,1,8,0:0:0:0:
256,192,277335,1,8,0:0:0:0:
256,192,277391,1,0,0:0:0:0:
256,192,277447,1,0,0:0:0:0:
256,192,277502,1,8,0:0:0:0:
256,192,277558,1,0,0:0:0:0:
256,192,277613,1,0,0:0:0:0:
256,192,277669,1,8,0:0:0:0:
256,192,277724,1,0,0:0:0:0:
256,192,277780,1,0,0:0:0:0:
256,192,277835,1,8,0:0:0:0:
256,192,277891,1,0,0:0:0:0:
256,192,277947,1,0,0:0:0:0:
256,192,278002,1,8,0:0:0:0:
256,192,278058,1,0,0:0:0:0:
256,192,278113,1,0,0:0:0:0:
256,192,278169,1,8,0:0:0:0:
256,192,278224,1,0,0:0:0:0:
256,192,278280,1,0,0:0:0:0:
256,192,278335,1,8,0:0:0:0:
256,192,278391,1,0,0:0:0:0:
256,192,278447,1,0,0:0:0:0:
256,192,278502,1,8,0:0:0:0:
256,192,278558,1,0,0:0:0:0:
256,192,278613,1,0,0:0:0:0:
256,192,278669,1,8,0:0:0:0:
256,192,278710,1,0,0:0:0:0:
256,192,278752,1,0,0:0:0:0:
256,192,278794,1,0,0:0:0:0:
256,192,278835,1,8,0:0:0:0:
256,192,278877,1,0,0:0:0:0:
256,192,278919,1,0,0:0:0:0:
256,192,278960,1,0,0:0:0:0:
256,192,279002,1,8,0:0:0:0:
256,192,279044,1,0,0:0:0:0:
256,192,279085,1,0,0:0:0:0:
256,192,279127,1,0,0:0:0:0:
256,192,279169,1,8,0:0:0:0:
256,192,279210,1,0,0:0:0:0:
256,192,279252,1,0,0:0:0:0:
256,192,279294,1,0,0:0:0:0:
256,192,279335,1,8,0:0:0:0:
256,192,279377,1,0,0:0:0:0:
256,192,279419,1,0,0:0:0:0:
256,192,279460,1,0,0:0:0:0:
256,192,279502,1,8,0:0:0:0:
256,192,279544,1,0,0:0:0:0:
256,192,279585,1,0,0:0:0:0:
256,192,279627,1,0,0:0:0:0:
256,192,279669,1,8,0:0:0:0:
256,192,279710,1,0,0:0:0:0:
256,192,279752,1,0,0:0:0:0:
256,192,279794,1,0,0:0:0:0:
256,192,279835,1,8,0:0:0:0:
256,192,279877,1,0,0:0:0:0:
256,192,279919,1,0,0:0:0:0:
256,192,279960,1,0,0:0:0:0:
256,192,280002,1,8,0:0:0:0:
256,192,281002,1,8,0:0:0:0:
256,192,281335,1,8,0:0:0:0:
256,192,281669,1,8,0:0:0:0:
256,192,282002,1,0,0:0:0:0:
256,192,282335,1,0,0:0:0:0:
256,192,282669,1,8,0:0:0:0:
256,192,283669,1,8,0:0:0:0:
256,192,284002,1,8,0:0:0:0:
256,192,284283,1,0,0:0:0:0:
256,192,284564,1,0,0:0:0:0:
256,192,284752,1,0,0:0:0:0:
256,192,285152,1,8,0:0:0:0:
256,192,285552,1,0,0:0:0:0:
256,192,287025,1,0,0:0:0:0:
224,192,287882,1,0,0:0:0:0:
224,192,288757,1,8,0:0:0:0:
