osu file format v14

[General]
AudioFilename: audio130.mp3
AudioLeadIn: 0
PreviewTime: 207184
Countdown: 0
SampleSet: None
StackLeniency: 0.7
Mode: 1
LetterboxInBreaks: 0
WidescreenStoryboard: 0

[Editor]
Bookmarks: 84147,108762,133378,157993,182608,207224
DistanceSpacing: 0.8
BeatDivisor: 12
GridSize: 32
TimelineZoom: 3.599998

[Metadata]
Title:End Time
TitleUnicode:End Time
Artist:Cres
ArtistUnicode:Cres
Creator:Konpaku Sariel
Version:applerss die [1.3x Rate]
Source:
Tags:
BeatmapID:1990379
BeatmapSetID:953264

[Difficulty]
HPDrainRate:3
CircleSize:5
OverallDifficulty:9
ApproachRate:5
SliderMultiplier:1.4
SliderTickRate:1

[Events]
//Background and Video events
0,0,"10788225_p0.jpg",0,0
//Break Periods
//Storyboard Layer 0 (Background)
//Storyboard Layer 1 (Fail)
//Storyboard Layer 2 (Pass)
//Storyboard Layer 3 (Foreground)
//Storyboard Sound Samples

[TimingPoints]
1068,256.410256410256,4,1,0,50,1,0
10298,256.410256410256,4,1,0,50,1,0
24656,-83.3333333333333,4,1,0,50,0,0
26195,-66.6666666666667,4,1,0,50,0,0
26772,-100,4,1,0,50,0,0
59528,-83.3333333333333,4,1,0,50,0,1
207221,-83.3333333333333,4,1,0,50,0,0
207477,-47.6190476190476,4,1,0,50,0,0
207493,-50,4,1,0,50,0,0
207541,-47.6190476190476,4,1,0,50,0,0
207557,-50,4,1,0,50,0,0
207605,-47.6190476190476,4,1,0,50,0,0
207621,-50,4,1,0,50,0,0
207669,-47.6190476190476,4,1,0,50,0,0
207685,-50,4,1,0,50,0,0
207733,-83.3333333333333,4,1,0,50,0,0
208503,-47.6190476190476,4,1,0,50,0,0
208519,-50,4,1,0,50,0,0
208567,-47.6190476190476,4,1,0,50,0,0
208583,-50,4,1,0,50,0,0
208631,-47.6190476190476,4,1,0,50,0,0
208647,-50,4,1,0,50,0,0
208695,-47.6190476190476,4,1,0,50,0,0
208711,-50,4,1,0,50,0,0
208759,-83.3333333333333,4,1,0,50,0,0
209528,-47.6190476190476,4,1,0,50,0,0
209544,-50,4,1,0,50,0,0
209592,-47.6190476190476,4,1,0,50,0,0
209608,-50,4,1,0,50,0,0
209656,-47.6190476190476,4,1,0,50,0,0
209672,-50,4,1,0,50,0,0
209721,-47.6190476190476,4,1,0,50,0,0
209737,-50,4,1,0,50,0,0
209785,-83.3333333333333,4,1,0,50,0,0
210554,-47.6190476190476,4,1,0,50,0,0
210570,-50,4,1,0,50,0,0
210618,-47.6190476190476,4,1,0,50,0,0
210634,-50,4,1,0,50,0,0
210682,-47.6190476190476,4,1,0,50,0,0
210698,-50,4,1,0,50,0,0
210746,-47.6190476190476,4,1,0,50,0,0
210762,-50,4,1,0,50,0,0
210810,-83.3333333333333,4,1,0,50,0,0
211580,-47.6190476190476,4,1,0,50,0,0
211596,-50,4,1,0,50,0,0
211644,-47.6190476190476,4,1,0,50,0,0
211660,-50,4,1,0,50,0,0
211708,-47.6190476190476,4,1,0,50,0,0
211724,-50,4,1,0,50,0,0
211772,-47.6190476190476,4,1,0,50,0,0
211788,-50,4,1,0,50,0,0
211836,-83.3333333333333,4,1,0,50,0,0
212605,-47.6190476190476,4,1,0,50,0,0
212621,-50,4,1,0,50,0,0
212669,-47.6190476190476,4,1,0,50,0,0
212685,-50,4,1,0,50,0,0
212733,-47.6190476190476,4,1,0,50,0,0
212749,-50,4,1,0,50,0,0
212797,-47.6190476190476,4,1,0,50,0,0
212814,-50,4,1,0,50,0,0
212862,-83.3333333333333,4,1,0,50,0,0
214400,-66.6666666666667,4,1,0,50,0,0
216195,-100,4,1,0,50,0,0
218503,288.461538461538,4,1,0,50,1,8
219080,307.692307692308,4,1,0,50,1,8
219695,271.493212669683,4,1,0,50,1,0
220238,288.461538461538,4,1,0,50,1,8
220670,318.302387267905,4,1,0,50,1,8
220828,329.67032967033,4,1,0,50,1,0
222065,384.615384615385,4,1,0,50,1,8
222161,384.615384615385,4,1,0,50,1,0

[HitObjects]
256,192,1068,5,0,0:0:0:0:
256,192,1837,1,8,0:0:0:0:
256,192,2093,1,8,0:0:0:0:
256,192,2350,1,8,0:0:0:0:
256,192,2606,1,0,0:0:0:0:
256,192,2862,1,0,0:0:0:0:
256,192,3119,1,8,0:0:0:0:
256,192,3888,1,8,0:0:0:0:
256,192,4144,1,8,0:0:0:0:
256,192,4401,1,8,0:0:0:0:
256,192,4657,1,0,0:0:0:0:
256,192,4914,1,0,0:0:0:0:
256,192,5170,1,0,0:0:0:0:
256,192,6196,1,8,0:0:0:0:
256,192,7221,1,8,0:0:0:0:
256,192,9144,12,8,10170,0:0:0:0:
256,192,10298,5,4,0:0:0:0:
256,192,10426,1,0,0:0:0:0:
256,192,10554,1,8,0:0:0:0:
256,192,10682,1,0,0:0:0:0:
256,192,10810,1,8,0:0:0:0:
256,192,10939,1,8,0:0:0:0:
256,192,11067,1,0,0:0:0:0:
256,192,11195,1,0,0:0:0:0:
256,192,11259,1,0,0:0:0:0:
256,192,11323,1,0,0:0:0:0:
256,192,11451,1,0,0:0:0:0:
256,192,11580,1,8,0:0:0:0:
256,192,11708,1,0,0:0:0:0:
256,192,11836,1,8,0:0:0:0:
256,192,11964,1,8,0:0:0:0:
256,192,12092,1,0,0:0:0:0:
256,192,12221,1,8,0:0:0:0:
256,192,12285,1,8,0:0:0:0:
256,192,12349,1,0,0:0:0:0:
256,192,12477,1,0,0:0:0:0:
256,192,12605,1,8,0:0:0:0:
256,192,12733,1,0,0:0:0:0:
256,192,12862,1,8,0:0:0:0:
256,192,12990,1,8,0:0:0:0:
256,192,13118,1,0,0:0:0:0:
256,192,13246,1,0,0:0:0:0:
256,192,13310,1,0,0:0:0:0:
256,192,13374,1,0,0:0:0:0:
256,192,13503,1,0,0:0:0:0:
256,192,13631,1,8,0:0:0:0:
256,192,13759,1,0,0:0:0:0:
256,192,13887,1,8,0:0:0:0:
256,192,14015,1,8,0:0:0:0:
256,192,14144,1,0,0:0:0:0:
256,192,14272,1,8,0:0:0:0:
256,192,14336,1,8,0:0:0:0:
256,192,14400,1,0,0:0:0:0:
256,192,14528,1,0,0:0:0:0:
256,192,14656,1,8,0:0:0:0:
256,192,14785,1,0,0:0:0:0:
256,192,14913,1,8,0:0:0:0:
256,192,15041,1,8,0:0:0:0:
256,192,15169,1,0,0:0:0:0:
256,192,15298,1,8,0:0:0:0:
256,192,15426,1,0,0:0:0:0:
256,192,15554,1,0,0:0:0:0:
256,192,15682,1,8,0:0:0:0:
256,192,15810,1,0,0:0:0:0:
256,192,15939,1,8,0:0:0:0:
256,192,16067,1,8,0:0:0:0:
256,192,16195,1,0,0:0:0:0:
256,192,16323,1,8,0:0:0:0:
256,192,16387,1,8,0:0:0:0:
256,192,16451,1,0,0:0:0:0:
256,192,16580,1,0,0:0:0:0:
256,192,16708,1,8,0:0:0:0:
256,192,16836,1,0,0:0:0:0:
256,192,16964,1,8,0:0:0:0:
256,192,17092,1,8,0:0:0:0:
256,192,17221,1,0,0:0:0:0:
256,192,17349,1,0,0:0:0:0:
256,192,17477,1,0,0:0:0:0:
256,192,17605,1,0,0:0:0:0:
256,192,17733,1,8,0:0:0:0:
256,192,17862,1,0,0:0:0:0:
256,192,17990,1,8,0:0:0:0:
256,192,18054,1,8,0:0:0:0:
256,192,18182,1,8,0:0:0:0:
256,192,18246,1,8,0:0:0:0:
256,192,18374,1,8,0:0:0:0:
256,192,18439,1,8,0:0:0:0:
256,192,18503,1,0,0:0:0:0:
256,192,18631,1,0,0:0:0:0:
256,192,18695,1,0,0:0:0:0:
256,192,18759,1,8,0:0:0:0:
256,192,18823,1,0,0:0:0:0:
256,192,18887,1,8,0:0:0:0:
256,192,18951,1,0,0:0:0:0:
256,192,19015,1,8,0:0:0:0:
256,192,19080,1,8,0:0:0:0:
256,192,19144,1,0,0:0:0:0:
256,192,19208,1,0,0:0:0:0:
256,192,19272,1,8,0:0:0:0:
256,192,19336,1,0,0:0:0:0:
256,192,19400,1,8,0:0:0:0:
256,192,19464,1,0,0:0:0:0:
256,192,19528,1,0,0:0:0:0:
256,192,19656,1,0,0:0:0:0:
256,192,19721,1,0,0:0:0:0:
256,192,19785,1,8,0:0:0:0:
256,192,19849,1,0,0:0:0:0:
256,192,19913,1,8,0:0:0:0:
256,192,19977,1,0,0:0:0:0:
256,192,20041,1,8,0:0:0:0:
256,192,20105,1,8,0:0:0:0:
256,192,20169,1,0,0:0:0:0:
256,192,20233,1,8,0:0:0:0:
256,192,20298,1,8,0:0:0:0:
256,192,20362,1,0,0:0:0:0:
256,192,20426,1,8,0:0:0:0:
256,192,20490,1,0,0:0:0:0:
256,192,20554,1,0,0:0:0:0:
256,192,20682,1,0,0:0:0:0:
256,192,20746,1,0,0:0:0:0:
256,192,20810,1,8,0:0:0:0:
256,192,20874,1,0,0:0:0:0:
256,192,20939,1,8,0:0:0:0:
256,192,21003,1,0,0:0:0:0:
256,192,21067,1,8,0:0:0:0:
256,192,21131,1,8,0:0:0:0:
256,192,21195,1,0,0:0:0:0:
256,192,21259,1,0,0:0:0:0:
256,192,21323,1,8,0:0:0:0:
256,192,21387,1,8,0:0:0:0:
256,192,21451,1,0,0:0:0:0:
256,192,21515,1,8,0:0:0:0:
256,192,21580,1,0,0:0:0:0:
256,192,21708,1,0,0:0:0:0:
256,192,21772,1,0,0:0:0:0:
256,192,21836,1,8,0:0:0:0:
256,192,21900,1,0,0:0:0:0:
256,192,21964,1,8,0:0:0:0:
256,192,22028,1,0,0:0:0:0:
256,192,22092,1,8,0:0:0:0:
256,192,22156,1,8,0:0:0:0:
256,192,22221,1,0,0:0:0:0:
256,192,22285,1,8,0:0:0:0:
256,192,22349,1,8,0:0:0:0:
256,192,22413,1,0,0:0:0:0:
256,192,22477,1,8,0:0:0:0:
256,192,22541,1,0,0:0:0:0:
256,192,22605,1,0,0:0:0:0:
256,192,22733,1,0,0:0:0:0:
256,192,22798,1,0,0:0:0:0:
256,192,22862,1,8,0:0:0:0:
256,192,22926,1,0,0:0:0:0:
256,192,22990,1,8,0:0:0:0:
256,192,23054,1,0,0:0:0:0:
256,192,23118,1,8,0:0:0:0:
256,192,23182,1,0,0:0:0:0:
256,192,23246,1,8,0:0:0:0:
256,192,23310,1,8,0:0:0:0:
256,192,23374,1,0,0:0:0:0:
256,192,23439,1,0,0:0:0:0:
256,192,23503,1,8,0:0:0:0:
256,192,23567,1,0,0:0:0:0:
256,192,23631,1,0,0:0:0:0:
256,192,23759,1,0,0:0:0:0:
256,192,23823,1,0,0:0:0:0:
256,192,23887,1,8,0:0:0:0:
256,192,23951,1,0,0:0:0:0:
256,192,24015,1,8,0:0:0:0:
256,192,24080,1,0,0:0:0:0:
256,192,24144,1,8,0:0:0:0:
256,192,24208,1,0,0:0:0:0:
256,192,24272,1,8,0:0:0:0:
256,192,24336,1,8,0:0:0:0:
256,192,24400,1,0,0:0:0:0:
256,192,24464,1,0,0:0:0:0:
256,192,24528,1,8,0:0:0:0:
256,192,24592,1,0,0:0:0:0:
256,192,24656,5,8,0:0:0:0:
256,192,24699,1,0,0:0:0:0:
256,192,24742,1,0,0:0:0:0:
256,192,24785,1,8,0:0:0:0:
256,192,24827,1,0,0:0:0:0:
256,192,24870,1,0,0:0:0:0:
256,192,24913,1,8,0:0:0:0:
256,192,24956,1,0,0:0:0:0:
256,192,24998,1,0,0:0:0:0:
256,192,25041,1,8,0:0:0:0:
256,192,25084,1,0,0:0:0:0:
256,192,25127,1,0,0:0:0:0:
256,192,25169,1,8,0:0:0:0:
256,192,25212,1,0,0:0:0:0:
256,192,25255,1,0,0:0:0:0:
256,192,25298,1,8,0:0:0:0:
256,192,25340,1,0,0:0:0:0:
256,192,25383,1,0,0:0:0:0:
256,192,25426,1,8,0:0:0:0:
256,192,25468,1,0,0:0:0:0:
256,192,25511,1,0,0:0:0:0:
256,192,25554,1,8,0:0:0:0:
256,192,25597,1,0,0:0:0:0:
256,192,25639,1,0,0:0:0:0:
256,192,25682,1,8,0:0:0:0:
256,192,25725,1,0,0:0:0:0:
256,192,25768,1,0,0:0:0:0:
256,192,25810,1,8,0:0:0:0:
256,192,25853,1,0,0:0:0:0:
256,192,25896,1,0,0:0:0:0:
256,192,25939,1,8,0:0:0:0:
256,192,25981,1,0,0:0:0:0:
256,192,26024,1,0,0:0:0:0:
256,192,26067,1,8,0:0:0:0:
256,192,26109,1,0,0:0:0:0:
256,192,26152,1,0,0:0:0:0:
256,192,26195,1,8,0:0:0:0:
256,192,26227,1,0,0:0:0:0:
256,192,26259,1,0,0:0:0:0:
256,192,26291,1,0,0:0:0:0:
256,192,26323,1,8,0:0:0:0:
256,192,26355,1,0,0:0:0:0:
256,192,26387,1,0,0:0:0:0:
256,192,26419,1,0,0:0:0:0:
256,192,26451,1,8,0:0:0:0:
256,192,26483,1,0,0:0:0:0:
256,192,26515,1,0,0:0:0:0:
256,192,26548,1,0,0:0:0:0:
256,192,26580,1,8,0:0:0:0:
256,192,26612,1,0,0:0:0:0:
256,192,26644,1,0,0:0:0:0:
256,192,26676,1,0,0:0:0:0:
256,192,26708,1,8,0:0:0:0:
256,192,27477,1,0,0:0:0:0:
256,192,27605,1,8,0:0:0:0:
256,192,27733,1,0,0:0:0:0:
256,192,28503,1,0,0:0:0:0:
256,192,28631,1,8,0:0:0:0:
256,192,28759,1,0,0:0:0:0:
256,192,29528,1,0,0:0:0:0:
256,192,29656,1,8,0:0:0:0:
256,192,29785,1,0,0:0:0:0:
256,192,30298,1,0,0:0:0:0:
256,192,30810,1,0,0:0:0:0:
256,192,31836,1,0,0:0:0:0:
256,192,32349,1,8,0:0:0:0:
256,192,32862,1,0,0:0:0:0:
256,192,33887,1,0,0:0:0:0:
256,192,34913,1,0,0:0:0:0:
256,192,35426,1,8,0:0:0:0:
256,192,35939,1,8,0:0:0:0:
256,192,36451,1,0,0:0:0:0:
256,192,36964,1,8,0:0:0:0:
256,192,37990,1,8,0:0:0:0:
256,192,38503,1,0,0:0:0:0:
256,192,39015,1,0,0:0:0:0:
256,192,39785,1,0,0:0:0:0:
256,192,39913,1,0,0:0:0:0:
256,192,40041,1,8,0:0:0:0:
256,192,40554,1,0,0:0:0:0:
256,192,41067,1,0,0:0:0:0:
256,192,42092,1,8,0:0:0:0:
256,192,42605,1,0,0:0:0:0:
256,192,42669,1,0,0:0:0:0:
256,192,42733,1,0,0:0:0:0:
256,192,42798,1,8,0:0:0:0:
256,192,42862,1,0,0:0:0:0:
256,192,42926,1,0,0:0:0:0:
256,192,42990,1,8,0:0:0:0:
256,192,43054,1,8,0:0:0:0:
256,192,43118,1,8,0:0:0:0:
256,192,43246,1,8,0:0:0:0:
256,192,43310,1,8,0:0:0:0:
256,192,43503,1,8,0:0:0:0:
256,192,43631,1,8,0:0:0:0:
256,192,43695,1,8,0:0:0:0:
256,192,43887,1,8,0:0:0:0:
256,192,44015,1,8,0:0:0:0:
256,192,44144,1,8,0:0:0:0:
256,192,44272,1,8,0:0:0:0:
256,192,44336,1,8,0:0:0:0:
256,192,44528,1,8,0:0:0:0:
256,192,44656,1,8,0:0:0:0:
256,192,44721,1,8,0:0:0:0:
256,192,44913,1,8,0:0:0:0:
256,192,45041,1,8,0:0:0:0:
256,192,45169,1,8,0:0:0:0:
256,192,45298,1,8,0:0:0:0:
256,192,45362,1,8,0:0:0:0:
256,192,45554,1,8,0:0:0:0:
256,192,45682,1,8,0:0:0:0:
256,192,45746,1,8,0:0:0:0:
256,192,45810,1,8,0:0:0:0:
256,192,45939,1,8,0:0:0:0:
256,192,46067,1,8,0:0:0:0:
256,192,46195,1,8,0:0:0:0:
256,192,46323,1,8,0:0:0:0:
256,192,46387,1,8,0:0:0:0:
256,192,46515,1,8,0:0:0:0:
256,192,46580,1,8,0:0:0:0:
256,192,46708,1,8,0:0:0:0:
256,192,46772,1,0,0:0:0:0:
256,192,46836,1,8,0:0:0:0:
256,192,46964,1,8,0:0:0:0:
256,192,47221,1,8,0:0:0:0:
256,192,47349,1,8,0:0:0:0:
256,192,47413,1,8,0:0:0:0:
256,192,47605,1,8,0:0:0:0:
256,192,47733,1,8,0:0:0:0:
256,192,47798,1,8,0:0:0:0:
256,192,47990,1,8,0:0:0:0:
256,192,48118,1,8,0:0:0:0:
256,192,48246,1,8,0:0:0:0:
256,192,48374,1,8,0:0:0:0:
256,192,48439,1,8,0:0:0:0:
256,192,48631,1,8,0:0:0:0:
256,192,48759,1,8,0:0:0:0:
256,192,48823,1,8,0:0:0:0:
256,192,49015,1,8,0:0:0:0:
256,192,49144,1,8,0:0:0:0:
256,192,49272,1,8,0:0:0:0:
256,192,49400,1,8,0:0:0:0:
256,192,49464,1,8,0:0:0:0:
256,192,49592,1,8,0:0:0:0:
256,192,49656,1,8,0:0:0:0:
256,192,49785,1,8,0:0:0:0:
256,192,49849,1,8,0:0:0:0:
256,192,49977,1,8,0:0:0:0:
256,192,50041,1,8,0:0:0:0:
256,192,50105,1,0,0:0:0:0:
256,192,50169,1,8,0:0:0:0:
256,192,50298,1,0,0:0:0:0:
256,192,50426,1,8,0:0:0:0:
256,192,50490,1,0,0:0:0:0:
256,192,50618,1,8,0:0:0:0:
256,192,50682,1,0,0:0:0:0:
256,192,50746,1,8,0:0:0:0:
256,192,50810,1,8,0:0:0:0:
256,192,50939,1,8,0:0:0:0:
256,192,51067,1,0,0:0:0:0:
256,192,51195,1,8,0:0:0:0:
256,192,51323,1,8,0:0:0:0:
256,192,51451,1,8,0:0:0:0:
256,192,51515,1,8,0:0:0:0:
256,192,51580,1,0,0:0:0:0:
256,192,51708,1,8,0:0:0:0:
256,192,51836,1,0,0:0:0:0:
256,192,51900,1,8,0:0:0:0:
256,192,51964,1,8,0:0:0:0:
256,192,52092,1,0,0:0:0:0:
256,192,52221,1,8,0:0:0:0:
256,192,52349,1,8,0:0:0:0:
256,192,52477,1,8,0:0:0:0:
256,192,52541,1,8,0:0:0:0:
256,192,52605,1,0,0:0:0:0:
256,192,52733,1,8,0:0:0:0:
256,192,52862,1,0,0:0:0:0:
256,192,52926,1,8,0:0:0:0:
256,192,52990,1,8,0:0:0:0:
256,192,53054,1,0,0:0:0:0:
256,192,53118,1,8,0:0:0:0:
256,192,53246,1,0,0:0:0:0:
256,192,53374,1,8,0:0:0:0:
256,192,53503,1,8,0:0:0:0:
256,192,53567,1,0,0:0:0:0:
256,192,53631,1,8,0:0:0:0:
256,192,53759,1,8,0:0:0:0:
256,192,53823,1,0,0:0:0:0:
256,192,53887,1,8,0:0:0:0:
256,192,53951,1,0,0:0:0:0:
256,192,54080,1,8,0:0:0:0:
256,192,54144,1,0,0:0:0:0:
256,192,54208,1,0,0:0:0:0:
256,192,54272,1,8,0:0:0:0:
256,192,54400,1,8,0:0:0:0:
256,192,54528,1,8,0:0:0:0:
256,192,54592,1,0,0:0:0:0:
256,192,54656,1,0,0:0:0:0:
256,192,54785,1,8,0:0:0:0:
256,192,54913,1,8,0:0:0:0:
256,192,54977,1,0,0:0:0:0:
256,192,55041,1,8,0:0:0:0:
256,192,55169,1,8,0:0:0:0:
256,192,55298,1,8,0:0:0:0:
256,192,55426,1,8,0:0:0:0:
256,192,55554,1,8,0:0:0:0:
256,192,55618,1,8,0:0:0:0:
256,192,55682,1,0,0:0:0:0:
256,192,55810,1,8,0:0:0:0:
256,192,55874,1,8,0:0:0:0:
256,192,55939,1,0,0:0:0:0:
256,192,56003,1,8,0:0:0:0:
256,192,56131,1,8,0:0:0:0:
256,192,56195,1,0,0:0:0:0:
256,192,56323,1,8,0:0:0:0:
256,192,56451,1,8,0:0:0:0:
256,192,56580,1,8,0:0:0:0:
256,192,56644,1,8,0:0:0:0:
256,192,56708,1,0,0:0:0:0:
256,192,56836,1,8,0:0:0:0:
256,192,56964,1,8,0:0:0:0:
256,192,57028,1,8,0:0:0:0:
256,192,57092,1,0,0:0:0:0:
256,192,57156,1,8,0:0:0:0:
256,192,57221,1,8,0:0:0:0:
256,192,57285,1,8,0:0:0:0:
256,192,57349,1,0,0:0:0:0:
256,192,57477,1,8,0:0:0:0:
256,192,57605,1,8,0:0:0:0:
256,192,57669,1,8,0:0:0:0:
256,192,57733,1,0,0:0:0:0:
256,192,57798,1,8,0:0:0:0:
256,192,57862,1,8,0:0:0:0:
256,192,57990,1,8,0:0:0:0:
256,192,58054,1,0,0:0:0:0:
256,192,58118,1,8,0:0:0:0:
256,192,58246,1,8,0:0:0:0:
256,192,58310,1,0,0:0:0:0:
256,192,58374,1,8,0:0:0:0:
256,192,58503,1,8,0:0:0:0:
256,192,58631,1,8,0:0:0:0:
256,192,58695,1,8,0:0:0:0:
256,192,58759,1,0,0:0:0:0:
256,192,58823,1,8,0:0:0:0:
256,192,58887,1,8,0:0:0:0:
256,192,59015,1,8,0:0:0:0:
256,192,59080,1,0,0:0:0:0:
256,192,59144,1,8,0:0:0:0:
256,192,59272,1,8,0:0:0:0:
256,192,59400,1,8,0:0:0:0:
256,192,59528,1,0,0:0:0:0:
256,192,59592,1,0,0:0:0:0:
256,192,59656,1,0,0:0:0:0:
256,192,59721,1,8,0:0:0:0:
256,192,59785,1,0,0:0:0:0:
256,192,59849,1,0,0:0:0:0:
256,192,59913,1,0,0:0:0:0:
256,192,59977,1,8,0:0:0:0:
256,192,60041,1,8,0:0:0:0:
256,192,60105,1,0,0:0:0:0:
256,192,60169,1,0,0:0:0:0:
256,192,60233,1,8,0:0:0:0:
256,192,60298,1,8,0:0:0:0:
256,192,60362,1,0,0:0:0:0:
256,192,60426,1,8,0:0:0:0:
256,192,60490,1,8,0:0:0:0:
256,192,60554,1,0,0:0:0:0:
256,192,60618,1,0,0:0:0:0:
256,192,60682,1,0,0:0:0:0:
256,192,60746,1,8,0:0:0:0:
256,192,60810,1,0,0:0:0:0:
256,192,60874,1,0,0:0:0:0:
256,192,60939,1,0,0:0:0:0:
256,192,61003,1,8,0:0:0:0:
256,192,61067,1,8,0:0:0:0:
256,192,61131,1,0,0:0:0:0:
256,192,61195,1,0,0:0:0:0:
256,192,61259,1,8,0:0:0:0:
256,192,61323,1,8,0:0:0:0:
256,192,61387,1,0,0:0:0:0:
256,192,61451,1,8,0:0:0:0:
256,192,61515,1,8,0:0:0:0:
256,192,61580,1,0,0:0:0:0:
256,192,61622,1,0,0:0:0:0:
256,192,61665,1,0,0:0:0:0:
256,192,61708,1,8,0:0:0:0:
256,192,61750,1,8,0:0:0:0:
256,192,61793,1,8,0:0:0:0:
256,192,61836,1,0,0:0:0:0:
256,192,61879,1,0,0:0:0:0:
256,192,61921,1,8,0:0:0:0:
256,192,61964,1,0,0:0:0:0:
256,192,62007,1,8,0:0:0:0:
256,192,62050,1,8,0:0:0:0:
256,192,62092,1,0,0:0:0:0:
256,192,62156,1,8,0:0:0:0:
256,192,62221,1,8,0:0:0:0:
256,192,62285,1,8,0:0:0:0:
256,192,62349,1,0,0:0:0:0:
256,192,62413,1,8,0:0:0:0:
256,192,62477,1,8,0:0:0:0:
256,192,62541,1,0,0:0:0:0:
256,192,62605,1,8,0:0:0:0:
256,192,62648,1,8,0:0:0:0:
256,192,62691,1,0,0:0:0:0:
256,192,62733,1,8,0:0:0:0:
256,192,62776,1,0,0:0:0:0:
256,192,62819,1,0,0:0:0:0:
256,192,62862,1,8,0:0:0:0:
256,192,62904,1,8,0:0:0:0:
256,192,62947,1,0,0:0:0:0:
256,192,62990,1,8,0:0:0:0:
256,192,63033,1,0,0:0:0:0:
256,192,63075,1,0,0:0:0:0:
256,192,63118,1,8,0:0:0:0:
256,192,63161,1,8,0:0:0:0:
256,192,63203,1,0,0:0:0:0:
256,192,63246,1,8,0:0:0:0:
256,192,63289,1,0,0:0:0:0:
256,192,63332,1,0,0:0:0:0:
256,192,63374,1,8,0:0:0:0:
256,192,63417,1,0,0:0:0:0:
256,192,63460,1,0,0:0:0:0:
256,192,63503,1,0,0:0:0:0:
256,192,63545,1,8,0:0:0:0:
256,192,63588,1,0,0:0:0:0:
256,192,63631,1,0,0:0:0:0:
256,192,63695,1,0,0:0:0:0:
256,192,63759,1,0,0:0:0:0:
256,192,63823,1,8,0:0:0:0:
256,192,63887,1,0,0:0:0:0:
256,192,63951,1,0,0:0:0:0:
256,192,64015,1,8,0:0:0:0:
256,192,64080,1,0,0:0:0:0:
256,192,64144,1,8,0:0:0:0:
256,192,64208,1,0,0:0:0:0:
256,192,64272,1,0,0:0:0:0:
256,192,64336,1,8,0:0:0:0:
256,192,64400,1,0,0:0:0:0:
256,192,64464,1,8,0:0:0:0:
256,192,64528,1,8,0:0:0:0:
256,192,64592,1,8,0:0:0:0:
256,192,64656,1,0,0:0:0:0:
256,192,64721,1,0,0:0:0:0:
256,192,64785,1,0,0:0:0:0:
256,192,64849,1,8,0:0:0:0:
256,192,64913,1,0,0:0:0:0:
256,192,64977,1,0,0:0:0:0:
256,192,65041,1,8,0:0:0:0:
256,192,65105,1,8,0:0:0:0:
256,192,65169,1,8,0:0:0:0:
256,192,65233,1,0,0:0:0:0:
256,192,65298,1,0,0:0:0:0:
256,192,65362,1,8,0:0:0:0:
256,192,65426,1,0,0:0:0:0:
256,192,65468,1,8,0:0:0:0:
256,192,65511,1,0,0:0:0:0:
256,192,65554,1,8,0:0:0:0:
256,192,65597,1,8,0:0:0:0:
256,192,65639,1,0,0:0:0:0:
256,192,65682,1,8,0:0:0:0:
256,192,65725,1,8,0:0:0:0:
256,192,65768,1,8,0:0:0:0:
256,192,65810,1,0,0:0:0:0:
256,192,65853,1,0,0:0:0:0:
256,192,65896,1,0,0:0:0:0:
256,192,65939,1,8,0:0:0:0:
256,192,65981,1,8,0:0:0:0:
256,192,66024,1,0,0:0:0:0:
256,192,66067,1,8,0:0:0:0:
256,192,66109,1,0,0:0:0:0:
256,192,66152,1,0,0:0:0:0:
256,192,66195,1,8,0:0:0:0:
256,192,66238,1,8,0:0:0:0:
256,192,66280,1,0,0:0:0:0:
256,192,66323,1,8,0:0:0:0:
256,192,66366,1,0,0:0:0:0:
256,192,66409,1,0,0:0:0:0:
256,192,66451,1,8,0:0:0:0:
256,192,66515,1,0,0:0:0:0:
256,192,66580,1,0,0:0:0:0:
256,192,66644,1,8,0:0:0:0:
256,192,66708,1,0,0:0:0:0:
256,192,66750,1,0,0:0:0:0:
256,192,66793,1,0,0:0:0:0:
256,192,66836,1,8,0:0:0:0:
256,192,66879,1,8,0:0:0:0:
256,192,66921,1,8,0:0:0:0:
256,192,66964,1,0,0:0:0:0:
256,192,67007,1,0,0:0:0:0:
256,192,67050,1,8,0:0:0:0:
256,192,67092,1,0,0:0:0:0:
256,192,67135,1,8,0:0:0:0:
256,192,67178,1,8,0:0:0:0:
256,192,67221,1,0,0:0:0:0:
256,192,67263,1,8,0:0:0:0:
256,192,67306,1,0,0:0:0:0:
256,192,67349,1,8,0:0:0:0:
256,192,67392,1,8,0:0:0:0:
256,192,67434,1,8,0:0:0:0:
256,192,67477,1,0,0:0:0:0:
256,192,67520,1,0,0:0:0:0:
256,192,67562,1,8,0:0:0:0:
256,192,67605,1,0,0:0:0:0:
256,192,67648,1,8,0:0:0:0:
256,192,67691,1,8,0:0:0:0:
256,192,67733,1,0,0:0:0:0:
256,192,67798,1,0,0:0:0:0:
256,192,67862,1,0,0:0:0:0:
256,192,67926,1,8,0:0:0:0:
256,192,67990,1,0,0:0:0:0:
256,192,68054,1,0,0:0:0:0:
256,192,68118,1,0,0:0:0:0:
256,192,68182,1,8,0:0:0:0:
256,192,68246,1,0,0:0:0:0:
256,192,68310,1,0,0:0:0:0:
256,192,68374,1,8,0:0:0:0:
256,192,68439,1,8,0:0:0:0:
256,192,68503,1,8,0:0:0:0:
256,192,68567,1,0,0:0:0:0:
256,192,68631,1,8,0:0:0:0:
256,192,68695,1,8,0:0:0:0:
256,192,68759,1,0,0:0:0:0:
256,192,68823,1,0,0:0:0:0:
256,192,68887,1,0,0:0:0:0:
256,192,68951,1,8,0:0:0:0:
256,192,69015,1,0,0:0:0:0:
256,192,69080,1,0,0:0:0:0:
256,192,69144,1,0,0:0:0:0:
256,192,69208,1,8,0:0:0:0:
256,192,69272,1,0,0:0:0:0:
256,192,69336,1,0,0:0:0:0:
256,192,69400,1,8,0:0:0:0:
256,192,69464,1,8,0:0:0:0:
256,192,69528,1,0,0:0:0:0:
256,192,69592,1,8,0:0:0:0:
256,192,69656,1,8,0:0:0:0:
256,192,69721,1,8,0:0:0:0:
256,192,69785,1,0,0:0:0:0:
256,192,69827,1,0,0:0:0:0:
256,192,69870,1,0,0:0:0:0:
256,192,69913,1,8,0:0:0:0:
256,192,69956,1,0,0:0:0:0:
256,192,69998,1,8,0:0:0:0:
256,192,70041,1,0,0:0:0:0:
256,192,70084,1,0,0:0:0:0:
256,192,70127,1,0,0:0:0:0:
256,192,70169,1,8,0:0:0:0:
256,192,70212,1,8,0:0:0:0:
256,192,70255,1,8,0:0:0:0:
256,192,70298,1,0,0:0:0:0:
256,192,70362,1,0,0:0:0:0:
256,192,70426,1,8,0:0:0:0:
256,192,70490,1,8,0:0:0:0:
256,192,70554,1,0,0:0:0:0:
256,192,70597,1,0,0:0:0:0:
256,192,70639,1,8,0:0:0:0:
256,192,70682,1,0,0:0:0:0:
256,192,70725,1,8,0:0:0:0:
256,192,70768,1,0,0:0:0:0:
256,192,70810,1,8,0:0:0:0:
256,192,70853,1,0,0:0:0:0:
256,192,70896,1,0,0:0:0:0:
256,192,70939,1,8,0:0:0:0:
256,192,70981,1,0,0:0:0:0:
256,192,71024,1,0,0:0:0:0:
256,192,71067,1,8,0:0:0:0:
256,192,71109,1,8,0:0:0:0:
256,192,71152,1,0,0:0:0:0:
256,192,71195,1,8,0:0:0:0:
256,192,71238,1,0,0:0:0:0:
256,192,71280,1,0,0:0:0:0:
256,192,71323,1,8,0:0:0:0:
256,192,71387,1,8,0:0:0:0:
256,192,71451,1,0,0:0:0:0:
256,192,71515,1,0,0:0:0:0:
256,192,71580,1,8,0:0:0:0:
256,192,71644,1,0,0:0:0:0:
256,192,71708,1,0,0:0:0:0:
256,192,71772,1,0,0:0:0:0:
256,192,71836,1,0,0:0:0:0:
256,192,71879,1,0,0:0:0:0:
256,192,71921,1,0,0:0:0:0:
256,192,71964,1,8,0:0:0:0:
256,192,72007,1,8,0:0:0:0:
256,192,72050,1,8,0:0:0:0:
256,192,72092,1,0,0:0:0:0:
256,192,72135,1,0,0:0:0:0:
256,192,72178,1,0,0:0:0:0:
256,192,72221,1,8,0:0:0:0:
256,192,72263,1,8,0:0:0:0:
256,192,72306,1,8,0:0:0:0:
256,192,72349,1,0,0:0:0:0:
256,192,72392,1,0,0:0:0:0:
256,192,72434,1,8,0:0:0:0:
256,192,72477,1,0,0:0:0:0:
256,192,72520,1,0,0:0:0:0:
256,192,72562,1,8,0:0:0:0:
256,192,72605,1,0,0:0:0:0:
256,192,72669,1,0,0:0:0:0:
256,192,72733,1,8,0:0:0:0:
256,192,72798,1,8,0:0:0:0:
256,192,72862,1,0,0:0:0:0:
256,192,72904,1,0,0:0:0:0:
256,192,72947,1,0,0:0:0:0:
256,192,72990,1,8,0:0:0:0:
256,192,73033,1,8,0:0:0:0:
256,192,73075,1,8,0:0:0:0:
256,192,73118,1,0,0:0:0:0:
256,192,73161,1,0,0:0:0:0:
256,192,73203,1,0,0:0:0:0:
256,192,73246,1,8,0:0:0:0:
256,192,73289,1,8,0:0:0:0:
256,192,73332,1,8,0:0:0:0:
256,192,73374,1,0,0:0:0:0:
256,192,73417,1,8,0:0:0:0:
256,192,73460,1,0,0:0:0:0:
256,192,73503,1,8,0:0:0:0:
256,192,73545,1,8,0:0:0:0:
256,192,73588,1,8,0:0:0:0:
256,192,73631,1,0,0:0:0:0:
256,192,73695,1,8,0:0:0:0:
256,192,73759,1,8,0:0:0:0:
256,192,73823,1,8,0:0:0:0:
256,192,73887,1,0,0:0:0:0:
256,192,73951,1,0,0:0:0:0:
256,192,74015,1,0,0:0:0:0:
256,192,74080,1,0,0:0:0:0:
256,192,74144,1,8,0:0:0:0:
256,192,74208,1,8,0:0:0:0:
256,192,74272,1,8,0:0:0:0:
256,192,74336,1,8,0:0:0:0:
256,192,74400,1,0,0:0:0:0:
256,192,74464,1,0,0:0:0:0:
256,192,74528,1,0,0:0:0:0:
256,192,74592,1,0,0:0:0:0:
256,192,74656,1,8,0:0:0:0:
256,192,74721,1,8,0:0:0:0:
256,192,74785,1,8,0:0:0:0:
256,192,74849,1,8,0:0:0:0:
256,192,74913,1,0,0:0:0:0:
256,192,74977,1,0,0:0:0:0:
256,192,75041,1,8,0:0:0:0:
256,192,75105,1,0,0:0:0:0:
256,192,75169,1,8,0:0:0:0:
256,192,75233,1,8,0:0:0:0:
256,192,75298,1,0,0:0:0:0:
256,192,75362,1,8,0:0:0:0:
256,192,75426,1,8,0:0:0:0:
256,192,75490,1,0,0:0:0:0:
256,192,75554,1,8,0:0:0:0:
256,192,75618,1,8,0:0:0:0:
256,192,75682,1,0,0:0:0:0:
256,192,75746,1,8,0:0:0:0:
256,192,75810,1,8,0:0:0:0:
256,192,75874,1,8,0:0:0:0:
256,192,75939,1,8,0:0:0:0:
256,192,76003,1,0,0:0:0:0:
256,192,76067,1,8,0:0:0:0:
256,192,76109,1,8,0:0:0:0:
256,192,76152,1,0,0:0:0:0:
256,192,76195,1,8,0:0:0:0:
256,192,76259,1,8,0:0:0:0:
256,192,76323,1,0,0:0:0:0:
256,192,76387,1,0,0:0:0:0:
256,192,76451,1,8,0:0:0:0:
256,192,76515,1,0,0:0:0:0:
256,192,76580,1,8,0:0:0:0:
256,192,76622,1,0,0:0:0:0:
256,192,76665,1,0,0:0:0:0:
256,192,76708,1,8,0:0:0:0:
256,192,76750,1,8,0:0:0:0:
256,192,76793,1,0,0:0:0:0:
256,192,76836,1,8,0:0:0:0:
256,192,76879,1,0,0:0:0:0:
256,192,76921,1,8,0:0:0:0:
256,192,76964,1,8,0:0:0:0:
256,192,77028,1,0,0:0:0:0:
256,192,77092,1,0,0:0:0:0:
256,192,77156,1,8,0:0:0:0:
256,192,77221,1,8,0:0:0:0:
256,192,77285,1,0,0:0:0:0:
256,192,77349,1,8,0:0:0:0:
256,192,77413,1,8,0:0:0:0:
256,192,77477,1,8,0:0:0:0:
256,192,77541,1,0,0:0:0:0:
256,192,77605,1,0,0:0:0:0:
256,192,77669,1,8,0:0:0:0:
256,192,77733,1,8,0:0:0:0:
256,192,77798,1,0,0:0:0:0:
256,192,77862,1,8,0:0:0:0:
256,192,77926,1,8,0:0:0:0:
256,192,77990,1,8,0:0:0:0:
256,192,78054,1,0,0:0:0:0:
256,192,78118,1,0,0:0:0:0:
256,192,78161,1,0,0:0:0:0:
256,192,78203,1,8,0:0:0:0:
256,192,78246,1,8,0:0:0:0:
256,192,78310,1,0,0:0:0:0:
256,192,78374,1,0,0:0:0:0:
256,192,78417,1,8,0:0:0:0:
256,192,78460,1,0,0:0:0:0:
256,192,78503,1,8,0:0:0:0:
256,192,78567,1,0,0:0:0:0:
256,192,78631,1,0,0:0:0:0:
256,192,78695,1,8,0:0:0:0:
256,192,78759,1,0,0:0:0:0:
256,192,78823,1,0,0:0:0:0:
256,192,78887,1,8,0:0:0:0:
256,192,78951,1,8,0:0:0:0:
256,192,79015,1,0,0:0:0:0:
256,192,79080,1,0,0:0:0:0:
256,192,79144,1,8,0:0:0:0:
256,192,79208,1,0,0:0:0:0:
256,192,79272,1,8,0:0:0:0:
256,192,79315,1,8,0:0:0:0:
256,192,79357,1,0,0:0:0:0:
256,192,79400,1,0,0:0:0:0:
256,192,79464,1,0,0:0:0:0:
256,192,79528,1,8,0:0:0:0:
256,192,79571,1,0,0:0:0:0:
256,192,79614,1,0,0:0:0:0:
256,192,79656,1,8,0:0:0:0:
256,192,79721,1,0,0:0:0:0:
256,192,79785,1,0,0:0:0:0:
256,192,79827,1,0,0:0:0:0:
256,192,79870,1,0,0:0:0:0:
256,192,79913,1,8,0:0:0:0:
256,192,79956,1,8,0:0:0:0:
256,192,79998,1,8,0:0:0:0:
256,192,80041,1,0,0:0:0:0:
256,192,80105,1,8,0:0:0:0:
256,192,80169,1,0,0:0:0:0:
256,192,80233,1,8,0:0:0:0:
256,192,80298,1,8,0:0:0:0:
256,192,80362,1,0,0:0:0:0:
256,192,80426,1,0,0:0:0:0:
256,192,80490,1,8,0:0:0:0:
256,192,80554,1,0,0:0:0:0:
256,192,80618,1,0,0:0:0:0:
256,192,80682,1,8,0:0:0:0:
256,192,80746,1,0,0:0:0:0:
256,192,80810,1,0,0:0:0:0:
256,192,80874,1,8,0:0:0:0:
256,192,80939,1,8,0:0:0:0:
256,192,80981,1,0,0:0:0:0:
256,192,81024,1,0,0:0:0:0:
256,192,81067,1,8,0:0:0:0:
256,192,81131,1,0,0:0:0:0:
256,192,81195,1,8,0:0:0:0:
256,192,81259,1,0,0:0:0:0:
256,192,81323,1,8,0:0:0:0:
256,192,81387,1,8,0:0:0:0:
256,192,81451,1,0,0:0:0:0:
256,192,81515,1,0,0:0:0:0:
256,192,81580,1,8,0:0:0:0:
256,192,81644,1,0,0:0:0:0:
256,192,81708,1,0,0:0:0:0:
256,192,81772,1,8,0:0:0:0:
256,192,81836,1,0,0:0:0:0:
256,192,81900,1,0,0:0:0:0:
256,192,81964,1,8,0:0:0:0:
256,192,82028,1,8,0:0:0:0:
256,192,82092,1,8,0:0:0:0:
256,192,82135,1,0,0:0:0:0:
256,192,82178,1,0,0:0:0:0:
256,192,82221,1,8,0:0:0:0:
256,192,82263,1,0,0:0:0:0:
256,192,82306,1,0,0:0:0:0:
256,192,82349,1,8,0:0:0:0:
256,192,82392,1,8,0:0:0:0:
256,192,82434,1,0,0:0:0:0:
256,192,82477,1,8,0:0:0:0:
256,192,82520,1,0,0:0:0:0:
256,192,82562,1,0,0:0:0:0:
256,192,82605,1,8,0:0:0:0:
256,192,82648,1,0,0:0:0:0:
256,192,82691,1,0,0:0:0:0:
256,192,82733,1,8,0:0:0:0:
256,192,82776,1,8,0:0:0:0:
256,192,82819,1,0,0:0:0:0:
256,192,82862,1,0,0:0:0:0:
256,192,82904,1,8,0:0:0:0:
256,192,82947,1,8,0:0:0:0:
256,192,82990,1,0,0:0:0:0:
256,192,83033,1,8,0:0:0:0:
256,192,83075,1,8,0:0:0:0:
256,192,83118,1,8,0:0:0:0:
256,192,83161,1,0,0:0:0:0:
256,192,83203,1,0,0:0:0:0:
256,192,83246,1,8,0:0:0:0:
256,192,83289,1,8,0:0:0:0:
256,192,83332,1,0,0:0:0:0:
256,192,83374,1,8,0:0:0:0:
256,192,83417,1,0,0:0:0:0:
256,192,83460,1,0,0:0:0:0:
256,192,83503,1,8,0:0:0:0:
256,192,83545,1,0,0:0:0:0:
256,192,83588,1,0,0:0:0:0:
256,192,83631,1,8,0:0:0:0:
256,192,83695,1,8,0:0:0:0:
256,192,83759,1,0,0:0:0:0:
256,192,83823,1,0,0:0:0:0:
256,192,83887,1,8,0:0:0:0:
256,192,83951,1,0,0:0:0:0:
256,192,84015,1,8,0:0:0:0:
256,192,84080,1,8,0:0:0:0:
256,192,84144,1,0,0:0:0:0:
256,192,84208,1,0,0:0:0:0:
256,192,84272,1,0,0:0:0:0:
256,192,84336,1,8,0:0:0:0:
256,192,84400,1,0,0:0:0:0:
256,192,84464,1,0,0:0:0:0:
256,192,84528,1,0,0:0:0:0:
256,192,84592,1,8,0:0:0:0:
256,192,84656,1,8,0:0:0:0:
256,192,84721,1,0,0:0:0:0:
256,192,84785,1,0,0:0:0:0:
256,192,84849,1,8,0:0:0:0:
256,192,84913,1,8,0:0:0:0:
256,192,84977,1,0,0:0:0:0:
256,192,85041,1,8,0:0:0:0:
256,192,85105,1,8,0:0:0:0:
256,192,85169,1,0,0:0:0:0:
256,192,85233,1,0,0:0:0:0:
256,192,85298,1,0,0:0:0:0:
256,192,85362,1,8,0:0:0:0:
256,192,85426,1,0,0:0:0:0:
256,192,85490,1,0,0:0:0:0:
256,192,85554,1,0,0:0:0:0:
256,192,85618,1,8,0:0:0:0:
256,192,85682,1,8,0:0:0:0:
256,192,85746,1,0,0:0:0:0:
256,192,85810,1,0,0:0:0:0:
256,192,85874,1,8,0:0:0:0:
256,192,85939,1,8,0:0:0:0:
256,192,86003,1,0,0:0:0:0:
256,192,86067,1,8,0:0:0:0:
256,192,86131,1,8,0:0:0:0:
256,192,86195,1,0,0:0:0:0:
256,192,86238,1,0,0:0:0:0:
256,192,86280,1,0,0:0:0:0:
256,192,86323,1,8,0:0:0:0:
256,192,86366,1,8,0:0:0:0:
256,192,86409,1,8,0:0:0:0:
256,192,86451,1,0,0:0:0:0:
256,192,86494,1,0,0:0:0:0:
256,192,86537,1,8,0:0:0:0:
256,192,86580,1,0,0:0:0:0:
256,192,86622,1,8,0:0:0:0:
256,192,86665,1,8,0:0:0:0:
256,192,86708,1,0,0:0:0:0:
256,192,86772,1,8,0:0:0:0:
256,192,86836,1,8,0:0:0:0:
256,192,86900,1,8,0:0:0:0:
256,192,86964,1,0,0:0:0:0:
256,192,87028,1,8,0:0:0:0:
256,192,87092,1,8,0:0:0:0:
256,192,87156,1,0,0:0:0:0:
256,192,87221,1,8,0:0:0:0:
256,192,87263,1,8,0:0:0:0:
256,192,87306,1,0,0:0:0:0:
256,192,87349,1,8,0:0:0:0:
256,192,87392,1,0,0:0:0:0:
256,192,87434,1,0,0:0:0:0:
256,192,87477,1,8,0:0:0:0:
256,192,87520,1,8,0:0:0:0:
256,192,87562,1,0,0:0:0:0:
256,192,87605,1,8,0:0:0:0:
256,192,87648,1,0,0:0:0:0:
256,192,87691,1,0,0:0:0:0:
256,192,87733,1,8,0:0:0:0:
256,192,87776,1,8,0:0:0:0:
256,192,87819,1,0,0:0:0:0:
256,192,87862,1,8,0:0:0:0:
256,192,87904,1,0,0:0:0:0:
256,192,87947,1,0,0:0:0:0:
256,192,87990,1,8,0:0:0:0:
256,192,88033,1,0,0:0:0:0:
256,192,88075,1,0,0:0:0:0:
256,192,88118,1,0,0:0:0:0:
256,192,88161,1,8,0:0:0:0:
256,192,88203,1,0,0:0:0:0:
256,192,88246,1,0,0:0:0:0:
256,192,88310,1,0,0:0:0:0:
256,192,88374,1,0,0:0:0:0:
256,192,88439,1,8,0:0:0:0:
256,192,88503,1,0,0:0:0:0:
256,192,88567,1,0,0:0:0:0:
256,192,88631,1,8,0:0:0:0:
256,192,88695,1,0,0:0:0:0:
256,192,88759,1,8,0:0:0:0:
256,192,88823,1,0,0:0:0:0:
256,192,88887,1,0,0:0:0:0:
256,192,88951,1,8,0:0:0:0:
256,192,89015,1,0,0:0:0:0:
256,192,89080,1,8,0:0:0:0:
256,192,89144,1,8,0:0:0:0:
256,192,89208,1,8,0:0:0:0:
256,192,89272,1,0,0:0:0:0:
256,192,89336,1,0,0:0:0:0:
256,192,89400,1,0,0:0:0:0:
256,192,89464,1,8,0:0:0:0:
256,192,89528,1,0,0:0:0:0:
256,192,89592,1,0,0:0:0:0:
256,192,89656,1,8,0:0:0:0:
256,192,89721,1,8,0:0:0:0:
256,192,89785,1,8,0:0:0:0:
256,192,89849,1,0,0:0:0:0:
256,192,89913,1,0,0:0:0:0:
256,192,89977,1,8,0:0:0:0:
256,192,90041,1,0,0:0:0:0:
256,192,90084,1,8,0:0:0:0:
256,192,90127,1,0,0:0:0:0:
256,192,90169,1,8,0:0:0:0:
256,192,90212,1,8,0:0:0:0:
256,192,90255,1,0,0:0:0:0:
256,192,90298,1,8,0:0:0:0:
256,192,90340,1,8,0:0:0:0:
256,192,90383,1,8,0:0:0:0:
256,192,90426,1,0,0:0:0:0:
256,192,90468,1,0,0:0:0:0:
256,192,90511,1,0,0:0:0:0:
256,192,90554,1,8,0:0:0:0:
256,192,90597,1,8,0:0:0:0:
256,192,90639,1,0,0:0:0:0:
256,192,90682,1,8,0:0:0:0:
256,192,90725,1,0,0:0:0:0:
256,192,90768,1,0,0:0:0:0:
256,192,90810,1,8,0:0:0:0:
256,192,90853,1,8,0:0:0:0:
256,192,90896,1,0,0:0:0:0:
256,192,90939,1,8,0:0:0:0:
256,192,90981,1,0,0:0:0:0:
256,192,91024,1,0,0:0:0:0:
256,192,91067,1,8,0:0:0:0:
256,192,91131,1,0,0:0:0:0:
256,192,91195,1,0,0:0:0:0:
256,192,91259,1,8,0:0:0:0:
256,192,91323,1,0,0:0:0:0:
256,192,91366,1,0,0:0:0:0:
256,192,91409,1,0,0:0:0:0:
256,192,91451,1,8,0:0:0:0:
256,192,91494,1,8,0:0:0:0:
256,192,91537,1,8,0:0:0:0:
256,192,91580,1,0,0:0:0:0:
256,192,91622,1,0,0:0:0:0:
256,192,91665,1,8,0:0:0:0:
256,192,91708,1,0,0:0:0:0:
256,192,91750,1,8,0:0:0:0:
256,192,91793,1,8,0:0:0:0:
256,192,91836,1,0,0:0:0:0:
256,192,91879,1,8,0:0:0:0:
256,192,91921,1,0,0:0:0:0:
256,192,91964,1,8,0:0:0:0:
256,192,92007,1,8,0:0:0:0:
256,192,92050,1,8,0:0:0:0:
256,192,92092,1,0,0:0:0:0:
256,192,92135,1,0,0:0:0:0:
256,192,92178,1,8,0:0:0:0:
256,192,92221,1,0,0:0:0:0:
256,192,92263,1,8,0:0:0:0:
256,192,92306,1,8,0:0:0:0:
256,192,92349,1,0,0:0:0:0:
256,192,92413,1,0,0:0:0:0:
256,192,92477,1,0,0:0:0:0:
256,192,92541,1,8,0:0:0:0:
256,192,92605,1,0,0:0:0:0:
256,192,92669,1,0,0:0:0:0:
256,192,92733,1,0,0:0:0:0:
256,192,92798,1,8,0:0:0:0:
256,192,92862,1,0,0:0:0:0:
256,192,92926,1,0,0:0:0:0:
256,192,92990,1,8,0:0:0:0:
256,192,93054,1,8,0:0:0:0:
256,192,93118,1,8,0:0:0:0:
256,192,93182,1,0,0:0:0:0:
256,192,93246,1,8,0:0:0:0:
256,192,93310,1,8,0:0:0:0:
256,192,93374,1,0,0:0:0:0:
256,192,93439,1,0,0:0:0:0:
256,192,93503,1,0,0:0:0:0:
256,192,93567,1,8,0:0:0:0:
256,192,93631,1,0,0:0:0:0:
256,192,93695,1,0,0:0:0:0:
256,192,93759,1,0,0:0:0:0:
256,192,93823,1,8,0:0:0:0:
256,192,93887,1,0,0:0:0:0:
256,192,93951,1,0,0:0:0:0:
256,192,94015,1,8,0:0:0:0:
256,192,94080,1,8,0:0:0:0:
256,192,94144,1,0,0:0:0:0:
256,192,94208,1,8,0:0:0:0:
256,192,94272,1,8,0:0:0:0:
256,192,94336,1,8,0:0:0:0:
256,192,94400,1,0,0:0:0:0:
256,192,94443,1,0,0:0:0:0:
256,192,94486,1,0,0:0:0:0:
256,192,94528,1,8,0:0:0:0:
256,192,94571,1,0,0:0:0:0:
256,192,94614,1,8,0:0:0:0:
256,192,94656,1,0,0:0:0:0:
256,192,94699,1,0,0:0:0:0:
256,192,94742,1,0,0:0:0:0:
256,192,94785,1,8,0:0:0:0:
256,192,94827,1,8,0:0:0:0:
256,192,94870,1,8,0:0:0:0:
256,192,94913,1,0,0:0:0:0:
256,192,94977,1,0,0:0:0:0:
256,192,95041,1,8,0:0:0:0:
256,192,95105,1,8,0:0:0:0:
256,192,95169,1,0,0:0:0:0:
256,192,95212,1,0,0:0:0:0:
256,192,95255,1,8,0:0:0:0:
256,192,95298,1,0,0:0:0:0:
256,192,95340,1,8,0:0:0:0:
256,192,95383,1,0,0:0:0:0:
256,192,95426,1,8,0:0:0:0:
256,192,95468,1,0,0:0:0:0:
256,192,95511,1,0,0:0:0:0:
256,192,95554,1,8,0:0:0:0:
256,192,95597,1,0,0:0:0:0:
256,192,95639,1,0,0:0:0:0:
256,192,95682,1,8,0:0:0:0:
256,192,95725,1,8,0:0:0:0:
256,192,95768,1,0,0:0:0:0:
256,192,95810,1,8,0:0:0:0:
256,192,95853,1,0,0:0:0:0:
256,192,95896,1,0,0:0:0:0:
256,192,95939,1,8,0:0:0:0:
256,192,96003,1,8,0:0:0:0:
256,192,96067,1,0,0:0:0:0:
256,192,96131,1,0,0:0:0:0:
256,192,96195,1,8,0:0:0:0:
256,192,96259,1,0,0:0:0:0:
256,192,96323,1,0,0:0:0:0:
256,192,96387,1,0,0:0:0:0:
256,192,96451,1,0,0:0:0:0:
256,192,96494,1,0,0:0:0:0:
256,192,96537,1,0,0:0:0:0:
256,192,96580,1,8,0:0:0:0:
256,192,96622,1,8,0:0:0:0:
256,192,96665,1,8,0:0:0:0:
256,192,96708,1,0,0:0:0:0:
256,192,96750,1,0,0:0:0:0:
256,192,96793,1,0,0:0:0:0:
256,192,96836,1,8,0:0:0:0:
256,192,96879,1,8,0:0:0:0:
256,192,96921,1,8,0:0:0:0:
256,192,96964,1,0,0:0:0:0:
256,192,97007,1,0,0:0:0:0:
256,192,97050,1,8,0:0:0:0:
256,192,97092,1,0,0:0:0:0:
256,192,97135,1,0,0:0:0:0:
256,192,97178,1,8,0:0:0:0:
256,192,97221,1,0,0:0:0:0:
256,192,97285,1,0,0:0:0:0:
256,192,97349,1,8,0:0:0:0:
256,192,97413,1,8,0:0:0:0:
256,192,97477,1,0,0:0:0:0:
256,192,97520,1,0,0:0:0:0:
256,192,97562,1,0,0:0:0:0:
256,192,97605,1,8,0:0:0:0:
256,192,97648,1,8,0:0:0:0:
256,192,97691,1,8,0:0:0:0:
256,192,97733,1,0,0:0:0:0:
256,192,97776,1,0,0:0:0:0:
256,192,97819,1,0,0:0:0:0:
256,192,97862,1,8,0:0:0:0:
256,192,97904,1,8,0:0:0:0:
256,192,97947,1,8,0:0:0:0:
256,192,97990,1,0,0:0:0:0:
256,192,98033,1,8,0:0:0:0:
256,192,98075,1,0,0:0:0:0:
256,192,98118,1,8,0:0:0:0:
256,192,98161,1,8,0:0:0:0:
256,192,98203,1,8,0:0:0:0:
256,192,98246,1,0,0:0:0:0:
256,192,98310,1,8,0:0:0:0:
256,192,98374,1,8,0:0:0:0:
256,192,98439,1,8,0:0:0:0:
256,192,98503,1,0,0:0:0:0:
256,192,98567,1,0,0:0:0:0:
256,192,98631,1,0,0:0:0:0:
256,192,98695,1,0,0:0:0:0:
256,192,98759,1,8,0:0:0:0:
256,192,98823,1,8,0:0:0:0:
256,192,98887,1,8,0:0:0:0:
256,192,98951,1,8,0:0:0:0:
256,192,99015,1,0,0:0:0:0:
256,192,99080,1,0,0:0:0:0:
256,192,99144,1,0,0:0:0:0:
256,192,99208,1,0,0:0:0:0:
256,192,99272,1,8,0:0:0:0:
256,192,99336,1,8,0:0:0:0:
256,192,99400,1,8,0:0:0:0:
256,192,99464,1,8,0:0:0:0:
256,192,99528,1,0,0:0:0:0:
256,192,99592,1,0,0:0:0:0:
256,192,99656,1,8,0:0:0:0:
256,192,99721,1,0,0:0:0:0:
256,192,99785,1,8,0:0:0:0:
256,192,99849,1,8,0:0:0:0:
256,192,99913,1,0,0:0:0:0:
256,192,99977,1,8,0:0:0:0:
256,192,100041,1,8,0:0:0:0:
256,192,100105,1,0,0:0:0:0:
256,192,100169,1,8,0:0:0:0:
256,192,100233,1,8,0:0:0:0:
256,192,100298,1,0,0:0:0:0:
256,192,100362,1,8,0:0:0:0:
256,192,100426,1,8,0:0:0:0:
256,192,100490,1,8,0:0:0:0:
256,192,100554,1,8,0:0:0:0:
256,192,100618,1,0,0:0:0:0:
256,192,100682,1,8,0:0:0:0:
256,192,100725,1,8,0:0:0:0:
256,192,100768,1,0,0:0:0:0:
256,192,100810,1,8,0:0:0:0:
256,192,100874,1,8,0:0:0:0:
256,192,100939,1,0,0:0:0:0:
256,192,101003,1,0,0:0:0:0:
256,192,101067,1,8,0:0:0:0:
256,192,101131,1,0,0:0:0:0:
256,192,101195,1,8,0:0:0:0:
256,192,101238,1,0,0:0:0:0:
256,192,101280,1,0,0:0:0:0:
256,192,101323,1,8,0:0:0:0:
256,192,101366,1,8,0:0:0:0:
256,192,101409,1,0,0:0:0:0:
256,192,101451,1,8,0:0:0:0:
256,192,101494,1,0,0:0:0:0:
256,192,101537,1,8,0:0:0:0:
256,192,101580,1,8,0:0:0:0:
256,192,101644,1,0,0:0:0:0:
256,192,101708,1,0,0:0:0:0:
256,192,101772,1,8,0:0:0:0:
256,192,101836,1,8,0:0:0:0:
256,192,101900,1,0,0:0:0:0:
256,192,101964,1,8,0:0:0:0:
256,192,102028,1,8,0:0:0:0:
256,192,102092,1,8,0:0:0:0:
256,192,102156,1,0,0:0:0:0:
256,192,102221,1,0,0:0:0:0:
256,192,102285,1,8,0:0:0:0:
256,192,102349,1,8,0:0:0:0:
256,192,102413,1,0,0:0:0:0:
256,192,102477,1,8,0:0:0:0:
256,192,102541,1,8,0:0:0:0:
256,192,102605,1,8,0:0:0:0:
256,192,102669,1,0,0:0:0:0:
256,192,102733,1,0,0:0:0:0:
256,192,102776,1,0,0:0:0:0:
256,192,102819,1,8,0:0:0:0:
256,192,102862,1,8,0:0:0:0:
256,192,102926,1,0,0:0:0:0:
256,192,102990,1,0,0:0:0:0:
256,192,103033,1,8,0:0:0:0:
256,192,103075,1,0,0:0:0:0:
256,192,103118,1,8,0:0:0:0:
256,192,103182,1,0,0:0:0:0:
256,192,103246,1,0,0:0:0:0:
256,192,103310,1,8,0:0:0:0:
256,192,103374,1,0,0:0:0:0:
256,192,103439,1,0,0:0:0:0:
256,192,103503,1,8,0:0:0:0:
256,192,103567,1,8,0:0:0:0:
256,192,103631,1,0,0:0:0:0:
256,192,103695,1,0,0:0:0:0:
256,192,103759,1,8,0:0:0:0:
256,192,103823,1,0,0:0:0:0:
256,192,103887,1,8,0:0:0:0:
256,192,103930,1,8,0:0:0:0:
256,192,103973,1,0,0:0:0:0:
256,192,104015,1,0,0:0:0:0:
256,192,104080,1,0,0:0:0:0:
256,192,104144,1,8,0:0:0:0:
256,192,104186,1,0,0:0:0:0:
256,192,104229,1,0,0:0:0:0:
256,192,104272,1,8,0:0:0:0:
256,192,104336,1,0,0:0:0:0:
256,192,104400,1,0,0:0:0:0:
256,192,104443,1,0,0:0:0:0:
256,192,104486,1,0,0:0:0:0:
256,192,104528,1,8,0:0:0:0:
256,192,104571,1,8,0:0:0:0:
256,192,104614,1,8,0:0:0:0:
256,192,104656,1,0,0:0:0:0:
256,192,104721,1,8,0:0:0:0:
256,192,104785,1,0,0:0:0:0:
256,192,104849,1,8,0:0:0:0:
256,192,104913,1,8,0:0:0:0:
256,192,104977,1,0,0:0:0:0:
256,192,105041,1,0,0:0:0:0:
256,192,105105,1,8,0:0:0:0:
256,192,105169,1,0,0:0:0:0:
256,192,105233,1,0,0:0:0:0:
256,192,105298,1,8,0:0:0:0:
256,192,105362,1,0,0:0:0:0:
256,192,105426,1,0,0:0:0:0:
256,192,105490,1,8,0:0:0:0:
256,192,105554,1,8,0:0:0:0:
256,192,105597,1,0,0:0:0:0:
256,192,105639,1,0,0:0:0:0:
256,192,105682,1,8,0:0:0:0:
256,192,105746,1,0,0:0:0:0:
256,192,105810,1,8,0:0:0:0:
256,192,105874,1,0,0:0:0:0:
256,192,105939,1,8,0:0:0:0:
256,192,106003,1,8,0:0:0:0:
256,192,106067,1,0,0:0:0:0:
256,192,106131,1,0,0:0:0:0:
256,192,106195,1,8,0:0:0:0:
256,192,106259,1,0,0:0:0:0:
256,192,106323,1,0,0:0:0:0:
256,192,106387,1,8,0:0:0:0:
256,192,106451,1,0,0:0:0:0:
256,192,106515,1,0,0:0:0:0:
256,192,106580,1,8,0:0:0:0:
256,192,106644,1,8,0:0:0:0:
256,192,106708,1,8,0:0:0:0:
256,192,106750,1,0,0:0:0:0:
256,192,106793,1,0,0:0:0:0:
256,192,106836,1,8,0:0:0:0:
256,192,106879,1,0,0:0:0:0:
256,192,106921,1,0,0:0:0:0:
256,192,106964,1,8,0:0:0:0:
256,192,107007,1,8,0:0:0:0:
256,192,107050,1,0,0:0:0:0:
256,192,107092,1,8,0:0:0:0:
256,192,107135,1,0,0:0:0:0:
256,192,107178,1,0,0:0:0:0:
256,192,107221,1,8,0:0:0:0:
256,192,107263,1,0,0:0:0:0:
256,192,107306,1,0,0:0:0:0:
256,192,107349,1,8,0:0:0:0:
256,192,107392,1,8,0:0:0:0:
256,192,107434,1,0,0:0:0:0:
256,192,107477,1,0,0:0:0:0:
256,192,107520,1,8,0:0:0:0:
256,192,107562,1,8,0:0:0:0:
256,192,107605,1,0,0:0:0:0:
256,192,107648,1,8,0:0:0:0:
256,192,107691,1,8,0:0:0:0:
256,192,107733,1,8,0:0:0:0:
256,192,107776,1,0,0:0:0:0:
256,192,107819,1,0,0:0:0:0:
256,192,107862,1,8,0:0:0:0:
256,192,107904,1,8,0:0:0:0:
256,192,107947,1,0,0:0:0:0:
256,192,107990,1,8,0:0:0:0:
256,192,108033,1,0,0:0:0:0:
256,192,108075,1,0,0:0:0:0:
256,192,108118,1,8,0:0:0:0:
256,192,108161,1,0,0:0:0:0:
256,192,108203,1,0,0:0:0:0:
256,192,108246,1,8,0:0:0:0:
256,192,108310,1,8,0:0:0:0:
256,192,108374,1,0,0:0:0:0:
256,192,108439,1,0,0:0:0:0:
256,192,108503,1,8,0:0:0:0:
256,192,108567,1,0,0:0:0:0:
256,192,108631,1,8,0:0:0:0:
256,192,108695,1,8,0:0:0:0:
256,192,108759,1,0,0:0:0:0:
256,192,108823,1,0,0:0:0:0:
256,192,108887,1,0,0:0:0:0:
256,192,108951,1,8,0:0:0:0:
256,192,109015,1,0,0:0:0:0:
256,192,109080,1,0,0:0:0:0:
256,192,109144,1,0,0:0:0:0:
256,192,109208,1,8,0:0:0:0:
256,192,109272,1,8,0:0:0:0:
256,192,109336,1,0,0:0:0:0:
256,192,109400,1,0,0:0:0:0:
256,192,109464,1,8,0:0:0:0:
256,192,109528,1,8,0:0:0:0:
256,192,109592,1,0,0:0:0:0:
256,192,109656,1,8,0:0:0:0:
256,192,109721,1,8,0:0:0:0:
256,192,109785,1,0,0:0:0:0:
256,192,109849,1,0,0:0:0:0:
256,192,109913,1,0,0:0:0:0:
256,192,109977,1,8,0:0:0:0:
256,192,110041,1,0,0:0:0:0:
256,192,110105,1,0,0:0:0:0:
256,192,110169,1,0,0:0:0:0:
256,192,110233,1,8,0:0:0:0:
256,192,110298,1,8,0:0:0:0:
256,192,110362,1,0,0:0:0:0:
256,192,110426,1,0,0:0:0:0:
256,192,110490,1,8,0:0:0:0:
256,192,110554,1,8,0:0:0:0:
256,192,110618,1,0,0:0:0:0:
256,192,110682,1,8,0:0:0:0:
256,192,110746,1,8,0:0:0:0:
256,192,110810,1,0,0:0:0:0:
256,192,110853,1,0,0:0:0:0:
256,192,110896,1,0,0:0:0:0:
256,192,110939,1,8,0:0:0:0:
256,192,110981,1,8,0:0:0:0:
256,192,111024,1,8,0:0:0:0:
256,192,111067,1,0,0:0:0:0:
256,192,111109,1,0,0:0:0:0:
256,192,111152,1,8,0:0:0:0:
256,192,111195,1,0,0:0:0:0:
256,192,111238,1,8,0:0:0:0:
256,192,111280,1,8,0:0:0:0:
256,192,111323,1,0,0:0:0:0:
256,192,111387,1,8,0:0:0:0:
256,192,111451,1,8,0:0:0:0:
256,192,111515,1,8,0:0:0:0:
256,192,111580,1,0,0:0:0:0:
256,192,111644,1,8,0:0:0:0:
256,192,111708,1,8,0:0:0:0:
256,192,111772,1,0,0:0:0:0:
256,192,111836,1,8,0:0:0:0:
256,192,111879,1,8,0:0:0:0:
256,192,111921,1,0,0:0:0:0:
256,192,111964,1,8,0:0:0:0:
256,192,112007,1,0,0:0:0:0:
256,192,112050,1,0,0:0:0:0:
256,192,112092,1,8,0:0:0:0:
256,192,112135,1,8,0:0:0:0:
256,192,112178,1,0,0:0:0:0:
256,192,112221,1,8,0:0:0:0:
256,192,112263,1,0,0:0:0:0:
256,192,112306,1,0,0:0:0:0:
256,192,112349,1,8,0:0:0:0:
256,192,112392,1,8,0:0:0:0:
256,192,112434,1,0,0:0:0:0:
256,192,112477,1,8,0:0:0:0:
256,192,112520,1,0,0:0:0:0:
256,192,112562,1,0,0:0:0:0:
256,192,112605,1,8,0:0:0:0:
256,192,112648,1,0,0:0:0:0:
256,192,112691,1,0,0:0:0:0:
256,192,112733,1,0,0:0:0:0:
256,192,112776,1,8,0:0:0:0:
256,192,112819,1,0,0:0:0:0:
256,192,112862,1,0,0:0:0:0:
256,192,112926,1,0,0:0:0:0:
256,192,112990,1,0,0:0:0:0:
256,192,113054,1,8,0:0:0:0:
256,192,113118,1,0,0:0:0:0:
256,192,113182,1,0,0:0:0:0:
256,192,113246,1,8,0:0:0:0:
256,192,113310,1,0,0:0:0:0:
256,192,113374,1,8,0:0:0:0:
256,192,113439,1,0,0:0:0:0:
256,192,113503,1,0,0:0:0:0:
256,192,113567,1,8,0:0:0:0:
256,192,113631,1,0,0:0:0:0:
256,192,113695,1,8,0:0:0:0:
256,192,113759,1,8,0:0:0:0:
256,192,113823,1,8,0:0:0:0:
256,192,113887,1,0,0:0:0:0:
256,192,113951,1,0,0:0:0:0:
256,192,114015,1,0,0:0:0:0:
256,192,114080,1,8,0:0:0:0:
256,192,114144,1,0,0:0:0:0:
256,192,114208,1,0,0:0:0:0:
256,192,114272,1,8,0:0:0:0:
256,192,114336,1,8,0:0:0:0:
256,192,114400,1,8,0:0:0:0:
256,192,114464,1,0,0:0:0:0:
256,192,114528,1,0,0:0:0:0:
256,192,114592,1,8,0:0:0:0:
256,192,114656,1,0,0:0:0:0:
256,192,114699,1,8,0:0:0:0:
256,192,114742,1,0,0:0:0:0:
256,192,114785,1,8,0:0:0:0:
256,192,114827,1,8,0:0:0:0:
256,192,114870,1,0,0:0:0:0:
256,192,114913,1,8,0:0:0:0:
256,192,114956,1,8,0:0:0:0:
256,192,114998,1,8,0:0:0:0:
256,192,115041,1,0,0:0:0:0:
256,192,115084,1,0,0:0:0:0:
256,192,115127,1,0,0:0:0:0:
256,192,115169,1,8,0:0:0:0:
256,192,115212,1,8,0:0:0:0:
256,192,115255,1,0,0:0:0:0:
256,192,115298,1,8,0:0:0:0:
256,192,115340,1,0,0:0:0:0:
256,192,115383,1,0,0:0:0:0:
256,192,115426,1,8,0:0:0:0:
256,192,115468,1,8,0:0:0:0:
256,192,115511,1,0,0:0:0:0:
256,192,115554,1,8,0:0:0:0:
256,192,115597,1,0,0:0:0:0:
256,192,115639,1,0,0:0:0:0:
256,192,115682,1,8,0:0:0:0:
256,192,115746,1,0,0:0:0:0:
256,192,115810,1,0,0:0:0:0:
256,192,115874,1,8,0:0:0:0:
256,192,115939,1,0,0:0:0:0:
256,192,115981,1,0,0:0:0:0:
256,192,116024,1,0,0:0:0:0:
256,192,116067,1,8,0:0:0:0:
256,192,116109,1,8,0:0:0:0:
256,192,116152,1,8,0:0:0:0:
256,192,116195,1,0,0:0:0:0:
256,192,116238,1,0,0:0:0:0:
256,192,116280,1,8,0:0:0:0:
256,192,116323,1,0,0:0:0:0:
256,192,116366,1,8,0:0:0:0:
256,192,116409,1,8,0:0:0:0:
256,192,116451,1,0,0:0:0:0:
256,192,116494,1,8,0:0:0:0:
256,192,116537,1,0,0:0:0:0:
256,192,116580,1,8,0:0:0:0:
256,192,116622,1,8,0:0:0:0:
256,192,116665,1,8,0:0:0:0:
256,192,116708,1,0,0:0:0:0:
256,192,116750,1,0,0:0:0:0:
256,192,116793,1,8,0:0:0:0:
256,192,116836,1,0,0:0:0:0:
256,192,116879,1,8,0:0:0:0:
256,192,116921,1,8,0:0:0:0:
256,192,116964,1,0,0:0:0:0:
256,192,117028,1,0,0:0:0:0:
256,192,117092,1,0,0:0:0:0:
256,192,117156,1,8,0:0:0:0:
256,192,117221,1,0,0:0:0:0:
256,192,117285,1,0,0:0:0:0:
256,192,117349,1,0,0:0:0:0:
256,192,117413,1,8,0:0:0:0:
256,192,117477,1,0,0:0:0:0:
256,192,117541,1,0,0:0:0:0:
256,192,117605,1,8,0:0:0:0:
256,192,117669,1,8,0:0:0:0:
256,192,117733,1,8,0:0:0:0:
256,192,117798,1,0,0:0:0:0:
256,192,117862,1,8,0:0:0:0:
256,192,117926,1,8,0:0:0:0:
256,192,117990,1,0,0:0:0:0:
256,192,118054,1,0,0:0:0:0:
256,192,118118,1,0,0:0:0:0:
256,192,118182,1,8,0:0:0:0:
256,192,118246,1,0,0:0:0:0:
256,192,118310,1,0,0:0:0:0:
256,192,118374,1,0,0:0:0:0:
256,192,118439,1,8,0:0:0:0:
256,192,118503,1,0,0:0:0:0:
256,192,118567,1,0,0:0:0:0:
256,192,118631,1,8,0:0:0:0:
256,192,118695,1,8,0:0:0:0:
256,192,118759,1,0,0:0:0:0:
256,192,118823,1,8,0:0:0:0:
256,192,118887,1,8,0:0:0:0:
256,192,118951,1,8,0:0:0:0:
256,192,119015,1,0,0:0:0:0:
256,192,119058,1,0,0:0:0:0:
256,192,119101,1,0,0:0:0:0:
256,192,119144,1,8,0:0:0:0:
256,192,119186,1,0,0:0:0:0:
256,192,119229,1,8,0:0:0:0:
256,192,119272,1,0,0:0:0:0:
256,192,119315,1,0,0:0:0:0:
256,192,119357,1,0,0:0:0:0:
256,192,119400,1,8,0:0:0:0:
256,192,119443,1,8,0:0:0:0:
256,192,119486,1,8,0:0:0:0:
256,192,119528,1,0,0:0:0:0:
256,192,119592,1,0,0:0:0:0:
256,192,119656,1,8,0:0:0:0:
256,192,119721,1,8,0:0:0:0:
256,192,119785,1,0,0:0:0:0:
256,192,119827,1,0,0:0:0:0:
256,192,119870,1,8,0:0:0:0:
256,192,119913,1,0,0:0:0:0:
256,192,119956,1,8,0:0:0:0:
256,192,119998,1,0,0:0:0:0:
256,192,120041,1,8,0:0:0:0:
256,192,120084,1,0,0:0:0:0:
256,192,120127,1,0,0:0:0:0:
256,192,120169,1,8,0:0:0:0:
256,192,120212,1,0,0:0:0:0:
256,192,120255,1,0,0:0:0:0:
256,192,120298,1,8,0:0:0:0:
256,192,120340,1,8,0:0:0:0:
256,192,120383,1,0,0:0:0:0:
256,192,120426,1,8,0:0:0:0:
256,192,120468,1,0,0:0:0:0:
256,192,120511,1,0,0:0:0:0:
256,192,120554,1,8,0:0:0:0:
256,192,120618,1,8,0:0:0:0:
256,192,120682,1,0,0:0:0:0:
256,192,120746,1,0,0:0:0:0:
256,192,120810,1,8,0:0:0:0:
256,192,120874,1,0,0:0:0:0:
256,192,120939,1,0,0:0:0:0:
256,192,121003,1,0,0:0:0:0:
256,192,121067,1,0,0:0:0:0:
256,192,121109,1,0,0:0:0:0:
256,192,121152,1,0,0:0:0:0:
256,192,121195,1,8,0:0:0:0:
256,192,121238,1,8,0:0:0:0:
256,192,121280,1,8,0:0:0:0:
256,192,121323,1,0,0:0:0:0:
256,192,121366,1,0,0:0:0:0:
256,192,121409,1,0,0:0:0:0:
256,192,121451,1,8,0:0:0:0:
256,192,121494,1,8,0:0:0:0:
256,192,121537,1,8,0:0:0:0:
256,192,121580,1,0,0:0:0:0:
256,192,121622,1,0,0:0:0:0:
256,192,121665,1,8,0:0:0:0:
256,192,121708,1,0,0:0:0:0:
256,192,121750,1,0,0:0:0:0:
256,192,121793,1,8,0:0:0:0:
256,192,121836,1,0,0:0:0:0:
256,192,121900,1,0,0:0:0:0:
256,192,121964,1,8,0:0:0:0:
256,192,122028,1,8,0:0:0:0:
256,192,122092,1,0,0:0:0:0:
256,192,122135,1,0,0:0:0:0:
256,192,122178,1,0,0:0:0:0:
256,192,122221,1,8,0:0:0:0:
256,192,122263,1,8,0:0:0:0:
256,192,122306,1,8,0:0:0:0:
256,192,122349,1,0,0:0:0:0:
256,192,122392,1,0,0:0:0:0:
256,192,122434,1,0,0:0:0:0:
256,192,122477,1,8,0:0:0:0:
256,192,122520,1,8,0:0:0:0:
256,192,122562,1,8,0:0:0:0:
256,192,122605,1,0,0:0:0:0:
256,192,122648,1,8,0:0:0:0:
256,192,122691,1,0,0:0:0:0:
256,192,122733,1,8,0:0:0:0:
256,192,122776,1,8,0:0:0:0:
256,192,122819,1,8,0:0:0:0:
256,192,122862,1,0,0:0:0:0:
256,192,122926,1,8,0:0:0:0:
256,192,122990,1,8,0:0:0:0:
256,192,123054,1,8,0:0:0:0:
256,192,123118,1,0,0:0:0:0:
256,192,123182,1,0,0:0:0:0:
256,192,123246,1,0,0:0:0:0:
256,192,123310,1,0,0:0:0:0:
256,192,123374,1,8,0:0:0:0:
256,192,123439,1,8,0:0:0:0:
256,192,123503,1,8,0:0:0:0:
256,192,123567,1,8,0:0:0:0:
256,192,123631,1,0,0:0:0:0:
256,192,123695,1,0,0:0:0:0:
256,192,123759,1,0,0:0:0:0:
256,192,123823,1,0,0:0:0:0:
256,192,123887,1,8,0:0:0:0:
256,192,123951,1,8,0:0:0:0:
256,192,124015,1,8,0:0:0:0:
256,192,124080,1,8,0:0:0:0:
256,192,124144,1,0,0:0:0:0:
256,192,124208,1,0,0:0:0:0:
256,192,124272,1,8,0:0:0:0:
256,192,124336,1,0,0:0:0:0:
256,192,124400,1,8,0:0:0:0:
256,192,124464,1,8,0:0:0:0:
256,192,124528,1,0,0:0:0:0:
256,192,124592,1,8,0:0:0:0:
256,192,124656,1,8,0:0:0:0:
256,192,124721,1,0,0:0:0:0:
256,192,124785,1,8,0:0:0:0:
256,192,124849,1,8,0:0:0:0:
256,192,124913,1,0,0:0:0:0:
256,192,124977,1,8,0:0:0:0:
256,192,125041,1,8,0:0:0:0:
256,192,125105,1,8,0:0:0:0:
256,192,125169,1,8,0:0:0:0:
256,192,125233,1,0,0:0:0:0:
256,192,125298,1,8,0:0:0:0:
256,192,125340,1,8,0:0:0:0:
256,192,125383,1,0,0:0:0:0:
256,192,125426,1,8,0:0:0:0:
256,192,125490,1,8,0:0:0:0:
256,192,125554,1,0,0:0:0:0:
256,192,125618,1,0,0:0:0:0:
256,192,125682,1,8,0:0:0:0:
256,192,125746,1,0,0:0:0:0:
256,192,125810,1,8,0:0:0:0:
256,192,125853,1,0,0:0:0:0:
256,192,125896,1,0,0:0:0:0:
256,192,125939,1,8,0:0:0:0:
256,192,125981,1,8,0:0:0:0:
256,192,126024,1,0,0:0:0:0:
256,192,126067,1,8,0:0:0:0:
256,192,126109,1,0,0:0:0:0:
256,192,126152,1,8,0:0:0:0:
256,192,126195,1,8,0:0:0:0:
256,192,126259,1,0,0:0:0:0:
256,192,126323,1,0,0:0:0:0:
256,192,126387,1,8,0:0:0:0:
256,192,126451,1,8,0:0:0:0:
256,192,126515,1,0,0:0:0:0:
256,192,126580,1,8,0:0:0:0:
256,192,126644,1,8,0:0:0:0:
256,192,126708,1,8,0:0:0:0:
256,192,126772,1,0,0:0:0:0:
256,192,126836,1,0,0:0:0:0:
256,192,126900,1,8,0:0:0:0:
256,192,126964,1,8,0:0:0:0:
256,192,127028,1,0,0:0:0:0:
256,192,127092,1,8,0:0:0:0:
256,192,127156,1,8,0:0:0:0:
256,192,127221,1,8,0:0:0:0:
256,192,127285,1,0,0:0:0:0:
256,192,127349,1,0,0:0:0:0:
256,192,127392,1,0,0:0:0:0:
256,192,127434,1,8,0:0:0:0:
256,192,127477,1,8,0:0:0:0:
256,192,127541,1,0,0:0:0:0:
256,192,127605,1,0,0:0:0:0:
256,192,127648,1,8,0:0:0:0:
256,192,127691,1,0,0:0:0:0:
256,192,127733,1,8,0:0:0:0:
256,192,127798,1,0,0:0:0:0:
256,192,127862,1,0,0:0:0:0:
256,192,127926,1,8,0:0:0:0:
256,192,127990,1,0,0:0:0:0:
256,192,128054,1,0,0:0:0:0:
256,192,128118,1,8,0:0:0:0:
256,192,128182,1,8,0:0:0:0:
256,192,128246,1,0,0:0:0:0:
256,192,128310,1,0,0:0:0:0:
256,192,128374,1,8,0:0:0:0:
256,192,128439,1,0,0:0:0:0:
256,192,128503,1,8,0:0:0:0:
256,192,128545,1,8,0:0:0:0:
256,192,128588,1,0,0:0:0:0:
256,192,128631,1,0,0:0:0:0:
256,192,128695,1,0,0:0:0:0:
256,192,128759,1,8,0:0:0:0:
256,192,128802,1,0,0:0:0:0:
256,192,128845,1,0,0:0:0:0:
256,192,128887,1,8,0:0:0:0:
256,192,128951,1,0,0:0:0:0:
256,192,129015,1,0,0:0:0:0:
256,192,129058,1,0,0:0:0:0:
256,192,129101,1,0,0:0:0:0:
256,192,129144,1,8,0:0:0:0:
256,192,129186,1,8,0:0:0:0:
256,192,129229,1,8,0:0:0:0:
256,192,129272,1,0,0:0:0:0:
256,192,129336,1,8,0:0:0:0:
256,192,129400,1,0,0:0:0:0:
256,192,129464,1,8,0:0:0:0:
256,192,129528,1,8,0:0:0:0:
256,192,129592,1,0,0:0:0:0:
256,192,129656,1,0,0:0:0:0:
256,192,129721,1,8,0:0:0:0:
256,192,129785,1,0,0:0:0:0:
256,192,129849,1,0,0:0:0:0:
256,192,129913,1,8,0:0:0:0:
256,192,129977,1,0,0:0:0:0:
256,192,130041,1,0,0:0:0:0:
256,192,130105,1,8,0:0:0:0:
256,192,130169,1,8,0:0:0:0:
256,192,130212,1,0,0:0:0:0:
256,192,130255,1,0,0:0:0:0:
256,192,130297,1,8,0:0:0:0:
256,192,130362,1,0,0:0:0:0:
256,192,130426,1,8,0:0:0:0:
256,192,130490,1,0,0:0:0:0:
256,192,130554,1,8,0:0:0:0:
256,192,130618,1,8,0:0:0:0:
256,192,130682,1,0,0:0:0:0:
256,192,130746,1,0,0:0:0:0:
256,192,130810,1,8,0:0:0:0:
256,192,130874,1,0,0:0:0:0:
256,192,130939,1,0,0:0:0:0:
256,192,131003,1,8,0:0:0:0:
256,192,131067,1,0,0:0:0:0:
256,192,131131,1,0,0:0:0:0:
256,192,131195,1,8,0:0:0:0:
256,192,131259,1,8,0:0:0:0:
256,192,131323,1,8,0:0:0:0:
256,192,131366,1,0,0:0:0:0:
256,192,131409,1,0,0:0:0:0:
256,192,131451,1,8,0:0:0:0:
256,192,131494,1,0,0:0:0:0:
256,192,131537,1,0,0:0:0:0:
256,192,131580,1,8,0:0:0:0:
256,192,131622,1,8,0:0:0:0:
256,192,131665,1,0,0:0:0:0:
256,192,131708,1,8,0:0:0:0:
256,192,131750,1,0,0:0:0:0:
256,192,131793,1,0,0:0:0:0:
256,192,131836,1,8,0:0:0:0:
256,192,131879,1,0,0:0:0:0:
256,192,131921,1,0,0:0:0:0:
256,192,131964,1,8,0:0:0:0:
256,192,132007,1,8,0:0:0:0:
256,192,132050,1,0,0:0:0:0:
256,192,132092,1,0,0:0:0:0:
256,192,132135,1,8,0:0:0:0:
256,192,132178,1,8,0:0:0:0:
256,192,132221,1,0,0:0:0:0:
256,192,132263,1,8,0:0:0:0:
256,192,132306,1,8,0:0:0:0:
256,192,132349,1,8,0:0:0:0:
256,192,132392,1,0,0:0:0:0:
256,192,132434,1,0,0:0:0:0:
256,192,132477,1,8,0:0:0:0:
256,192,132520,1,8,0:0:0:0:
256,192,132562,1,0,0:0:0:0:
256,192,132605,1,8,0:0:0:0:
256,192,132648,1,0,0:0:0:0:
256,192,132691,1,0,0:0:0:0:
256,192,132733,1,8,0:0:0:0:
256,192,132776,1,0,0:0:0:0:
256,192,132819,1,0,0:0:0:0:
256,192,132862,1,8,0:0:0:0:
256,192,132926,1,8,0:0:0:0:
256,192,132990,1,0,0:0:0:0:
256,192,133054,1,0,0:0:0:0:
256,192,133118,1,8,0:0:0:0:
256,192,133182,1,0,0:0:0:0:
256,192,133246,1,8,0:0:0:0:
256,192,133310,1,8,0:0:0:0:
256,192,133374,1,0,0:0:0:0:
256,192,133439,1,0,0:0:0:0:
256,192,133503,1,0,0:0:0:0:
256,192,133567,1,8,0:0:0:0:
256,192,133631,1,0,0:0:0:0:
256,192,133695,1,0,0:0:0:0:
256,192,133759,1,0,0:0:0:0:
256,192,133823,1,8,0:0:0:0:
256,192,133887,1,8,0:0:0:0:
256,192,133951,1,0,0:0:0:0:
256,192,134015,1,0,0:0:0:0:
256,192,134080,1,8,0:0:0:0:
256,192,134144,1,8,0:0:0:0:
256,192,134208,1,0,0:0:0:0:
256,192,134272,1,8,0:0:0:0:
256,192,134336,1,8,0:0:0:0:
256,192,134400,1,0,0:0:0:0:
256,192,134464,1,0,0:0:0:0:
256,192,134528,1,0,0:0:0:0:
256,192,134592,1,8,0:0:0:0:
256,192,134656,1,0,0:0:0:0:
256,192,134721,1,0,0:0:0:0:
256,192,134785,1,0,0:0:0:0:
256,192,134849,1,8,0:0:0:0:
256,192,134913,1,8,0:0:0:0:
256,192,134977,1,0,0:0:0:0:
256,192,135041,1,0,0:0:0:0:
256,192,135105,1,8,0:0:0:0:
256,192,135169,1,8,0:0:0:0:
256,192,135233,1,0,0:0:0:0:
256,192,135298,1,8,0:0:0:0:
256,192,135362,1,8,0:0:0:0:
256,192,135426,1,0,0:0:0:0:
256,192,135468,1,0,0:0:0:0:
256,192,135511,1,0,0:0:0:0:
256,192,135554,1,8,0:0:0:0:
256,192,135597,1,8,0:0:0:0:
256,192,135639,1,8,0:0:0:0:
256,192,135682,1,0,0:0:0:0:
256,192,135725,1,0,0:0:0:0:
256,192,135768,1,8,0:0:0:0:
256,192,135810,1,0,0:0:0:0:
256,192,135853,1,8,0:0:0:0:
256,192,135896,1,8,0:0:0:0:
256,192,135939,1,0,0:0:0:0:
256,192,136003,1,8,0:0:0:0:
256,192,136067,1,8,0:0:0:0:
256,192,136131,1,8,0:0:0:0:
256,192,136195,1,0,0:0:0:0:
256,192,136259,1,8,0:0:0:0:
256,192,136323,1,8,0:0:0:0:
256,192,136387,1,0,0:0:0:0:
256,192,136451,1,8,0:0:0:0:
256,192,136494,1,8,0:0:0:0:
256,192,136537,1,0,0:0:0:0:
256,192,136580,1,8,0:0:0:0:
256,192,136622,1,0,0:0:0:0:
256,192,136665,1,0,0:0:0:0:
256,192,136708,1,8,0:0:0:0:
256,192,136750,1,8,0:0:0:0:
256,192,136793,1,0,0:0:0:0:
256,192,136836,1,8,0:0:0:0:
256,192,136879,1,0,0:0:0:0:
256,192,136921,1,0,0:0:0:0:
256,192,136964,1,8,0:0:0:0:
256,192,137007,1,8,0:0:0:0:
256,192,137050,1,0,0:0:0:0:
256,192,137092,1,8,0:0:0:0:
256,192,137135,1,0,0:0:0:0:
256,192,137178,1,0,0:0:0:0:
256,192,137221,1,8,0:0:0:0:
256,192,137263,1,0,0:0:0:0:
256,192,137306,1,0,0:0:0:0:
256,192,137349,1,0,0:0:0:0:
256,192,137392,1,8,0:0:0:0:
256,192,137434,1,0,0:0:0:0:
256,192,137477,1,0,0:0:0:0:
256,192,137541,1,0,0:0:0:0:
256,192,137605,1,0,0:0:0:0:
256,192,137669,1,8,0:0:0:0:
256,192,137733,1,0,0:0:0:0:
256,192,137798,1,0,0:0:0:0:
256,192,137862,1,8,0:0:0:0:
256,192,137926,1,0,0:0:0:0:
256,192,137990,1,8,0:0:0:0:
256,192,138054,1,0,0:0:0:0:
256,192,138118,1,0,0:0:0:0:
256,192,138182,1,8,0:0:0:0:
256,192,138246,1,0,0:0:0:0:
256,192,138310,1,8,0:0:0:0:
256,192,138374,1,8,0:0:0:0:
256,192,138439,1,8,0:0:0:0:
256,192,138503,1,0,0:0:0:0:
256,192,138567,1,0,0:0:0:0:
256,192,138631,1,0,0:0:0:0:
256,192,138695,1,8,0:0:0:0:
256,192,138759,1,0,0:0:0:0:
256,192,138823,1,0,0:0:0:0:
256,192,138887,1,8,0:0:0:0:
256,192,138951,1,8,0:0:0:0:
256,192,139015,1,8,0:0:0:0:
256,192,139080,1,0,0:0:0:0:
256,192,139144,1,0,0:0:0:0:
256,192,139208,1,8,0:0:0:0:
256,192,139272,1,0,0:0:0:0:
256,192,139315,1,8,0:0:0:0:
256,192,139357,1,0,0:0:0:0:
256,192,139400,1,8,0:0:0:0:
256,192,139443,1,8,0:0:0:0:
256,192,139486,1,0,0:0:0:0:
256,192,139528,1,8,0:0:0:0:
256,192,139571,1,8,0:0:0:0:
256,192,139614,1,8,0:0:0:0:
256,192,139656,1,0,0:0:0:0:
256,192,139699,1,0,0:0:0:0:
256,192,139742,1,0,0:0:0:0:
256,192,139785,1,8,0:0:0:0:
256,192,139827,1,8,0:0:0:0:
256,192,139870,1,0,0:0:0:0:
256,192,139913,1,8,0:0:0:0:
256,192,139956,1,0,0:0:0:0:
256,192,139998,1,0,0:0:0:0:
256,192,140041,1,8,0:0:0:0:
256,192,140084,1,8,0:0:0:0:
256,192,140127,1,0,0:0:0:0:
256,192,140169,1,8,0:0:0:0:
256,192,140212,1,0,0:0:0:0:
256,192,140255,1,0,0:0:0:0:
256,192,140298,1,8,0:0:0:0:
256,192,140362,1,0,0:0:0:0:
256,192,140426,1,0,0:0:0:0:
256,192,140490,1,8,0:0:0:0:
256,192,140554,1,0,0:0:0:0:
256,192,140597,1,0,0:0:0:0:
256,192,140639,1,0,0:0:0:0:
256,192,140682,1,8,0:0:0:0:
256,192,140725,1,8,0:0:0:0:
256,192,140768,1,8,0:0:0:0:
256,192,140810,1,0,0:0:0:0:
256,192,140853,1,0,0:0:0:0:
256,192,140896,1,8,0:0:0:0:
256,192,140939,1,0,0:0:0:0:
256,192,140981,1,8,0:0:0:0:
256,192,141024,1,8,0:0:0:0:
256,192,141067,1,0,0:0:0:0:
256,192,141109,1,8,0:0:0:0:
256,192,141152,1,0,0:0:0:0:
256,192,141195,1,8,0:0:0:0:
256,192,141238,1,8,0:0:0:0:
256,192,141280,1,8,0:0:0:0:
256,192,141323,1,0,0:0:0:0:
256,192,141366,1,0,0:0:0:0:
256,192,141409,1,8,0:0:0:0:
256,192,141451,1,0,0:0:0:0:
256,192,141494,1,8,0:0:0:0:
256,192,141537,1,8,0:0:0:0:
256,192,141580,1,0,0:0:0:0:
256,192,141644,1,0,0:0:0:0:
256,192,141708,1,0,0:0:0:0:
256,192,141772,1,8,0:0:0:0:
256,192,141836,1,0,0:0:0:0:
256,192,141900,1,0,0:0:0:0:
256,192,141964,1,0,0:0:0:0:
256,192,142028,1,8,0:0:0:0:
256,192,142092,1,0,0:0:0:0:
256,192,142156,1,0,0:0:0:0:
256,192,142221,1,8,0:0:0:0:
256,192,142285,1,8,0:0:0:0:
256,192,142349,1,8,0:0:0:0:
256,192,142413,1,0,0:0:0:0:
256,192,142477,1,8,0:0:0:0:
256,192,142541,1,8,0:0:0:0:
256,192,142605,1,0,0:0:0:0:
256,192,142669,1,0,0:0:0:0:
256,192,142733,1,0,0:0:0:0:
256,192,142798,1,8,0:0:0:0:
256,192,142862,1,0,0:0:0:0:
256,192,142926,1,0,0:0:0:0:
256,192,142990,1,0,0:0:0:0:
256,192,143054,1,8,0:0:0:0:
256,192,143118,1,0,0:0:0:0:
256,192,143182,1,0,0:0:0:0:
256,192,143246,1,8,0:0:0:0:
256,192,143310,1,8,0:0:0:0:
256,192,143374,1,0,0:0:0:0:
256,192,143439,1,8,0:0:0:0:
256,192,143503,1,8,0:0:0:0:
256,192,143567,1,8,0:0:0:0:
256,192,143631,1,0,0:0:0:0:
256,192,143674,1,0,0:0:0:0:
256,192,143716,1,0,0:0:0:0:
256,192,143759,1,8,0:0:0:0:
256,192,143802,1,0,0:0:0:0:
256,192,143845,1,8,0:0:0:0:
256,192,143887,1,0,0:0:0:0:
256,192,143930,1,0,0:0:0:0:
256,192,143973,1,0,0:0:0:0:
256,192,144015,1,8,0:0:0:0:
256,192,144058,1,8,0:0:0:0:
256,192,144101,1,8,0:0:0:0:
256,192,144144,1,0,0:0:0:0:
256,192,144208,1,0,0:0:0:0:
256,192,144272,1,8,0:0:0:0:
256,192,144336,1,8,0:0:0:0:
256,192,144400,1,0,0:0:0:0:
256,192,144443,1,0,0:0:0:0:
256,192,144486,1,8,0:0:0:0:
256,192,144528,1,0,0:0:0:0:
256,192,144571,1,8,0:0:0:0:
256,192,144614,1,0,0:0:0:0:
256,192,144656,1,8,0:0:0:0:
256,192,144699,1,0,0:0:0:0:
256,192,144742,1,0,0:0:0:0:
256,192,144785,1,8,0:0:0:0:
256,192,144827,1,0,0:0:0:0:
256,192,144870,1,0,0:0:0:0:
256,192,144913,1,8,0:0:0:0:
256,192,144956,1,8,0:0:0:0:
256,192,144998,1,0,0:0:0:0:
256,192,145041,1,8,0:0:0:0:
256,192,145084,1,0,0:0:0:0:
256,192,145127,1,0,0:0:0:0:
256,192,145169,1,8,0:0:0:0:
256,192,145233,1,8,0:0:0:0:
256,192,145298,1,0,0:0:0:0:
256,192,145362,1,0,0:0:0:0:
256,192,145426,1,8,0:0:0:0:
256,192,145490,1,0,0:0:0:0:
256,192,145554,1,0,0:0:0:0:
256,192,145618,1,0,0:0:0:0:
256,192,145682,1,0,0:0:0:0:
256,192,145725,1,0,0:0:0:0:
256,192,145768,1,0,0:0:0:0:
256,192,145810,1,8,0:0:0:0:
256,192,145853,1,8,0:0:0:0:
256,192,145896,1,8,0:0:0:0:
256,192,145939,1,0,0:0:0:0:
256,192,145981,1,0,0:0:0:0:
256,192,146024,1,0,0:0:0:0:
256,192,146067,1,8,0:0:0:0:
256,192,146109,1,8,0:0:0:0:
256,192,146152,1,8,0:0:0:0:
256,192,146195,1,0,0:0:0:0:
256,192,146238,1,0,0:0:0:0:
256,192,146280,1,8,0:0:0:0:
256,192,146323,1,0,0:0:0:0:
256,192,146366,1,0,0:0:0:0:
256,192,146409,1,8,0:0:0:0:
256,192,146451,1,0,0:0:0:0:
256,192,146515,1,0,0:0:0:0:
256,192,146580,1,8,0:0:0:0:
256,192,146644,1,8,0:0:0:0:
256,192,146708,1,0,0:0:0:0:
256,192,146750,1,0,0:0:0:0:
256,192,146793,1,0,0:0:0:0:
256,192,146836,1,8,0:0:0:0:
256,192,146879,1,8,0:0:0:0:
256,192,146921,1,8,0:0:0:0:
256,192,146964,1,0,0:0:0:0:
256,192,147007,1,0,0:0:0:0:
256,192,147050,1,0,0:0:0:0:
256,192,147092,1,8,0:0:0:0:
256,192,147135,1,8,0:0:0:0:
256,192,147178,1,8,0:0:0:0:
256,192,147221,1,0,0:0:0:0:
256,192,147263,1,8,0:0:0:0:
256,192,147306,1,0,0:0:0:0:
256,192,147349,1,8,0:0:0:0:
256,192,147392,1,8,0:0:0:0:
256,192,147434,1,8,0:0:0:0:
256,192,147477,1,0,0:0:0:0:
256,192,147541,1,8,0:0:0:0:
256,192,147605,1,8,0:0:0:0:
256,192,147669,1,8,0:0:0:0:
256,192,147733,1,0,0:0:0:0:
256,192,147798,1,0,0:0:0:0:
256,192,147862,1,0,0:0:0:0:
256,192,147926,1,0,0:0:0:0:
256,192,147990,1,8,0:0:0:0:
256,192,148054,1,8,0:0:0:0:
256,192,148118,1,8,0:0:0:0:
256,192,148182,1,8,0:0:0:0:
256,192,148246,1,0,0:0:0:0:
256,192,148310,1,0,0:0:0:0:
256,192,148374,1,0,0:0:0:0:
256,192,148439,1,0,0:0:0:0:
256,192,148503,1,8,0:0:0:0:
256,192,148567,1,8,0:0:0:0:
256,192,148631,1,8,0:0:0:0:
256,192,148695,1,8,0:0:0:0:
256,192,148759,1,0,0:0:0:0:
256,192,148823,1,0,0:0:0:0:
256,192,148887,1,8,0:0:0:0:
256,192,148951,1,0,0:0:0:0:
256,192,149015,1,8,0:0:0:0:
256,192,149080,1,8,0:0:0:0:
256,192,149144,1,0,0:0:0:0:
256,192,149208,1,8,0:0:0:0:
256,192,149272,1,8,0:0:0:0:
256,192,149336,1,0,0:0:0:0:
256,192,149400,1,8,0:0:0:0:
256,192,149464,1,8,0:0:0:0:
256,192,149528,1,0,0:0:0:0:
256,192,149592,1,8,0:0:0:0:
256,192,149656,1,8,0:0:0:0:
256,192,149721,1,8,0:0:0:0:
256,192,149785,1,8,0:0:0:0:
256,192,149849,1,0,0:0:0:0:
256,192,149913,1,8,0:0:0:0:
256,192,149956,1,8,0:0:0:0:
256,192,149998,1,0,0:0:0:0:
256,192,150041,1,8,0:0:0:0:
256,192,150105,1,8,0:0:0:0:
256,192,150169,1,0,0:0:0:0:
256,192,150233,1,0,0:0:0:0:
256,192,150298,1,8,0:0:0:0:
256,192,150362,1,0,0:0:0:0:
256,192,150426,1,8,0:0:0:0:
256,192,150468,1,0,0:0:0:0:
256,192,150511,1,0,0:0:0:0:
256,192,150554,1,8,0:0:0:0:
256,192,150597,1,8,0:0:0:0:
256,192,150639,1,0,0:0:0:0:
256,192,150682,1,8,0:0:0:0:
256,192,150725,1,0,0:0:0:0:
256,192,150768,1,8,0:0:0:0:
256,192,150810,1,8,0:0:0:0:
256,192,150874,1,0,0:0:0:0:
256,192,150939,1,0,0:0:0:0:
256,192,151003,1,8,0:0:0:0:
256,192,151067,1,8,0:0:0:0:
256,192,151131,1,0,0:0:0:0:
256,192,151195,1,8,0:0:0:0:
256,192,151259,1,8,0:0:0:0:
256,192,151323,1,8,0:0:0:0:
256,192,151387,1,0,0:0:0:0:
256,192,151451,1,0,0:0:0:0:
256,192,151515,1,8,0:0:0:0:
256,192,151580,1,8,0:0:0:0:
256,192,151644,1,0,0:0:0:0:
256,192,151708,1,8,0:0:0:0:
256,192,151772,1,8,0:0:0:0:
256,192,151836,1,8,0:0:0:0:
256,192,151900,1,0,0:0:0:0:
256,192,151964,1,0,0:0:0:0:
256,192,152007,1,0,0:0:0:0:
256,192,152050,1,8,0:0:0:0:
256,192,152092,1,8,0:0:0:0:
256,192,152156,1,0,0:0:0:0:
256,192,152221,1,0,0:0:0:0:
256,192,152263,1,8,0:0:0:0:
256,192,152306,1,0,0:0:0:0:
256,192,152349,1,8,0:0:0:0:
256,192,152413,1,0,0:0:0:0:
256,192,152477,1,0,0:0:0:0:
256,192,152541,1,8,0:0:0:0:
256,192,152605,1,0,0:0:0:0:
256,192,152669,1,0,0:0:0:0:
256,192,152733,1,8,0:0:0:0:
256,192,152798,1,8,0:0:0:0:
256,192,152862,1,0,0:0:0:0:
256,192,152926,1,0,0:0:0:0:
256,192,152990,1,8,0:0:0:0:
256,192,153054,1,0,0:0:0:0:
256,192,153118,1,8,0:0:0:0:
256,192,153161,1,8,0:0:0:0:
256,192,153203,1,0,0:0:0:0:
256,192,153246,1,0,0:0:0:0:
256,192,153310,1,0,0:0:0:0:
256,192,153374,1,8,0:0:0:0:
256,192,153417,1,0,0:0:0:0:
256,192,153460,1,0,0:0:0:0:
256,192,153503,1,8,0:0:0:0:
256,192,153567,1,0,0:0:0:0:
256,192,153631,1,0,0:0:0:0:
256,192,153674,1,0,0:0:0:0:
256,192,153716,1,0,0:0:0:0:
256,192,153759,1,8,0:0:0:0:
256,192,153802,1,8,0:0:0:0:
256,192,153845,1,8,0:0:0:0:
256,192,153887,1,0,0:0:0:0:
256,192,153951,1,8,0:0:0:0:
256,192,154015,1,0,0:0:0:0:
256,192,154080,1,8,0:0:0:0:
256,192,154144,1,8,0:0:0:0:
256,192,154208,1,0,0:0:0:0:
256,192,154272,1,0,0:0:0:0:
256,192,154336,1,8,0:0:0:0:
256,192,154400,1,0,0:0:0:0:
256,192,154464,1,0,0:0:0:0:
256,192,154528,1,8,0:0:0:0:
256,192,154592,1,0,0:0:0:0:
256,192,154656,1,0,0:0:0:0:
256,192,154721,1,8,0:0:0:0:
256,192,154785,1,8,0:0:0:0:
256,192,154827,1,0,0:0:0:0:
256,192,154870,1,0,0:0:0:0:
256,192,154913,1,8,0:0:0:0:
256,192,154977,1,0,0:0:0:0:
256,192,155041,1,8,0:0:0:0:
256,192,155105,1,0,0:0:0:0:
256,192,155169,1,8,0:0:0:0:
256,192,155233,1,8,0:0:0:0:
256,192,155298,1,0,0:0:0:0:
256,192,155362,1,0,0:0:0:0:
256,192,155426,1,8,0:0:0:0:
256,192,155490,1,0,0:0:0:0:
256,192,155554,1,0,0:0:0:0:
256,192,155618,1,8,0:0:0:0:
256,192,155682,1,0,0:0:0:0:
256,192,155746,1,0,0:0:0:0:
256,192,155810,1,8,0:0:0:0:
256,192,155874,1,8,0:0:0:0:
256,192,155939,1,8,0:0:0:0:
256,192,155981,1,0,0:0:0:0:
256,192,156024,1,0,0:0:0:0:
256,192,156067,1,8,0:0:0:0:
256,192,156109,1,0,0:0:0:0:
256,192,156152,1,0,0:0:0:0:
256,192,156195,1,8,0:0:0:0:
256,192,156238,1,8,0:0:0:0:
256,192,156280,1,0,0:0:0:0:
256,192,156323,1,8,0:0:0:0:
256,192,156366,1,0,0:0:0:0:
256,192,156409,1,0,0:0:0:0:
256,192,156451,1,8,0:0:0:0:
256,192,156494,1,0,0:0:0:0:
256,192,156537,1,0,0:0:0:0:
256,192,156580,1,8,0:0:0:0:
256,192,156622,1,8,0:0:0:0:
256,192,156665,1,0,0:0:0:0:
256,192,156708,1,0,0:0:0:0:
256,192,156750,1,8,0:0:0:0:
256,192,156793,1,8,0:0:0:0:
256,192,156836,1,0,0:0:0:0:
256,192,156879,1,8,0:0:0:0:
256,192,156921,1,8,0:0:0:0:
256,192,156964,1,8,0:0:0:0:
256,192,157007,1,0,0:0:0:0:
256,192,157050,1,0,0:0:0:0:
256,192,157092,1,8,0:0:0:0:
256,192,157135,1,8,0:0:0:0:
256,192,157178,1,0,0:0:0:0:
256,192,157221,1,8,0:0:0:0:
256,192,157263,1,0,0:0:0:0:
256,192,157306,1,0,0:0:0:0:
256,192,157349,1,8,0:0:0:0:
256,192,157392,1,0,0:0:0:0:
256,192,157434,1,0,0:0:0:0:
256,192,157477,1,8,0:0:0:0:
256,192,157541,1,8,0:0:0:0:
256,192,157605,1,0,0:0:0:0:
256,192,157669,1,0,0:0:0:0:
256,192,157733,1,8,0:0:0:0:
256,192,157798,1,0,0:0:0:0:
256,192,157862,1,8,0:0:0:0:
256,192,157926,1,8,0:0:0:0:
256,192,157990,1,0,0:0:0:0:
256,192,158054,1,0,0:0:0:0:
256,192,158118,1,0,0:0:0:0:
256,192,158182,1,8,0:0:0:0:
256,192,158246,1,0,0:0:0:0:
256,192,158310,1,0,0:0:0:0:
256,192,158374,1,0,0:0:0:0:
256,192,158439,1,8,0:0:0:0:
256,192,158503,1,8,0:0:0:0:
256,192,158567,1,0,0:0:0:0:
256,192,158631,1,0,0:0:0:0:
256,192,158695,1,8,0:0:0:0:
256,192,158759,1,8,0:0:0:0:
256,192,158823,1,0,0:0:0:0:
256,192,158887,1,8,0:0:0:0:
256,192,158951,1,8,0:0:0:0:
256,192,159015,1,0,0:0:0:0:
256,192,159080,1,0,0:0:0:0:
256,192,159144,1,0,0:0:0:0:
256,192,159208,1,8,0:0:0:0:
256,192,159272,1,0,0:0:0:0:
256,192,159336,1,0,0:0:0:0:
256,192,159400,1,0,0:0:0:0:
256,192,159464,1,8,0:0:0:0:
256,192,159528,1,8,0:0:0:0:
256,192,159592,1,0,0:0:0:0:
256,192,159656,1,0,0:0:0:0:
256,192,159721,1,8,0:0:0:0:
256,192,159785,1,8,0:0:0:0:
256,192,159849,1,0,0:0:0:0:
256,192,159913,1,8,0:0:0:0:
256,192,159977,1,8,0:0:0:0:
256,192,160041,1,0,0:0:0:0:
256,192,160084,1,0,0:0:0:0:
256,192,160127,1,0,0:0:0:0:
256,192,160169,1,8,0:0:0:0:
256,192,160212,1,8,0:0:0:0:
256,192,160255,1,8,0:0:0:0:
256,192,160298,1,0,0:0:0:0:
256,192,160340,1,0,0:0:0:0:
256,192,160383,1,8,0:0:0:0:
256,192,160426,1,0,0:0:0:0:
256,192,160468,1,8,0:0:0:0:
256,192,160511,1,8,0:0:0:0:
256,192,160554,1,0,0:0:0:0:
256,192,160618,1,8,0:0:0:0:
256,192,160682,1,8,0:0:0:0:
256,192,160746,1,8,0:0:0:0:
256,192,160810,1,0,0:0:0:0:
256,192,160874,1,8,0:0:0:0:
256,192,160939,1,8,0:0:0:0:
256,192,161003,1,0,0:0:0:0:
256,192,161067,1,8,0:0:0:0:
256,192,161109,1,8,0:0:0:0:
256,192,161152,1,0,0:0:0:0:
256,192,161195,1,8,0:0:0:0:
256,192,161238,1,0,0:0:0:0:
256,192,161280,1,0,0:0:0:0:
256,192,161323,1,8,0:0:0:0:
256,192,161366,1,8,0:0:0:0:
256,192,161409,1,0,0:0:0:0:
256,192,161451,1,8,0:0:0:0:
256,192,161494,1,0,0:0:0:0:
256,192,161537,1,0,0:0:0:0:
256,192,161580,1,8,0:0:0:0:
256,192,161622,1,8,0:0:0:0:
256,192,161665,1,0,0:0:0:0:
256,192,161708,1,8,0:0:0:0:
256,192,161750,1,0,0:0:0:0:
256,192,161793,1,0,0:0:0:0:
256,192,161836,1,8,0:0:0:0:
256,192,161879,1,0,0:0:0:0:
256,192,161921,1,0,0:0:0:0:
256,192,161964,1,0,0:0:0:0:
256,192,162007,1,8,0:0:0:0:
256,192,162050,1,0,0:0:0:0:
256,192,162092,1,0,0:0:0:0:
256,192,162156,1,0,0:0:0:0:
256,192,162221,1,0,0:0:0:0:
256,192,162285,1,8,0:0:0:0:
256,192,162349,1,0,0:0:0:0:
256,192,162413,1,0,0:0:0:0:
256,192,162477,1,8,0:0:0:0:
256,192,162541,1,0,0:0:0:0:
256,192,162605,1,8,0:0:0:0:
256,192,162669,1,0,0:0:0:0:
256,192,162733,1,0,0:0:0:0:
256,192,162798,1,8,0:0:0:0:
256,192,162862,1,0,0:0:0:0:
256,192,162926,1,8,0:0:0:0:
256,192,162990,1,8,0:0:0:0:
256,192,163054,1,8,0:0:0:0:
256,192,163118,1,0,0:0:0:0:
256,192,163182,1,0,0:0:0:0:
256,192,163246,1,0,0:0:0:0:
256,192,163310,1,8,0:0:0:0:
256,192,163374,1,0,0:0:0:0:
256,192,163439,1,0,0:0:0:0:
256,192,163503,1,8,0:0:0:0:
256,192,163567,1,8,0:0:0:0:
256,192,163631,1,8,0:0:0:0:
256,192,163695,1,0,0:0:0:0:
256,192,163759,1,0,0:0:0:0:
256,192,163823,1,8,0:0:0:0:
256,192,163887,1,0,0:0:0:0:
256,192,163930,1,8,0:0:0:0:
256,192,163973,1,0,0:0:0:0:
256,192,164015,1,8,0:0:0:0:
256,192,164058,1,8,0:0:0:0:
256,192,164101,1,0,0:0:0:0:
256,192,164144,1,8,0:0:0:0:
256,192,164186,1,8,0:0:0:0:
256,192,164229,1,8,0:0:0:0:
256,192,164272,1,0,0:0:0:0:
256,192,164315,1,0,0:0:0:0:
256,192,164357,1,0,0:0:0:0:
256,192,164400,1,8,0:0:0:0:
256,192,164443,1,8,0:0:0:0:
256,192,164486,1,0,0:0:0:0:
256,192,164528,1,8,0:0:0:0:
256,192,164571,1,0,0:0:0:0:
256,192,164614,1,0,0:0:0:0:
256,192,164656,1,8,0:0:0:0:
256,192,164699,1,8,0:0:0:0:
256,192,164742,1,0,0:0:0:0:
256,192,164785,1,8,0:0:0:0:
256,192,164827,1,0,0:0:0:0:
256,192,164870,1,0,0:0:0:0:
256,192,164913,1,8,0:0:0:0:
256,192,164977,1,0,0:0:0:0:
256,192,165041,1,0,0:0:0:0:
256,192,165105,1,8,0:0:0:0:
256,192,165169,1,0,0:0:0:0:
256,192,165212,1,0,0:0:0:0:
256,192,165255,1,0,0:0:0:0:
256,192,165298,1,8,0:0:0:0:
256,192,165340,1,8,0:0:0:0:
256,192,165383,1,8,0:0:0:0:
256,192,165426,1,0,0:0:0:0:
256,192,165468,1,0,0:0:0:0:
256,192,165511,1,8,0:0:0:0:
256,192,165554,1,0,0:0:0:0:
256,192,165597,1,8,0:0:0:0:
256,192,165639,1,8,0:0:0:0:
256,192,165682,1,0,0:0:0:0:
256,192,165725,1,8,0:0:0:0:
256,192,165768,1,0,0:0:0:0:
256,192,165810,1,8,0:0:0:0:
256,192,165853,1,8,0:0:0:0:
256,192,165896,1,8,0:0:0:0:
256,192,165939,1,0,0:0:0:0:
256,192,165981,1,0,0:0:0:0:
256,192,166024,1,8,0:0:0:0:
256,192,166067,1,0,0:0:0:0:
256,192,166109,1,8,0:0:0:0:
256,192,166152,1,8,0:0:0:0:
256,192,166195,1,0,0:0:0:0:
256,192,166259,1,0,0:0:0:0:
256,192,166323,1,0,0:0:0:0:
256,192,166387,1,8,0:0:0:0:
256,192,166451,1,0,0:0:0:0:
256,192,166515,1,0,0:0:0:0:
256,192,166580,1,0,0:0:0:0:
256,192,166644,1,8,0:0:0:0:
256,192,166708,1,0,0:0:0:0:
256,192,166772,1,0,0:0:0:0:
256,192,166836,1,8,0:0:0:0:
256,192,166900,1,8,0:0:0:0:
256,192,166964,1,8,0:0:0:0:
256,192,167028,1,0,0:0:0:0:
256,192,167092,1,8,0:0:0:0:
256,192,167156,1,8,0:0:0:0:
256,192,167221,1,0,0:0:0:0:
256,192,167285,1,0,0:0:0:0:
256,192,167349,1,0,0:0:0:0:
256,192,167413,1,8,0:0:0:0:
256,192,167477,1,0,0:0:0:0:
256,192,167541,1,0,0:0:0:0:
256,192,167605,1,0,0:0:0:0:
256,192,167669,1,8,0:0:0:0:
256,192,167733,1,0,0:0:0:0:
256,192,167798,1,0,0:0:0:0:
256,192,167862,1,8,0:0:0:0:
256,192,167926,1,8,0:0:0:0:
256,192,167990,1,0,0:0:0:0:
256,192,168054,1,8,0:0:0:0:
256,192,168118,1,8,0:0:0:0:
256,192,168182,1,8,0:0:0:0:
256,192,168246,1,0,0:0:0:0:
256,192,168289,1,0,0:0:0:0:
256,192,168332,1,0,0:0:0:0:
256,192,168374,1,8,0:0:0:0:
256,192,168417,1,0,0:0:0:0:
256,192,168460,1,8,0:0:0:0:
256,192,168503,1,0,0:0:0:0:
256,192,168545,1,0,0:0:0:0:
256,192,168588,1,0,0:0:0:0:
256,192,168631,1,8,0:0:0:0:
256,192,168674,1,8,0:0:0:0:
256,192,168716,1,8,0:0:0:0:
256,192,168759,1,0,0:0:0:0:
256,192,168823,1,0,0:0:0:0:
256,192,168887,1,8,0:0:0:0:
256,192,168951,1,8,0:0:0:0:
256,192,169015,1,0,0:0:0:0:
256,192,169058,1,0,0:0:0:0:
256,192,169101,1,8,0:0:0:0:
256,192,169144,1,0,0:0:0:0:
256,192,169186,1,8,0:0:0:0:
256,192,169229,1,0,0:0:0:0:
256,192,169272,1,8,0:0:0:0:
256,192,169315,1,0,0:0:0:0:
256,192,169357,1,0,0:0:0:0:
256,192,169400,1,8,0:0:0:0:
256,192,169443,1,0,0:0:0:0:
256,192,169486,1,0,0:0:0:0:
256,192,169528,1,8,0:0:0:0:
256,192,169571,1,8,0:0:0:0:
256,192,169614,1,0,0:0:0:0:
256,192,169656,1,8,0:0:0:0:
256,192,169699,1,0,0:0:0:0:
256,192,169742,1,0,0:0:0:0:
256,192,169785,1,8,0:0:0:0:
256,192,169849,1,8,0:0:0:0:
256,192,169913,1,0,0:0:0:0:
256,192,169977,1,0,0:0:0:0:
256,192,170041,1,8,0:0:0:0:
256,192,170105,1,0,0:0:0:0:
256,192,170169,1,0,0:0:0:0:
256,192,170233,1,0,0:0:0:0:
256,192,170298,1,0,0:0:0:0:
256,192,170340,1,0,0:0:0:0:
256,192,170383,1,0,0:0:0:0:
256,192,170426,1,8,0:0:0:0:
256,192,170468,1,8,0:0:0:0:
256,192,170511,1,8,0:0:0:0:
256,192,170554,1,0,0:0:0:0:
256,192,170597,1,0,0:0:0:0:
256,192,170639,1,0,0:0:0:0:
256,192,170682,1,8,0:0:0:0:
256,192,170725,1,8,0:0:0:0:
256,192,170768,1,8,0:0:0:0:
256,192,170810,1,0,0:0:0:0:
256,192,170853,1,0,0:0:0:0:
256,192,170896,1,8,0:0:0:0:
256,192,170939,1,0,0:0:0:0:
256,192,170981,1,0,0:0:0:0:
256,192,171024,1,8,0:0:0:0:
256,192,171067,1,0,0:0:0:0:
256,192,171131,1,0,0:0:0:0:
256,192,171195,1,8,0:0:0:0:
256,192,171259,1,8,0:0:0:0:
256,192,171323,1,0,0:0:0:0:
256,192,171366,1,0,0:0:0:0:
256,192,171409,1,0,0:0:0:0:
256,192,171451,1,8,0:0:0:0:
256,192,171494,1,8,0:0:0:0:
256,192,171537,1,8,0:0:0:0:
256,192,171580,1,0,0:0:0:0:
256,192,171622,1,0,0:0:0:0:
256,192,171665,1,0,0:0:0:0:
256,192,171708,1,8,0:0:0:0:
256,192,171750,1,8,0:0:0:0:
256,192,171793,1,8,0:0:0:0:
256,192,171836,1,0,0:0:0:0:
256,192,171879,1,8,0:0:0:0:
256,192,171921,1,0,0:0:0:0:
256,192,171964,1,8,0:0:0:0:
256,192,172007,1,8,0:0:0:0:
256,192,172050,1,8,0:0:0:0:
256,192,172092,1,0,0:0:0:0:
256,192,172156,1,8,0:0:0:0:
256,192,172221,1,8,0:0:0:0:
256,192,172285,1,8,0:0:0:0:
256,192,172349,1,0,0:0:0:0:
256,192,172413,1,0,0:0:0:0:
256,192,172477,1,0,0:0:0:0:
256,192,172541,1,0,0:0:0:0:
256,192,172605,1,8,0:0:0:0:
256,192,172669,1,8,0:0:0:0:
256,192,172733,1,8,0:0:0:0:
256,192,172798,1,8,0:0:0:0:
256,192,172862,1,0,0:0:0:0:
256,192,172926,1,0,0:0:0:0:
256,192,172990,1,0,0:0:0:0:
256,192,173054,1,0,0:0:0:0:
256,192,173118,1,8,0:0:0:0:
256,192,173182,1,8,0:0:0:0:
256,192,173246,1,8,0:0:0:0:
256,192,173310,1,8,0:0:0:0:
256,192,173374,1,0,0:0:0:0:
256,192,173439,1,0,0:0:0:0:
256,192,173503,1,8,0:0:0:0:
256,192,173567,1,0,0:0:0:0:
256,192,173631,1,8,0:0:0:0:
256,192,173695,1,8,0:0:0:0:
256,192,173759,1,0,0:0:0:0:
256,192,173823,1,8,0:0:0:0:
256,192,173887,1,8,0:0:0:0:
256,192,173951,1,0,0:0:0:0:
256,192,174015,1,8,0:0:0:0:
256,192,174080,1,8,0:0:0:0:
256,192,174144,1,0,0:0:0:0:
256,192,174208,1,8,0:0:0:0:
256,192,174272,1,8,0:0:0:0:
256,192,174336,1,8,0:0:0:0:
256,192,174400,1,8,0:0:0:0:
256,192,174464,1,0,0:0:0:0:
256,192,174528,1,8,0:0:0:0:
256,192,174571,1,8,0:0:0:0:
256,192,174614,1,0,0:0:0:0:
256,192,174656,1,8,0:0:0:0:
256,192,174721,1,8,0:0:0:0:
256,192,174785,1,0,0:0:0:0:
256,192,174849,1,0,0:0:0:0:
256,192,174913,1,8,0:0:0:0:
256,192,174977,1,0,0:0:0:0:
256,192,175041,1,8,0:0:0:0:
256,192,175084,1,0,0:0:0:0:
256,192,175127,1,0,0:0:0:0:
256,192,175169,1,8,0:0:0:0:
256,192,175212,1,8,0:0:0:0:
256,192,175255,1,0,0:0:0:0:
256,192,175298,1,8,0:0:0:0:
256,192,175340,1,0,0:0:0:0:
256,192,175383,1,8,0:0:0:0:
256,192,175426,1,8,0:0:0:0:
256,192,175490,1,0,0:0:0:0:
256,192,175554,1,0,0:0:0:0:
256,192,175618,1,8,0:0:0:0:
256,192,175682,1,8,0:0:0:0:
256,192,175746,1,0,0:0:0:0:
256,192,175810,1,8,0:0:0:0:
256,192,175874,1,8,0:0:0:0:
256,192,175939,1,8,0:0:0:0:
256,192,176003,1,0,0:0:0:0:
256,192,176067,1,0,0:0:0:0:
256,192,176131,1,8,0:0:0:0:
256,192,176195,1,8,0:0:0:0:
256,192,176259,1,0,0:0:0:0:
256,192,176323,1,8,0:0:0:0:
256,192,176387,1,8,0:0:0:0:
256,192,176451,1,8,0:0:0:0:
256,192,176515,1,0,0:0:0:0:
256,192,176580,1,0,0:0:0:0:
256,192,176622,1,0,0:0:0:0:
256,192,176665,1,8,0:0:0:0:
256,192,176708,1,8,0:0:0:0:
256,192,176772,1,0,0:0:0:0:
256,192,176836,1,0,0:0:0:0:
256,192,176879,1,8,0:0:0:0:
256,192,176921,1,0,0:0:0:0:
256,192,176964,1,8,0:0:0:0:
256,192,177028,1,0,0:0:0:0:
256,192,177092,1,0,0:0:0:0:
256,192,177156,1,8,0:0:0:0:
256,192,177221,1,0,0:0:0:0:
256,192,177285,1,0,0:0:0:0:
256,192,177349,1,8,0:0:0:0:
256,192,177413,1,8,0:0:0:0:
256,192,177477,1,0,0:0:0:0:
256,192,177541,1,0,0:0:0:0:
256,192,177605,1,8,0:0:0:0:
256,192,177669,1,0,0:0:0:0:
256,192,177733,1,8,0:0:0:0:
256,192,177776,1,8,0:0:0:0:
256,192,177819,1,0,0:0:0:0:
256,192,177862,1,0,0:0:0:0:
256,192,177926,1,0,0:0:0:0:
256,192,177990,1,8,0:0:0:0:
256,192,178033,1,0,0:0:0:0:
256,192,178075,1,0,0:0:0:0:
256,192,178118,1,8,0:0:0:0:
256,192,178182,1,0,0:0:0:0:
256,192,178246,1,0,0:0:0:0:
256,192,178289,1,0,0:0:0:0:
256,192,178332,1,0,0:0:0:0:
256,192,178374,1,8,0:0:0:0:
256,192,178417,1,8,0:0:0:0:
256,192,178460,1,8,0:0:0:0:
256,192,178503,1,0,0:0:0:0:
256,192,178567,1,8,0:0:0:0:
256,192,178631,1,0,0:0:0:0:
256,192,178695,1,8,0:0:0:0:
256,192,178759,1,8,0:0:0:0:
256,192,178823,1,0,0:0:0:0:
256,192,178887,1,0,0:0:0:0:
256,192,178951,1,8,0:0:0:0:
256,192,179015,1,0,0:0:0:0:
256,192,179080,1,0,0:0:0:0:
256,192,179144,1,8,0:0:0:0:
256,192,179208,1,0,0:0:0:0:
256,192,179272,1,0,0:0:0:0:
256,192,179336,1,8,0:0:0:0:
256,192,179400,1,8,0:0:0:0:
256,192,179443,1,0,0:0:0:0:
256,192,179486,1,0,0:0:0:0:
256,192,179528,1,8,0:0:0:0:
256,192,179592,1,0,0:0:0:0:
256,192,179656,1,8,0:0:0:0:
256,192,179721,1,0,0:0:0:0:
256,192,179785,1,8,0:0:0:0:
256,192,179849,1,8,0:0:0:0:
256,192,179913,1,0,0:0:0:0:
256,192,179977,1,0,0:0:0:0:
256,192,180041,1,8,0:0:0:0:
256,192,180105,1,0,0:0:0:0:
256,192,180169,1,0,0:0:0:0:
256,192,180233,1,8,0:0:0:0:
256,192,180298,1,0,0:0:0:0:
256,192,180362,1,0,0:0:0:0:
256,192,180426,1,8,0:0:0:0:
256,192,180490,1,8,0:0:0:0:
256,192,180554,1,8,0:0:0:0:
256,192,180597,1,0,0:0:0:0:
256,192,180639,1,0,0:0:0:0:
256,192,180682,1,8,0:0:0:0:
256,192,180725,1,0,0:0:0:0:
256,192,180768,1,0,0:0:0:0:
256,192,180810,1,8,0:0:0:0:
256,192,180853,1,8,0:0:0:0:
256,192,180896,1,0,0:0:0:0:
256,192,180939,1,8,0:0:0:0:
256,192,180981,1,0,0:0:0:0:
256,192,181024,1,0,0:0:0:0:
256,192,181067,1,8,0:0:0:0:
256,192,181109,1,0,0:0:0:0:
256,192,181152,1,0,0:0:0:0:
256,192,181195,1,8,0:0:0:0:
256,192,181238,1,8,0:0:0:0:
256,192,181280,1,0,0:0:0:0:
256,192,181323,1,0,0:0:0:0:
256,192,181366,1,8,0:0:0:0:
256,192,181409,1,8,0:0:0:0:
256,192,181451,1,0,0:0:0:0:
256,192,181494,1,8,0:0:0:0:
256,192,181537,1,8,0:0:0:0:
256,192,181580,1,8,0:0:0:0:
256,192,181622,1,0,0:0:0:0:
256,192,181665,1,0,0:0:0:0:
256,192,181708,1,8,0:0:0:0:
256,192,181750,1,8,0:0:0:0:
256,192,181793,1,0,0:0:0:0:
256,192,181836,1,8,0:0:0:0:
256,192,181879,1,0,0:0:0:0:
256,192,181921,1,0,0:0:0:0:
256,192,181964,1,8,0:0:0:0:
256,192,182007,1,0,0:0:0:0:
256,192,182050,1,0,0:0:0:0:
256,192,182092,1,8,0:0:0:0:
256,192,182156,1,8,0:0:0:0:
256,192,182221,1,0,0:0:0:0:
256,192,182285,1,0,0:0:0:0:
256,192,182349,1,8,0:0:0:0:
256,192,182413,1,0,0:0:0:0:
256,192,182477,1,8,0:0:0:0:
256,192,182541,1,8,0:0:0:0:
256,192,182605,1,0,0:0:0:0:
256,192,182669,1,0,0:0:0:0:
256,192,182733,1,0,0:0:0:0:
256,192,182798,1,8,0:0:0:0:
256,192,182862,1,0,0:0:0:0:
256,192,182926,1,0,0:0:0:0:
256,192,182990,1,0,0:0:0:0:
256,192,183054,1,8,0:0:0:0:
256,192,183118,1,8,0:0:0:0:
256,192,183182,1,0,0:0:0:0:
256,192,183246,1,0,0:0:0:0:
256,192,183310,1,8,0:0:0:0:
256,192,183374,1,8,0:0:0:0:
256,192,183439,1,0,0:0:0:0:
256,192,183503,1,8,0:0:0:0:
256,192,183567,1,8,0:0:0:0:
256,192,183631,1,0,0:0:0:0:
256,192,183695,1,0,0:0:0:0:
256,192,183759,1,0,0:0:0:0:
256,192,183823,1,8,0:0:0:0:
256,192,183887,1,0,0:0:0:0:
256,192,183951,1,0,0:0:0:0:
256,192,184015,1,0,0:0:0:0:
256,192,184080,1,8,0:0:0:0:
256,192,184144,1,8,0:0:0:0:
256,192,184208,1,0,0:0:0:0:
256,192,184272,1,0,0:0:0:0:
256,192,184336,1,8,0:0:0:0:
256,192,184400,1,8,0:0:0:0:
256,192,184464,1,0,0:0:0:0:
256,192,184528,1,8,0:0:0:0:
256,192,184592,1,8,0:0:0:0:
256,192,184656,1,0,0:0:0:0:
256,192,184699,1,0,0:0:0:0:
256,192,184742,1,0,0:0:0:0:
256,192,184785,1,8,0:0:0:0:
256,192,184827,1,8,0:0:0:0:
256,192,184870,1,8,0:0:0:0:
256,192,184913,1,0,0:0:0:0:
256,192,184956,1,0,0:0:0:0:
256,192,184998,1,8,0:0:0:0:
256,192,185041,1,0,0:0:0:0:
256,192,185084,1,8,0:0:0:0:
256,192,185127,1,8,0:0:0:0:
256,192,185169,1,0,0:0:0:0:
256,192,185233,1,8,0:0:0:0:
256,192,185298,1,8,0:0:0:0:
256,192,185362,1,8,0:0:0:0:
256,192,185426,1,0,0:0:0:0:
256,192,185490,1,8,0:0:0:0:
256,192,185554,1,8,0:0:0:0:
256,192,185618,1,0,0:0:0:0:
256,192,185682,1,8,0:0:0:0:
256,192,185725,1,8,0:0:0:0:
256,192,185768,1,0,0:0:0:0:
256,192,185810,1,8,0:0:0:0:
256,192,185853,1,0,0:0:0:0:
256,192,185896,1,0,0:0:0:0:
256,192,185939,1,8,0:0:0:0:
256,192,185981,1,8,0:0:0:0:
256,192,186024,1,0,0:0:0:0:
256,192,186067,1,8,0:0:0:0:
256,192,186109,1,0,0:0:0:0:
256,192,186152,1,0,0:0:0:0:
256,192,186195,1,8,0:0:0:0:
256,192,186238,1,8,0:0:0:0:
256,192,186280,1,0,0:0:0:0:
256,192,186323,1,8,0:0:0:0:
256,192,186366,1,0,0:0:0:0:
256,192,186409,1,0,0:0:0:0:
256,192,186451,1,8,0:0:0:0:
256,192,186494,1,0,0:0:0:0:
256,192,186537,1,0,0:0:0:0:
256,192,186580,1,0,0:0:0:0:
256,192,186622,1,8,0:0:0:0:
256,192,186665,1,0,0:0:0:0:
256,192,186708,1,0,0:0:0:0:
256,192,186772,1,0,0:0:0:0:
256,192,186836,1,0,0:0:0:0:
256,192,186900,1,8,0:0:0:0:
256,192,186964,1,0,0:0:0:0:
256,192,187028,1,0,0:0:0:0:
256,192,187092,1,8,0:0:0:0:
256,192,187156,1,0,0:0:0:0:
256,192,187221,1,8,0:0:0:0:
256,192,187285,1,0,0:0:0:0:
256,192,187349,1,0,0:0:0:0:
256,192,187413,1,8,0:0:0:0:
256,192,187477,1,0,0:0:0:0:
256,192,187541,1,8,0:0:0:0:
256,192,187605,1,8,0:0:0:0:
256,192,187669,1,8,0:0:0:0:
256,192,187733,1,0,0:0:0:0:
256,192,187798,1,0,0:0:0:0:
256,192,187862,1,0,0:0:0:0:
256,192,187926,1,8,0:0:0:0:
256,192,187990,1,0,0:0:0:0:
256,192,188054,1,0,0:0:0:0:
256,192,188118,1,8,0:0:0:0:
256,192,188182,1,8,0:0:0:0:
256,192,188246,1,8,0:0:0:0:
256,192,188310,1,0,0:0:0:0:
256,192,188374,1,0,0:0:0:0:
256,192,188439,1,8,0:0:0:0:
256,192,188503,1,0,0:0:0:0:
256,192,188545,1,8,0:0:0:0:
256,192,188588,1,0,0:0:0:0:
256,192,188631,1,8,0:0:0:0:
256,192,188674,1,8,0:0:0:0:
256,192,188716,1,0,0:0:0:0:
256,192,188759,1,8,0:0:0:0:
256,192,188802,1,8,0:0:0:0:
256,192,188845,1,8,0:0:0:0:
256,192,188887,1,0,0:0:0:0:
256,192,188930,1,0,0:0:0:0:
256,192,188973,1,0,0:0:0:0:
256,192,189015,1,8,0:0:0:0:
256,192,189058,1,8,0:0:0:0:
256,192,189101,1,0,0:0:0:0:
256,192,189144,1,8,0:0:0:0:
256,192,189186,1,0,0:0:0:0:
256,192,189229,1,0,0:0:0:0:
256,192,189272,1,8,0:0:0:0:
256,192,189315,1,8,0:0:0:0:
256,192,189357,1,0,0:0:0:0:
256,192,189400,1,8,0:0:0:0:
256,192,189443,1,0,0:0:0:0:
256,192,189486,1,0,0:0:0:0:
256,192,189528,1,8,0:0:0:0:
256,192,189592,1,0,0:0:0:0:
256,192,189656,1,0,0:0:0:0:
256,192,189721,1,8,0:0:0:0:
256,192,189785,1,0,0:0:0:0:
256,192,189827,1,0,0:0:0:0:
256,192,189870,1,0,0:0:0:0:
256,192,189913,1,8,0:0:0:0:
256,192,189956,1,8,0:0:0:0:
256,192,189998,1,8,0:0:0:0:
256,192,190041,1,0,0:0:0:0:
256,192,190084,1,0,0:0:0:0:
256,192,190127,1,8,0:0:0:0:
256,192,190169,1,0,0:0:0:0:
256,192,190212,1,8,0:0:0:0:
256,192,190255,1,8,0:0:0:0:
256,192,190298,1,0,0:0:0:0:
256,192,190340,1,8,0:0:0:0:
256,192,190383,1,0,0:0:0:0:
256,192,190426,1,8,0:0:0:0:
256,192,190468,1,8,0:0:0:0:
256,192,190511,1,8,0:0:0:0:
256,192,190554,1,0,0:0:0:0:
256,192,190597,1,0,0:0:0:0:
256,192,190639,1,8,0:0:0:0:
256,192,190682,1,0,0:0:0:0:
256,192,190725,1,8,0:0:0:0:
256,192,190768,1,8,0:0:0:0:
256,192,190810,1,0,0:0:0:0:
256,192,190874,1,0,0:0:0:0:
256,192,190939,1,0,0:0:0:0:
256,192,191003,1,8,0:0:0:0:
256,192,191067,1,0,0:0:0:0:
256,192,191131,1,0,0:0:0:0:
256,192,191195,1,0,0:0:0:0:
256,192,191259,1,8,0:0:0:0:
256,192,191323,1,0,0:0:0:0:
256,192,191387,1,0,0:0:0:0:
256,192,191451,1,8,0:0:0:0:
256,192,191515,1,8,0:0:0:0:
256,192,191580,1,8,0:0:0:0:
256,192,191644,1,0,0:0:0:0:
256,192,191708,1,8,0:0:0:0:
256,192,191772,1,8,0:0:0:0:
256,192,191836,1,0,0:0:0:0:
256,192,191900,1,0,0:0:0:0:
256,192,191964,1,0,0:0:0:0:
256,192,192028,1,8,0:0:0:0:
256,192,192092,1,0,0:0:0:0:
256,192,192156,1,0,0:0:0:0:
256,192,192221,1,0,0:0:0:0:
256,192,192285,1,8,0:0:0:0:
256,192,192349,1,0,0:0:0:0:
256,192,192413,1,0,0:0:0:0:
256,192,192477,1,8,0:0:0:0:
256,192,192541,1,8,0:0:0:0:
256,192,192605,1,0,0:0:0:0:
256,192,192669,1,8,0:0:0:0:
256,192,192733,1,8,0:0:0:0:
256,192,192798,1,8,0:0:0:0:
256,192,192862,1,0,0:0:0:0:
256,192,192904,1,0,0:0:0:0:
256,192,192947,1,0,0:0:0:0:
256,192,192990,1,8,0:0:0:0:
256,192,193033,1,0,0:0:0:0:
256,192,193075,1,8,0:0:0:0:
256,192,193118,1,0,0:0:0:0:
256,192,193161,1,0,0:0:0:0:
256,192,193203,1,0,0:0:0:0:
256,192,193246,1,8,0:0:0:0:
256,192,193289,1,8,0:0:0:0:
256,192,193332,1,8,0:0:0:0:
256,192,193374,1,0,0:0:0:0:
256,192,193439,1,0,0:0:0:0:
256,192,193503,1,8,0:0:0:0:
256,192,193567,1,8,0:0:0:0:
256,192,193631,1,0,0:0:0:0:
256,192,193674,1,0,0:0:0:0:
256,192,193716,1,8,0:0:0:0:
256,192,193759,1,0,0:0:0:0:
256,192,193802,1,8,0:0:0:0:
256,192,193845,1,0,0:0:0:0:
256,192,193887,1,8,0:0:0:0:
256,192,193930,1,0,0:0:0:0:
256,192,193973,1,0,0:0:0:0:
256,192,194015,1,8,0:0:0:0:
256,192,194058,1,0,0:0:0:0:
256,192,194101,1,0,0:0:0:0:
256,192,194144,1,8,0:0:0:0:
256,192,194186,1,8,0:0:0:0:
256,192,194229,1,0,0:0:0:0:
256,192,194272,1,8,0:0:0:0:
256,192,194315,1,0,0:0:0:0:
256,192,194357,1,0,0:0:0:0:
256,192,194400,1,8,0:0:0:0:
256,192,194464,1,8,0:0:0:0:
256,192,194528,1,0,0:0:0:0:
256,192,194592,1,0,0:0:0:0:
256,192,194656,1,8,0:0:0:0:
256,192,194721,1,0,0:0:0:0:
256,192,194785,1,0,0:0:0:0:
256,192,194849,1,0,0:0:0:0:
256,192,194913,1,0,0:0:0:0:
256,192,194956,1,0,0:0:0:0:
256,192,194998,1,0,0:0:0:0:
256,192,195041,1,8,0:0:0:0:
256,192,195084,1,8,0:0:0:0:
256,192,195127,1,8,0:0:0:0:
256,192,195169,1,0,0:0:0:0:
256,192,195212,1,0,0:0:0:0:
256,192,195255,1,0,0:0:0:0:
256,192,195298,1,8,0:0:0:0:
256,192,195340,1,8,0:0:0:0:
256,192,195383,1,8,0:0:0:0:
256,192,195426,1,0,0:0:0:0:
256,192,195468,1,0,0:0:0:0:
256,192,195511,1,8,0:0:0:0:
256,192,195554,1,0,0:0:0:0:
256,192,195597,1,0,0:0:0:0:
256,192,195639,1,8,0:0:0:0:
256,192,195682,1,0,0:0:0:0:
256,192,195746,1,0,0:0:0:0:
256,192,195810,1,8,0:0:0:0:
256,192,195874,1,8,0:0:0:0:
256,192,195939,1,0,0:0:0:0:
256,192,195981,1,0,0:0:0:0:
256,192,196024,1,0,0:0:0:0:
256,192,196067,1,8,0:0:0:0:
256,192,196109,1,8,0:0:0:0:
256,192,196152,1,8,0:0:0:0:
256,192,196195,1,0,0:0:0:0:
256,192,196238,1,0,0:0:0:0:
256,192,196280,1,0,0:0:0:0:
256,192,196323,1,8,0:0:0:0:
256,192,196366,1,8,0:0:0:0:
256,192,196409,1,8,0:0:0:0:
256,192,196451,1,0,0:0:0:0:
256,192,196494,1,8,0:0:0:0:
256,192,196537,1,0,0:0:0:0:
256,192,196580,1,8,0:0:0:0:
256,192,196622,1,8,0:0:0:0:
256,192,196665,1,8,0:0:0:0:
256,192,196708,1,0,0:0:0:0:
256,192,196772,1,8,0:0:0:0:
256,192,196836,1,8,0:0:0:0:
256,192,196900,1,8,0:0:0:0:
256,192,196964,1,0,0:0:0:0:
256,192,197028,1,0,0:0:0:0:
256,192,197092,1,0,0:0:0:0:
256,192,197156,1,0,0:0:0:0:
256,192,197221,1,8,0:0:0:0:
256,192,197285,1,8,0:0:0:0:
256,192,197349,1,8,0:0:0:0:
256,192,197413,1,8,0:0:0:0:
256,192,197477,1,0,0:0:0:0:
256,192,197541,1,0,0:0:0:0:
256,192,197605,1,0,0:0:0:0:
256,192,197669,1,0,0:0:0:0:
256,192,197733,1,8,0:0:0:0:
256,192,197798,1,8,0:0:0:0:
256,192,197862,1,8,0:0:0:0:
256,192,197926,1,8,0:0:0:0:
256,192,197990,1,0,0:0:0:0:
256,192,198054,1,0,0:0:0:0:
256,192,198118,1,8,0:0:0:0:
256,192,198182,1,0,0:0:0:0:
256,192,198246,1,8,0:0:0:0:
256,192,198310,1,8,0:0:0:0:
256,192,198374,1,0,0:0:0:0:
256,192,198439,1,8,0:0:0:0:
256,192,198503,1,8,0:0:0:0:
256,192,198567,1,0,0:0:0:0:
256,192,198631,1,8,0:0:0:0:
256,192,198695,1,8,0:0:0:0:
256,192,198759,1,0,0:0:0:0:
256,192,198823,1,8,0:0:0:0:
256,192,198887,1,8,0:0:0:0:
256,192,198951,1,8,0:0:0:0:
256,192,199015,1,8,0:0:0:0:
256,192,199080,1,0,0:0:0:0:
256,192,199144,1,8,0:0:0:0:
256,192,199186,1,8,0:0:0:0:
256,192,199229,1,0,0:0:0:0:
256,192,199272,1,8,0:0:0:0:
256,192,199336,1,8,0:0:0:0:
256,192,199400,1,0,0:0:0:0:
256,192,199464,1,0,0:0:0:0:
256,192,199528,1,8,0:0:0:0:
256,192,199592,1,0,0:0:0:0:
256,192,199656,1,8,0:0:0:0:
256,192,199699,1,0,0:0:0:0:
256,192,199742,1,0,0:0:0:0:
256,192,199785,1,8,0:0:0:0:
256,192,199827,1,8,0:0:0:0:
256,192,199870,1,0,0:0:0:0:
256,192,199913,1,8,0:0:0:0:
256,192,199956,1,0,0:0:0:0:
256,192,199998,1,8,0:0:0:0:
256,192,200041,1,8,0:0:0:0:
256,192,200105,1,0,0:0:0:0:
256,192,200169,1,0,0:0:0:0:
256,192,200233,1,8,0:0:0:0:
256,192,200298,1,8,0:0:0:0:
256,192,200362,1,0,0:0:0:0:
256,192,200426,1,8,0:0:0:0:
256,192,200490,1,8,0:0:0:0:
256,192,200554,1,8,0:0:0:0:
256,192,200618,1,0,0:0:0:0:
256,192,200682,1,0,0:0:0:0:
256,192,200746,1,8,0:0:0:0:
256,192,200810,1,8,0:0:0:0:
256,192,200874,1,0,0:0:0:0:
256,192,200939,1,8,0:0:0:0:
256,192,201003,1,8,0:0:0:0:
256,192,201067,1,8,0:0:0:0:
256,192,201131,1,0,0:0:0:0:
256,192,201195,1,0,0:0:0:0:
256,192,201238,1,0,0:0:0:0:
256,192,201280,1,8,0:0:0:0:
256,192,201323,1,8,0:0:0:0:
256,192,201387,1,0,0:0:0:0:
256,192,201451,1,0,0:0:0:0:
256,192,201494,1,8,0:0:0:0:
256,192,201537,1,0,0:0:0:0:
256,192,201580,1,8,0:0:0:0:
256,192,201644,1,0,0:0:0:0:
256,192,201708,1,0,0:0:0:0:
256,192,201772,1,8,0:0:0:0:
256,192,201836,1,0,0:0:0:0:
256,192,201900,1,0,0:0:0:0:
256,192,201964,1,8,0:0:0:0:
256,192,202028,1,8,0:0:0:0:
256,192,202092,1,0,0:0:0:0:
256,192,202156,1,0,0:0:0:0:
256,192,202221,1,8,0:0:0:0:
256,192,202285,1,0,0:0:0:0:
256,192,202349,1,8,0:0:0:0:
256,192,202392,1,8,0:0:0:0:
256,192,202434,1,0,0:0:0:0:
256,192,202477,1,0,0:0:0:0:
256,192,202541,1,0,0:0:0:0:
256,192,202605,1,8,0:0:0:0:
256,192,202648,1,0,0:0:0:0:
256,192,202691,1,0,0:0:0:0:
256,192,202733,1,8,0:0:0:0:
256,192,202798,1,0,0:0:0:0:
256,192,202862,1,0,0:0:0:0:
256,192,202904,1,0,0:0:0:0:
256,192,202947,1,0,0:0:0:0:
256,192,202990,1,8,0:0:0:0:
256,192,203033,1,8,0:0:0:0:
256,192,203075,1,8,0:0:0:0:
256,192,203118,1,0,0:0:0:0:
256,192,203182,1,8,0:0:0:0:
256,192,203246,1,0,0:0:0:0:
256,192,203310,1,8,0:0:0:0:
256,192,203374,1,8,0:0:0:0:
256,192,203439,1,0,0:0:0:0:
256,192,203503,1,0,0:0:0:0:
256,192,203567,1,8,0:0:0:0:
256,192,203631,1,0,0:0:0:0:
256,192,203695,1,0,0:0:0:0:
256,192,203759,1,8,0:0:0:0:
256,192,203823,1,0,0:0:0:0:
256,192,203887,1,0,0:0:0:0:
256,192,203951,1,8,0:0:0:0:
256,192,204015,1,8,0:0:0:0:
256,192,204058,1,0,0:0:0:0:
256,192,204101,1,0,0:0:0:0:
256,192,204144,1,8,0:0:0:0:
256,192,204208,1,0,0:0:0:0:
256,192,204272,1,8,0:0:0:0:
256,192,204336,1,0,0:0:0:0:
256,192,204400,1,8,0:0:0:0:
256,192,204464,1,8,0:0:0:0:
256,192,204528,1,0,0:0:0:0:
256,192,204592,1,0,0:0:0:0:
256,192,204656,1,8,0:0:0:0:
256,192,204721,1,0,0:0:0:0:
256,192,204785,1,0,0:0:0:0:
256,192,204849,1,8,0:0:0:0:
256,192,204913,1,0,0:0:0:0:
256,192,204977,1,0,0:0:0:0:
256,192,205041,1,8,0:0:0:0:
256,192,205105,1,8,0:0:0:0:
256,192,205169,1,8,0:0:0:0:
256,192,205212,1,0,0:0:0:0:
256,192,205255,1,0,0:0:0:0:
256,192,205298,1,8,0:0:0:0:
256,192,205340,1,0,0:0:0:0:
256,192,205383,1,0,0:0:0:0:
256,192,205426,1,8,0:0:0:0:
256,192,205468,1,8,0:0:0:0:
256,192,205511,1,0,0:0:0:0:
256,192,205554,1,8,0:0:0:0:
256,192,205597,1,0,0:0:0:0:
256,192,205639,1,0,0:0:0:0:
256,192,205682,1,8,0:0:0:0:
256,192,205725,1,0,0:0:0:0:
256,192,205768,1,0,0:0:0:0:
256,192,205810,1,8,0:0:0:0:
256,192,205853,1,8,0:0:0:0:
256,192,205896,1,0,0:0:0:0:
256,192,205939,1,0,0:0:0:0:
256,192,205981,1,8,0:0:0:0:
256,192,206024,1,8,0:0:0:0:
256,192,206067,1,0,0:0:0:0:
256,192,206109,1,8,0:0:0:0:
256,192,206152,1,8,0:0:0:0:
256,192,206195,1,8,0:0:0:0:
256,192,206238,1,0,0:0:0:0:
256,192,206280,1,0,0:0:0:0:
256,192,206323,5,8,0:0:0:0:
256,192,206366,1,8,0:0:0:0:
256,192,206409,1,0,0:0:0:0:
256,192,206451,1,8,0:0:0:0:
256,192,206494,1,0,0:0:0:0:
256,192,206537,1,0,0:0:0:0:
256,192,206580,1,8,0:0:0:0:
256,192,206622,1,0,0:0:0:0:
256,192,206665,1,0,0:0:0:0:
256,192,206708,1,8,0:0:0:0:
256,192,206772,1,8,0:0:0:0:
256,192,206836,1,0,0:0:0:0:
256,192,206900,1,0,0:0:0:0:
256,192,206964,1,8,0:0:0:0:
256,192,207028,1,0,0:0:0:0:
256,192,207092,1,8,0:0:0:0:
256,192,207156,1,8,0:0:0:0:
256,192,207221,1,0,0:0:0:0:
256,192,207349,1,0,0:0:0:0:
256,192,207477,1,8,0:0:0:0:
256,192,207493,1,0,0:0:0:0:
256,192,207541,1,8,0:0:0:0:
256,192,207557,1,0,0:0:0:0:
256,192,207605,1,8,0:0:0:0:
256,192,207621,1,0,0:0:0:0:
256,192,207669,1,8,0:0:0:0:
256,192,207685,1,0,0:0:0:0:
256,192,207733,1,8,0:0:0:0:
256,192,207862,1,8,0:0:0:0:
256,192,207990,1,0,0:0:0:0:
256,192,208118,1,0,0:0:0:0:
256,192,208246,1,0,0:0:0:0:
256,192,208374,1,0,0:0:0:0:
256,192,208503,1,8,0:0:0:0:
256,192,208519,1,0,0:0:0:0:
256,192,208567,1,8,0:0:0:0:
256,192,208583,1,0,0:0:0:0:
256,192,208631,1,8,0:0:0:0:
256,192,208647,1,0,0:0:0:0:
256,192,208695,1,8,0:0:0:0:
256,192,208711,1,0,0:0:0:0:
256,192,208759,1,8,0:0:0:0:
256,192,208887,1,8,0:0:0:0:
256,192,209015,1,0,0:0:0:0:
256,192,209144,1,0,0:0:0:0:
256,192,209272,1,0,0:0:0:0:
256,192,209400,1,0,0:0:0:0:
256,192,209528,1,8,0:0:0:0:
256,192,209544,1,0,0:0:0:0:
256,192,209592,1,8,0:0:0:0:
256,192,209608,1,0,0:0:0:0:
256,192,209656,1,8,0:0:0:0:
256,192,209673,1,0,0:0:0:0:
256,192,209721,1,8,0:0:0:0:
256,192,209737,1,0,0:0:0:0:
256,192,209785,1,8,0:0:0:0:
256,192,209913,1,8,0:0:0:0:
256,192,210041,1,0,0:0:0:0:
256,192,210169,1,0,0:0:0:0:
256,192,210298,1,0,0:0:0:0:
256,192,210426,1,0,0:0:0:0:
256,192,210554,1,8,0:0:0:0:
256,192,210570,1,0,0:0:0:0:
256,192,210618,1,8,0:0:0:0:
256,192,210634,1,0,0:0:0:0:
256,192,210682,1,8,0:0:0:0:
256,192,210698,1,0,0:0:0:0:
256,192,210746,1,8,0:0:0:0:
256,192,210762,1,0,0:0:0:0:
256,192,210810,1,8,0:0:0:0:
256,192,210939,1,8,0:0:0:0:
256,192,211067,1,0,0:0:0:0:
256,192,211195,1,0,0:0:0:0:
256,192,211323,1,0,0:0:0:0:
256,192,211451,1,0,0:0:0:0:
256,192,211580,1,8,0:0:0:0:
256,192,211596,1,0,0:0:0:0:
256,192,211644,1,8,0:0:0:0:
256,192,211660,1,0,0:0:0:0:
256,192,211708,1,8,0:0:0:0:
256,192,211724,1,0,0:0:0:0:
256,192,211772,1,8,0:0:0:0:
256,192,211788,1,0,0:0:0:0:
256,192,211836,1,8,0:0:0:0:
256,192,211964,1,8,0:0:0:0:
256,192,212092,1,0,0:0:0:0:
256,192,212221,1,0,0:0:0:0:
256,192,212349,1,0,0:0:0:0:
256,192,212477,1,0,0:0:0:0:
256,192,212605,1,8,0:0:0:0:
256,192,212621,1,0,0:0:0:0:
256,192,212669,1,8,0:0:0:0:
256,192,212685,1,0,0:0:0:0:
256,192,212733,1,8,0:0:0:0:
256,192,212749,1,0,0:0:0:0:
256,192,212798,1,8,0:0:0:0:
256,192,212814,1,0,0:0:0:0:
256,192,212862,1,8,0:0:0:0:
256,192,212990,1,8,0:0:0:0:
256,192,213118,1,0,0:0:0:0:
256,192,213246,1,8,0:0:0:0:
256,192,213374,1,8,0:0:0:0:
256,192,213417,1,0,0:0:0:0:
256,192,213460,1,0,0:0:0:0:
256,192,213503,1,8,0:0:0:0:
256,192,213545,1,0,0:0:0:0:
256,192,213588,1,0,0:0:0:0:
256,192,213631,1,8,0:0:0:0:
256,192,213674,1,0,0:0:0:0:
256,192,213716,1,0,0:0:0:0:
256,192,213759,1,8,0:0:0:0:
256,192,213802,1,0,0:0:0:0:
256,192,213845,1,0,0:0:0:0:
256,192,213887,1,8,0:0:0:0:
256,192,213930,1,0,0:0:0:0:
256,192,213973,1,0,0:0:0:0:
256,192,214015,1,8,0:0:0:0:
256,192,214058,1,0,0:0:0:0:
256,192,214101,1,0,0:0:0:0:
256,192,214144,1,8,0:0:0:0:
256,192,214186,1,0,0:0:0:0:
256,192,214229,1,0,0:0:0:0:
256,192,214272,1,8,0:0:0:0:
256,192,214315,1,0,0:0:0:0:
256,192,214357,1,0,0:0:0:0:
256,192,214400,1,8,0:0:0:0:
256,192,214432,1,0,0:0:0:0:
256,192,214464,1,0,0:0:0:0:
256,192,214496,1,0,0:0:0:0:
256,192,214528,1,8,0:0:0:0:
256,192,214560,1,0,0:0:0:0:
256,192,214592,1,0,0:0:0:0:
256,192,214624,1,0,0:0:0:0:
256,192,214656,1,8,0:0:0:0:
256,192,214689,1,0,0:0:0:0:
256,192,214721,1,0,0:0:0:0:
256,192,214753,1,0,0:0:0:0:
256,192,214785,1,8,0:0:0:0:
256,192,214817,1,0,0:0:0:0:
256,192,214849,1,0,0:0:0:0:
256,192,214881,1,0,0:0:0:0:
256,192,214913,1,8,0:0:0:0:
256,192,214945,1,0,0:0:0:0:
256,192,214977,1,0,0:0:0:0:
256,192,215009,1,0,0:0:0:0:
256,192,215041,1,8,0:0:0:0:
256,192,215073,1,0,0:0:0:0:
256,192,215105,1,0,0:0:0:0:
256,192,215137,1,0,0:0:0:0:
256,192,215169,1,8,0:0:0:0:
256,192,215201,1,0,0:0:0:0:
256,192,215233,1,0,0:0:0:0:
256,192,215265,1,0,0:0:0:0:
256,192,215298,1,8,0:0:0:0:
256,192,215330,1,0,0:0:0:0:
256,192,215362,1,0,0:0:0:0:
256,192,215394,1,0,0:0:0:0:
256,192,215426,1,8,0:0:0:0:
256,192,216195,1,8,0:0:0:0:
256,192,216451,1,8,0:0:0:0:
256,192,216708,1,8,0:0:0:0:
256,192,216964,1,0,0:0:0:0:
256,192,217221,1,0,0:0:0:0:
256,192,217477,1,8,0:0:0:0:
256,192,218246,1,8,0:0:0:0:
256,192,218503,1,8,0:0:0:0:
256,192,218719,1,0,0:0:0:0:
256,192,218935,1,0,0:0:0:0:
256,192,219079,1,0,0:0:0:0:
256,192,219387,1,8,0:0:0:0:
256,192,219695,1,0,0:0:0:0:
256,192,220829,1,0,0:0:0:0:
224,192,221487,1,0,0:0:0:0:
224,192,222161,1,8,0:0:0:0:
