osu file format v14

[General]
AudioFilename: End Time.mp3
AudioLeadIn: 0
PreviewTime: 77332
Countdown: 0
SampleSet: Soft
StackLeniency: 0.7
Mode: 2
LetterboxInBreaks: 0
WidescreenStoryboard: 0

[Editor]
Bookmarks: 77832,79332,80666,82666,83332,84666,85332,87332,88666,89999,91332,91999,93999,95332,97332
DistanceSpacing: 0.5
BeatDivisor: 2
GridSize: 8
TimelineZoom: 1.5

[Metadata]
Title:End Time
TitleUnicode:End Time
Artist:Cres
ArtistUnicode:Cres
Creator:Gommy
Version:Loneliness
Source:BMS
Tags:
BeatmapID:1016864
BeatmapSetID:475993

[Difficulty]
HPDrainRate:6
CircleSize:4.5
OverallDifficulty:9.5
ApproachRate:9.5
SliderMultiplier:1.8
SliderTickRate:1

[Events]
//Background and Video events
0,0,"bg.jpg",0,0
Video,-4050,"video.avi"
//Break Periods
//Storyboard Layer 0 (Background)
//Storyboard Layer 1 (Fail)
//Storyboard Layer 2 (Pass)
//Storyboard Layer 3 (Foreground)
//Storyboard Layer 4 (Overlay)
//Storyboard Sound Samples

[TimingPoints]
1333,333.333333333333,4,2,1,65,1,0
11832,-125,4,2,1,50,0,0
11999,-125,4,2,1,55,0,0
12332,-125,4,2,1,60,0,0
12666,-125,4,2,1,65,0,0
12999,-125,4,2,1,70,0,0
13332,-100,4,2,1,75,0,0
23332,-100,4,1,0,75,0,0
24166,-100,4,2,1,75,0,0
25249,-100,4,1,0,75,0,0
25416,-100,4,2,1,75,0,0
26582,-100,4,1,0,75,0,0
26749,-100,4,2,1,75,0,0
27916,-100,4,1,0,75,0,0
28082,-100,4,2,1,75,0,0
29332,-100,4,2,1,80,0,0
31999,-111.111111111111,4,2,1,85,0,0
34666,-125,4,2,1,65,0,0
55999,-83.3333333333333,4,2,1,85,0,0
61291,-100,4,2,1,85,0,0
61332,-83.3333333333333,4,2,1,85,0,0
66624,-100,4,2,1,85,0,0
66666,-83.3333333333333,4,2,1,85,0,0
71957,-100,4,2,1,85,0,0
71999,-83.3333333333333,4,2,1,85,0,0
77332,-100,4,2,1,70,0,1
77832,-100,4,2,1,75,0,1
78666,-100,4,2,1,70,0,1
79332,-100,4,2,1,75,0,1
79999,-100,4,2,1,70,0,1
80666,-100,4,2,1,75,0,1
82666,-100,4,2,1,70,0,1
83332,-100,4,2,1,75,0,1
83999,-100,4,2,1,70,0,1
84666,-100,4,2,1,75,0,1
86666,-100,4,2,1,70,0,1
87332,-100,4,2,1,75,0,1
87999,-100,4,2,1,70,0,1
88666,-100,4,2,1,75,0,1
89332,-100,4,2,1,70,0,1
89999,-100,4,2,1,75,0,1
90666,-100,4,2,1,70,0,1
91332,-100,4,2,1,75,0,1
93332,-100,4,2,1,70,0,1
93999,-100,4,2,1,75,0,1
94666,-100,4,2,1,70,0,1
95332,-100,4,2,1,75,0,1
95999,-100,4,2,1,70,0,1
97332,-100,4,2,1,80,0,1
97999,-100,4,2,1,85,0,1
98624,-100,4,2,1,85,0,0
98666,-100,4,2,1,100,0,1
103332,-100,4,1,0,75,0,1
103499,-100,4,2,1,100,0,1
103582,-100,4,1,0,75,0,1
103749,-100,4,2,1,100,0,1
103832,-100,4,1,0,75,0,1
104082,-100,4,2,1,100,0,1
109332,-90.9090909090909,4,2,1,100,0,0
117291,-100,4,2,1,100,0,0
117332,-83.3333333333333,4,2,1,100,0,1
119999,-125,4,2,1,100,0,0
123986,375,4,2,1,65,1,0
124736,400,4,2,1,65,1,0
125536,352.941176470588,4,2,1,65,1,0
126241,375,4,2,1,65,1,0
126803,413.793103448276,4,2,1,65,1,0
127009,428.571428571429,4,2,1,65,1,0
128616,500,4,2,1,65,1,0
128741,500,4,2,1,65,1,0

[Colours]
Combo1 : 100,120,155
Combo2 : 192,192,192

[HitObjects]
408,144,1333,5,2,0:0:0:0:
112,48,2332,5,2,0:0:0:0:
24,80,2666,1,2,0:0:0:0:
256,192,2999,1,0,0:0:0:0:
344,240,3332,1,2,0:0:0:0:
512,112,3666,1,0,0:0:0:0:
424,160,3999,1,2,0:0:0:0:
24,80,4999,5,2,0:0:0:0:
112,48,5333,1,2,0:0:0:0:
344,240,5666,1,0,0:0:0:0:
256,192,5999,1,2,0:0:0:0:
424,160,6333,1,0,0:0:0:0:
512,112,6666,1,2,0:0:0:0:
160,192,7999,5,2,0:0:0:0:
408,144,9332,5,2,0:0:0:0:
184,288,11832,6,0,L|180:268,35,18
232,224,13332,5,4,0:0:0:0:
336,192,13499,1,2,0:0:0:0:
440,136,13666,1,0,0:0:0:0:
352,80,13832,1,2,0:0:0:0:
128,72,13999,1,0,0:0:0:0:
224,120,14166,1,2,0:0:0:0:
0,144,14332,1,0,0:0:0:0:
96,192,14499,1,2,0:0:0:0:
440,136,14832,5,2,0:0:0:0:
352,80,14999,1,0,0:0:0:0:
448,56,15165,1,2,0:0:0:0:
224,320,15332,1,0,0:0:0:0:
128,272,15499,1,2,0:0:0:0:
352,200,15665,1,0,0:0:0:0:
256,248,15832,1,2,0:0:0:0:
32,96,16166,5,2,0:0:0:0:
128,96,16332,1,0,0:0:0:0:
224,96,16499,1,2,0:0:0:0:
0,192,16666,1,0,0:0:0:0:
96,192,16832,1,2,0:0:0:0:
320,120,16999,1,0,0:0:0:0:
224,176,17166,1,2,0:0:0:0:
480,96,17499,5,2,0:0:0:0:
384,96,17665,1,0,0:0:0:0:
288,96,17832,1,2,0:0:0:0:
512,192,17999,1,0,0:0:0:0:
416,192,18165,1,2,0:0:0:0:
192,120,18332,1,0,0:0:0:0:
288,176,18499,1,2,0:0:0:0:
40,192,18832,5,2,0:0:0:0:
120,240,18999,1,0,0:0:0:0:
200,288,19166,1,2,0:0:0:0:
424,304,19332,1,0,0:0:0:0:
512,288,19499,1,2,0:0:0:0:
288,176,19666,1,0,0:0:0:0:
192,120,19832,1,2,0:0:0:0:
312,288,20166,5,2,0:0:0:0:
392,240,20333,1,0,0:0:0:0:
472,192,20500,1,2,0:0:0:0:
248,24,20666,1,0,0:0:0:0:
336,40,20833,1,2,0:0:0:0:
96,176,21000,1,0,0:0:0:0:
192,120,21166,1,2,0:0:0:0:
448,120,21499,5,2,0:0:0:0:
344,120,21666,1,0,0:0:0:0:
448,120,21832,1,2,0:0:0:0:
224,208,21999,1,0,0:0:0:0:
328,208,22166,1,2,0:0:0:0:
224,208,22332,1,0,0:0:0:0:
0,208,22499,1,2,0:0:0:0:
448,240,22832,5,2,0:0:0:0:
352,280,22999,1,0,0:0:0:0:
448,240,23166,1,2,0:0:0:0:
216,160,23332,5,0,0:0:0:0:
216,160,23416,1,0,0:0:0:0:
64,160,23583,1,0,0:0:0:0:
64,160,23666,1,0,0:0:0:0:
336,192,23833,1,0,0:0:0:0:
336,192,23916,1,0,0:0:0:0:
336,192,23999,1,4,0:0:0:0:
112,248,24166,5,2,0:0:0:0:
64,216,24249,1,0,0:0:0:0:
32,160,24332,1,0,0:0:0:0:
64,112,24415,1,0,0:0:0:0:
120,80,24499,1,2,0:0:0:0:
184,80,24582,1,0,0:0:0:0:
240,112,24665,1,0,0:0:0:0:
184,160,24749,1,0,0:0:0:0:
208,216,24832,1,2,0:0:0:0:
264,248,24915,1,0,0:0:0:0:
320,272,24999,1,0,0:0:0:0:
376,248,25082,1,0,0:0:0:0:
336,192,25165,1,2,0:0:0:0:
112,168,25332,5,4,0:0:0:0:
336,96,25499,5,2,0:0:0:0:
392,72,25582,1,0,0:0:0:0:
448,104,25665,1,0,0:0:0:0:
416,168,25748,1,0,0:0:0:0:
351,160,25832,1,2,0:0:0:0:
288,152,25915,1,0,0:0:0:0:
240,160,25998,1,0,0:0:0:0:
184,160,26082,1,0,0:0:0:0:
128,192,26165,1,2,0:0:0:0:
168,240,26248,1,0,0:0:0:0:
216,288,26332,1,0,0:0:0:0:
272,312,26415,1,0,0:0:0:0:
320,272,26498,1,2,0:0:0:0:
96,256,26666,5,4,0:0:0:0:
336,96,26832,5,2,0:0:0:0:
288,64,26915,1,0,0:0:0:0:
232,48,26998,1,0,0:0:0:0:
168,64,27081,1,0,0:0:0:0:
128,112,27165,1,2,0:0:0:0:
189,145,27248,1,0,0:0:0:0:
248,160,27331,1,0,0:0:0:0:
296,200,27415,1,0,0:0:0:0:
264,256,27498,1,2,0:0:0:0:
208,272,27581,1,0,0:0:0:0:
152,280,27665,1,0,0:0:0:0:
96,256,27748,1,0,0:0:0:0:
136,200,27831,1,2,0:0:0:0:
360,160,27999,5,4,0:0:0:0:
112,96,28166,5,2,0:0:0:0:
64,128,28249,1,0,0:0:0:0:
80,184,28332,1,0,0:0:0:0:
136,200,28415,1,0,0:0:0:0:
184,152,28499,1,2,0:0:0:0:
240,136,28582,1,0,0:0:0:0:
296,136,28665,1,0,0:0:0:0:
360,160,28749,1,0,0:0:0:0:
384,224,28832,1,2,0:0:0:0:
336,272,28915,1,0,0:0:0:0:
272,256,28999,1,0,0:0:0:0:
224,288,29082,1,0,0:0:0:0:
272,336,29165,1,2,0:0:0:0:
48,312,29332,5,2,0:0:0:0:
24,288,29416,1,0,0:0:0:0:
0,256,29499,1,2,0:0:0:0:
256,192,29666,1,2,0:0:0:0:
296,136,29832,1,2,0:0:0:0:
72,128,29999,5,2,0:0:0:0:
48,160,30082,1,0,0:0:0:0:
24,192,30166,1,2,0:0:0:0:
344,80,30332,1,2,0:0:0:0:
296,136,30499,1,2,0:0:0:0:
24,88,30666,5,2,0:0:0:0:
72,128,30749,1,0,0:0:0:0:
120,160,30832,1,2,0:0:0:0:
352,280,30999,1,2,0:0:0:0:
288,224,31166,1,2,0:0:0:0:
512,256,31332,5,2,0:0:0:0:
472,216,31416,1,0,0:0:0:0:
432,176,31499,1,2,0:0:0:0:
120,160,31666,1,2,0:0:0:0:
24,88,31832,1,2,0:0:0:0:
288,224,31999,6,0,L|304:176,1,40.4999987640381,2|0,0:0|0:0,0:0:0:0:
224,224,32166,2,0,L|208:176,1,40.4999987640381,2|0,0:0|0:0,0:0:0:0:
336,176,32332,2,0,L|368:136,1,40.4999987640381,2|0,0:0|0:0,0:0:0:0:
176,176,32499,2,0,L|144:136,1,40.4999987640381,2|0,0:0|0:0,0:0:0:0:
384,128,32666,6,0,L|424:104,1,40.4999987640381,2|0,0:0|0:0,0:0:0:0:
128,128,32832,2,0,L|88:104,1,40.4999987640381,2|0,0:0|0:0,0:0:0:0:
432,96,32999,2,0,L|472:88,1,40.4999987640381,2|0,0:0|0:0,0:0:0:0:
80,96,33166,2,0,L|40:88,1,40.4999987640381,2|0,0:0|0:0,0:0:0:0:
232,192,33332,6,0,L|273:192,1,40.4999987640381,2|0,0:0|0:0,0:0:0:0:
16,240,33499,2,0,L|0:192,1,40.4999987640381,2|0,0:0|0:0,0:0:0:0:
232,192,33666,2,0,L|280:192,1,40.4999987640381,2|0,0:0|0:0,0:0:0:0:
496,192,33832,2,0,L|512:233,1,40.4999987640381,2|0,0:0|0:0,0:0:0:0:
272,192,33999,6,0,L|224:192,1,40.4999987640381,2|0,0:0|0:0,0:0:0:0:
16,240,34166,2,0,L|0:192,1,40.4999987640381,2|0,0:0|0:0,0:0:0:0:
231,192,34332,2,0,L|279:192,1,40.4999987640381,2|0,0:0|0:0,0:0:0:0:
496,192,34499,2,0,L|512:232,1,40.4999987640381,2|0,0:0|0:0,0:0:0:0:
328,152,34666,5,4,0:0:0:0:
96,40,35666,5,0,0:0:0:0:
176,72,35832,1,2,0:0:0:0:
256,104,35999,1,0,0:0:0:0:
496,72,36999,5,0,0:0:0:0:
416,104,37165,1,2,0:0:0:0:
336,136,37332,1,0,0:0:0:0:
112,304,38332,5,0,0:0:0:0:
32,256,38499,1,2,0:0:0:0:
256,232,38666,1,0,0:0:0:0:
424,152,39332,5,0,0:0:0:0:
32,152,39999,1,2,0:0:0:0:
368,208,41332,5,0,0:0:0:0:
16,192,41999,1,2,0:0:0:0:
432,248,42666,1,0,0:0:0:0:
256,192,43999,5,0,0:0:0:0:
32,192,45332,5,0,0:0:0:0:
256,192,45999,1,2,0:0:0:0:
480,192,46666,1,2,0:0:0:0:
32,192,47332,1,0,0:0:0:0:
400,192,47999,1,2,0:0:0:0:
104,192,49332,5,2,0:0:0:0:
480,192,49999,1,0,0:0:0:0:
32,192,50666,1,0,0:0:0:0:
416,192,51666,5,0,0:0:0:0:
344,192,51832,1,0,0:0:0:0:
272,192,51999,1,2,0:0:0:0:
32,192,52666,1,0,0:0:0:0:
344,192,53332,1,0,0:0:0:0:
104,192,54666,5,2,0:0:0:0:
288,224,55332,5,0,0:0:0:0:
352,256,55416,1,0,0:0:0:0:
408,208,55499,1,2,0:0:0:0:
360,160,55582,1,0,0:0:0:0:
216,128,55666,2,0,L|176:128,1,36,2|0,0:0|0:0,0:0:0:0:
392,88,55832,2,0,L|432:88,1,36,2|0,0:0|0:0,0:0:0:0:
216,200,55999,5,2,0:0:0:0:
104,192,56166,1,2,0:0:0:0:
104,192,56249,1,2,0:0:0:0:
456,264,56499,5,2,0:0:0:0:
216,128,56666,1,2,0:0:0:0:
216,128,56749,1,2,0:0:0:0:
48,240,56999,5,2,0:0:0:0:
160,248,57166,1,2,0:0:0:0:
392,304,57332,1,2,0:0:0:0:
280,304,57499,1,2,0:0:0:0:
280,304,57582,1,2,0:0:0:0:
96,168,57832,5,2,0:0:0:0:
336,104,57999,1,2,0:0:0:0:
336,104,58082,1,2,0:0:0:0:
0,240,58332,5,2,0:0:0:0:
96,168,58499,1,2,0:0:0:0:
0,240,58666,1,2,0:0:0:0:
224,192,58832,1,2,0:0:0:0:
224,192,58916,1,2,0:0:0:0:
408,136,59166,5,2,0:0:0:0:
168,128,59332,1,2,0:0:0:0:
168,128,59416,1,2,0:0:0:0:
304,200,59499,1,2,0:0:0:0:
208,272,59666,1,2,0:0:0:0:
104,240,59832,1,2,0:0:0:0:
344,168,59999,5,2,0:0:0:0:
96,168,60166,1,2,0:0:0:0:
96,168,60249,1,2,0:0:0:0:
408,136,60416,1,2,0:0:0:0:
408,136,60499,1,2,0:0:0:0:
168,128,60666,1,2,0:0:0:0:
168,128,60749,1,2,0:0:0:0:
168,128,60832,1,2,0:0:0:0:
392,224,60999,5,4,0:0:0:0:
136,232,61332,5,2,0:0:0:0:
256,192,61499,1,2,0:0:0:0:
256,192,61582,1,2,0:0:0:0:
448,192,61832,1,2,0:0:0:0:
328,240,61999,1,2,0:0:0:0:
328,240,62082,1,2,0:0:0:0:
0,160,62332,1,2,0:0:0:0:
224,120,62499,1,2,0:0:0:0:
448,192,62666,5,2,0:0:0:0:
328,240,62832,1,2,0:0:0:0:
328,240,62916,1,2,0:0:0:0:
168,176,63166,1,2,0:0:0:0:
48,96,63332,1,2,0:0:0:0:
48,96,63416,1,2,0:0:0:0:
384,112,63666,5,2,0:0:0:0:
160,72,63832,1,2,0:0:0:0:
416,152,63999,1,2,0:0:0:0:
48,96,64166,1,2,0:0:0:0:
48,96,64249,1,2,0:0:0:0:
272,192,64416,1,2,0:0:0:0:
272,192,64499,1,2,0:0:0:0:
504,240,64666,5,2,0:0:0:0:
504,240,64749,1,2,0:0:0:0:
32,256,64916,1,2,0:0:0:0:
32,256,64999,1,2,0:0:0:0:
168,176,65082,1,2,0:0:0:0:
168,176,65166,1,2,0:0:0:0:
392,80,65332,5,2,0:0:0:0:
120,112,65499,1,2,0:0:0:0:
120,112,65582,1,2,0:0:0:0:
344,152,65749,1,2,0:0:0:0:
344,152,65832,1,2,0:0:0:0:
168,176,65916,1,2,0:0:0:0:
168,176,65999,1,2,0:0:0:0:
56,232,66166,5,2,0:0:0:0:
280,272,66332,1,2,0:0:0:0:
504,224,66499,1,2,0:0:0:0:
168,176,66666,5,6,0:0:0:0:
392,80,66832,1,2,0:0:0:0:
392,80,66916,1,2,0:0:0:0:
64,152,67166,5,2,0:0:0:0:
288,88,67332,1,2,0:0:0:0:
288,88,67416,1,2,0:0:0:0:
448,136,67666,5,2,0:0:0:0:
336,160,67832,1,2,0:0:0:0:
112,96,67999,1,2,0:0:0:0:
336,160,68166,1,2,0:0:0:0:
336,160,68249,1,2,0:0:0:0:
496,208,68499,5,2,0:0:0:0:
272,240,68666,1,2,0:0:0:0:
272,240,68749,1,2,0:0:0:0:
272,240,68832,1,2,0:0:0:0:
48,152,68999,1,2,0:0:0:0:
336,160,69166,1,2,0:0:0:0:
408,104,69332,5,2,0:0:0:0:
453,129,69415,1,2,0:0:0:0:
461,181,69498,1,2,0:0:0:0:
426,219,69581,1,2,0:0:0:0:
184,160,69666,5,2,0:0:0:0:
136,138,69749,1,2,0:0:0:0:
122,88,69832,1,2,0:0:0:0:
153,45,69915,1,2,0:0:0:0:
352,64,69999,5,2,0:0:0:0:
401,80,70082,1,2,0:0:0:0:
424,127,70165,1,2,0:0:0:0:
406,177,70248,1,2,0:0:0:0:
136,216,70332,5,2,0:0:0:0:
89,192,70415,1,2,0:0:0:0:
77,141,70498,1,2,0:0:0:0:
109,100,70581,1,2,0:0:0:0:
304,240,70666,5,2,0:0:0:0:
80,272,70832,1,2,0:0:0:0:
80,272,70916,1,2,0:0:0:0:
80,272,70999,1,2,0:0:0:0:
192,160,71166,1,2,0:0:0:0:
416,120,71332,5,2,0:0:0:0:
416,120,71416,1,2,0:0:0:0:
416,120,71499,1,2,0:0:0:0:
136,104,71666,1,2,0:0:0:0:
40,136,71832,1,2,0:0:0:0:
296,128,71999,5,6,0:0:0:0:
360,72,72166,1,2,0:0:0:0:
360,72,72249,1,2,0:0:0:0:
24,208,72499,5,2,0:0:0:0:
120,184,72666,1,2,0:0:0:0:
120,184,72749,1,2,0:0:0:0:
456,272,72999,5,2,0:0:0:0:
344,240,73166,1,2,0:0:0:0:
440,192,73332,1,2,0:0:0:0:
344,160,73499,1,2,0:0:0:0:
344,160,73582,1,2,0:0:0:0:
8,280,73832,5,2,0:0:0:0:
96,320,73999,1,2,0:0:0:0:
148,312,74082,1,2,0:0:0:0:
191,280,74165,1,2,0:0:0:0:
214,231,74248,1,2,0:0:0:0:
408,128,74332,5,2,0:0:0:0:
372,88,74415,1,2,0:0:0:0:
322,69,74498,1,2,0:0:0:0:
269,77,74581,1,2,0:0:0:0:
72,144,74666,1,2,0:0:0:0:
296,224,74832,5,2,0:0:0:0:
400,288,74999,1,2,0:0:0:0:
400,288,75082,1,2,0:0:0:0:
128,200,75249,1,2,0:0:0:0:
128,200,75332,1,2,0:0:0:0:
128,200,75416,1,2,0:0:0:0:
352,176,75582,1,2,0:0:0:0:
352,176,75666,1,2,0:0:0:0:
352,176,75749,1,2,0:0:0:0:
496,144,75999,5,2,0:0:0:0:
400,112,76166,1,2,0:0:0:0:
400,112,76249,1,2,0:0:0:0:
176,128,76416,1,2,0:0:0:0:
176,128,76499,1,2,0:0:0:0:
72,144,76666,2,2,L|8:144,1,53.9999983520508
232,56,76832,2,2,L|296:56,1,53.9999983520508
496,144,76999,5,4,0:0:0:0:
104,64,77332,5,2,0:0:0:0:
64,96,77415,1,0,0:0:0:0:
64,152,77498,1,0,0:0:0:0:
104,176,77581,1,0,0:0:0:0:
160,192,77665,1,2,0:0:0:0:
208,160,77748,1,0,0:0:0:0:
400,112,77832,6,0,L|448:112,1,45
160,192,77999,2,0,L|112:192,1,45,2|0,0:0|0:0,0:0:0:0:
256,192,78166,2,0,L|301:192,1,45
464,256,78332,2,0,L|512:256,1,45,2|0,0:0|0:0,0:0:0:0:
328,288,78499,2,0,L|283:288,1,45,0|4,0:0|0:0,0:0:0:0:
136,264,78666,5,2,0:0:0:0:
88,240,78749,1,0,0:0:0:0:
72,184,78832,1,0,0:0:0:0:
112,144,78915,1,0,0:0:0:0:
168,144,78999,1,2,0:0:0:0:
219,167,79082,1,0,0:0:0:0:
264,184,79165,1,0,0:0:0:0:
312,152,79249,1,0,0:0:0:0:
152,72,79332,6,0,L|104:72,1,45,2|0,0:0|0:0,0:0:0:0:
288,72,79499,2,0,L|336:72,1,45
504,160,79666,2,0,L|448:160,1,45,2|0,0:0|0:0,0:0:0:0:
264,184,79832,2,0,L|208:184,1,45,0|4,0:0|0:0,0:0:0:0:
72,184,79999,5,2,0:0:0:0:
32,232,80082,1,0,0:0:0:0:
72,272,80165,1,0,0:0:0:0:
136,272,80248,1,0,0:0:0:0:
184,304,80332,1,2,0:0:0:0:
144,352,80415,1,0,0:0:0:0:
80,344,80498,1,0,0:0:0:0:
32,312,80582,1,0,0:0:0:0:
256,304,80666,6,0,L|304:304,1,45,2|0,0:0|0:0,0:0:0:0:
136,272,80832,2,0,L|80:272,1,45
368,232,80999,2,0,L|416:232,1,45,2|0,0:0|0:0,0:0:0:0:
264,184,81166,2,0,L|208:184,1,45
16,136,81332,6,0,L|0:88,1,45,2|0,0:0|0:0,0:0:0:0:
232,120,81499,2,0,L|280:120,1,45
488,97,81666,2,0,L|512:136,1,45,2|0,0:0|0:0,0:0:0:0:
280,120,81832,2,0,L|232:120,1,45
16,136,81999,6,0,L|0:88,1,45,2|0,0:0|0:0,0:0:0:0:
235,120,82166,2,0,L|280:120,1,45
488,97,82332,2,0,L|512:136,1,45,2|0,0:0|0:0,0:0:0:0:
280,120,82499,2,0,L|232:120,1,45,0|4,0:0|0:0,0:0:0:0:
80,168,82666,5,2,0:0:0:0:
24,208,82749,1,0,0:0:0:0:
48,264,82832,1,0,0:0:0:0:
88,296,82915,1,0,0:0:0:0:
128,248,82999,1,2,0:0:0:0:
176,216,83082,1,0,0:0:0:0:
224,264,83165,1,0,0:0:0:0:
288,240,83249,1,0,0:0:0:0:
488,192,83332,6,0,L|432:192,1,45,2|0,0:0|0:0,0:0:0:0:
232,120,83499,2,0,L|176:120,1,45
368,56,83666,2,0,L|416:56,1,45,2|0,0:0|0:0,0:0:0:0:
200,48,83832,2,0,L|152:48,1,45,0|4,0:0|0:0,0:0:0:0:
344,128,83999,5,2,0:0:0:0:
400,160,84082,1,0,0:0:0:0:
344,192,84165,1,0,0:0:0:0:
296,216,84248,1,0,0:0:0:0:
344,256,84332,1,2,0:0:0:0:
392,272,84415,1,0,0:0:0:0:
440,288,84498,1,0,0:0:0:0:
488,248,84582,1,0,0:0:0:0:
256,296,84666,6,0,L|208:296,1,45,2|0,0:0|0:0,0:0:0:0:
40,240,84832,2,0,L|96:240,1,45
296,216,84999,2,0,L|344:216,1,45,2|0,0:0|0:0,0:0:0:0:
128,168,85166,2,0,L|80:168,1,45,0|4,0:0|0:0,0:0:0:0:
232,120,85332,6,0,L|280:120,1,45,2|0,0:0|0:0,0:0:0:0:
496,88,85499,2,0,L|512:136,1,45
280,120,85665,2,0,L|232:120,1,45,2|0,0:0|0:0,0:0:0:0:
16,136,85832,2,0,L|0:88,1,45
235,120,85999,6,0,L|280:120,1,45,2|0,0:0|0:0,0:0:0:0:
496,88,86166,2,0,L|512:136,1,45
280,120,86332,2,0,L|232:120,1,45,2|0,0:0|0:0,0:0:0:0:
16,136,86499,2,0,L|0:91,1,45
264,192,86666,5,2,0:0:0:0:
328,168,86749,1,0,0:0:0:0:
376,208,86832,1,0,0:0:0:0:
328,248,86915,1,0,0:0:0:0:
384,280,86999,1,2,0:0:0:0:
344,320,87082,1,0,0:0:0:0:
280,313,87165,1,0,0:0:0:0:
224,320,87249,1,0,0:0:0:0:
64,240,87332,6,0,L|16:240,1,45,2|0,0:0|0:0,0:0:0:0:
224,192,87499,2,0,L|272:192,1,45
456,136,87666,2,0,L|408:136,1,45,2|0,0:0|0:0,0:0:0:0:
176,112,87832,2,0,L|128:112,1,45,0|4,0:0|0:0,0:0:0:0:
312,104,87999,5,2,0:0:0:0:
352,144,88082,1,0,0:0:0:0:
296,176,88165,1,0,0:0:0:0:
248,152,88248,1,0,0:0:0:0:
192,160,88332,1,2,0:0:0:0:
144,192,88415,1,0,0:0:0:0:
192,240,88498,1,0,0:0:0:0:
256,240,88582,1,0,0:0:0:0:
456,288,88666,6,0,L|504:288,1,45,2|0,0:0|0:0,0:0:0:0:
296,320,88832,2,0,L|248:320,1,45
408,216,88999,2,0,L|464:216,1,45,2|0,0:0|0:0,0:0:0:0:
256,240,89166,2,0,L|200:240,1,45,0|4,0:0|0:0,0:0:0:0:
64,240,89332,5,2,0:0:0:0:
24,208,89415,1,0,0:0:0:0:
56,168,89498,1,0,0:0:0:0:
112,160,89581,1,0,0:0:0:0:
160,144,89665,1,2,0:0:0:0:
200,112,89748,1,0,0:0:0:0:
160,80,89831,1,0,0:0:0:0:
104,88,89915,1,0,0:0:0:0:
272,152,89999,6,0,L|320:152,1,45,2|0,0:0|0:0,0:0:0:0:
464,264,90166,2,0,L|512:264,1,45
256,280,90332,2,0,L|208:280,1,45,2|0,0:0|0:0,0:0:0:0:
64,240,90499,2,0,L|120:240,1,45,0|4,0:0|0:0,0:0:0:0:
280,224,90666,5,2,0:0:0:0:
336,240,90749,1,0,0:0:0:0:
376,208,90832,1,0,0:0:0:0:
352,160,90915,1,0,0:0:0:0:
304,128,90999,1,2,0:0:0:0:
256,112,91082,1,0,0:0:0:0:
200,112,91165,1,0,0:0:0:0:
160,144,91249,1,0,0:0:0:0:
344,64,91332,6,0,L|392:64,1,45,2|0,0:0|0:0,0:0:0:0:
144,56,91499,2,0,L|96:56,1,45
256,112,91666,2,0,L|304:112,1,45,2|0,0:0|0:0,0:0:0:0:
488,160,91832,2,0,L|440:160,1,45
256,192,91999,6,0,L|208:192,1,45,2|0,0:0|0:0,0:0:0:0:
16,216,92166,2,0,L|0:168,1,45
256,192,92332,2,0,L|304:192,1,45,2|0,0:0|0:0,0:0:0:0:
496,168,92499,2,0,L|512:216,1,45
256,192,92666,6,0,L|208:192,1,45,2|0,0:0|0:0,0:0:0:0:
16,216,92832,2,0,L|0:168,1,45
256,192,92999,2,0,L|304:192,1,45,2|0,0:0|0:0,0:0:0:0:
496,168,93166,2,0,L|512:216,1,45,0|4,0:0|0:0,0:0:0:0:
312,144,93332,5,2,0:0:0:0:
264,120,93415,1,0,0:0:0:0:
216,112,93498,1,0,0:0:0:0:
168,152,93581,1,0,0:0:0:0:
176,200,93665,1,2,0:0:0:0:
216,232,93748,1,0,0:0:0:0:
256,256,93831,1,0,0:0:0:0:
312,272,93915,1,0,0:0:0:0:
208,312,93999,6,0,L|144:312,1,45,2|0,0:0|0:0,0:0:0:0:
24,256,94166,2,0,L|80:256,1,45
256,256,94332,2,0,L|304:256,1,45,2|0,0:0|0:0,0:0:0:0:
120,192,94499,2,0,L|72:192,1,45,0|4,0:0|0:0,0:0:0:0:
312,144,94666,5,2,0:0:0:0:
368,152,94749,1,0,0:0:0:0:
384,200,94832,1,0,0:0:0:0:
360,248,94915,1,0,0:0:0:0:
303,260,94999,1,2,0:0:0:0:
256,280,95082,1,0,0:0:0:0:
208,280,95165,1,0,0:0:0:0:
152,272,95249,1,0,0:0:0:0:
0,192,95332,6,0,L|48:192,1,45,2|0,0:0|0:0,0:0:0:0:
256,144,95499,2,0,L|312:144,1,45
480,104,95666,2,0,L|432:104,1,45,2|0,0:0|0:0,0:0:0:0:
272,64,95832,2,0,L|227:64,1,45,0|4,0:0|0:0,0:0:0:0:
56,112,95999,5,2,0:0:0:0:
0,144,96082,1,0,0:0:0:0:
32,208,96165,1,0,0:0:0:0:
80,248,96248,1,0,0:0:0:0:
136,288,96332,1,2,0:0:0:0:
200,304,96415,1,0,0:0:0:0:
264,320,96498,1,0,0:0:0:0:
336,328,96582,1,0,0:0:0:0:
400,304,96665,5,2,0:0:0:0:
432,248,96748,1,0,0:0:0:0:
368,232,96832,1,0,0:0:0:0:
304,208,96915,1,0,0:0:0:0:
240,176,96998,1,2,0:0:0:0:
208,128,97082,1,0,0:0:0:0:
272,112,97165,1,0,0:0:0:0:
336,104,97248,1,0,0:0:0:0:
192,192,97332,6,0,L|136:192,1,45,2|0,0:0|0:0,0:0:0:0:
320,192,97499,2,0,L|376:192,1,45
147,192,97666,2,0,L|104:176,1,45,2|0,0:0|0:0,0:0:0:0:
365,192,97832,2,0,L|408:176,1,45
102,192,97999,6,0,L|64:168,1,45,2|0,0:0|0:0,0:0:0:0:
410,192,98166,2,0,L|448:168,1,45
56,192,98332,2,0,L|24:160,1,45,2|0,0:0|0:0,0:0:0:0:
456,192,98499,2,0,L|488:160,1,45
152,184,98666,5,6,0:0:0:0:
88,144,98749,1,0,0:0:0:0:
120,72,98832,1,0,0:0:0:0:
416,272,98915,1,0,0:0:0:0:
352,272,98999,1,2,0:0:0:0:
288,272,99082,1,0,0:0:0:0:
224,272,99165,1,0,0:0:0:0:
160,272,99249,1,0,0:0:0:0:
360,152,99332,6,0,L|408:152,1,45,2|0,0:0|0:0,0:0:0:0:
240,104,99499,2,0,L|192:104,1,45
32,192,99665,1,2,0:0:0:0:
88,192,99749,1,0,0:0:0:0:
144,192,99832,1,0,0:0:0:0:
200,192,99916,1,0,0:0:0:0:
400,288,99999,5,2,0:0:0:0:
472,272,100082,1,0,0:0:0:0:
512,216,100165,1,0,0:0:0:0:
464,160,100248,1,0,0:0:0:0:
88,192,100332,2,0,L|32:192,1,45,2|0,0:0|0:0,0:0:0:0:
400,288,100499,2,0,L|448:288,1,45
256,104,100666,6,0,L|208:104,1,45,2|0,0:0|0:0,0:0:0:0:
456,160,100832,2,0,L|504:160,1,45
144,192,100999,1,2,0:0:0:0:
80,144,101082,1,0,0:0:0:0:
32,72,101166,1,0,0:0:0:0:
96,32,101249,1,0,0:0:0:0:
424,192,101332,5,2,0:0:0:0:
368,192,101416,1,0,0:0:0:0:
312,192,101499,1,0,0:0:0:0:
256,192,101583,1,0,0:0:0:0:
88,304,101666,2,0,L|136:304,1,45,2|0,0:0|0:0,0:0:0:0:
424,192,101832,2,0,L|472:192,1,45
192,240,101999,5,2,0:0:0:0:
128,200,102082,1,0,0:0:0:0:
168,136,102166,1,0,0:0:0:0:
232,104,102249,1,0,0:0:0:0:
48,80,102332,2,0,L|0:80,1,45,2|0,0:0|0:0,0:0:0:0:
424,192,102499,2,0,L|480:192,1,45
128,200,102666,5,2,0:0:0:0:
72,152,102749,1,0,0:0:0:0:
96,72,102832,1,0,0:0:0:0:
168,40,102916,1,0,0:0:0:0:
424,192,102999,1,2,0:0:0:0:
379,192,103082,1,0,0:0:0:0:
334,192,103165,1,0,0:0:0:0:
289,192,103248,1,0,0:0:0:0:
96,72,103332,6,0,L|144:72,1,45,2|0,0:0|0:0,0:0:0:0:
379,192,103499,2,0,L|333:192,1,45
96,72,103666,2,0,L|144:72,1,45,2|0,0:0|0:0,0:0:0:0:
379,192,103832,2,0,L|333:192,1,45
128,192,103999,6,0,L|136:240,1,45,2|0,0:0|0:0,0:0:0:0:
240,272,104166,2,0,L|248:320,1,45
352,232,104332,2,0,L|360:184,1,45,2|0,0:0|0:0,0:0:0:0:
464,144,104499,2,0,L|472:96,1,45
152,192,104666,6,0,L|104:192,1,45,2|0,0:0|0:0,0:0:0:0:
312,104,104832,2,0,L|264:104,1,45
16,88,104999,2,0,L|64:88,1,45,2|0,0:0|0:0,0:0:0:0:
392,104,105166,2,0,L|440:104,1,45
152,192,105332,5,2,0:0:0:0:
96,240,105416,1,0,0:0:0:0:
64,312,105499,1,0,0:0:0:0:
128,344,105582,1,0,0:0:0:0:
347,104,105666,2,0,L|395:104,1,45,2|0,0:0|0:0,0:0:0:0:
208,80,105832,2,0,L|160:80,1,45
440,208,105999,6,0,L|432:256,1,45,2|0,0:0|0:0,0:0:0:0:
328,288,106166,2,0,L|320:336,1,45
216,248,106332,2,0,L|208:200,1,45,2|0,0:0|0:0,0:0:0:0:
104,168,106499,2,0,L|96:120,1,45
432,208,106666,5,2,0:0:0:0:
480,208,106749,1,0,0:0:0:0:
432,208,106832,1,0,0:0:0:0:
480,208,106916,1,0,0:0:0:0:
432,208,106999,1,2,0:0:0:0:
480,208,107082,1,0,0:0:0:0:
432,208,107166,1,0,0:0:0:0:
480,208,107249,1,0,0:0:0:0:
232,96,107332,5,2,0:0:0:0:
184,96,107415,1,0,0:0:0:0:
232,96,107498,1,0,0:0:0:0:
184,96,107582,1,0,0:0:0:0:
232,96,107665,1,2,0:0:0:0:
184,96,107748,1,0,0:0:0:0:
232,96,107832,1,0,0:0:0:0:
184,96,107915,1,0,0:0:0:0:
384,192,107999,6,0,L|384:144,1,45,2|0,0:0|0:0,0:0:0:0:
88,192,108166,2,0,L|88:240,1,45
288,256,108332,2,0,L|288:208,1,45,2|0,0:0|0:0,0:0:0:0:
472,96,108499,2,0,L|472:144,1,45
160,168,108666,6,0,L|160:112,1,45,2|0,0:0|0:0,0:0:0:0:
352,200,108832,2,0,L|352:256,1,45
64,160,108999,2,0,L|64:112,1,45,2|0,0:0|0:0,0:0:0:0:
440,240,109166,2,0,L|440:288,1,45
136,232,109332,1,0,0:0:0:0:
360,120,109499,5,0,0:0:0:0:
64,160,109666,2,0,L|56:128,5,33.0000010070801,2|0|0|0|0|0,0:0|0:0|0:0|0:0|0:0|0:0,0:0:0:0:
232,240,109999,5,0,0:0:0:0:
352,192,110166,1,2,0:0:0:0:
232,240,110332,1,0,0:0:0:0:
480,192,110499,1,2,0:0:0:0:
288,128,110832,5,0,0:0:0:0:
56,120,110998,2,0,L|48:88,5,33.0000010070801,2|0|0|0|0|0,0:0|0:0|0:0|0:0|0:0|0:0,0:0:0:0:
240,192,111332,5,0,0:0:0:0:
120,192,111499,1,2,0:0:0:0:
0,192,111666,1,0,0:0:0:0:
464,192,111832,1,2,0:0:0:0:
224,120,112166,5,0,0:0:0:0:
448,160,112333,2,0,L|456:128,5,33.0000010070801,2|0|0|0|0|0,0:0|0:0|0:0|0:0|0:0|0:0,0:0:0:0:
256,240,112666,5,0,0:0:0:0:
352,192,112833,1,2,0:0:0:0:
128,200,112999,1,0,0:0:0:0:
480,192,113166,1,2,0:0:0:0:
256,136,113499,5,0,0:0:0:0:
32,128,113665,2,0,L|24:96,5,33.0000010070801,2|0|0|0|0|0,0:0|0:0|0:0|0:0|0:0|0:0,0:0:0:0:
240,192,113999,5,0,0:0:0:0:
144,216,114165,1,2,0:0:0:0:
368,136,114332,1,0,0:0:0:0:
32,128,114499,1,2,0:0:0:0:
96,192,114832,5,0,0:0:0:0:
432,120,114998,2,0,L|440:88,5,33.0000010070801,2|0|0|0|0|0,0:0|0:0|0:0|0:0|0:0|0:0,0:0:0:0:
248,192,115332,5,0,0:0:0:0:
368,192,115499,1,2,0:0:0:0:
488,192,115666,1,0,0:0:0:0:
40,192,115832,1,2,0:0:0:0:
152,120,116166,5,0,0:0:0:0:
448,160,116333,2,0,L|456:128,5,33.0000010070801,2|0|0|0|0|0,0:0|0:0|0:0|0:0|0:0|0:0,0:0:0:0:
256,240,116666,5,0,0:0:0:0:
32,192,116833,1,2,0:0:0:0:
256,168,116999,1,0,0:0:0:0:
128,192,117166,1,2,0:0:0:0:
392,128,117332,6,0,L|440:96,1,53.9999983520508,2|0,0:0|0:0,0:0:0:0:
224,224,117499,2,0,L|176:192,1,53.9999983520508,2|0,0:0|0:0,0:0:0:0:
502,280,117666,2,0,L|472:232,1,53.9999983520508,2|0,0:0|0:0,0:0:0:0:
10,280,117832,2,0,L|56:248,1,53.9999983520508,2|0,0:0|0:0,0:0:0:0:
288,224,117999,6,0,L|336:200,1,53.9999983520508,2|0,0:0|0:0,0:0:0:0:
75,98,118166,2,0,L|104:144,1,53.9999983520508,2|0,0:0|0:0,0:0:0:0:
494,152,118332,2,0,L|448:120,1,53.9999983520508,2|0,0:0|0:0,0:0:0:0:
216,48,118499,2,0,L|160:48,1,53.9999983520508,2|0,0:0|0:0,0:0:0:0:
24,192,118666,5,2,0:0:0:0:
176,192,118749,1,0,0:0:0:0:
328,192,118832,1,2,0:0:0:0:
488,192,118916,1,0,0:0:0:0:
328,192,118999,1,2,0:0:0:0:
176,192,119082,1,0,0:0:0:0:
24,192,119166,1,2,0:0:0:0:
176,192,119249,1,0,0:0:0:0:
328,192,119332,5,2,0:0:0:0:
488,192,119416,1,0,0:0:0:0:
328,192,119499,1,2,0:0:0:0:
176,192,119582,1,0,0:0:0:0:
24,192,119666,1,2,0:0:0:0:
176,192,119749,1,0,0:0:0:0:
328,192,119832,1,0,0:0:0:0:
488,192,119916,1,0,0:0:0:0:
176,192,119999,5,4,0:0:0:0:
400,48,120999,5,2,0:0:0:0:
488,80,121333,1,2,0:0:0:0:
256,192,121666,1,0,0:0:0:0:
168,240,121999,1,2,0:0:0:0:
0,112,122333,1,0,0:0:0:0:
88,160,122666,1,2,0:0:0:0:
488,80,123666,5,2,0:0:0:0:
400,48,123986,1,2,0:0:0:0:
168,240,124267,1,0,0:0:0:0:
256,192,124548,1,2,0:0:0:0:
88,160,124736,1,0,0:0:0:0:
0,112,125136,1,2,0:0:0:0:
352,192,125536,5,0,0:0:0:0:
408,144,127009,5,2,0:0:0:0:
256,192,127866,1,0,0:0:0:0:
80,192,128741,1,2,0:0:0:0:
