osu file format v14

[General]
AudioFilename: audio110.mp3
AudioLeadIn: 0
PreviewTime: -1
Countdown: 1
SampleSet: Soft
StackLeniency: 0.7
Mode: 3
LetterboxInBreaks: 0
SpecialStyle: 0
WidescreenStoryboard: 0

[Editor]
DistanceSpacing: 0.8
BeatDivisor: 8
GridSize: 16
TimelineZoom: 1.7

[Metadata]
Title:End Time
TitleUnicode:End Time
Artist:Cres
ArtistUnicode:Cres
Creator:Blaster
Version:GENESIS DIE [1.1x]
Source:BMS
Tags:
BeatmapID:1935640
BeatmapSetID:926178

[Difficulty]
HPDrainRate:8.5
CircleSize:4
OverallDifficulty:8.5
ApproachRate:5
SliderMultiplier:1.4
SliderTickRate:1

[Events]
//Background and Video events
0,0,"real k.jpg",0,0
//Break Periods
//Storyboard Layer 0 (Background)
//Storyboard Layer 1 (Fail)
//Storyboard Layer 2 (Pass)
//Storyboard Layer 3 (Foreground)
//Storyboard Sound Samples

[TimingPoints]
1275,303.030303030303,4,2,0,5,1,0

[HitObjects]
320,192,1275,5,0,0:0:0:0:
448,192,2184,1,0,0:0:0:0:
320,192,2487,1,0,0:0:0:0:
448,192,2790,1,0,0:0:0:0:
192,192,3093,1,0,0:0:0:0:
64,192,3396,1,0,0:0:0:0:
320,192,3699,1,0,0:0:0:0:
448,192,4608,1,0,0:0:0:0:
320,192,4911,1,0,0:0:0:0:
192,192,5215,1,0,0:0:0:0:
64,192,5517,1,0,0:0:0:0:
320,192,5820,1,0,0:0:0:0:
64,192,6124,1,0,0:0:0:0:
448,192,7335,1,0,0:0:0:0:
192,192,8547,1,0,0:0:0:0:
64,192,12184,1,0,0:0:0:0:
448,192,12184,1,0,0:0:0:0:
192,192,12260,1,0,0:0:0:0:
320,192,12335,1,0,0:0:0:0:
192,192,12411,1,0,0:0:0:0:
64,192,12487,1,0,0:0:0:0:
448,192,12487,1,0,0:0:0:0:
192,192,12563,1,0,0:0:0:0:
320,192,12638,1,0,0:0:0:0:
192,192,12715,1,0,0:0:0:0:
448,192,12790,1,0,0:0:0:0:
64,192,12790,1,0,0:0:0:0:
192,192,12865,1,0,0:0:0:0:
64,192,12942,1,0,0:0:0:0:
192,192,13017,1,0,0:0:0:0:
448,192,13017,1,0,0:0:0:0:
320,192,13093,1,0,0:0:0:0:
448,192,13169,1,0,0:0:0:0:
320,192,13245,1,0,0:0:0:0:
192,192,13320,1,0,0:0:0:0:
64,192,13396,1,0,0:0:0:0:
448,192,13396,1,0,0:0:0:0:
320,192,13472,1,0,0:0:0:0:
192,192,13547,1,0,0:0:0:0:
320,192,13624,1,0,0:0:0:0:
448,192,13699,1,0,0:0:0:0:
64,192,13699,1,0,0:0:0:0:
320,192,13775,1,0,0:0:0:0:
192,192,13851,1,0,0:0:0:0:
320,192,13926,1,0,0:0:0:0:
448,192,14002,1,0,0:0:0:0:
64,192,14002,1,0,0:0:0:0:
320,192,14078,1,0,0:0:0:0:
192,192,14154,1,0,0:0:0:0:
320,192,14229,1,0,0:0:0:0:
64,192,14305,1,0,0:0:0:0:
448,192,14305,1,0,0:0:0:0:
320,192,14381,1,0,0:0:0:0:
448,192,14456,1,0,0:0:0:0:
320,192,14533,1,0,0:0:0:0:
192,192,14608,1,0,0:0:0:0:
448,192,14608,1,0,0:0:0:0:
64,192,14684,1,0,0:0:0:0:
192,192,14760,1,0,0:0:0:0:
320,192,14835,1,0,0:0:0:0:
192,192,14911,1,0,0:0:0:0:
448,192,14911,1,0,0:0:0:0:
64,192,14987,1,0,0:0:0:0:
192,192,15063,1,0,0:0:0:0:
320,192,15138,1,0,0:0:0:0:
192,192,15215,1,0,0:0:0:0:
448,192,15215,1,0,0:0:0:0:
64,192,15290,1,0,0:0:0:0:
192,192,15365,1,0,0:0:0:0:
64,192,15442,1,0,0:0:0:0:
192,192,15517,1,0,0:0:0:0:
448,192,15517,1,0,0:0:0:0:
64,192,15593,1,0,0:0:0:0:
192,192,15669,1,0,0:0:0:0:
320,192,15745,1,0,0:0:0:0:
448,192,15820,1,0,0:0:0:0:
64,192,15820,1,0,0:0:0:0:
320,192,15896,1,0,0:0:0:0:
192,192,15972,1,0,0:0:0:0:
320,192,16047,1,0,0:0:0:0:
448,192,16124,1,0,0:0:0:0:
64,192,16124,1,0,0:0:0:0:
320,192,16199,1,0,0:0:0:0:
192,192,16275,1,0,0:0:0:0:
320,192,16351,1,0,0:0:0:0:
64,192,16426,1,0,0:0:0:0:
448,192,16426,1,0,0:0:0:0:
320,192,16502,1,0,0:0:0:0:
448,192,16578,1,0,0:0:0:0:
320,192,16654,1,0,0:0:0:0:
64,192,16729,1,0,0:0:0:0:
192,192,16805,1,0,0:0:0:0:
448,192,16881,1,0,0:0:0:0:
320,192,16956,1,0,0:0:0:0:
64,192,17033,1,0,0:0:0:0:
448,192,17033,1,0,0:0:0:0:
192,192,17108,1,0,0:0:0:0:
320,192,17184,1,0,0:0:0:0:
192,192,17260,1,0,0:0:0:0:
64,192,17335,1,0,0:0:0:0:
448,192,17335,1,0,0:0:0:0:
192,192,17411,1,0,0:0:0:0:
320,192,17487,1,0,0:0:0:0:
192,192,17563,1,0,0:0:0:0:
448,192,17638,1,0,0:0:0:0:
64,192,17638,1,0,0:0:0:0:
192,192,17715,1,0,0:0:0:0:
64,192,17790,1,0,0:0:0:0:
192,192,17865,1,0,0:0:0:0:
64,192,17942,1,0,0:0:0:0:
448,192,17942,1,0,0:0:0:0:
192,192,18017,1,0,0:0:0:0:
320,192,18093,1,0,0:0:0:0:
448,192,18169,1,0,0:0:0:0:
320,192,18245,1,0,0:0:0:0:
64,192,18245,1,0,0:0:0:0:
192,192,18320,1,0,0:0:0:0:
320,192,18396,1,0,0:0:0:0:
448,192,18472,1,0,0:0:0:0:
320,192,18547,1,0,0:0:0:0:
64,192,18547,1,0,0:0:0:0:
448,192,18624,1,0,0:0:0:0:
320,192,18699,1,0,0:0:0:0:
192,192,18775,1,0,0:0:0:0:
64,192,18851,1,0,0:0:0:0:
448,192,18851,1,0,0:0:0:0:
192,192,18926,1,0,0:0:0:0:
64,192,19002,1,0,0:0:0:0:
192,192,19078,1,0,0:0:0:0:
448,192,19154,1,0,0:0:0:0:
64,192,19154,1,0,0:0:0:0:
192,192,19229,1,0,0:0:0:0:
320,192,19305,1,0,0:0:0:0:
448,192,19381,1,0,0:0:0:0:
64,192,19456,1,0,0:0:0:0:
192,192,19533,1,0,0:0:0:0:
64,192,19608,1,0,0:0:0:0:
192,192,19684,1,0,0:0:0:0:
320,192,19760,1,0,0:0:0:0:
64,192,19760,1,0,0:0:0:0:
448,192,19835,1,0,0:0:0:0:
320,192,19911,1,0,0:0:0:0:
192,192,19987,1,0,0:0:0:0:
320,192,20063,1,0,0:0:0:0:
64,192,20063,1,0,0:0:0:0:
448,192,20138,1,0,0:0:0:0:
320,192,20215,1,0,0:0:0:0:
448,192,20290,1,0,0:0:0:0:
320,192,20365,1,0,0:0:0:0:
64,192,20365,1,0,0:0:0:0:
192,192,20442,1,0,0:0:0:0:
64,192,20517,1,0,0:0:0:0:
192,192,20593,1,0,0:0:0:0:
320,192,20669,1,0,0:0:0:0:
448,192,20745,1,0,0:0:0:0:
192,192,20820,1,0,0:0:0:0:
64,192,20896,1,0,0:0:0:0:
192,192,20972,1,0,0:0:0:0:
448,192,20972,1,0,0:0:0:0:
320,192,21047,1,0,0:0:0:0:
64,192,21124,1,0,0:0:0:0:
320,192,21199,1,0,0:0:0:0:
192,192,21275,1,0,0:0:0:0:
448,192,21275,1,0,0:0:0:0:
448,192,21426,1,0,0:0:0:0:
320,192,21502,1,0,0:0:0:0:
64,192,21578,1,0,0:0:0:0:
320,192,21654,1,0,0:0:0:0:
448,192,21729,1,0,0:0:0:0:
192,192,21805,1,0,0:0:0:0:
320,192,21881,1,0,0:0:0:0:
192,192,21919,1,0,0:0:0:0:
448,192,21956,1,0,0:0:0:0:
320,192,21995,1,0,0:0:0:0:
192,192,22033,1,0,0:0:0:0:
64,192,22070,1,0,0:0:0:0:
448,192,22108,1,0,0:0:0:0:
192,192,22146,1,0,0:0:0:0:
320,192,22184,1,0,0:0:0:0:
448,192,22260,1,0,0:0:0:0:
64,192,22297,1,0,0:0:0:0:
192,192,22335,1,0,0:0:0:0:
320,192,22374,1,0,0:0:0:0:
64,192,22411,1,0,0:0:0:0:
192,192,22449,1,0,0:0:0:0:
448,192,22487,1,0,0:0:0:0:
320,192,22525,1,0,0:0:0:0:
192,192,22563,1,0,0:0:0:0:
64,192,22601,1,0,0:0:0:0:
448,192,22638,1,0,0:0:0:0:
320,192,22676,1,0,0:0:0:0:
64,192,22715,1,0,0:0:0:0:
192,192,22752,1,0,0:0:0:0:
448,192,22790,1,0,0:0:0:0:
320,192,22828,1,0,0:0:0:0:
64,192,22865,1,0,0:0:0:0:
192,192,22904,1,0,0:0:0:0:
320,192,22942,1,0,0:0:0:0:
64,192,22979,1,0,0:0:0:0:
448,192,23017,1,0,0:0:0:0:
320,192,23055,1,0,0:0:0:0:
192,192,23093,1,0,0:0:0:0:
64,192,23131,1,0,0:0:0:0:
448,192,23169,1,0,0:0:0:0:
320,192,23206,1,0,0:0:0:0:
64,192,23245,1,0,0:0:0:0:
192,192,23283,1,0,0:0:0:0:
320,192,23320,1,0,0:0:0:0:
64,192,23358,1,0,0:0:0:0:
448,192,23396,1,0,0:0:0:0:
320,192,23434,1,0,0:0:0:0:
64,192,23472,1,0,0:0:0:0:
192,192,23510,1,0,0:0:0:0:
320,192,23547,1,0,0:0:0:0:
448,192,23585,1,0,0:0:0:0:
64,192,23624,1,0,0:0:0:0:
192,192,23661,1,0,0:0:0:0:
448,192,23699,1,0,0:0:0:0:
320,192,23737,1,0,0:0:0:0:
64,192,23775,1,0,0:0:0:0:
192,192,23813,1,0,0:0:0:0:
320,192,23851,1,0,0:0:0:0:
448,192,23888,1,0,0:0:0:0:
64,192,23926,1,0,0:0:0:0:
320,192,24002,1,0,0:0:0:0:
192,192,24040,1,0,0:0:0:0:
64,192,24078,1,0,0:0:0:0:
448,192,24115,1,0,0:0:0:0:
320,192,24154,1,0,0:0:0:0:
192,192,24192,1,0,0:0:0:0:
64,192,24229,1,0,0:0:0:0:
320,192,24267,1,0,0:0:0:0:
448,192,24305,1,0,0:0:0:0:
192,192,24343,1,0,0:0:0:0:
320,192,24381,1,0,0:0:0:0:
64,192,24419,1,0,0:0:0:0:
192,192,24456,1,0,0:0:0:0:
320,192,24495,1,0,0:0:0:0:
448,192,24533,1,0,0:0:0:0:
192,192,24570,1,0,0:0:0:0:
64,192,24608,1,0,0:0:0:0:
448,192,24646,1,0,0:0:0:0:
320,192,24684,1,0,0:0:0:0:
192,192,24722,1,0,0:0:0:0:
448,192,24760,1,0,0:0:0:0:
320,192,24797,1,0,0:0:0:0:
64,192,24835,1,0,0:0:0:0:
448,192,24874,1,0,0:0:0:0:
192,192,24911,1,0,0:0:0:0:
320,192,24949,1,0,0:0:0:0:
64,192,24987,1,0,0:0:0:0:
192,192,25025,1,0,0:0:0:0:
320,192,25063,1,0,0:0:0:0:
64,192,25101,1,0,0:0:0:0:
448,192,25138,1,0,0:0:0:0:
320,192,25176,1,0,0:0:0:0:
192,192,25215,1,0,0:0:0:0:
448,192,25252,1,0,0:0:0:0:
64,192,25290,1,0,0:0:0:0:
192,192,25328,1,0,0:0:0:0:
448,192,25365,1,0,0:0:0:0:
320,192,25404,1,0,0:0:0:0:
64,192,25442,1,0,0:0:0:0:
192,192,25479,1,0,0:0:0:0:
320,192,25517,1,0,0:0:0:0:
64,192,25555,1,0,0:0:0:0:
448,192,25593,1,0,0:0:0:0:
192,192,25631,1,0,0:0:0:0:
320,192,25669,1,0,0:0:0:0:
64,192,25719,1,0,0:0:0:0:
448,192,25745,1,0,0:0:0:0:
320,192,25783,1,0,0:0:0:0:
192,192,25820,1,0,0:0:0:0:
448,192,25858,1,0,0:0:0:0:
64,192,25896,1,0,0:0:0:0:
320,192,25934,1,0,0:0:0:0:
192,192,25972,1,0,0:0:0:0:
448,192,26010,1,0,0:0:0:0:
64,192,26047,1,0,0:0:0:0:
192,192,26085,1,0,0:0:0:0:
320,192,26124,1,0,0:0:0:0:
448,192,26161,1,0,0:0:0:0:
192,192,26199,1,0,0:0:0:0:
320,192,26237,1,0,0:0:0:0:
64,192,26275,1,0,0:0:0:0:
448,192,26313,1,0,0:0:0:0:
320,192,26351,1,0,0:0:0:0:
192,192,26388,1,0,0:0:0:0:
64,192,26426,1,0,0:0:0:0:
448,192,26477,1,0,0:0:0:0:
320,192,26502,1,0,0:0:0:0:
192,192,26527,1,0,0:0:0:0:
64,192,26578,1,0,0:0:0:0:
64,192,26729,1,0,0:0:0:0:
192,192,26729,1,0,0:0:0:0:
448,192,26729,1,0,0:0:0:0:
192,192,26881,1,0,0:0:0:0:
320,192,26881,1,0,0:0:0:0:
320,192,27033,1,0,0:0:0:0:
448,192,27033,1,0,0:0:0:0:
64,192,27033,1,0,0:0:0:0:
64,192,27184,1,0,0:0:0:0:
192,192,27184,1,0,0:0:0:0:
192,192,27335,1,0,0:0:0:0:
320,192,27335,1,0,0:0:0:0:
448,192,27335,1,0,0:0:0:0:
448,192,27487,1,0,0:0:0:0:
320,192,27487,1,0,0:0:0:0:
320,192,27638,1,0,0:0:0:0:
64,192,27638,1,0,0:0:0:0:
192,192,27638,1,0,0:0:0:0:
448,192,27790,1,0,0:0:0:0:
320,192,27790,1,0,0:0:0:0:
64,192,27942,1,0,0:0:0:0:
192,192,27942,1,0,0:0:0:0:
448,192,27942,1,0,0:0:0:0:
192,192,28093,1,0,0:0:0:0:
320,192,28093,1,0,0:0:0:0:
64,192,28245,1,0,0:0:0:0:
192,192,28245,1,0,0:0:0:0:
320,192,28245,1,0,0:0:0:0:
448,192,28396,1,0,0:0:0:0:
320,192,28396,1,0,0:0:0:0:
64,192,28547,1,0,0:0:0:0:
192,192,28547,1,0,0:0:0:0:
448,192,28547,1,0,0:0:0:0:
320,192,28699,1,0,0:0:0:0:
192,192,28699,1,0,0:0:0:0:
64,192,28851,1,0,0:0:0:0:
448,192,28851,1,0,0:0:0:0:
448,192,29002,1,0,0:0:0:0:
192,192,29002,1,0,0:0:0:0:
64,192,29154,1,0,0:0:0:0:
320,192,29154,1,0,0:0:0:0:
192,192,29229,1,0,0:0:0:0:
448,192,29229,1,0,0:0:0:0:
64,192,29305,1,0,0:0:0:0:
320,192,29305,1,0,0:0:0:0:
192,192,29305,1,0,0:0:0:0:
192,192,29381,1,0,0:0:0:0:
448,192,29381,1,0,0:0:0:0:
64,192,29456,1,0,0:0:0:0:
320,192,29456,1,0,0:0:0:0:
192,192,29533,1,0,0:0:0:0:
320,192,29533,1,0,0:0:0:0:
448,192,29533,1,0,0:0:0:0:
320,192,29608,1,0,0:0:0:0:
64,192,29608,1,0,0:0:0:0:
192,192,29684,1,0,0:0:0:0:
448,192,29684,1,0,0:0:0:0:
64,192,29760,1,0,0:0:0:0:
192,192,29760,1,0,0:0:0:0:
320,192,29760,1,0,0:0:0:0:
192,192,29835,1,0,0:0:0:0:
448,192,29835,1,0,0:0:0:0:
320,192,29911,1,0,0:0:0:0:
64,192,29911,1,0,0:0:0:0:
192,192,29987,1,0,0:0:0:0:
320,192,29987,1,0,0:0:0:0:
448,192,29987,1,0,0:0:0:0:
320,192,30063,1,0,0:0:0:0:
64,192,30063,1,0,0:0:0:0:
448,192,30138,1,0,0:0:0:0:
192,192,30138,1,0,0:0:0:0:
64,192,30215,1,0,0:0:0:0:
192,192,30215,1,0,0:0:0:0:
320,192,30215,1,0,0:0:0:0:
448,192,30290,1,0,0:0:0:0:
64,192,30365,1,0,0:0:0:0:
192,192,30416,1,0,0:0:0:0:
320,192,30467,1,0,0:0:0:0:
448,192,30517,1,0,0:0:0:0:
64,192,30568,1,0,0:0:0:0:
192,192,30618,1,0,0:0:0:0:
320,192,30669,1,0,0:0:0:0:
448,192,30719,1,0,0:0:0:0:
64,192,30770,1,0,0:0:0:0:
192,192,30820,1,0,0:0:0:0:
320,192,30871,1,0,0:0:0:0:
448,192,30922,1,0,0:0:0:0:
64,192,30972,1,0,0:0:0:0:
192,192,31010,1,0,0:0:0:0:
448,192,31047,1,0,0:0:0:0:
320,192,31085,1,0,0:0:0:0:
64,192,31124,1,0,0:0:0:0:
192,192,31161,1,0,0:0:0:0:
448,192,31199,1,0,0:0:0:0:
320,192,31237,1,0,0:0:0:0:
64,192,31275,1,0,0:0:0:0:
192,192,31313,1,0,0:0:0:0:
448,192,31351,1,0,0:0:0:0:
320,192,31388,1,0,0:0:0:0:
64,192,31426,1,0,0:0:0:0:
192,192,31465,1,0,0:0:0:0:
448,192,31502,1,0,0:0:0:0:
320,192,31540,1,0,0:0:0:0:
64,192,31578,1,0,0:0:0:0:
320,192,32487,1,0,0:0:0:0:
192,192,32638,1,0,0:0:0:0:
448,192,32790,1,0,0:0:0:0:
320,192,33699,1,0,0:0:0:0:
448,192,33851,1,0,0:0:0:0:
192,192,34002,1,0,0:0:0:0:
320,192,34911,1,0,0:0:0:0:
64,192,35063,1,0,0:0:0:0:
448,192,35215,1,0,0:0:0:0:
320,192,35820,1,0,0:0:0:0:
448,192,36426,1,0,0:0:0:0:
320,192,37638,1,0,0:0:0:0:
192,192,38245,1,0,0:0:0:0:
64,192,38851,1,0,0:0:0:0:
320,192,41275,1,0,0:0:0:0:
192,192,41881,1,0,0:0:0:0:
64,192,42487,1,0,0:0:0:0:
320,192,43093,1,0,0:0:0:0:
64,192,43699,1,0,0:0:0:0:
448,192,44911,1,0,0:0:0:0:
192,192,45517,1,0,0:0:0:0:
320,192,46124,1,0,0:0:0:0:
64,192,47033,1,0,0:0:0:0:
192,192,47184,1,0,0:0:0:0:
320,192,47335,1,0,0:0:0:0:
448,192,47942,1,0,0:0:0:0:
192,192,48547,1,0,0:0:0:0:
64,192,50365,1,0,0:0:0:0:
192,192,50442,1,0,0:0:0:0:
448,192,50517,1,0,0:0:0:0:
320,192,50593,1,0,0:0:0:0:
64,192,50669,1,0,0:0:0:0:
192,192,50745,1,0,0:0:0:0:
320,192,50820,1,0,0:0:0:0:
448,192,50896,1,0,0:0:0:0:
192,192,50922,1,0,0:0:0:0:
64,192,50972,1,0,0:0:0:0:
448,192,50972,1,0,0:0:0:0:
320,192,50972,1,0,0:0:0:0:
192,192,51010,1,0,0:0:0:0:
64,192,51047,1,0,0:0:0:0:
320,192,51085,1,0,0:0:0:0:
448,192,51124,1,0,0:0:0:0:
192,192,51161,1,0,0:0:0:0:
64,192,51199,1,0,0:0:0:0:
320,192,51237,1,0,0:0:0:0:
64,192,51426,1,0,0:0:0:0:
448,192,51426,1,0,0:0:0:0:
320,192,51465,1,0,0:0:0:0:
192,192,51502,1,0,0:0:0:0:
448,192,51540,1,0,0:0:0:0:
64,192,51578,1,0,0:0:0:0:
320,192,51615,1,0,0:0:0:0:
448,192,51654,1,0,0:0:0:0:
192,192,51692,1,0,0:0:0:0:
64,192,51881,1,0,0:0:0:0:
192,192,51919,1,0,0:0:0:0:
448,192,51956,1,0,0:0:0:0:
320,192,51995,1,0,0:0:0:0:
64,192,52032,1,0,0:0:0:0:
448,192,52070,1,0,0:0:0:0:
192,192,52108,1,0,0:0:0:0:
320,192,52146,1,0,0:0:0:0:
64,192,52184,1,0,0:0:0:0:
192,192,52184,1,0,0:0:0:0:
448,192,52184,1,0,0:0:0:0:
320,192,52222,1,0,0:0:0:0:
448,192,52259,1,0,0:0:0:0:
64,192,52297,1,0,0:0:0:0:
320,192,52335,1,0,0:0:0:0:
448,192,52374,1,0,0:0:0:0:
192,192,52411,1,0,0:0:0:0:
64,192,52449,1,0,0:0:0:0:
448,192,52638,1,0,0:0:0:0:
320,192,52676,1,0,0:0:0:0:
64,192,52715,1,0,0:0:0:0:
192,192,52752,1,0,0:0:0:0:
64,192,52790,1,0,0:0:0:0:
320,192,52828,1,0,0:0:0:0:
448,192,52865,1,0,0:0:0:0:
64,192,53093,1,0,0:0:0:0:
192,192,53093,1,0,0:0:0:0:
320,192,53131,1,0,0:0:0:0:
448,192,53169,1,0,0:0:0:0:
192,192,53206,1,0,0:0:0:0:
320,192,53245,1,0,0:0:0:0:
448,192,53245,1,0,0:0:0:0:
64,192,53283,1,0,0:0:0:0:
192,192,53320,1,0,0:0:0:0:
320,192,53358,1,0,0:0:0:0:
448,192,53396,1,0,0:0:0:0:
64,192,53396,1,0,0:0:0:0:
192,192,53396,1,0,0:0:0:0:
320,192,53434,1,0,0:0:0:0:
448,192,53472,1,0,0:0:0:0:
64,192,53510,1,0,0:0:0:0:
192,192,53510,1,0,0:0:0:0:
320,192,53547,1,0,0:0:0:0:
448,192,53585,1,0,0:0:0:0:
64,192,53624,1,0,0:0:0:0:
192,192,53661,1,0,0:0:0:0:
448,192,53699,1,0,0:0:0:0:
320,192,53851,1,0,0:0:0:0:
448,192,53851,1,0,0:0:0:0:
192,192,53888,1,0,0:0:0:0:
64,192,53926,1,0,0:0:0:0:
448,192,53965,1,0,0:0:0:0:
320,192,54002,1,0,0:0:0:0:
192,192,54002,1,0,0:0:0:0:
64,192,54040,1,0,0:0:0:0:
448,192,54078,1,0,0:0:0:0:
320,192,54115,1,0,0:0:0:0:
192,192,54154,1,0,0:0:0:0:
64,192,54154,1,0,0:0:0:0:
320,192,54192,1,0,0:0:0:0:
448,192,54229,1,0,0:0:0:0:
64,192,54267,1,0,0:0:0:0:
192,192,54305,1,0,0:0:0:0:
320,192,54305,1,0,0:0:0:0:
64,192,54381,1,0,0:0:0:0:
192,192,54419,1,0,0:0:0:0:
320,192,54456,1,0,0:0:0:0:
448,192,54456,1,0,0:0:0:0:
64,192,54495,1,0,0:0:0:0:
192,192,54533,1,0,0:0:0:0:
64,192,54608,1,0,0:0:0:0:
320,192,54608,1,0,0:0:0:0:
448,192,54608,1,0,0:0:0:0:
64,192,54684,1,0,0:0:0:0:
192,192,54684,1,0,0:0:0:0:
320,192,54760,1,0,0:0:0:0:
448,192,54760,1,0,0:0:0:0:
192,192,54835,1,0,0:0:0:0:
192,192,54987,1,0,0:0:0:0:
64,192,55063,1,0,0:0:0:0:
192,192,55215,1,0,0:0:0:0:
320,192,55290,1,0,0:0:0:0:
448,192,55365,1,0,0:0:0:0:
64,192,55517,1,0,0:0:0:0:
320,192,55820,1,0,0:0:0:0:
192,192,55858,1,0,0:0:0:0:
448,192,55896,1,0,0:0:0:0:
320,192,55934,1,0,0:0:0:0:
192,192,55972,1,0,0:0:0:0:
64,192,55972,1,0,0:0:0:0:
448,192,56010,1,0,0:0:0:0:
192,192,56047,1,0,0:0:0:0:
320,192,56047,1,0,0:0:0:0:
64,192,56085,1,0,0:0:0:0:
448,192,56275,1,0,0:0:0:0:
64,192,56313,1,0,0:0:0:0:
192,192,56351,1,0,0:0:0:0:
448,192,56388,1,0,0:0:0:0:
320,192,56388,1,0,0:0:0:0:
64,192,56426,1,0,0:0:0:0:
192,192,56465,1,0,0:0:0:0:
320,192,56465,1,0,0:0:0:0:
448,192,56502,1,0,0:0:0:0:
192,192,56729,1,0,0:0:0:0:
320,192,56767,1,0,0:0:0:0:
64,192,56805,1,0,0:0:0:0:
192,192,56843,1,0,0:0:0:0:
320,192,56881,1,0,0:0:0:0:
192,192,56919,1,0,0:0:0:0:
448,192,56956,1,0,0:0:0:0:
64,192,56995,1,0,0:0:0:0:
192,192,57033,1,0,0:0:0:0:
320,192,57033,1,0,0:0:0:0:
448,192,57070,1,0,0:0:0:0:
64,192,57108,1,0,0:0:0:0:
192,192,57146,1,0,0:0:0:0:
448,192,57184,1,0,0:0:0:0:
320,192,57184,1,0,0:0:0:0:
64,192,57222,1,0,0:0:0:0:
192,192,57260,1,0,0:0:0:0:
320,192,57297,1,0,0:0:0:0:
448,192,57335,1,0,0:0:0:0:
64,192,57487,1,0,0:0:0:0:
192,192,57487,1,0,0:0:0:0:
320,192,57525,1,0,0:0:0:0:
448,192,57563,1,0,0:0:0:0:
64,192,57563,1,0,0:0:0:0:
192,192,57601,1,0,0:0:0:0:
320,192,57638,1,0,0:0:0:0:
448,192,57638,1,0,0:0:0:0:
64,192,57676,1,0,0:0:0:0:
192,192,57715,1,0,0:0:0:0:
320,192,57752,1,0,0:0:0:0:
448,192,57790,1,0,0:0:0:0:
320,192,57942,1,0,0:0:0:0:
192,192,57979,1,0,0:0:0:0:
64,192,58017,1,0,0:0:0:0:
448,192,58055,1,0,0:0:0:0:
320,192,58093,1,0,0:0:0:0:
64,192,58131,1,0,0:0:0:0:
192,192,58169,1,0,0:0:0:0:
320,192,58206,1,0,0:0:0:0:
448,192,58245,1,0,0:0:0:0:
192,192,58283,1,0,0:0:0:0:
64,192,58320,1,0,0:0:0:0:
320,192,58358,1,0,0:0:0:0:
192,192,58396,1,0,0:0:0:0:
64,192,58396,1,0,0:0:0:0:
320,192,58472,1,0,0:0:0:0:
448,192,58472,1,0,0:0:0:0:
64,192,58624,1,0,0:0:0:0:
192,192,58624,1,0,0:0:0:0:
320,192,58699,1,0,0:0:0:0:
448,192,58699,1,0,0:0:0:0:
64,192,58851,1,0,0:0:0:0:
192,192,58851,1,0,0:0:0:0:
320,192,58926,1,0,0:0:0:0:
448,192,58926,1,0,0:0:0:0:
320,192,59078,1,0,0:0:0:0:
448,192,59078,1,0,0:0:0:0:
64,192,59154,1,0,0:0:0:0:
192,192,59154,1,0,0:0:0:0:
320,192,59229,1,0,0:0:0:0:
448,192,59305,1,0,0:0:0:0:
64,192,59343,1,0,0:0:0:0:
192,192,59381,1,0,0:0:0:0:
320,192,59419,1,0,0:0:0:0:
64,192,59456,1,0,0:0:0:0:
448,192,59495,1,0,0:0:0:0:
320,192,59533,1,0,0:0:0:0:
192,192,59570,1,0,0:0:0:0:
448,192,59608,1,0,0:0:0:0:
64,192,59646,1,0,0:0:0:0:
192,192,59684,1,0,0:0:0:0:
448,192,59722,1,0,0:0:0:0:
320,192,59760,1,0,0:0:0:0:
192,192,59797,1,0,0:0:0:0:
448,192,59835,1,0,0:0:0:0:
64,192,59874,1,0,0:0:0:0:
192,192,59911,1,0,0:0:0:0:
320,192,59962,1,0,0:0:0:0:
64,192,60013,1,0,0:0:0:0:
448,192,60025,1,0,0:0:0:0:
320,192,60063,1,0,0:0:0:0:
64,192,60101,1,0,0:0:0:0:
192,192,60138,1,0,0:0:0:0:
320,192,60176,1,0,0:0:0:0:
320,192,60365,1,0,0:0:0:0:
448,192,60517,1,0,0:0:0:0:
64,192,60669,1,0,0:0:0:0:
64,192,61275,1,0,0:0:0:0:
192,192,61881,1,0,0:0:0:0:
64,192,62487,1,0,0:0:0:0:
192,192,62790,1,0,0:0:0:0:
320,192,62790,1,0,0:0:0:0:
64,192,62865,1,0,0:0:0:0:
320,192,62865,1,0,0:0:0:0:
192,192,62942,1,0,0:0:0:0:
448,192,62942,1,0,0:0:0:0:
64,192,63017,1,0,0:0:0:0:
192,192,63017,1,0,0:0:0:0:
192,192,63093,1,0,0:0:0:0:
448,192,63093,1,0,0:0:0:0:
320,192,63169,1,0,0:0:0:0:
64,192,63169,1,0,0:0:0:0:
320,192,63245,1,0,0:0:0:0:
448,192,63245,1,0,0:0:0:0:
64,192,63320,1,0,0:0:0:0:
320,192,63320,1,0,0:0:0:0:
192,192,63396,1,0,0:0:0:0:
448,192,63396,1,0,0:0:0:0:
192,192,63472,1,0,0:0:0:0:
64,192,63472,1,0,0:0:0:0:
448,192,63547,1,0,0:0:0:0:
192,192,63547,1,0,0:0:0:0:
320,192,63624,1,0,0:0:0:0:
64,192,63624,1,0,0:0:0:0:
320,192,63699,1,0,0:0:0:0:
448,192,63699,1,0,0:0:0:0:
64,192,63775,1,0,0:0:0:0:
192,192,63775,1,0,0:0:0:0:
192,192,63851,1,0,0:0:0:0:
448,192,63851,1,0,0:0:0:0:
320,192,63926,1,0,0:0:0:0:
64,192,63926,1,0,0:0:0:0:
64,192,64002,1,0,0:0:0:0:
192,192,64002,1,0,0:0:0:0:
320,192,64078,1,0,0:0:0:0:
192,192,64154,1,0,0:0:0:0:
64,192,64229,1,0,0:0:0:0:
320,192,64305,1,0,0:0:0:0:
448,192,64305,1,0,0:0:0:0:
320,192,64381,1,0,0:0:0:0:
64,192,64456,1,0,0:0:0:0:
192,192,64456,1,0,0:0:0:0:
320,192,64533,1,0,0:0:0:0:
448,192,64533,1,0,0:0:0:0:
64,192,64608,1,0,0:0:0:0:
192,192,64608,1,0,0:0:0:0:
64,192,64760,1,0,0:0:0:0:
192,192,64760,1,0,0:0:0:0:
64,192,64911,1,0,0:0:0:0:
192,192,64911,1,0,0:0:0:0:
320,192,64987,1,0,0:0:0:0:
448,192,65063,1,0,0:0:0:0:
192,192,65138,1,0,0:0:0:0:
448,192,65215,1,0,0:0:0:0:
320,192,65290,1,0,0:0:0:0:
192,192,65365,1,0,0:0:0:0:
320,192,65517,1,0,0:0:0:0:
448,192,65517,1,0,0:0:0:0:
320,192,65669,1,0,0:0:0:0:
448,192,65669,1,0,0:0:0:0:
192,192,65745,1,0,0:0:0:0:
64,192,65820,1,0,0:0:0:0:
448,192,65896,1,0,0:0:0:0:
192,192,65972,1,0,0:0:0:0:
320,192,65972,1,0,0:0:0:0:
192,192,66124,1,0,0:0:0:0:
320,192,66124,1,0,0:0:0:0:
64,192,66199,1,0,0:0:0:0:
448,192,66275,1,0,0:0:0:0:
320,192,66351,1,0,0:0:0:0:
64,192,66426,1,0,0:0:0:0:
64,192,66578,1,0,0:0:0:0:
320,192,66729,1,0,0:0:0:0:
448,192,66729,1,0,0:0:0:0:
320,192,66881,1,0,0:0:0:0:
448,192,66881,1,0,0:0:0:0:
192,192,66956,1,0,0:0:0:0:
64,192,67033,1,0,0:0:0:0:
448,192,67108,1,0,0:0:0:0:
192,192,67184,1,0,0:0:0:0:
320,192,67184,1,0,0:0:0:0:
64,192,67260,1,0,0:0:0:0:
320,192,67335,1,0,0:0:0:0:
448,192,67335,1,0,0:0:0:0:
64,192,67411,1,0,0:0:0:0:
192,192,67487,1,0,0:0:0:0:
320,192,67563,1,0,0:0:0:0:
64,192,67638,1,0,0:0:0:0:
192,192,67638,1,0,0:0:0:0:
320,192,67715,1,0,0:0:0:0:
448,192,67790,1,0,0:0:0:0:
192,192,67865,1,0,0:0:0:0:
320,192,67942,1,0,0:0:0:0:
448,192,67942,1,0,0:0:0:0:
64,192,68017,1,0,0:0:0:0:
192,192,68017,1,0,0:0:0:0:
320,192,68093,1,0,0:0:0:0:
448,192,68093,1,0,0:0:0:0:
64,192,68169,1,0,0:0:0:0:
192,192,68169,1,0,0:0:0:0:
320,192,68320,1,0,0:0:0:0:
448,192,68320,1,0,0:0:0:0:
192,192,68396,1,0,0:0:0:0:
64,192,68396,1,0,0:0:0:0:
320,192,68547,1,0,0:0:0:0:
448,192,68547,1,0,0:0:0:0:
192,192,68624,1,0,0:0:0:0:
64,192,68624,1,0,0:0:0:0:
320,192,68699,1,0,0:0:0:0:
448,192,68699,1,0,0:0:0:0:
64,192,68851,1,0,0:0:0:0:
192,192,68851,1,0,0:0:0:0:
320,192,68926,1,0,0:0:0:0:
448,192,68926,1,0,0:0:0:0:
64,192,69002,1,0,0:0:0:0:
192,192,69002,1,0,0:0:0:0:
448,192,69154,1,0,0:0:0:0:
64,192,69229,1,0,0:0:0:0:
320,192,69305,1,0,0:0:0:0:
64,192,69381,1,0,0:0:0:0:
320,192,69456,1,0,0:0:0:0:
192,192,69533,128,0,69684:0:0:0:0:
320,192,69608,1,0,0:0:0:0:
320,192,69760,128,0,70215:0:0:0:0:
64,192,69835,1,0,0:0:0:0:
192,192,69987,1,0,0:0:0:0:
448,192,70063,1,0,0:0:0:0:
192,192,70138,1,0,0:0:0:0:
64,192,70365,1,0,0:0:0:0:
192,192,70404,1,0,0:0:0:0:
320,192,70442,1,0,0:0:0:0:
448,192,70479,1,0,0:0:0:0:
64,192,70517,1,0,0:0:0:0:
192,192,70555,1,0,0:0:0:0:
320,192,70593,1,0,0:0:0:0:
448,192,70631,1,0,0:0:0:0:
64,192,70669,1,0,0:0:0:0:
192,192,70706,1,0,0:0:0:0:
320,192,70745,1,0,0:0:0:0:
64,192,70783,1,0,0:0:0:0:
448,192,70820,1,0,0:0:0:0:
320,192,70858,1,0,0:0:0:0:
192,192,70896,1,0,0:0:0:0:
64,192,70934,1,0,0:0:0:0:
448,192,70972,1,0,0:0:0:0:
320,192,71010,1,0,0:0:0:0:
192,192,71047,1,0,0:0:0:0:
64,192,71085,1,0,0:0:0:0:
448,192,71124,1,0,0:0:0:0:
192,192,71161,1,0,0:0:0:0:
320,192,71199,1,0,0:0:0:0:
64,192,71237,1,0,0:0:0:0:
192,192,71275,1,0,0:0:0:0:
448,192,71313,1,0,0:0:0:0:
320,192,71351,1,0,0:0:0:0:
64,192,71388,1,0,0:0:0:0:
192,192,71426,1,0,0:0:0:0:
448,192,71452,1,0,0:0:0:0:
320,192,71465,1,0,0:0:0:0:
64,192,71502,1,0,0:0:0:0:
192,192,71540,1,0,0:0:0:0:
448,192,71578,1,0,0:0:0:0:
320,192,71615,1,0,0:0:0:0:
192,192,71654,1,0,0:0:0:0:
64,192,71692,1,0,0:0:0:0:
448,192,71729,1,0,0:0:0:0:
320,192,71767,1,0,0:0:0:0:
192,192,71805,1,0,0:0:0:0:
64,192,71843,1,0,0:0:0:0:
448,192,71881,1,0,0:0:0:0:
320,192,71919,1,0,0:0:0:0:
192,192,71956,1,0,0:0:0:0:
448,192,71995,1,0,0:0:0:0:
64,192,72033,1,0,0:0:0:0:
192,192,72070,1,0,0:0:0:0:
320,192,72108,1,0,0:0:0:0:
448,192,72146,1,0,0:0:0:0:
64,192,72184,1,0,0:0:0:0:
192,192,72222,1,0,0:0:0:0:
320,192,72260,1,0,0:0:0:0:
448,192,72297,1,0,0:0:0:0:
64,192,72335,1,0,0:0:0:0:
320,192,72374,1,0,0:0:0:0:
192,192,72411,1,0,0:0:0:0:
448,192,72449,1,0,0:0:0:0:
320,192,72487,1,0,0:0:0:0:
64,192,72525,1,0,0:0:0:0:
192,192,72563,1,0,0:0:0:0:
448,192,72601,1,0,0:0:0:0:
320,192,72638,1,0,0:0:0:0:
64,192,72664,1,0,0:0:0:0:
192,192,72676,1,0,0:0:0:0:
448,192,72715,1,0,0:0:0:0:
320,192,72752,1,0,0:0:0:0:
64,192,72790,1,0,0:0:0:0:
192,192,72828,1,0,0:0:0:0:
320,192,72865,1,0,0:0:0:0:
448,192,72904,1,0,0:0:0:0:
64,192,72942,1,0,0:0:0:0:
192,192,72979,1,0,0:0:0:0:
320,192,73017,1,0,0:0:0:0:
448,192,73055,1,0,0:0:0:0:
64,192,73093,1,0,0:0:0:0:
192,192,73131,1,0,0:0:0:0:
448,192,73169,1,0,0:0:0:0:
320,192,73206,1,0,0:0:0:0:
64,192,73245,1,0,0:0:0:0:
192,192,73283,1,0,0:0:0:0:
448,192,73320,1,0,0:0:0:0:
64,192,73358,1,0,0:0:0:0:
320,192,73371,1,0,0:0:0:0:
192,192,73396,1,0,0:0:0:0:
448,192,73434,1,0,0:0:0:0:
320,192,73472,1,0,0:0:0:0:
192,192,73510,1,0,0:0:0:0:
64,192,73547,1,0,0:0:0:0:
448,192,73585,1,0,0:0:0:0:
320,192,73624,1,0,0:0:0:0:
192,192,73661,1,0,0:0:0:0:
64,192,73699,1,0,0:0:0:0:
448,192,73737,1,0,0:0:0:0:
320,192,73775,1,0,0:0:0:0:
64,192,73813,1,0,0:0:0:0:
192,192,73851,1,0,0:0:0:0:
448,192,73888,1,0,0:0:0:0:
320,192,73926,1,0,0:0:0:0:
192,192,73965,1,0,0:0:0:0:
448,192,74002,1,0,0:0:0:0:
320,192,74040,1,0,0:0:0:0:
64,192,74078,1,0,0:0:0:0:
192,192,74115,1,0,0:0:0:0:
448,192,74154,1,0,0:0:0:0:
320,192,74192,1,0,0:0:0:0:
192,192,74229,1,0,0:0:0:0:
64,192,74267,1,0,0:0:0:0:
448,192,74305,1,0,0:0:0:0:
192,192,74343,1,0,0:0:0:0:
320,192,74381,1,0,0:0:0:0:
64,192,74419,1,0,0:0:0:0:
448,192,74456,1,0,0:0:0:0:
320,192,74495,1,0,0:0:0:0:
192,192,74533,1,0,0:0:0:0:
448,192,74570,1,0,0:0:0:0:
64,192,74608,1,0,0:0:0:0:
192,192,74646,1,0,0:0:0:0:
320,192,74684,1,0,0:0:0:0:
448,192,74722,1,0,0:0:0:0:
64,192,74760,1,0,0:0:0:0:
320,192,74797,1,0,0:0:0:0:
192,192,74835,1,0,0:0:0:0:
448,192,74874,1,0,0:0:0:0:
64,192,74911,1,0,0:0:0:0:
320,192,74949,1,0,0:0:0:0:
192,192,74987,1,0,0:0:0:0:
64,192,75025,1,0,0:0:0:0:
448,192,75063,1,0,0:0:0:0:
320,192,75101,1,0,0:0:0:0:
192,192,75138,1,0,0:0:0:0:
448,192,75176,1,0,0:0:0:0:
64,192,75215,1,0,0:0:0:0:
192,192,75252,1,0,0:0:0:0:
320,192,75290,1,0,0:0:0:0:
448,192,75328,1,0,0:0:0:0:
64,192,75365,1,0,0:0:0:0:
192,192,75404,1,0,0:0:0:0:
320,192,75442,1,0,0:0:0:0:
448,192,75479,1,0,0:0:0:0:
64,192,75517,1,0,0:0:0:0:
192,192,75555,1,0,0:0:0:0:
320,192,75593,1,0,0:0:0:0:
64,192,75631,1,0,0:0:0:0:
448,192,75669,1,0,0:0:0:0:
320,192,75706,1,0,0:0:0:0:
192,192,75745,1,0,0:0:0:0:
64,192,75783,1,0,0:0:0:0:
448,192,75820,1,0,0:0:0:0:
320,192,75858,1,0,0:0:0:0:
64,192,75896,1,0,0:0:0:0:
192,192,75934,1,0,0:0:0:0:
448,192,75946,1,0,0:0:0:0:
320,192,75972,1,0,0:0:0:0:
64,192,76010,1,0,0:0:0:0:
448,192,76047,1,0,0:0:0:0:
192,192,76085,1,0,0:0:0:0:
320,192,76124,1,0,0:0:0:0:
64,192,76161,1,0,0:0:0:0:
192,192,76199,1,0,0:0:0:0:
320,192,76237,1,0,0:0:0:0:
64,192,76275,1,0,0:0:0:0:
448,192,76313,1,0,0:0:0:0:
192,192,76351,1,0,0:0:0:0:
320,192,76388,1,0,0:0:0:0:
64,192,76426,1,0,0:0:0:0:
192,192,76465,1,0,0:0:0:0:
320,192,76502,1,0,0:0:0:0:
448,192,76540,1,0,0:0:0:0:
64,192,76578,1,0,0:0:0:0:
192,192,76615,1,0,0:0:0:0:
320,192,76654,1,0,0:0:0:0:
448,192,76692,1,0,0:0:0:0:
64,192,76729,1,0,0:0:0:0:
192,192,76767,1,0,0:0:0:0:
448,192,76805,1,0,0:0:0:0:
320,192,76843,1,0,0:0:0:0:
192,192,76881,1,0,0:0:0:0:
64,192,76919,1,0,0:0:0:0:
448,192,76956,1,0,0:0:0:0:
320,192,76995,1,0,0:0:0:0:
64,192,77033,1,0,0:0:0:0:
192,192,77108,1,0,0:0:0:0:
448,192,77134,1,0,0:0:0:0:
320,192,77146,1,0,0:0:0:0:
64,192,77184,1,0,0:0:0:0:
192,192,77222,1,0,0:0:0:0:
320,192,77260,1,0,0:0:0:0:
448,192,77297,1,0,0:0:0:0:
192,192,77335,1,0,0:0:0:0:
320,192,77374,1,0,0:0:0:0:
64,192,77411,1,0,0:0:0:0:
192,192,77449,1,0,0:0:0:0:
320,192,77487,1,0,0:0:0:0:
64,192,77525,1,0,0:0:0:0:
320,192,77563,1,0,0:0:0:0:
192,192,77601,1,0,0:0:0:0:
448,192,77638,1,0,0:0:0:0:
64,192,77676,1,0,0:0:0:0:
192,192,77715,1,0,0:0:0:0:
448,192,77752,1,0,0:0:0:0:
320,192,77790,1,0,0:0:0:0:
192,192,77828,1,0,0:0:0:0:
64,192,77865,1,0,0:0:0:0:
448,192,77904,1,0,0:0:0:0:
192,192,77942,1,0,0:0:0:0:
320,192,77979,1,0,0:0:0:0:
64,192,78017,1,0,0:0:0:0:
448,192,78055,1,0,0:0:0:0:
320,192,78093,1,0,0:0:0:0:
192,192,78131,1,0,0:0:0:0:
448,192,78169,1,0,0:0:0:0:
64,192,78206,1,0,0:0:0:0:
192,192,78245,1,0,0:0:0:0:
320,192,78283,1,0,0:0:0:0:
448,192,78320,1,0,0:0:0:0:
64,192,78358,1,0,0:0:0:0:
320,192,78396,1,0,0:0:0:0:
192,192,78434,1,0,0:0:0:0:
448,192,78472,1,0,0:0:0:0:
64,192,78510,1,0,0:0:0:0:
320,192,78547,1,0,0:0:0:0:
192,192,78585,1,0,0:0:0:0:
64,192,78624,1,0,0:0:0:0:
448,192,78661,1,0,0:0:0:0:
320,192,78699,1,0,0:0:0:0:
192,192,78737,1,0,0:0:0:0:
64,192,78775,1,0,0:0:0:0:
448,192,78851,1,0,0:0:0:0:
320,192,78888,1,0,0:0:0:0:
192,192,78926,1,0,0:0:0:0:
64,192,78965,1,0,0:0:0:0:
448,192,79002,1,0,0:0:0:0:
320,192,79040,1,0,0:0:0:0:
192,192,79078,1,0,0:0:0:0:
64,192,79115,1,0,0:0:0:0:
448,192,79154,1,0,0:0:0:0:
320,192,79192,1,0,0:0:0:0:
192,192,79229,1,0,0:0:0:0:
448,192,79267,1,0,0:0:0:0:
320,192,79305,1,0,0:0:0:0:
64,192,79331,1,0,0:0:0:0:
192,192,79343,1,0,0:0:0:0:
320,192,79381,1,0,0:0:0:0:
448,192,79419,1,0,0:0:0:0:
192,192,79456,1,0,0:0:0:0:
320,192,79495,1,0,0:0:0:0:
64,192,79533,1,0,0:0:0:0:
192,192,79570,1,0,0:0:0:0:
448,192,79583,1,0,0:0:0:0:
320,192,79608,1,0,0:0:0:0:
64,192,79646,1,0,0:0:0:0:
320,192,79684,1,0,0:0:0:0:
192,192,79760,1,0,0:0:0:0:
64,192,79797,1,0,0:0:0:0:
448,192,79835,1,0,0:0:0:0:
320,192,79874,1,0,0:0:0:0:
192,192,79911,1,0,0:0:0:0:
64,192,79949,1,0,0:0:0:0:
448,192,79987,1,0,0:0:0:0:
320,192,80025,1,0,0:0:0:0:
64,192,80063,1,0,0:0:0:0:
192,192,80101,1,0,0:0:0:0:
320,192,80138,1,0,0:0:0:0:
448,192,80176,1,0,0:0:0:0:
64,192,80215,1,0,0:0:0:0:
192,192,80252,1,0,0:0:0:0:
320,192,80290,1,0,0:0:0:0:
448,192,80328,1,0,0:0:0:0:
64,192,80365,1,0,0:0:0:0:
192,192,80404,1,0,0:0:0:0:
320,192,80442,1,0,0:0:0:0:
64,192,80479,1,0,0:0:0:0:
448,192,80517,1,0,0:0:0:0:
320,192,80555,1,0,0:0:0:0:
192,192,80593,1,0,0:0:0:0:
64,192,80631,1,0,0:0:0:0:
448,192,80669,1,0,0:0:0:0:
320,192,80706,1,0,0:0:0:0:
192,192,80745,1,0,0:0:0:0:
64,192,80783,1,0,0:0:0:0:
448,192,80820,1,0,0:0:0:0:
192,192,80858,1,0,0:0:0:0:
320,192,80896,1,0,0:0:0:0:
64,192,80934,1,0,0:0:0:0:
192,192,80972,1,0,0:0:0:0:
448,192,81010,1,0,0:0:0:0:
320,192,81047,1,0,0:0:0:0:
64,192,81085,1,0,0:0:0:0:
192,192,81124,1,0,0:0:0:0:
448,192,81149,1,0,0:0:0:0:
320,192,81161,1,0,0:0:0:0:
64,192,81199,1,0,0:0:0:0:
192,192,81237,1,0,0:0:0:0:
448,192,81275,1,0,0:0:0:0:
320,192,81313,1,0,0:0:0:0:
192,192,81351,1,0,0:0:0:0:
64,192,81388,1,0,0:0:0:0:
448,192,81426,1,0,0:0:0:0:
320,192,81465,1,0,0:0:0:0:
192,192,81502,1,0,0:0:0:0:
64,192,81540,1,0,0:0:0:0:
448,192,81578,1,0,0:0:0:0:
320,192,81615,1,0,0:0:0:0:
192,192,81654,1,0,0:0:0:0:
448,192,81692,1,0,0:0:0:0:
64,192,81729,1,0,0:0:0:0:
192,192,81767,1,0,0:0:0:0:
320,192,81805,1,0,0:0:0:0:
448,192,81843,1,0,0:0:0:0:
64,192,81881,1,0,0:0:0:0:
192,192,81919,1,0,0:0:0:0:
320,192,81956,1,0,0:0:0:0:
448,192,81995,1,0,0:0:0:0:
64,192,82033,1,0,0:0:0:0:
320,192,82070,1,0,0:0:0:0:
192,192,82108,1,0,0:0:0:0:
448,192,82146,1,0,0:0:0:0:
320,192,82184,1,0,0:0:0:0:
64,192,82222,1,0,0:0:0:0:
192,192,82260,1,0,0:0:0:0:
448,192,82297,1,0,0:0:0:0:
320,192,82335,1,0,0:0:0:0:
64,192,82361,1,0,0:0:0:0:
192,192,82374,1,0,0:0:0:0:
448,192,82411,1,0,0:0:0:0:
320,192,82449,1,0,0:0:0:0:
64,192,82487,1,0,0:0:0:0:
192,192,82525,1,0,0:0:0:0:
320,192,82563,1,0,0:0:0:0:
448,192,82601,1,0,0:0:0:0:
64,192,82638,1,0,0:0:0:0:
192,192,82676,1,0,0:0:0:0:
320,192,82715,1,0,0:0:0:0:
448,192,82752,1,0,0:0:0:0:
64,192,82790,1,0,0:0:0:0:
192,192,82828,1,0,0:0:0:0:
448,192,82865,1,0,0:0:0:0:
320,192,82904,1,0,0:0:0:0:
64,192,82942,1,0,0:0:0:0:
192,192,82979,1,0,0:0:0:0:
448,192,83017,1,0,0:0:0:0:
64,192,83055,1,0,0:0:0:0:
320,192,83068,1,0,0:0:0:0:
192,192,83093,1,0,0:0:0:0:
448,192,83131,1,0,0:0:0:0:
320,192,83169,1,0,0:0:0:0:
192,192,83206,1,0,0:0:0:0:
64,192,83245,1,0,0:0:0:0:
448,192,83283,1,0,0:0:0:0:
320,192,83320,1,0,0:0:0:0:
192,192,83358,1,0,0:0:0:0:
64,192,83396,1,0,0:0:0:0:
448,192,83434,1,0,0:0:0:0:
320,192,83472,1,0,0:0:0:0:
64,192,83510,1,0,0:0:0:0:
192,192,83547,1,0,0:0:0:0:
448,192,83585,1,0,0:0:0:0:
320,192,83624,1,0,0:0:0:0:
192,192,83661,1,0,0:0:0:0:
448,192,83699,1,0,0:0:0:0:
320,192,83737,1,0,0:0:0:0:
64,192,83775,1,0,0:0:0:0:
192,192,83813,1,0,0:0:0:0:
448,192,83851,1,0,0:0:0:0:
320,192,83888,1,0,0:0:0:0:
192,192,83926,1,0,0:0:0:0:
64,192,83965,1,0,0:0:0:0:
448,192,84002,1,0,0:0:0:0:
192,192,84040,1,0,0:0:0:0:
320,192,84078,1,0,0:0:0:0:
64,192,84115,1,0,0:0:0:0:
448,192,84154,1,0,0:0:0:0:
320,192,84192,1,0,0:0:0:0:
192,192,84229,1,0,0:0:0:0:
448,192,84267,1,0,0:0:0:0:
64,192,84305,1,0,0:0:0:0:
192,192,84343,1,0,0:0:0:0:
320,192,84381,1,0,0:0:0:0:
448,192,84419,1,0,0:0:0:0:
64,192,84456,1,0,0:0:0:0:
320,192,84495,1,0,0:0:0:0:
192,192,84533,1,0,0:0:0:0:
448,192,84570,1,0,0:0:0:0:
64,192,84608,1,0,0:0:0:0:
320,192,84646,1,0,0:0:0:0:
192,192,84684,1,0,0:0:0:0:
64,192,84722,1,0,0:0:0:0:
448,192,84760,1,0,0:0:0:0:
320,192,84797,1,0,0:0:0:0:
192,192,84835,1,0,0:0:0:0:
448,192,84874,1,0,0:0:0:0:
64,192,84911,1,0,0:0:0:0:
192,192,84949,1,0,0:0:0:0:
320,192,84987,1,0,0:0:0:0:
448,192,85025,1,0,0:0:0:0:
64,192,85063,1,0,0:0:0:0:
192,192,85101,1,0,0:0:0:0:
320,192,85138,1,0,0:0:0:0:
448,192,85176,1,0,0:0:0:0:
64,192,85215,1,0,0:0:0:0:
192,192,85252,1,0,0:0:0:0:
320,192,85290,1,0,0:0:0:0:
64,192,85328,1,0,0:0:0:0:
448,192,85365,1,0,0:0:0:0:
320,192,85404,1,0,0:0:0:0:
192,192,85442,1,0,0:0:0:0:
64,192,85479,1,0,0:0:0:0:
448,192,85517,1,0,0:0:0:0:
320,192,85555,1,0,0:0:0:0:
64,192,85593,1,0,0:0:0:0:
192,192,85631,1,0,0:0:0:0:
448,192,85644,1,0,0:0:0:0:
320,192,85669,1,0,0:0:0:0:
64,192,85706,1,0,0:0:0:0:
448,192,85745,1,0,0:0:0:0:
192,192,85783,1,0,0:0:0:0:
320,192,85820,1,0,0:0:0:0:
64,192,85858,1,0,0:0:0:0:
192,192,85896,1,0,0:0:0:0:
320,192,85934,1,0,0:0:0:0:
64,192,85972,1,0,0:0:0:0:
448,192,86010,1,0,0:0:0:0:
320,192,86047,1,0,0:0:0:0:
448,192,86085,1,0,0:0:0:0:
64,192,86124,1,0,0:0:0:0:
192,192,86161,1,0,0:0:0:0:
320,192,86199,1,0,0:0:0:0:
448,192,86237,1,0,0:0:0:0:
64,192,86275,1,0,0:0:0:0:
192,192,86313,1,0,0:0:0:0:
320,192,86351,1,0,0:0:0:0:
448,192,86388,1,0,0:0:0:0:
64,192,86426,1,0,0:0:0:0:
192,192,86465,1,0,0:0:0:0:
320,192,86502,1,0,0:0:0:0:
64,192,86540,1,0,0:0:0:0:
448,192,86578,1,0,0:0:0:0:
320,192,86615,1,0,0:0:0:0:
192,192,86654,1,0,0:0:0:0:
64,192,86692,1,0,0:0:0:0:
448,192,86729,1,0,0:0:0:0:
320,192,86767,1,0,0:0:0:0:
64,192,86805,1,0,0:0:0:0:
192,192,86843,1,0,0:0:0:0:
448,192,86855,1,0,0:0:0:0:
320,192,86881,1,0,0:0:0:0:
64,192,86919,1,0,0:0:0:0:
448,192,86956,1,0,0:0:0:0:
192,192,86995,1,0,0:0:0:0:
320,192,87033,1,0,0:0:0:0:
64,192,87070,1,0,0:0:0:0:
192,192,87108,1,0,0:0:0:0:
320,192,87146,1,0,0:0:0:0:
64,192,87184,1,0,0:0:0:0:
448,192,87222,1,0,0:0:0:0:
320,192,87260,1,0,0:0:0:0:
448,192,87297,1,0,0:0:0:0:
64,192,87335,1,0,0:0:0:0:
192,192,87374,1,0,0:0:0:0:
320,192,87411,1,0,0:0:0:0:
448,192,87449,1,0,0:0:0:0:
64,192,87487,1,0,0:0:0:0:
192,192,87525,1,0,0:0:0:0:
320,192,87563,1,0,0:0:0:0:
448,192,87601,1,0,0:0:0:0:
64,192,87638,1,0,0:0:0:0:
192,192,87676,1,0,0:0:0:0:
448,192,87715,1,0,0:0:0:0:
320,192,87752,1,0,0:0:0:0:
192,192,87790,1,0,0:0:0:0:
64,192,87828,1,0,0:0:0:0:
448,192,87865,1,0,0:0:0:0:
320,192,87904,1,0,0:0:0:0:
64,192,87942,1,0,0:0:0:0:
192,192,88017,1,0,0:0:0:0:
448,192,88043,1,0,0:0:0:0:
320,192,88055,1,0,0:0:0:0:
64,192,88093,1,0,0:0:0:0:
192,192,88131,1,0,0:0:0:0:
320,192,88169,1,0,0:0:0:0:
448,192,88206,1,0,0:0:0:0:
192,192,88245,1,0,0:0:0:0:
320,192,88283,1,0,0:0:0:0:
64,192,88320,1,0,0:0:0:0:
192,192,88358,1,0,0:0:0:0:
320,192,88396,1,0,0:0:0:0:
64,192,88434,1,0,0:0:0:0:
448,192,88472,1,0,0:0:0:0:
320,192,88510,1,0,0:0:0:0:
192,192,88547,1,0,0:0:0:0:
64,192,88585,1,0,0:0:0:0:
448,192,88624,1,0,0:0:0:0:
320,192,88661,1,0,0:0:0:0:
64,192,88699,1,0,0:0:0:0:
192,192,88737,1,0,0:0:0:0:
320,192,88775,1,0,0:0:0:0:
448,192,88813,1,0,0:0:0:0:
64,192,88851,1,0,0:0:0:0:
192,192,88888,1,0,0:0:0:0:
448,192,88926,1,0,0:0:0:0:
320,192,88965,1,0,0:0:0:0:
192,192,89002,1,0,0:0:0:0:
64,192,89040,1,0,0:0:0:0:
320,192,89078,1,0,0:0:0:0:
448,192,89115,1,0,0:0:0:0:
64,192,89154,1,0,0:0:0:0:
192,192,89192,1,0,0:0:0:0:
320,192,89229,1,0,0:0:0:0:
448,192,89267,1,0,0:0:0:0:
64,192,89305,1,0,0:0:0:0:
192,192,89343,1,0,0:0:0:0:
448,192,89381,1,0,0:0:0:0:
320,192,89419,1,0,0:0:0:0:
192,192,89456,1,0,0:0:0:0:
64,192,89495,1,0,0:0:0:0:
448,192,89533,1,0,0:0:0:0:
320,192,89570,1,0,0:0:0:0:
64,192,89608,1,0,0:0:0:0:
192,192,89646,1,0,0:0:0:0:
320,192,89684,1,0,0:0:0:0:
448,192,89722,1,0,0:0:0:0:
64,192,89760,1,0,0:0:0:0:
192,192,89760,1,0,0:0:0:0:
320,192,89810,1,0,0:0:0:0:
448,192,89861,1,0,0:0:0:0:
192,192,89861,1,0,0:0:0:0:
64,192,89911,1,0,0:0:0:0:
320,192,89962,1,0,0:0:0:0:
448,192,89962,1,0,0:0:0:0:
192,192,90013,1,0,0:0:0:0:
64,192,90063,1,0,0:0:0:0:
320,192,90063,1,0,0:0:0:0:
448,192,90114,1,0,0:0:0:0:
64,192,90164,1,0,0:0:0:0:
192,192,90164,1,0,0:0:0:0:
320,192,90215,1,0,0:0:0:0:
64,192,90265,1,0,0:0:0:0:
448,192,90265,1,0,0:0:0:0:
192,192,90315,1,0,0:0:0:0:
320,192,90365,1,0,0:0:0:0:
448,192,90365,1,0,0:0:0:0:
192,192,90416,1,0,0:0:0:0:
448,192,90467,1,0,0:0:0:0:
64,192,90467,1,0,0:0:0:0:
320,192,90517,1,0,0:0:0:0:
192,192,90568,1,0,0:0:0:0:
64,192,90568,1,0,0:0:0:0:
448,192,90618,1,0,0:0:0:0:
320,192,90669,1,0,0:0:0:0:
192,192,90669,1,0,0:0:0:0:
64,192,90719,1,0,0:0:0:0:
320,192,90770,1,0,0:0:0:0:
448,192,90770,1,0,0:0:0:0:
64,192,90820,1,0,0:0:0:0:
192,192,90871,1,0,0:0:0:0:
320,192,90871,1,0,0:0:0:0:
448,192,90922,1,0,0:0:0:0:
64,192,90972,1,0,0:0:0:0:
192,192,90972,1,0,0:0:0:0:
320,192,91023,1,0,0:0:0:0:
448,192,91073,1,0,0:0:0:0:
64,192,91073,1,0,0:0:0:0:
192,192,91124,1,0,0:0:0:0:
320,192,91174,1,0,0:0:0:0:
448,192,91174,1,0,0:0:0:0:
192,192,91225,1,0,0:0:0:0:
448,192,91275,1,0,0:0:0:0:
64,192,91275,1,0,0:0:0:0:
320,192,91325,1,0,0:0:0:0:
192,192,91376,1,0,0:0:0:0:
64,192,91376,1,0,0:0:0:0:
320,192,91426,1,0,0:0:0:0:
64,192,91477,1,0,0:0:0:0:
448,192,91477,1,0,0:0:0:0:
192,192,91527,1,0,0:0:0:0:
320,192,91578,1,0,0:0:0:0:
448,192,91578,1,0,0:0:0:0:
192,192,91628,1,0,0:0:0:0:
64,192,91679,1,0,0:0:0:0:
320,192,91679,1,0,0:0:0:0:
448,192,91729,1,0,0:0:0:0:
64,192,91780,1,0,0:0:0:0:
192,192,91780,1,0,0:0:0:0:
320,192,91831,1,0,0:0:0:0:
448,192,91881,1,0,0:0:0:0:
64,192,91932,1,0,0:0:0:0:
320,192,91982,1,0,0:0:0:0:
192,192,92033,1,0,0:0:0:0:
64,192,92083,1,0,0:0:0:0:
448,192,92134,1,0,0:0:0:0:
192,192,92184,1,0,0:0:0:0:
320,192,92235,1,0,0:0:0:0:
448,192,92285,1,0,0:0:0:0:
64,192,92335,1,0,0:0:0:0:
192,192,92386,1,0,0:0:0:0:
320,192,92386,1,0,0:0:0:0:
448,192,92436,1,0,0:0:0:0:
64,192,92487,1,0,0:0:0:0:
192,192,92487,1,0,0:0:0:0:
448,192,92537,1,0,0:0:0:0:
320,192,92588,1,0,0:0:0:0:
192,192,92588,1,0,0:0:0:0:
64,192,92638,1,0,0:0:0:0:
448,192,92689,1,0,0:0:0:0:
320,192,92689,1,0,0:0:0:0:
192,192,92740,1,0,0:0:0:0:
64,192,92790,1,0,0:0:0:0:
448,192,92790,1,0,0:0:0:0:
320,192,92841,1,0,0:0:0:0:
192,192,92891,1,0,0:0:0:0:
64,192,92891,1,0,0:0:0:0:
320,192,92942,1,0,0:0:0:0:
64,192,92992,1,0,0:0:0:0:
448,192,92992,1,0,0:0:0:0:
192,192,93043,1,0,0:0:0:0:
320,192,93093,1,0,0:0:0:0:
448,192,93093,1,0,0:0:0:0:
192,192,93144,1,0,0:0:0:0:
320,192,93195,1,0,0:0:0:0:
448,192,93245,1,0,0:0:0:0:
64,192,93295,1,0,0:0:0:0:
192,192,93295,1,0,0:0:0:0:
320,192,93345,1,0,0:0:0:0:
192,192,93396,1,0,0:0:0:0:
64,192,93446,1,0,0:0:0:0:
320,192,93497,1,0,0:0:0:0:
448,192,93497,1,0,0:0:0:0:
192,192,93547,1,0,0:0:0:0:
64,192,93585,1,0,0:0:0:0:
448,192,93674,1,0,0:0:0:0:
192,192,93725,1,0,0:0:0:0:
64,192,93775,1,0,0:0:0:0:
448,192,93813,1,0,0:0:0:0:
320,192,93851,1,0,0:0:0:0:
192,192,93888,1,0,0:0:0:0:
448,192,93926,1,0,0:0:0:0:
64,192,93965,1,0,0:0:0:0:
192,192,94002,1,0,0:0:0:0:
320,192,94040,1,0,0:0:0:0:
448,192,94078,1,0,0:0:0:0:
64,192,94115,1,0,0:0:0:0:
192,192,94154,1,0,0:0:0:0:
448,192,94192,1,0,0:0:0:0:
320,192,94229,1,0,0:0:0:0:
192,192,94267,1,0,0:0:0:0:
64,192,94305,1,0,0:0:0:0:
448,192,94343,1,0,0:0:0:0:
320,192,94381,1,0,0:0:0:0:
64,192,94419,1,0,0:0:0:0:
192,192,94456,1,0,0:0:0:0:
320,192,94495,1,0,0:0:0:0:
448,192,94533,1,0,0:0:0:0:
320,192,94570,1,0,0:0:0:0:
64,192,94608,1,0,0:0:0:0:
192,192,94608,1,0,0:0:0:0:
320,192,94659,1,0,0:0:0:0:
448,192,94709,1,0,0:0:0:0:
192,192,94709,1,0,0:0:0:0:
64,192,94760,1,0,0:0:0:0:
320,192,94810,1,0,0:0:0:0:
448,192,94810,1,0,0:0:0:0:
192,192,94861,1,0,0:0:0:0:
64,192,94911,1,0,0:0:0:0:
320,192,94911,1,0,0:0:0:0:
448,192,94962,1,0,0:0:0:0:
64,192,95013,1,0,0:0:0:0:
192,192,95013,1,0,0:0:0:0:
320,192,95063,1,0,0:0:0:0:
64,192,95114,1,0,0:0:0:0:
448,192,95114,1,0,0:0:0:0:
192,192,95164,1,0,0:0:0:0:
320,192,95215,1,0,0:0:0:0:
448,192,95215,1,0,0:0:0:0:
192,192,95265,1,0,0:0:0:0:
448,192,95315,1,0,0:0:0:0:
64,192,95315,1,0,0:0:0:0:
320,192,95365,1,0,0:0:0:0:
192,192,95416,1,0,0:0:0:0:
64,192,95416,1,0,0:0:0:0:
448,192,95467,1,0,0:0:0:0:
320,192,95517,1,0,0:0:0:0:
192,192,95517,1,0,0:0:0:0:
64,192,95568,1,0,0:0:0:0:
320,192,95618,1,0,0:0:0:0:
448,192,95618,1,0,0:0:0:0:
64,192,95669,1,0,0:0:0:0:
192,192,95719,1,0,0:0:0:0:
320,192,95719,1,0,0:0:0:0:
448,192,95770,1,0,0:0:0:0:
64,192,95820,1,0,0:0:0:0:
192,192,95820,1,0,0:0:0:0:
320,192,95871,1,0,0:0:0:0:
448,192,95922,1,0,0:0:0:0:
64,192,95922,1,0,0:0:0:0:
192,192,95972,1,0,0:0:0:0:
320,192,96023,1,0,0:0:0:0:
448,192,96023,1,0,0:0:0:0:
192,192,96073,1,0,0:0:0:0:
448,192,96124,1,0,0:0:0:0:
64,192,96124,1,0,0:0:0:0:
320,192,96174,1,0,0:0:0:0:
192,192,96225,1,0,0:0:0:0:
64,192,96225,1,0,0:0:0:0:
320,192,96275,1,0,0:0:0:0:
64,192,96325,1,0,0:0:0:0:
448,192,96325,1,0,0:0:0:0:
192,192,96376,1,0,0:0:0:0:
320,192,96426,1,0,0:0:0:0:
448,192,96426,1,0,0:0:0:0:
192,192,96477,1,0,0:0:0:0:
64,192,96527,1,0,0:0:0:0:
320,192,96527,1,0,0:0:0:0:
448,192,96578,1,0,0:0:0:0:
64,192,96628,1,0,0:0:0:0:
192,192,96628,1,0,0:0:0:0:
320,192,96679,1,0,0:0:0:0:
448,192,96729,1,0,0:0:0:0:
192,192,96729,1,0,0:0:0:0:
64,192,96780,1,0,0:0:0:0:
320,192,96831,1,0,0:0:0:0:
448,192,96831,1,0,0:0:0:0:
192,192,96881,1,0,0:0:0:0:
64,192,96932,1,0,0:0:0:0:
320,192,96932,1,0,0:0:0:0:
448,192,96982,1,0,0:0:0:0:
64,192,97033,1,0,0:0:0:0:
192,192,97033,1,0,0:0:0:0:
320,192,97083,1,0,0:0:0:0:
448,192,97134,1,0,0:0:0:0:
64,192,97134,1,0,0:0:0:0:
192,192,97184,1,0,0:0:0:0:
320,192,97235,1,0,0:0:0:0:
448,192,97235,1,0,0:0:0:0:
192,192,97285,1,0,0:0:0:0:
448,192,97335,1,0,0:0:0:0:
64,192,97335,1,0,0:0:0:0:
320,192,97386,1,0,0:0:0:0:
192,192,97436,1,0,0:0:0:0:
64,192,97436,1,0,0:0:0:0:
320,192,97487,1,0,0:0:0:0:
64,192,97537,1,0,0:0:0:0:
448,192,97537,1,0,0:0:0:0:
192,192,97588,1,0,0:0:0:0:
320,192,97638,1,0,0:0:0:0:
448,192,97638,1,0,0:0:0:0:
192,192,97689,1,0,0:0:0:0:
64,192,97740,1,0,0:0:0:0:
320,192,97740,1,0,0:0:0:0:
448,192,97790,1,0,0:0:0:0:
64,192,97841,1,0,0:0:0:0:
192,192,97841,1,0,0:0:0:0:
320,192,97891,1,0,0:0:0:0:
448,192,97942,1,0,0:0:0:0:
64,192,97992,1,0,0:0:0:0:
320,192,98043,1,0,0:0:0:0:
192,192,98093,1,0,0:0:0:0:
64,192,98144,1,0,0:0:0:0:
448,192,98195,1,0,0:0:0:0:
192,192,98245,1,0,0:0:0:0:
64,192,98283,1,0,0:0:0:0:
448,192,98320,1,0,0:0:0:0:
320,192,98358,1,0,0:0:0:0:
64,192,98396,1,0,0:0:0:0:
192,192,98434,1,0,0:0:0:0:
320,192,98472,1,0,0:0:0:0:
448,192,98510,1,0,0:0:0:0:
64,192,98547,1,0,0:0:0:0:
192,192,98585,1,0,0:0:0:0:
448,192,98624,1,0,0:0:0:0:
320,192,98661,1,0,0:0:0:0:
192,192,98699,1,0,0:0:0:0:
64,192,98737,1,0,0:0:0:0:
320,192,98775,1,0,0:0:0:0:
448,192,98813,1,0,0:0:0:0:
64,192,98851,1,0,0:0:0:0:
192,192,98888,1,0,0:0:0:0:
320,192,98926,1,0,0:0:0:0:
448,192,98965,1,0,0:0:0:0:
64,192,99002,1,0,0:0:0:0:
192,192,99040,1,0,0:0:0:0:
448,192,99078,1,0,0:0:0:0:
320,192,99115,1,0,0:0:0:0:
192,192,99154,1,0,0:0:0:0:
64,192,99192,1,0,0:0:0:0:
448,192,99229,1,0,0:0:0:0:
320,192,99267,1,0,0:0:0:0:
64,192,99305,1,0,0:0:0:0:
448,192,99355,1,0,0:0:0:0:
64,192,99406,1,0,0:0:0:0:
320,192,99456,1,0,0:0:0:0:
448,192,99456,1,0,0:0:0:0:
192,192,99507,1,0,0:0:0:0:
64,192,99558,1,0,0:0:0:0:
448,192,99558,1,0,0:0:0:0:
320,192,99608,1,0,0:0:0:0:
192,192,99659,1,0,0:0:0:0:
64,192,99659,1,0,0:0:0:0:
448,192,99709,1,0,0:0:0:0:
320,192,99760,1,0,0:0:0:0:
192,192,99760,1,0,0:0:0:0:
64,192,99760,1,0,0:0:0:0:
448,192,99810,1,0,0:0:0:0:
64,192,99861,1,0,0:0:0:0:
192,192,99911,1,0,0:0:0:0:
320,192,99911,1,0,0:0:0:0:
448,192,99962,1,0,0:0:0:0:
64,192,100013,1,0,0:0:0:0:
192,192,100013,1,0,0:0:0:0:
320,192,100063,1,0,0:0:0:0:
448,192,100114,1,0,0:0:0:0:
192,192,100114,1,0,0:0:0:0:
64,192,100164,1,0,0:0:0:0:
320,192,100215,1,0,0:0:0:0:
448,192,100215,1,0,0:0:0:0:
192,192,100265,1,0,0:0:0:0:
64,192,100315,1,0,0:0:0:0:
320,192,100315,1,0,0:0:0:0:
448,192,100365,1,0,0:0:0:0:
64,192,100416,1,0,0:0:0:0:
192,192,100416,1,0,0:0:0:0:
320,192,100467,1,0,0:0:0:0:
448,192,100517,1,0,0:0:0:0:
64,192,100517,1,0,0:0:0:0:
192,192,100568,1,0,0:0:0:0:
320,192,100618,1,0,0:0:0:0:
448,192,100618,1,0,0:0:0:0:
192,192,100669,1,0,0:0:0:0:
448,192,100719,1,0,0:0:0:0:
64,192,100719,1,0,0:0:0:0:
320,192,100770,1,0,0:0:0:0:
192,192,100820,1,0,0:0:0:0:
64,192,100820,1,0,0:0:0:0:
320,192,100871,1,0,0:0:0:0:
448,192,100922,1,0,0:0:0:0:
320,192,100972,1,0,0:0:0:0:
192,192,100972,1,0,0:0:0:0:
64,192,100972,1,0,0:0:0:0:
448,192,101023,1,0,0:0:0:0:
320,192,101073,1,0,0:0:0:0:
192,192,101073,1,0,0:0:0:0:
64,192,101124,1,0,0:0:0:0:
320,192,101174,1,0,0:0:0:0:
448,192,101174,1,0,0:0:0:0:
192,192,101225,1,0,0:0:0:0:
64,192,101275,1,0,0:0:0:0:
320,192,101275,1,0,0:0:0:0:
448,192,101325,1,0,0:0:0:0:
64,192,101376,1,0,0:0:0:0:
192,192,101376,1,0,0:0:0:0:
320,192,101426,1,0,0:0:0:0:
448,192,101477,1,0,0:0:0:0:
192,192,101477,1,0,0:0:0:0:
64,192,101527,1,0,0:0:0:0:
320,192,101578,1,0,0:0:0:0:
448,192,101578,1,0,0:0:0:0:
192,192,101628,1,0,0:0:0:0:
64,192,101679,1,0,0:0:0:0:
448,192,101679,1,0,0:0:0:0:
320,192,101729,1,0,0:0:0:0:
192,192,101780,1,0,0:0:0:0:
64,192,101780,1,0,0:0:0:0:
320,192,101831,1,0,0:0:0:0:
448,192,101881,1,0,0:0:0:0:
64,192,101881,1,0,0:0:0:0:
192,192,101932,1,0,0:0:0:0:
320,192,101982,1,0,0:0:0:0:
448,192,101982,1,0,0:0:0:0:
192,192,102033,1,0,0:0:0:0:
64,192,102083,1,0,0:0:0:0:
448,192,102134,1,0,0:0:0:0:
320,192,102184,1,0,0:0:0:0:
192,192,102184,1,0,0:0:0:0:
64,192,102184,1,0,0:0:0:0:
448,192,102235,1,0,0:0:0:0:
320,192,102285,1,0,0:0:0:0:
192,192,102285,1,0,0:0:0:0:
64,192,102335,1,0,0:0:0:0:
320,192,102386,1,0,0:0:0:0:
448,192,102386,1,0,0:0:0:0:
192,192,102436,1,0,0:0:0:0:
64,192,102487,1,0,0:0:0:0:
320,192,102487,1,0,0:0:0:0:
448,192,102537,1,0,0:0:0:0:
64,192,102588,1,0,0:0:0:0:
192,192,102588,1,0,0:0:0:0:
320,192,102638,1,0,0:0:0:0:
448,192,102689,1,0,0:0:0:0:
192,192,102689,1,0,0:0:0:0:
64,192,102740,1,0,0:0:0:0:
320,192,102790,1,0,0:0:0:0:
448,192,102790,1,0,0:0:0:0:
192,192,102841,1,0,0:0:0:0:
64,192,102891,1,0,0:0:0:0:
448,192,102891,1,0,0:0:0:0:
320,192,102942,1,0,0:0:0:0:
192,192,102992,1,0,0:0:0:0:
64,192,102992,1,0,0:0:0:0:
320,192,103043,1,0,0:0:0:0:
448,192,103093,1,0,0:0:0:0:
192,192,103093,1,0,0:0:0:0:
64,192,103144,1,0,0:0:0:0:
320,192,103195,1,0,0:0:0:0:
448,192,103195,1,0,0:0:0:0:
192,192,103245,1,0,0:0:0:0:
64,192,103295,1,0,0:0:0:0:
320,192,103295,1,0,0:0:0:0:
448,192,103345,1,0,0:0:0:0:
320,192,103396,1,0,0:0:0:0:
192,192,103396,1,0,0:0:0:0:
64,192,103396,1,0,0:0:0:0:
448,192,103446,1,0,0:0:0:0:
320,192,103497,1,0,0:0:0:0:
192,192,103497,1,0,0:0:0:0:
64,192,103547,1,0,0:0:0:0:
320,192,103598,1,0,0:0:0:0:
448,192,103598,1,0,0:0:0:0:
192,192,103649,1,0,0:0:0:0:
64,192,103699,1,0,0:0:0:0:
448,192,103699,1,0,0:0:0:0:
320,192,103750,1,0,0:0:0:0:
192,192,103800,1,0,0:0:0:0:
64,192,103800,1,0,0:0:0:0:
320,192,103851,1,0,0:0:0:0:
448,192,103901,1,0,0:0:0:0:
192,192,103901,1,0,0:0:0:0:
64,192,103952,1,0,0:0:0:0:
320,192,104002,1,0,0:0:0:0:
448,192,104002,1,0,0:0:0:0:
192,192,104053,1,0,0:0:0:0:
64,192,104104,1,0,0:0:0:0:
448,192,104104,1,0,0:0:0:0:
320,192,104154,1,0,0:0:0:0:
192,192,104205,1,0,0:0:0:0:
64,192,104205,1,0,0:0:0:0:
448,192,104255,1,0,0:0:0:0:
320,192,104305,1,0,0:0:0:0:
192,192,104305,1,0,0:0:0:0:
64,192,104355,1,0,0:0:0:0:
448,192,104406,1,0,0:0:0:0:
320,192,104406,1,0,0:0:0:0:
192,192,104456,1,0,0:0:0:0:
64,192,104507,1,0,0:0:0:0:
448,192,104558,1,0,0:0:0:0:
320,192,104608,1,0,0:0:0:0:
192,192,104608,1,0,0:0:0:0:
64,192,104608,1,0,0:0:0:0:
448,192,104659,1,0,0:0:0:0:
64,192,104709,1,0,0:0:0:0:
192,192,104760,1,0,0:0:0:0:
320,192,104760,1,0,0:0:0:0:
448,192,104810,1,0,0:0:0:0:
64,192,104861,1,0,0:0:0:0:
192,192,104861,1,0,0:0:0:0:
320,192,104911,1,0,0:0:0:0:
448,192,104962,1,0,0:0:0:0:
192,192,104962,1,0,0:0:0:0:
64,192,105013,1,0,0:0:0:0:
320,192,105063,1,0,0:0:0:0:
448,192,105063,1,0,0:0:0:0:
192,192,105114,1,0,0:0:0:0:
64,192,105164,1,0,0:0:0:0:
320,192,105164,1,0,0:0:0:0:
448,192,105215,1,0,0:0:0:0:
64,192,105265,1,0,0:0:0:0:
192,192,105265,1,0,0:0:0:0:
320,192,105315,1,0,0:0:0:0:
448,192,105365,1,0,0:0:0:0:
64,192,105365,1,0,0:0:0:0:
192,192,105416,1,0,0:0:0:0:
320,192,105467,1,0,0:0:0:0:
448,192,105467,1,0,0:0:0:0:
64,192,105517,1,0,0:0:0:0:
192,192,105568,1,0,0:0:0:0:
320,192,105568,1,0,0:0:0:0:
448,192,105618,1,0,0:0:0:0:
64,192,105669,1,0,0:0:0:0:
192,192,105669,1,0,0:0:0:0:
320,192,105719,1,0,0:0:0:0:
448,192,105770,1,0,0:0:0:0:
320,192,105820,1,0,0:0:0:0:
192,192,105820,1,0,0:0:0:0:
64,192,105820,1,0,0:0:0:0:
448,192,105871,1,0,0:0:0:0:
320,192,105922,1,0,0:0:0:0:
192,192,105922,1,0,0:0:0:0:
64,192,105972,1,0,0:0:0:0:
320,192,106023,1,0,0:0:0:0:
448,192,106023,1,0,0:0:0:0:
192,192,106073,1,0,0:0:0:0:
64,192,106124,1,0,0:0:0:0:
448,192,106124,1,0,0:0:0:0:
320,192,106174,1,0,0:0:0:0:
192,192,106225,1,0,0:0:0:0:
64,192,106225,1,0,0:0:0:0:
320,192,106275,1,0,0:0:0:0:
448,192,106325,1,0,0:0:0:0:
192,192,106325,1,0,0:0:0:0:
64,192,106376,1,0,0:0:0:0:
320,192,106426,1,0,0:0:0:0:
448,192,106426,1,0,0:0:0:0:
192,192,106477,1,0,0:0:0:0:
64,192,106527,1,0,0:0:0:0:
320,192,106527,1,0,0:0:0:0:
448,192,106578,1,0,0:0:0:0:
64,192,106628,1,0,0:0:0:0:
192,192,106628,1,0,0:0:0:0:
64,192,106729,1,0,0:0:0:0:
320,192,106729,1,0,0:0:0:0:
192,192,106805,1,0,0:0:0:0:
448,192,106805,1,0,0:0:0:0:
64,192,106881,1,0,0:0:0:0:
320,192,106881,1,0,0:0:0:0:
192,192,106881,1,0,0:0:0:0:
192,192,106956,1,0,0:0:0:0:
448,192,106956,1,0,0:0:0:0:
64,192,107033,1,0,0:0:0:0:
320,192,107033,1,0,0:0:0:0:
192,192,107108,1,0,0:0:0:0:
320,192,107108,1,0,0:0:0:0:
448,192,107108,1,0,0:0:0:0:
320,192,107184,1,0,0:0:0:0:
64,192,107184,1,0,0:0:0:0:
192,192,107260,1,0,0:0:0:0:
448,192,107260,1,0,0:0:0:0:
64,192,107335,1,0,0:0:0:0:
192,192,107335,1,0,0:0:0:0:
320,192,107335,1,0,0:0:0:0:
192,192,107411,1,0,0:0:0:0:
448,192,107411,1,0,0:0:0:0:
320,192,107487,1,0,0:0:0:0:
64,192,107487,1,0,0:0:0:0:
192,192,107563,1,0,0:0:0:0:
320,192,107563,1,0,0:0:0:0:
448,192,107563,1,0,0:0:0:0:
320,192,107638,1,0,0:0:0:0:
64,192,107638,1,0,0:0:0:0:
448,192,107715,1,0,0:0:0:0:
192,192,107715,1,0,0:0:0:0:
64,192,107790,1,0,0:0:0:0:
192,192,107790,1,0,0:0:0:0:
320,192,107790,1,0,0:0:0:0:
448,192,107865,1,0,0:0:0:0:
64,192,107942,1,0,0:0:0:0:
192,192,107992,1,0,0:0:0:0:
320,192,108043,1,0,0:0:0:0:
448,192,108093,1,0,0:0:0:0:
64,192,108144,1,0,0:0:0:0:
192,192,108195,1,0,0:0:0:0:
320,192,108245,1,0,0:0:0:0:
448,192,108295,1,0,0:0:0:0:
64,192,108345,1,0,0:0:0:0:
192,192,108396,1,0,0:0:0:0:
320,192,108446,1,0,0:0:0:0:
448,192,108497,1,0,0:0:0:0:
64,192,108547,1,0,0:0:0:0:
192,192,108585,1,0,0:0:0:0:
448,192,108624,1,0,0:0:0:0:
320,192,108661,1,0,0:0:0:0:
64,192,108699,1,0,0:0:0:0:
192,192,108737,1,0,0:0:0:0:
448,192,108775,1,0,0:0:0:0:
320,192,108813,1,0,0:0:0:0:
64,192,108851,1,0,0:0:0:0:
192,192,108888,1,0,0:0:0:0:
448,192,108926,1,0,0:0:0:0:
320,192,108965,1,0,0:0:0:0:
64,192,109002,1,0,0:0:0:0:
192,192,109040,1,0,0:0:0:0:
448,192,109078,1,0,0:0:0:0:
320,192,109115,1,0,0:0:0:0:
64,192,109154,1,0,0:0:0:0:
