osu file format v14

[General]
AudioFilename: audio.mp3
AudioLeadIn: 0
PreviewTime: 81594
Countdown: 0
SampleSet: Soft
StackLeniency: 0.2
Mode: 0
LetterboxInBreaks: 0
WidescreenStoryboard: 1

[Editor]
Bookmarks: 58301,61029,157917,159190,181190
DistanceSpacing: 0.3
BeatDivisor: 4
GridSize: 32
TimelineZoom: 2.4

[Metadata]
Title:Shape of the Sun
TitleUnicode:Shape of the Sun
Artist:Creo
ArtistUnicode:Creo
Creator:NeilPerry
Version:Conflux
Source:
Tags:vinxis kite cheesecake dnb drum and bass featured artist mappers' guild
BeatmapID:2196768
BeatmapSetID:1051126

[Difficulty]
HPDrainRate:6
CircleSize:4
OverallDifficulty:9
ApproachRate:9.2
SliderMultiplier:1.92
SliderTickRate:1

[Events]
//Background and Video events
0,0,"shape.jpg",0,0
//Break Periods
2,105064,110813
//Storyboard Layer 0 (Background)
//Storyboard Layer 1 (Fail)
//Storyboard Layer 2 (Pass)
//Storyboard Layer 3 (Foreground)
//Storyboard Layer 4 (Overlay)
//Storyboard Sound Samples

[TimingPoints]
132,363.636363636364,4,2,1,35,1,0
9950,-100,4,2,1,5,0,0
10313,-100,4,2,1,15,0,0
10859,-100,4,2,1,25,0,0
11404,-100,4,2,1,35,0,0
11768,-133.333333333333,4,2,1,35,0,0
19404,-153.846153846153,4,2,1,35,0,0
20313,-133.333333333333,4,2,1,35,0,0
35041,-200,4,2,1,35,0,0
37950,-133.333333333333,4,2,1,35,0,0
41222,-200,4,2,1,35,0,0
44677,-133.333333333333,4,2,1,35,0,0
46677,-200,4,2,1,35,0,0
49586,-133.333333333333,4,2,1,35,0,0
52495,-133.333333333333,4,2,1,50,0,0
55404,-200,4,2,1,50,0,0
56859,-100,4,2,1,50,0,0
58313,-36.3636363636364,4,2,1,65,0,1
59041,-51.2820512820513,4,2,1,65,0,1
59768,-36.3636363636364,4,2,1,65,0,1
60132,-51.2820512820513,4,2,1,65,0,1
60313,-36.3636363636364,4,2,1,65,0,1
60859,-51.2820512820513,4,2,1,65,0,1
61222,-200,4,2,1,65,0,1
62313,-66.6666666666667,4,2,1,65,0,1
62677,-83.3333333333333,4,2,1,65,0,1
64495,-36.3636363636364,4,2,1,65,0,1
65041,-51.2820512820513,4,2,1,65,0,1
65222,-36.3636363636364,4,2,1,65,0,1
65586,-51.2820512820513,4,2,1,65,0,1
65950,-36.3636363636364,4,2,1,65,0,1
66313,-51.2820512820513,4,2,1,65,0,1
67041,-36.3636363636364,4,2,1,65,0,1
67768,-51.2820512820513,4,2,1,65,0,1
68495,-200,4,2,1,65,0,1
68859,-31.25,4,2,1,65,0,1
69222,-200,4,2,1,65,0,1
69586,-31.25,4,2,1,65,0,1
69950,-36.3636363636364,4,2,1,65,0,1
70677,-51.2820512820513,4,2,1,65,0,1
71404,-36.3636363636364,4,2,1,65,0,1
71768,-51.2820512820513,4,2,1,65,0,1
71950,-36.3636363636364,4,2,1,65,0,1
72495,-51.2820512820513,4,2,1,65,0,1
72859,-200,4,2,1,65,0,1
73950,-66.6666666666667,4,2,1,65,0,1
74313,-83.3333333333333,4,2,1,65,0,1
76132,-36.3636363636364,4,2,1,65,0,1
76677,-51.2820512820513,4,2,1,65,0,1
76859,-36.3636363636364,4,2,1,65,0,1
77222,-51.2820512820513,4,2,1,65,0,1
77586,-36.3636363636364,4,2,1,65,0,1
77950,-51.2820512820513,4,2,1,65,0,1
78677,-36.3636363636364,4,2,1,65,0,1
79404,-51.2820512820513,4,2,1,65,0,1
80132,-200,4,2,1,65,0,1
80495,-31.25,4,2,1,65,0,1
80859,-200,4,2,1,65,0,1
81222,-31.25,4,2,1,65,0,1
81586,-200,4,2,1,35,0,0
104133,365.853658536585,4,2,1,35,1,0
104133,-200,4,2,1,35,0,0
104864,368.098159509202,4,2,1,35,1,0
105600,370.37037037037,4,2,1,35,1,0
105970,375,4,2,1,35,1,0
106345,384.615384615385,4,2,1,35,1,0
107114,392.156862745098,4,2,1,35,1,0
107898,404.040404040404,4,2,1,35,1,0
108706,410.958904109589,4,2,1,35,1,0
109116,451.127819548872,4,2,1,35,1,0
109567,413.793103448276,4,2,1,35,1,0
109980,451.127819548872,4,2,1,35,1,0
110431,476.190476190476,4,2,1,35,1,0
111383,363.636363636364,4,2,1,35,1,0
111383,-200,4,2,1,35,0,0
114292,-133.333333333333,4,2,1,35,0,0
117564,-200,4,2,1,35,0,0
121019,-133.333333333333,4,2,1,35,0,0
123019,-200,4,2,1,35,0,0
125928,-133.333333333333,4,2,1,35,0,0
128837,-133.333333333333,4,2,1,50,0,0
131746,-200,4,2,1,50,0,0
133201,-100,4,2,1,50,0,0
134655,-36.3636363636364,4,2,1,65,0,1
135383,-51.2820512820513,4,2,1,65,0,1
136110,-36.3636363636364,4,2,1,65,0,1
136473,-51.2820512820513,4,2,1,65,0,1
136655,-36.3636363636364,4,2,1,65,0,1
137201,-51.2820512820513,4,2,1,65,0,1
137564,-200,4,2,1,65,0,1
138655,-66.6666666666667,4,2,1,65,0,1
139019,-83.3333333333333,4,2,1,65,0,1
140837,-36.3636363636364,4,2,1,65,0,1
141383,-51.2820512820513,4,2,1,65,0,1
141564,-36.3636363636364,4,2,1,65,0,1
141928,-51.2820512820513,4,2,1,65,0,1
142292,-36.3636363636364,4,2,1,65,0,1
142655,-51.2820512820513,4,2,1,65,0,1
143383,-36.3636363636364,4,2,1,65,0,1
144110,-51.2820512820513,4,2,1,65,0,1
144837,-285.714285714286,4,2,1,65,0,1
145201,-31.25,4,2,1,65,0,1
145564,-285.714285714286,4,2,1,65,0,1
145928,-31.25,4,2,1,65,0,1
146292,-36.3636363636364,4,2,1,65,0,1
147019,-51.2820512820513,4,2,1,65,0,1
147746,-36.3636363636364,4,2,1,65,0,1
148110,-51.2820512820513,4,2,1,65,0,1
148292,-36.3636363636364,4,2,1,65,0,1
148837,-51.2820512820513,4,2,1,65,0,1
149201,-200,4,2,1,65,0,1
150292,-66.6666666666667,4,2,1,65,0,1
150655,-83.3333333333333,4,2,1,65,0,1
152473,-36.3636363636364,4,2,1,65,0,1
153019,-51.2820512820513,4,2,1,65,0,1
153201,-36.3636363636364,4,2,1,65,0,1
153564,-51.2820512820513,4,2,1,65,0,1
153928,-36.3636363636364,4,2,1,65,0,1
154292,-51.2820512820513,4,2,1,65,0,1
155019,-36.3636363636364,4,2,1,65,0,1
155746,-51.2820512820513,4,2,1,65,0,1
156473,-200,4,2,1,65,0,1
156837,-31.25,4,2,1,65,0,1
157201,-200,4,2,1,65,0,1
157564,-31.25,4,2,1,65,0,1
157928,-51.2820512820513,4,2,1,65,0,1
160292,-83.3333333333333,4,2,1,65,0,1
160837,-51.2820512820513,4,2,1,65,0,1
168837,-36.3636363636364,4,2,1,65,0,1
169564,-51.2820512820513,4,2,1,65,0,1
180473,-36.3636363636364,4,2,1,65,0,1
181201,-36.3636363636364,4,2,1,50,0,0

[Colours]
Combo1 : 121,182,255
Combo2 : 255,255,128

[HitObjects]
256,192,9950,12,0,11586,0:0:0:0:
43,64,11768,6,0,B|91:56|118:78|99:85|133:110|185:101,1,144.000005493164,0|0,3:0|0:0,0:0:0:0:
176,102,12495,5,2,0:0:0:0:
244,47,12677,1,2,0:0:0:0:
166,18,12859,1,2,0:0:0:0:
344,4,13041,2,0,P|331:73|315:159,1,144.000005493164,2|0,0:0|0:0,0:0:0:0:
272,209,13586,1,2,0:0:0:0:
465,78,13950,5,0,0:0:0:0:
473,68,14132,1,2,0:0:0:0:
474,46,14313,1,2,0:0:0:0:
344,4,14495,2,0,P|310:12|275:52,1,72.0000027465821,2|0,0:0|0:0,0:0:0:0:
169,27,14859,2,0,L|194:95,1,72.0000027465821,2|0,0:0|0:0,0:0:0:0:
93,222,15222,2,0,P|127:214|162:174,1,72.0000027465821,2|0,0:0|0:0,0:0:0:0:
194,95,15586,2,0,L|168:27,2,72.0000027465821,0|2|0,0:0|0:0|0:0,0:0:0:0:
271,151,16132,1,2,0:0:0:0:
168,27,16495,5,0,0:0:0:0:
51,69,16677,1,2,0:0:0:0:
51,69,16859,1,2,0:0:0:0:
51,69,17041,1,2,0:0:0:0:
51,69,17222,1,2,0:0:0:0:
179,118,17404,2,0,B|131:105|107:122|114:130|89:163|16:149,1,144.000005493164,2|0,0:0|0:0,0:0:0:0:
51,69,17950,1,2,0:0:0:0:
304,190,18313,5,2,0:0:0:0:
304,190,18495,1,2,0:0:0:0:
304,190,18677,1,2,0:0:0:0:
161,208,18859,2,0,B|211:207|230:230|221:236|236:274|311:280,1,144.000005493164,2|0,0:0|0:0,0:0:0:0:
282,275,19404,6,0,P|252:250|216:239,1,62.3999971435548,2|0,0:0|0:0,0:0:0:0:
6,148,19768,1,2,0:0:0:0:
6,148,19950,1,2,0:0:0:0:
6,148,20132,1,2,0:0:0:0:
148,128,20313,2,0,B|99:140|87:167|97:170|92:211|22:236,1,144.000005493164,2|0,0:0|0:0,0:0:0:0:
48,224,20859,6,2,P|122:269|131:122,1,288.000010986329,2|0,0:1|0:1,0:1:0:0:
57,61,21950,5,2,0:0:0:0:
57,61,22313,1,2,0:0:0:0:
145,26,22677,5,2,0:0:0:0:
145,26,23041,1,2,0:0:0:0:
252,7,23404,6,0,P|261:75|270:155,1,144.000005493164,2|0,0:0|0:0,0:0:0:0:
269,149,24132,5,2,0:0:0:0:
231,218,24313,1,2,0:0:0:0:
188,150,24495,1,2,0:0:0:0:
38,287,24677,2,0,B|88:216|151:235|151:235|161:291|222:297,1,216.000008239746,2|0,0:0|0:0,0:0:0:0:
201,293,25586,5,0,0:0:0:0:
185,369,25768,1,0,0:0:0:0:
185,369,26132,6,0,P|149:376|105:384,1,72.0000027465821,2|0,0:0|0:0,0:0:0:0:
201,293,26495,2,0,P|237:300|281:308,1,72.0000027465821,2|0,0:0|0:0,0:0:0:0:
174,197,26859,2,0,P|138:204|94:212,1,72.0000027465821,2|0,0:0|0:0,0:0:0:0:
267,100,27222,1,2,0:0:0:0:
164,0,27404,1,2,0:0:0:0:
267,100,27586,6,0,B|212:19|121:-31|54:110|175:118,1,288.000010986329,2|0,0:0|0:0,0:0:0:0:
239,179,28495,5,2,0:0:0:0:
267,100,28677,1,2,0:0:0:0:
353,47,28859,1,2,0:0:0:0:
464,165,29041,2,0,L|501:12,1,144.000005493164,2|0,0:0|0:0,0:0:0:0:
346,364,29768,5,2,0:0:0:0:
271,329,29950,1,2,0:0:0:0:
199,248,30132,2,0,P|188:204|181:172,1,72.0000027465821,2|0,0:0|0:0,0:0:0:0:
41,8,30495,2,0,L|74:147,1,144.000005493164,2|0,0:0|0:0,0:0:0:0:
149,47,31041,1,2,0:0:0:0:
396,62,31404,5,2,0:0:0:0:
368,141,31586,1,2,0:0:0:0:
282,194,31768,1,2,0:0:0:0:
154,318,31950,2,0,L|188:179,1,144.000005493164,2|0,0:0|0:0,0:0:0:0:
87,236,32495,5,2,0:0:0:0:
87,236,32859,1,2,0:0:0:0:
154,318,33222,5,2,0:0:0:0:
154,318,33586,1,2,0:0:0:0:
256,192,33768,12,0,34859,0:0:0:0:
177,61,35041,5,0,3:0:0:0:
177,61,35404,2,2,P|172:100|166:138,1,72,2|0,0:1|0:1,0:1:0:0:
100,222,35768,2,0,L|107:185,1,24,2|0,0:1|0:0,0:0:0:0:
66,65,35950,6,0,P|78:75|90:90,1,24,0|0,1:0|0:0,0:0:0:0:
166,132,36132,2,0,P|175:144|182:162,1,24,0|0,1:0|0:0,0:0:0:0:
224,230,36313,2,0,P|229:244|232:263,1,24,2|0,0:0|0:0,0:0:0:0:
81,303,36495,6,2,L|69:366,2,48,2|2|2,0:1|1:1|1:1,0:1:0:0:
266,141,37041,2,2,L|280:61,1,72,2|0,0:1|0:1,0:1:0:0:
368,12,37404,6,0,L|359:59,2,48,0|0|0,1:0|1:0|1:0,0:0:0:0:
466,237,37950,6,0,P|409:240|364:288,1,108.000004119873,0|0,1:0|0:0,0:0:0:0:
313,190,38313,2,0,P|356:221|372:272,1,108.000004119873,2|0,0:0|0:0,0:0:0:0:
436,349,38677,2,0,P|417:299|371:271,1,108.000004119873,2|0,0:0|0:0,0:0:0:0:
295,305,39041,1,0,1:0:0:0:
225,354,39222,1,2,0:0:0:0:
40,250,39404,6,0,P|97:253|142:301,1,108.000004119873,2|0,0:0|0:0,0:0:0:0:
192,203,39768,2,0,P|149:234|133:284,1,108.000004119873,2|0,0:0|0:0,0:0:0:0:
70,362,40132,2,0,P|88:312|134:284,1,108.000004119873,2|0,0:0|0:0,0:0:0:0:
225,354,40495,2,0,L|196:330,1,36.0000013732911,0|0,1:0|0:0,0:0:0:0:
67,227,40677,1,0,1:0:0:0:
225,354,40859,1,0,3:0:0:0:
269,281,41222,6,2,B|313:282|325:299|317:305|336:339|388:332,1,120,2|0,0:1|0:1,0:1:0:0:
374,336,41768,1,2,1:0:0:0:
265,277,41950,1,0,3:0:0:0:
501,210,42313,5,2,0:1:0:0:
475,343,42495,2,0,P|468:317|462:282,1,48,2|0,3:2|0:0,0:0:0:0:
320,212,42859,2,0,P|333:188|353:159,1,48,2|0,0:1|0:0,0:0:0:0:
185,34,43222,2,0,P|211:26|246:20,1,48,2|0,3:2|0:0,0:0:0:0:
454,39,43586,1,2,0:1:0:0:
254,159,43768,6,2,P|335:183|373:296,1,192,0|0,3:0|0:0,0:1:0:0:
363,354,44677,1,0,3:0:0:0:
285,363,44859,1,0,1:0:0:0:
242,296,45041,1,2,0:0:0:0:
176,149,45222,6,0,P|128:117|113:53,1,108.000004119873,2|0,0:0|0:0,0:0:0:0:
19,113,45586,2,0,P|71:107|113:68,1,108.000004119873,2|0,0:0|0:0,0:0:0:0:
206,35,45950,2,0,P|165:69|111:70,1,108.000004119873,2|0,0:0|0:0,0:0:0:0:
68,0,46313,1,0,1:0:0:0:
218,324,46677,5,0,3:0:0:0:
218,324,47041,2,2,L|183:249,1,72,0|0,1:0|0:0,0:1:0:0:
110,260,47404,2,0,L|78:272,1,24,2|0,0:1|0:0,0:0:0:0:
218,324,47586,6,0,P|230:315|244:301,1,24,0|0,1:0|0:0,0:0:0:0:
323,265,47768,2,0,P|333:253|341:236,1,24,0|0,1:0|0:0,0:0:0:0:
389,173,47950,2,0,P|395:159|399:140,1,24,2|0,0:0|0:0,0:0:0:0:
279,19,48132,6,2,P|287:46|304:78,2,48,2|2|2,0:1|1:1|0:1,0:1:0:0:
491,303,48677,2,2,P|444:279|435:259,1,72,0|0,1:0|0:0,0:1:0:0:
389,173,49041,2,0,P|417:177|441:192,2,48,0|0|0,1:0|1:0|1:0,1:0:0:0:
226,307,49586,6,0,P|169:304|124:256,1,108.000004119873,0|0,1:0|0:0,0:0:0:0:
73,354,49950,2,0,P|116:323|132:272,1,108.000004119873,2|0,0:0|0:0,0:0:0:0:
196,195,50313,2,0,P|177:245|131:273,1,108.000004119873,2|0,0:0|0:0,0:0:0:0:
65,218,50677,1,0,1:0:0:0:
28,139,50859,1,2,0:0:0:0:
381,91,51041,6,0,P|324:94|279:142,1,108.000004119873,2|0,0:0|0:0,0:0:0:0:
229,44,51404,2,0,P|272:75|288:125,1,108.000004119873,0|0,3:0|0:0,0:0:0:0:
351,203,51768,2,0,P|333:153|287:125,1,108.000004119873,2|0,0:0|0:0,0:0:0:0:
196,195,52132,2,0,L|225:171,1,36.0000013732911,0|0,1:0|0:0,0:0:0:0:
354,68,52313,1,2,0:0:0:0:
196,195,52495,5,0,3:0:0:0:
287,125,52677,1,2,0:0:0:0:
86,44,52859,1,0,1:0:0:0:
162,272,53041,2,0,P|121:236|123:157,1,108.000004119873,2|0,0:0|0:0,0:0:0:0:
40,153,53404,2,0,P|54:131|75:120,1,36.0000013732911,0|0,3:0|0:0,0:0:0:0:
196,195,53586,5,0,1:0:0:0:
196,195,53768,2,0,P|250:210|325:227,1,108.000004119873,2|0,0:0|0:0,0:0:0:0:
370,175,54132,1,0,3:0:0:0:
162,272,54313,1,0,1:0:0:0:
162,272,54859,5,0,3:0:0:0:
370,175,55041,1,0,1:0:0:0:
293,142,55222,1,0,3:0:0:0:
383,181,55404,6,0,P|378:207|370:251,1,72,0|0,3:0|0:0,0:0:0:0:
285,300,55768,2,0,P|317:317|340:391,1,96,0|0,1:0|0:0,0:0:0:0:
464,229,56313,5,0,3:0:0:0:
295,141,56495,1,0,1:0:0:0:
291,133,56586,1,0,0:0:0:0:
284,117,56677,1,0,0:0:0:0:
306,81,56768,1,0,0:0:0:0:
233,46,56859,6,0,L|217:-13,1,48,8|0,0:0|0:0,0:0:0:0:
464,229,57041,1,0,3:0:0:0:
464,229,57222,1,0,3:0:0:0:
198,128,57404,6,0,L|182:187,1,48,8|0,0:0|0:0,0:0:0:0:
492,130,57586,1,0,3:0:0:0:
492,130,57768,1,0,3:0:0:0:
133,55,57950,6,0,L|68:40,1,48,8|0,0:0|0:0,0:0:0:0:
255,283,58132,5,0,1:0:0:0:
288,263,58222,1,0,1:0:0:0:
309,237,58313,2,0,B|303:182|209:198|244:308|316:252|431:173|503:329|444:381|359:424|329:323,1,396.00000377655,4|0,1:0|0:0,0:0:0:0:
153,236,58677,6,2,B|179:316|179:316|100:334|100:334|52:158|52:158|131:137,1,396.00000377655,0|0,1:0|0:0,1:0:0:0:
102,16,59041,2,0,B|98:51|98:51|124:53|124:53|130:7,1,93.6000003570557,2|0,0:1|0:0,0:0:0:0:
254,29,59222,2,0,B|226:50|226:50|243:71|243:71|280:42,1,93.6000003570557,2|0,1:0|0:0,0:0:0:0:
334,338,59404,2,0,B|317:285|317:285|387:264,1,93.6000003570557,8|0,0:0|0:0,0:0:0:0:
447,243,59586,2,0,B|483:232|483:232|466:179,1,93.6000003570557,2|0,0:1|0:0,0:0:0:0:
472,14,59768,6,2,B|482:70|412:99|376:58|376:58|386:110|340:152|340:152|319:126|319:126|276:192|200:154,1,396.00000377655,2|0,0:1|0:1,0:1:0:0:
77,149,60132,2,0,B|84:108|84:108|58:157,1,93.6000003570557,2|0,1:1|0:0,0:0:0:0:
147,280,60313,6,2,B|87:313|87:313|148:343|148:343|152:311|152:311|196:33,1,396.00000377655,2|0,0:1|0:1,0:1:0:0:
173,100,60677,1,0,3:0:0:0:
17,287,60859,2,2,B|31:260|31:260|104:221,1,93.6000003570557,10|2,0:0|0:1,0:1:0:0:
118,30,61041,2,2,B|132:57|132:57|205:96,1,93.6000003570557,2|0,1:1|0:1,0:1:0:0:
300,360,61222,6,0,P|288:336|294:287,1,72,0|0,3:0|0:0,0:0:0:0:
245,148,61586,2,0,P|270:156|300:195,1,72,8|0,0:0|0:0,0:0:0:0:
291,292,61950,2,0,L|283:267,1,24
404,204,62132,2,0,L|396:229,1,24,0|0,3:0|0:0,0:0:0:0:
150,372,62313,6,0,L|221:342,1,72.0000027465821,8|0,0:0|0:0,0:0:0:0:
512,154,62495,2,0,L|441:124,1,72.0000027465821
172,4,62677,6,0,P|241:85|242:161,1,172.799994726563,0|0,1:0|0:0,0:0:0:0:
471,365,63041,2,0,P|402:284|401:208,1,172.799994726563,0|0,1:0|0:0,0:0:0:0:
398,221,63404,1,2,0:0:0:0:
304,13,63586,2,0,P|342:23|356:44,1,57.5999982421876,0|0,3:0|0:0,0:0:0:0:
496,277,63768,2,0,P|482:260|512:276,1,115.199996484375,8|0,0:0|0:0,0:0:0:0:
169,148,64132,5,0,1:0:0:0:
169,148,64313,1,0,0:0:0:0:
58,49,64495,6,2,B|29:0|29:0|35:-11|35:-11|113:56|113:56|121:56|121:56|142:166|142:166|137:168|137:168|78:291|78:291|71:272|71:272|-10:158|-10:158|157:183,1,660.000006294251,4|0,1:1|0:0,0:1:0:0:
179,303,65041,2,0,B|219:325|219:325|164:315,1,93.6000003570557,2|0,1:0|0:0,0:0:0:0:
0,361,65222,6,2,B|241:229|84:406|196:392|307:422|164:274|314:262|380:355,1,396.00000377655,8|0,0:0|0:0,0:1:0:0:
469,320,65586,2,0,P|432:335|432:389,1,93.6000003570557,2|0,0:1|0:0,0:0:0:0:
312,160,65768,2,0,P|275:145|275:91,1,93.6000003570557,0|0,3:0|0:0,0:0:0:0:
118,0,65950,6,2,B|243:-28|284:95|282:180|150:182|88:112|161:17,1,396.00000377655,14|0,0:0|0:1,0:1:0:0:
335,52,66313,2,0,B|339:73|339:73|244:105,1,93.6000003570557,2|0,0:1|0:0,0:0:0:0:
507,54,66495,2,0,B|511:33|511:33|442:9,1,93.6000003570557,2|0,3:1|0:0,0:0:0:0:
173,233,66677,1,8,0:0:0:0:
355,66,66859,2,0,B|403:32|393:69|472:9,1,93.6000003570557,2|0,1:1|0:0,0:0:0:0:
401,269,67041,6,2,B|340:311|334:370|411:388|405:318|375:236|326:155|207:164|147:266,1,396.00000377655,2|0,1:1|0:1,0:1:0:0:
157,347,67404,6,2,B|259:347|337:277|373:173|373:173|401:269,1,396.00000377655,8|0,0:0|0:1,0:1:0:0:
507,314,67768,2,0,B|496:357|496:357|471:281,1,93.6000003570557,2|0,0:1|0:0,0:0:0:0:
136,210,67950,2,0,B|174:232|174:232|138:161,1,93.6000003570557,0|0,1:0|0:0,2:0:0:0:
430,77,68132,2,0,B|391:99|391:99|427:28,1,93.6000003570557,8|0,0:0|0:0,2:0:0:0:
275,98,68313,1,2,0:0:0:0:
275,98,68495,6,2,L|195:120,1,72,2|0,0:1|0:1,0:1:0:0:
28,55,68859,6,2,B|102:37|102:37|379:192|379:192|476:166,1,460.8,8|0,0:0|0:0,0:1:0:0:
205,117,69222,6,2,L|275:98,1,72,2|0,0:1|0:1,0:1:0:0:
449,44,69586,6,2,B|385:27|385:27|108:182|108:182|34:164,1,460.8,10|0,0:0|0:1,0:1:0:0:
57,321,69950,6,0,B|21:257|21:257|66:312|66:312|105:373|164:320|164:320|193:337|193:337|179:263|277:228,1,396.00000377655,4|0,1:0|0:0,0:0:0:0:
350,209,70313,6,2,B|381:216|381:216|373:268|373:268|436:288|436:288|430:370|430:370|244:310,1,396.00000377655,8|0,0:0|0:0,0:1:0:0:
229,175,70677,2,0,B|244:194|244:194|219:242|219:242|255:270,1,93.6000003570557,2|0,0:1|0:0,0:0:0:0:
117,58,70859,2,0,B|139:66|139:66|141:121|141:121|187:127,1,93.6000003570557,2|0,1:0|0:0,0:0:0:0:
505,228,71041,2,0,B|458:214|458:214|460:199|460:199|497:209,1,93.6000003570557,8|0,0:0|0:0,0:0:0:0:
512,101,71222,2,0,B|464:112|464:112|458:98|458:98|495:88,1,93.6000003570557,2|0,0:1|0:0,0:0:0:0:
305,13,71404,6,2,B|354:-2|381:32|346:72|346:72|377:49|430:71|408:117|408:117|391:148|348:148|268:110|305:329|407:219,1,396.00000377655,2|0,0:1|0:1,0:1:0:0:
492,382,71768,2,0,B|499:366|477:345|477:345|505:326|507:272,1,93.6000003570557,2|0,1:0|0:0,0:0:0:0:
283,350,71950,6,2,B|211:347|211:347|172:345|173:314|186:269|237:270|237:270|463:283,1,396.00000377655,2|0,0:1|0:1,0:1:0:0:
426,268,72313,1,0,3:0:0:0:
319,162,72495,2,2,B|281:157|291:207|221:182,1,93.6000003570557,10|2,0:0|0:1,0:1:0:0:
196,0,72677,2,2,B|165:23|208:51|140:83,1,93.6000003570557,2|0,1:1|0:1,0:1:0:0:
40,317,72859,6,0,P|85:328|92:351,1,72,0|0,3:0|0:0,0:0:0:0:
106,210,73222,2,0,P|123:239|158:241,1,72,8|0,0:0|0:0,0:0:0:0:
234,186,73586,2,0,L|209:161,1,24
1,215,73768,2,0,L|26:240,1,24,0|0,3:0|0:0,0:0:0:0:
211,289,73950,6,0,L|143:227,1,72.0000027465821,0|0,1:0|0:0,0:0:0:0:
31,29,74132,2,0,L|99:91,1,72.0000027465821,2|0,0:0|0:0,0:0:0:0:
232,372,74313,6,0,P|234:309|344:285,1,172.799994726563,0|0,1:0|0:0,0:0:0:0:
157,54,74677,2,0,P|155:117|45:141,1,172.799994726563,8|0,0:0|0:0,0:0:0:0:
62,151,75041,1,2,0:0:0:0:
243,20,75222,2,0,P|273:43|297:38,1,57.5999982421876,0|0,3:0|0:0,0:0:0:0:
414,239,75404,2,0,P|416:200|348:192,1,115.199996484375,12|0,0:0|0:0,0:0:0:0:
157,240,75768,5,0,3:0:0:0:
157,240,75950,1,0,0:0:0:0:
64,325,76132,6,2,B|176:244|285:269|285:269|315:272|333:313|289:375|289:375|281:286|385:339|385:339|321:241|419:177|422:275,1,660.000006294251,6|0,1:1|0:1,0:1:0:0:
404,88,76677,2,0,P|428:93|399:94,1,93.6000003570557,2|0,1:0|0:0,0:0:0:0:
467,382,76859,6,2,B|403:346|335:159|532:235|551:114|520:44|439:8,1,396.00000377655,8|0,0:0|0:0,0:1:0:0:
336,8,77222,2,0,B|348:28|317:42|317:42|293:64|314:85,1,93.6000003570557,2|0,0:1|0:0,0:0:0:0:
157,240,77404,2,0,B|136:219|160:197|160:197|191:183|176:155,1,93.6000003570557,0|0,3:0|0:0,0:0:0:0:
67,348,77586,6,2,B|104:250|186:263|186:263|138:287|134:317|158:382|259:380|284:261,1,396.00000377655,14|0,0:0|0:0,0:1:0:0:
255,142,77950,2,0,B|210:128|210:128|176:165,1,93.6000003570557,2|0,0:1|0:0,0:0:0:0:
0,101,78132,2,0,B|31:135|31:135|76:121,1,93.6000003570557,2|0,1:0|0:0,0:0:0:0:
336,8,78313,1,8,0:0:0:0:
165,170,78495,2,0,B|142:135|110:163|86:114,1,93.6000003570557,2|0,1:0|0:0,0:0:0:0:
438,165,78677,6,2,B|418:163|409:173|409:173|402:160|386:164|386:164|367:171|360:198|360:198|335:199|325:224|325:224|307:209|295:215|295:215|292:235|284:245|284:245|292:265|274:277|310:314|310:314|265:315|253:342|253:342|271:353|237:394,1,396.00000377655,2|0,1:1|0:1,0:1:0:0:
496,324,79041,6,2,B|493:421|379:391|402:313|402:313|417:224|344:214|274:252|315:324,1,396.00000377655,8|0,0:0|0:0,0:1:0:0:
139,331,79404,2,0,B|101:324|106:281|151:304|154:347,1,93.6000003570557,2|0,0:1|0:0,0:0:0:0:
452,156,79586,2,0,B|490:149|485:106|440:129|437:172,1,93.6000003570557,0|0,1:0|0:0,0:0:0:0:
150,161,79768,2,0,B|112:154|117:111|162:134|165:177,1,93.6000003570557,8|0,0:0|0:0,0:0:0:0:
306,79,79950,1,2,0:0:0:0:
306,79,80132,6,2,P|322:73|306:94,1,72,2|0,0:1|0:1,0:1:0:0:
297,178,80495,6,2,P|227:65|402:129,1,460.8,8|0,0:0|0:0,0:1:0:0:
371,224,80859,6,2,P|397:216|371:209,1,72,2|0,0:1|0:1,0:1:0:0:
403,125,81222,6,2,P|473:238|298:174,1,460.8,14|0,0:0|0:1,0:1:0:0:
113,17,81586,6,0,P|115:45|143:70,1,48,4|0,0:0|0:0,0:0:0:0:
199,95,81950,1,0,0:0:0:0:
199,95,82313,5,2,0:3:0:0:
92,135,82495,2,0,P|61:116|55:88,2,48,0|0|0,0:0|1:0|0:0,0:0:0:0:
168,257,83041,2,0,L|181:198,1,48,0|2,0:0|0:3,0:0:0:0:
73,328,83404,2,0,L|60:269,1,48,4|0,0:1|0:0,0:0:0:0:
234,373,83768,2,0,L|247:314,2,48,0|0|0,1:0|0:0|0:0,0:0:0:0:
157,328,84313,1,0,0:0:0:0:
255,174,84495,6,0,P|237:149|216:141,1,48,2|0,3:3|0:0,0:0:0:0:
145,122,84859,1,0,0:0:0:0:
145,122,85222,1,2,0:3:0:0:
299,81,85404,2,0,P|319:68|326:37,2,48,0|0|0,0:0|1:0|0:0,0:0:0:0:
145,122,85950,6,0,P|136:86|123:31,1,72,2|0,0:0|0:0,0:0:0:0:
127,52,86313,1,4,0:1:0:0:
264,282,86677,6,0,P|255:318|242:373,1,72,0|0,1:0|0:0,0:0:0:0:
246,351,87041,1,2,0:0:0:0:
339,333,87222,1,2,0:0:0:0:
170,301,87404,2,0,B|102:300|143:321|74:326,1,96,0|0,3:0|0:0,0:0:0:0:
79,325,88132,6,0,P|60:299|61:268,2,48,2|0|0,0:3|0:0|0:0,0:0:0:0:
170,301,88677,1,0,0:0:0:0:
339,333,88859,2,0,B|407:332|366:353|435:358,1,96,2|4,0:0|0:1,0:0:0:0:
429,357,89586,6,0,P|442:327|453:302,2,48,0|0|0,1:0|0:0|0:0,0:0:0:0:
339,333,90132,1,0,0:0:0:0:
512,237,90313,2,0,P|473:231|440:203,1,72,0|0,3:0|0:0,0:0:0:0:
421,141,90677,2,0,P|387:157|377:225,1,96,0|2,0:0|0:3,0:0:0:0:
127,364,91404,6,0,L|119:309,1,48,2|0,0:0|0:0,0:0:0:0:
43,220,91768,1,2,0:0:0:0:
127,364,92132,6,0,L|119:309,1,48,4|0,0:1|0:0,0:0:0:0:
61,124,92495,2,0,P|104:147|106:151,1,48,0|0,1:0|0:0,0:0:0:0:
170,216,92859,2,0,P|184:262|182:266,1,48
307,363,93222,6,0,P|330:320|334:318,1,48,0|0,3:0|0:0,0:0:0:0:
400,282,93586,1,2,0:0:0:0:
400,282,93950,5,2,0:3:0:0:
479,173,94132,2,0,P|479:200|463:231,2,48,0|0|0,0:0|1:0|0:0,0:0:0:0:
339,69,94677,2,0,L|351:115,1,48,2|0,0:0|0:0,0:0:0:0:
383,266,95041,2,0,P|350:278|315:290,1,72,4|0,0:1|0:0,0:0:0:0:
244,330,95404,2,0,L|232:284,2,48,0|0|0,1:0|0:0|0:0,0:0:0:0:
160,329,95950,1,0,0:0:0:0:
277,213,96132,6,0,P|265:188|239:175,1,48,0|0,3:0|0:0,0:0:0:0:
178,144,96495,1,0,0:0:0:0:
178,144,96859,1,2,0:3:0:0:
324,123,97041,2,0,P|325:98|311:76,2,48,0|2|0,0:0|0:0|0:0,0:0:0:0:
183,242,97586,6,0,P|171:273|149:326,1,72,2|0,0:0|0:0,0:0:0:0:
156,308,97950,1,4,0:1:0:0:
33,33,98313,6,0,P|45:64|67:117,1,72,0|0,1:0|0:0,0:0:0:0:
59,99,98677,1,2,0:0:0:0:
131,39,98859,1,2,0:0:0:0:
146,174,99041,2,0,B|79:185|123:206|42:222,1,96,0|0,3:0|0:0,0:0:0:0:
63,216,99768,6,0,P|52:245|51:274,2,48,0|0|0,1:0|0:0|0:0,0:0:0:0:
3,141,100313,1,2,0:0:0:0:
63,350,100495,2,0,B|130:339|86:318|167:302,1,96,2|4,0:0|0:1,0:0:0:0:
146,306,101222,6,0,P|157:277|158:248,2,48,0|0|0,1:0|0:0|0:0,0:0:0:0:
63,350,101768,1,0,0:0:0:0:
153,173,101950,2,0,P|114:133|100:224,1,192,2|0,0:3|1:0,0:0:0:0:
399,288,103041,6,0,L|315:273,1,72,2|0,0:0|0:0,0:0:0:0:
328,275,103404,1,2,0:0:0:0:
217,52,103768,6,0,L|301:37,1,72,4|0,0:1|0:0,0:0:0:0:
366,34,104133,2,0,P|360:73|350:87,1,48,0|0,1:0|0:0,0:0:0:0:
436,155,104498,2,0,P|404:178|387:181,1,48
299,152,104864,1,2,0:0:0:0:
213,81,111383,5,0,3:0:0:0:
213,81,111746,2,2,P|202:121|198:172,1,72,2|0,0:1|0:1,0:1:0:0:
133,215,112110,2,0,L|169:238,1,24,2|0,0:1|0:0,0:0:0:0:
199,328,112292,6,0,P|200:337|191:330,1,24,0|0,1:0|0:0,0:0:0:0:
97,315,112473,2,0,P|91:322|89:310,1,24,0|0,1:0|0:0,0:0:0:0:
33,229,112655,2,0,P|24:229|31:220,1,24,2|0,0:0|0:0,0:0:0:0:
30,63,112837,6,2,P|54:92|59:117,2,48,2|2|2,0:1|1:1|1:1,0:1:0:0:
249,256,113383,2,2,L|281:169,1,72,2|0,0:1|0:1,0:1:0:0:
227,118,113746,2,0,P|203:147|198:172,2,48,0|0|0,1:0|1:0|1:0,1:0:0:0:
453,288,114292,6,0,L|342:249,1,108.000004119873,0|0,1:0|0:0,0:0:0:0:
386,150,114655,2,0,L|347:261,1,108.000004119873,2|0,0:0|0:0,0:0:0:0:
314,353,115019,2,0,L|353:242,1,108.000004119873,2|0,0:0|0:0,0:0:0:0:
386,150,115383,1,0,1:0:0:0:
328,89,115564,1,2,0:0:0:0:
138,152,115746,6,0,L|249:113,1,108.000004119873,2|0,0:0|0:0,0:0:0:0:
205,14,116110,2,0,L|244:125,1,108.000004119873,2|0,0:0|0:0,0:0:0:0:
276,217,116473,2,0,L|237:106,1,108.000004119873,2|0,0:0|0:0,0:0:0:0:
361,75,116837,2,0,L|315:93,1,36.0000013732911,0|0,1:0|0:0,0:0:0:0:
138,152,117019,1,2,0:0:0:0:
361,75,117201,1,0,3:0:0:0:
316,353,117564,6,2,P|291:320|207:309,1,120,2|0,0:1|0:1,0:1:0:0:
217,305,118110,1,2,1:0:0:0:
317,359,118292,1,0,3:0:0:0:
44,199,118655,5,2,0:1:0:0:
80,340,118837,2,0,L|119:293,1,48,2|0,3:2|0:0,0:0:0:0:
44,199,119201,2,2,L|104:193,1,48,2|0,0:1|0:1,0:1:0:0:
82,57,119564,2,0,L|129:96,1,48,2|0,3:2|0:0,0:0:0:0:
44,199,119928,1,2,0:1:0:0:
277,238,120109,6,2,B|227:217|148:245|212:280|145:311|88:300,1,192,2|0,3:1|0:1,0:1:0:0:
22,288,121019,1,0,3:0:0:0:
44,199,121201,1,0,1:0:0:0:
116,144,121383,1,2,0:0:0:0:
344,100,121564,6,0,L|233:139,1,108.000004119873,2|0,0:0|0:0,0:0:0:0:
277,238,121928,2,0,L|240:129,1,108.000004119873,2|0,0:0|0:0,0:0:0:0:
205,35,122292,2,0,L|244:146,1,108.000004119873,2|0,0:0|0:0,0:0:0:0:
277,238,122655,1,0,1:0:0:0:
43,82,123019,5,0,3:0:0:0:
43,82,123382,2,2,P|81:72|117:46,1,72,2|0,1:1|0:1,0:1:0:0:
154,156,123746,2,0,P|139:145|117:136,1,24,2|0,0:1|0:0,0:0:0:0:
154,270,123928,6,0,P|156:278|162:268,1,24,0|0,1:0|0:0,0:0:0:0:
242,214,124110,2,0,P|250:218|246:207,1,24,0|0,1:0|0:0,0:0:0:0:
262,109,124292,2,0,P|270:106|260:100,1,24,2|0,0:0|0:0,0:0:0:0:
184,5,124473,6,2,P|186:35|204:58,2,48,2|2|2,0:1|1:1|1:1,0:1:0:0:
318,260,125019,2,0,P|329:219|340:180,1,72
430,132,125383,2,0,P|428:162|410:185,2,48,0|0|0,1:0|1:0|1:0,1:0:0:0:
261,59,125928,6,0,L|231:172,1,108.000004119873,0|0,1:0|0:0,0:0:0:0:
129,137,126292,2,0,L|242:166,1,108.000004119873,2|0,0:0|0:0,0:0:0:0:
337,191,126655,2,0,L|223:161,1,108.000004119873,2|0,0:0|0:0,0:0:0:0:
129,137,127019,1,0,1:0:0:0:
73,200,127201,1,2,0:0:0:0:
151,382,127383,6,0,L|102:274,1,108.000004119873,2|0,0:0|0:0,0:0:0:0:
9,329,127746,2,0,L|116:280,1,108.000004119873,0|0,3:0|0:0,0:0:0:0:
205,240,128110,2,0,L|97:288,1,108.000004119873,2|0,0:0|0:0,0:0:0:0:
56,169,128473,2,0,L|77:213,1,36.0000013732911,0|0,1:0|0:0,0:0:0:0:
151,384,128655,1,2,0:0:0:0:
56,169,128836,5,0,3:0:0:0:
107,284,129018,1,2,0:0:0:0:
198,131,129200,1,0,1:0:0:0:
77,363,129382,2,0,P|105:321|189:315,1,108.000004119873,2|0,0:0|0:0,0:0:0:0:
250,311,129746,2,0,P|241:333|231:362,1,36.0000013732911,0|0,3:0|0:0,0:0:0:0:
198,131,129928,1,0,1:0:0:0:
198,131,130110,6,0,P|189:74|178:16,1,108.000004119873,2|0,0:0|0:0,0:0:0:0:
258,14,130473,1,0,3:0:0:0:
114,148,130655,1,0,1:0:0:0:
114,148,131200,5,0,3:0:0:0:
341,30,131382,1,0,1:0:0:0:
258,14,131564,1,0,3:0:0:0:
343,40,131746,6,0,P|349:84|355:131,1,72,0|0,3:0|0:0,0:0:0:0:
355,219,132110,2,0,P|391:190|460:176,1,96,0|0,1:0|0:0,0:0:0:0:
228,116,132655,5,0,3:0:0:0:
282,277,132837,1,0,1:0:0:0:
285,288,132928,1,0,0:0:0:0:
290,307,133019,1,0,0:0:0:0:
313,332,133110,1,0,0:0:0:0:
387,366,133201,6,0,L|394:316,1,48,8|0,0:0|0:0,0:0:0:0:
417,88,133382,1,0,3:0:0:0:
417,88,133564,1,0,3:0:0:0:
512,279,133746,6,0,L|462:272,1,48,8|0,0:0|0:0,0:0:0:0:
333,62,133928,1,0,3:0:0:0:
333,62,134110,1,0,3:0:0:0:
306,379,134292,6,0,L|313:329,1,48,8|0,0:0|0:0,0:0:0:0:
231,51,134473,5,0,1:0:0:0:
237,102,134564,1,0,1:0:0:0:
246,151,134655,2,0,B|87:95|87:95|34:80|-7:117|-3:176|44:189|44:189|137:215,1,396.00000377655,4|0,1:0|0:0,0:0:0:0:
215,222,135019,6,2,B|256:246|297:226|313:195|313:195|381:47|381:47|408:-3|463:6|500:61,1,396.00000377655,2|0,1:1|0:1,0:1:0:0:
216,18,135383,2,0,B|231:52|231:52|247:27|247:27|268:63,1,93.6000003570557,2|0,0:1|0:0,0:0:0:0:
475,125,135564,2,0,B|460:159|460:159|444:134|444:134|423:170,1,93.6000003570557,2|0,1:0|0:0,0:0:0:0:
207,370,135746,2,0,B|178:375|183:355|183:355|199:275,1,93.6000003570557,8|0,0:0|0:0,0:0:0:0:
113,192,135928,2,0,B|142:187|137:207|137:207|121:287,1,93.6000003570557,2|0,0:1|0:0,0:0:0:0:
288,364,136110,6,2,B|359:297|290:312|303:216|378:202|403:220|410:264|410:264|420:319|489:329|521:276|524:131,1,396.00000377655,2|0,0:1|0:1,0:1:0:0:
433,64,136473,2,0,B|429:110|429:110|484:128,1,93.6000003570557,2|0,1:0|0:0,0:0:0:0:
308,108,136655,6,2,B|303:148|303:148|219:192|219:192|242:12|242:12|207:25|207:25|200:119,1,396.00000377655,2|0,0:1|0:1,0:1:0:0:
184,58,137019,1,0,3:0:0:0:
48,131,137201,2,2,P|85:150|116:221,1,93.6000003570557,10|2,0:0|0:1,0:1:0:0:
247,367,137383,2,0,B|244:311|284:347|283:263,1,93.6000003570557,2|0,1:0|0:0,0:0:0:0:
426,310,137564,6,0,P|438:309|420:316,1,72,0|0,3:0|0:0,0:0:0:0:
275,266,137928,2,0,P|263:265|281:272,1,72,8|0,0:0|0:0,0:0:0:0:
366,232,138292,2,0,L|380:190,1,24
396,129,138473,2,0,L|410:87,1,24,0|0,3:0|0:0,0:0:0:0:
238,66,138655,6,0,P|262:94|294:133,1,72.0000027465821,8|0,0:0|0:0,0:0:0:0:
512,276,138837,2,0,P|488:248|456:209,1,72.0000027465821
163,125,139019,6,0,P|152:182|176:146,1,172.799994726563,0|0,1:0|0:0,0:0:0:0:
416,83,139382,2,0,P|427:140|403:104,1,172.799994726563,0|0,1:0|0:0,0:0:0:0:
398,92,139746,1,2,0:0:0:0:
210,16,139928,2,0,P|229:43|239:72,1,57.5999982421876,0|0,3:0|0:0,0:0:0:0:
250,251,140110,2,0,P|197:277|144:304,1,115.199996484375,8|0,0:0|0:0,0:0:0:0:
128,54,140473,5,0,1:0:0:0:
128,54,140655,1,0,0:0:0:0:
1,172,140837,6,2,B|221:57|221:57|268:36|309:82|289:141|251:159|251:159|115:227|115:227|131:117,1,660.000006294251,6|0,1:1|0:1,0:1:0:0:
229,295,141383,2,0,L|200:199,1,93.6000003570557,2|0,1:1|0:0,0:0:0:0:
428,320,141564,6,2,B|422:350|403:369|370:368|370:368|394:306|335:252|307:304|307:304|297:375|235:399|177:360,1,396.00000377655,8|0,0:0|0:1,0:1:0:0:
45,340,141928,2,0,B|25:325|44:310|61:314|61:314|174:357,1,93.6000003570557,2|0,0:1|0:0,0:0:0:0:
373,187,142110,2,0,B|358:207|343:188|347:171|347:171|390:58,1,93.6000003570557,0|0,3:0|0:0,0:0:0:0:
445,85,142292,6,0,B|498:36|543:67|530:130|479:117|479:117|212:40,1,396.00000377655,14|0,0:0|0:0,0:0:0:0:
249,51,142655,2,0,B|193:35|193:35|168:28|172:57,1,93.6000003570557,2|0,0:1|0:0,0:0:0:0:
9,143,142837,2,0,B|65:126|65:126|90:119|86:148,1,93.6000003570557,2|0,3:1|0:0,0:0:0:0:
277,257,143019,1,8,0:0:0:0:
101,133,143201,2,0,B|149:110|119:89|181:49,1,93.6000003570557,2|0,1:1|0:0,0:0:0:0:
4,17,143383,6,2,B|173:1|89:311|327:249,1,396.00000377655,0|0,1:0|0:0,0:1:0:0:
384,300,143746,6,2,B|311:321|278:257|278:257|176:272|174:387|174:387|118:369|150:309,1,396.00000377655,8|0,0:0|0:1,0:1:0:0:
19,275,144110,2,0,B|51:293|46:323|46:323|15:291,1,93.6000003570557,2|0,0:1|0:0,0:0:0:0:
380,175,144292,2,0,B|348:193|353:223|353:223|384:191,1,93.6000003570557,0|0,3:0|0:0,0:0:0:0:
101,133,144473,2,0,B|133:151|128:181|128:181|97:149,1,93.6000003570557,8|0,0:0|0:0,0:0:0:0:
249,91,144655,1,2,0:0:0:0:
251,283,144837,6,2,P|240:280|252:296,1,50.3999984619141,2|0,0:1|0:1,0:1:0:0:
189,357,145201,6,2,P|294:363|161:313,1,460.8,8|0,0:0|0:1,0:1:0:0:
251,296,145564,6,2,P|232:290|251:283,1,50.3999984619141,2|0,0:1|0:1,0:1:0:0:
91,238,145928,6,2,P|264:122|423:318,1,460.8,8|0,0:0|0:0,0:1:0:0:
448,370,146292,6,0,B|422:399|379:350|418:313|418:313|489:253|513:145|486:100|440:117|440:117|464:136|472:177,1,396.00000377655,4|0,1:0|0:0,0:0:0:0:
374,14,146655,6,2,B|368:111|300:123|243:130|178:62|224:4|224:4|215:74|291:92,1,396.00000377655,8|0,0:0|0:1,0:1:0:0:
120,91,147019,2,0,B|125:102|143:111|143:111|125:85|125:51,1,93.6000003570557,2|0,0:1|0:0,0:0:0:0:
56,183,147201,2,0,B|65:190|85:188|85:188|57:175|40:145,1,93.6000003570557,2|0,1:0|0:0,0:0:0:0:
250,360,147382,2,2,B|275:303|275:303|270:322|281:351,1,93.6000003570557,8|0,0:0|0:1,0:1:0:0:
382,337,147564,2,0,B|357:280|357:280|362:299|351:328,1,93.6000003570557,2|0,0:1|0:0,0:0:0:0:
181,247,147746,6,2,B|317:199|317:199|312:154|348:128|387:149|379:200|379:200|500:266,1,396.00000377655,2|0,0:1|0:1,0:1:0:0:
229,139,148110,2,0,P|210:120|240:133,1,93.6000003570557,2|0,1:0|0:0,0:0:0:0:
358,279,148292,6,2,B|293:308|264:233|305:205|305:205|387:148|387:148|433:117|425:70|389:37|314:73,1,396.00000377655,2|0,0:1|0:1,0:1:0:0:
331,51,148655,1,0,3:0:0:0:
74,42,148837,2,0,B|108:65|70:89|133:133,1,93.6000003570557,2|0,1:0|0:0,0:0:0:0:
101,290,149019,2,2,B|124:255|148:293|192:230,1,93.6000003570557,8|0,0:0|0:1,0:1:0:0:
378,346,149201,6,0,P|373:309|346:265,1,72,0|0,3:0|0:0,0:0:0:0:
447,157,149564,2,0,P|431:189|426:224,1,72,8|0,0:0|0:0,0:0:0:0:
280,335,149928,2,0,L|236:346,1,24
174,358,150110,2,0,L|130:369,1,24,0|0,3:0|0:0,0:0:0:0:
15,274,150292,6,0,L|111:252,1,72.0000027465821,0|0,1:0|0:0,0:0:0:0:
271,219,150473,2,0,L|367:197,1,72.0000027465821,2|0,0:0|0:0,0:0:0:0:
465,24,150655,6,0,P|376:30|412:95,1,172.799994726563,0|0,1:0|0:0,0:0:0:0:
147,78,151019,2,0,P|236:84|200:149,1,172.799994726563,0|0,1:0|0:0,0:0:0:0:
221,138,151382,1,2,0:0:0:0:
201,304,151564,2,0,L|174:223,1,57.5999982421876,0|0,3:0|0:0,0:0:0:0:
30,50,151746,2,0,P|52:103|80:187,1,115.199996484375,8|0,0:0|0:0,0:0:0:0:
371,311,152110,5,0,1:0:0:0:
371,311,152291,1,0,0:0:0:0:
89,360,152473,6,2,B|113:291|162:280|162:280|282:258|282:258|350:250|350:250|332:317|332:317|316:374|316:374|248:339|248:339|264:279|264:279|291:172,1,660.000006294251,6|0,1:1|0:1,0:1:0:0:
471,127,153019,2,0,L|440:245,1,93.6000003570557,2|0,1:0|0:0,0:0:0:0:
253,79,153201,6,2,B|311:58|261:8|182:58|196:187|196:187|401:156,1,396.00000377655,8|0,0:0|0:1,0:1:0:0:
512,317,153564,2,0,B|467:309|467:309|428:371,1,93.6000003570557,2|0,0:1|0:0,0:0:0:0:
318,263,153746,2,0,B|277:237|277:237|285:192,1,93.6000003570557,0|0,3:0|0:0,0:0:0:0:
29,165,153928,6,0,B|-7:204|28:254|28:254|29:210|101:184|111:275|111:275|200:255|221:398|64:351,1,396.00000377655,14|0,0:0|0:0,0:0:0:0:
358,333,154292,2,0,B|319:367|319:367|362:347,1,93.6000003570557,2|0,0:1|0:0,0:0:0:0:
410,226,154473,2,0,B|449:260|449:260|406:240,1,93.6000003570557,2|0,1:0|0:0,0:0:0:0:
150,165,154655,1,8,0:0:0:0:
374,335,154837,2,0,B|362:300|407:290|396:237,1,93.6000003570557,2|0,1:0|0:0,0:0:0:0:
399,74,155019,6,2,B|412:84|451:66|424:6|369:-11|340:54|387:99|415:186|289:247|232:196|195:84|329:48,1,396.00000377655,2|0,1:1|0:1,0:1:0:0:
152,12,155382,6,2,B|186:-35|276:7|270:64|253:101|225:115|191:99|191:99|169:87|128:76|99:90|74:115|40:167|111:244,1,396.00000377655,8|0,0:0|0:1,0:1:0:0:
24,288,155746,2,0,B|38:255|66:258|66:258|49:267|26:309,1,93.6000003570557,2|0,0:1|0:0,0:0:0:0:
374,335,155928,2,0,B|359:302|331:305|331:305|348:314|371:356,1,93.6000003570557,0|0,1:0|0:0,0:0:0:0:
161,243,156110,2,0,B|193:257|190:285|190:285|181:268|139:245,1,93.6000003570557,8|0,0:0|0:0,0:0:0:0:
318,177,156291,1,2,0:0:0:0:
318,177,156473,6,2,B|394:193,1,72,2|0,0:1|0:1,0:1:0:0:
232,33,156837,6,2,P|276:360|195:389,1,460.8,8|0,0:0|0:1,0:1:0:0:
388,191,157201,6,2,B|318:177,1,72,2|0,0:1|0:1,0:1:0:0:
483,23,157564,6,2,P|439:350|520:379,1,460.8,8|0,0:0|0:1,0:1:0:0:
287,340,157928,6,0,P|249:270|233:381,1,280.800001071167,4|0,3:1|0:0,0:0:0:0:
57,326,158292,2,0,P|20:326|46:309,1,93.6000003570557,8|0,0:0|0:0,0:0:0:0:
181,189,158473,1,0,0:0:0:0:
181,189,158655,1,0,0:0:0:0:
58,78,158837,6,0,P|21:78|47:95,1,93.6000003570557,0|0,3:0|0:0,0:0:0:0:
181,189,159019,2,0,P|181:226|198:200,1,93.6000003570557,8|0,0:0|0:0,0:0:0:0:
342,161,159201,2,0,P|379:161|353:144,1,93.6000003570557
477,63,159383,6,2,P|521:39|452:36,2,187.200000714111,2|2|0,0:0|3:0|1:0,0:0:0:0:
229,82,159928,1,0,0:0:0:0:
229,82,160110,1,0,0:0:0:0:
229,82,160292,2,0,P|195:55|241:62,2,115.199996484375,0|8|0,1:0|0:0|3:0,0:0:0:0:
458,205,160837,6,0,P|492:304|413:228,1,280.800001071167,4|0,3:1|0:0,0:0:0:0:
319,337,161200,2,0,P|214:344|308:287,1,280.800001071167,8|0,0:0|0:0,0:0:0:0:
121,193,161564,1,0,0:0:0:0:
121,193,161746,6,0,P|150:174|140:210,1,93.6000003570557,0|0,3:0|0:0,0:0:0:0:
68,274,161928,2,0,P|39:293|49:257,1,93.6000003570557,8|0,0:0|0:0,0:0:0:0:
244,90,162110,2,0,P|229:123|262:106,1,93.6000003570557,2|0,0:0|0:0,0:0:0:0:
70,84,162291,6,0,P|26:44|59:104,2,187.200000714111,2|0|0,0:0|3:0|1:0,0:0:0:0:
196,291,162837,1,0,0:0:0:0:
196,291,163019,1,0,0:0:0:0:
196,291,163201,2,0,P|240:331|207:271,1,187.200000714111,0|0,3:0|1:0,0:0:0:0:
51,273,163564,2,0,P|91:228|31:262,1,187.200000714111,2|0,0:0|3:0,0:0:0:0:
25,252,163928,1,0,0:0:0:0:
151,87,164110,6,0,P|234:2|187:168,1,468.000001785278,12|0,0:0|0:0,0:0:0:0:
261,92,164655,2,0,P|237:80|260:88,1,93.6000003570557,0|0,1:0|0:0,0:0:0:0:
445,165,164837,2,0,P|446:146|447:162,1,93.6000003570557,8|0,0:0|0:0,0:0:0:0:
503,344,165019,2,0,P|525:329|506:345,1,93.6000003570557,2|0,0:0|0:0,0:0:0:0:
285,331,165200,5,2,0:0:0:0:
285,331,165382,2,0,P|215:350|255:270,2,187.200000714111,0|8|0,3:0|0:0|0:0,0:0:0:0:
334,188,165928,1,0,0:0:0:0:
334,188,166110,2,0,P|404:169|364:249,2,187.200000714111,0|8|0,3:0|0:0|0:0,0:0:0:0:
130,88,166655,6,0,P|66:23|113:118,1,280.800001071167,4|0,3:1|0:0,0:0:0:0:
177,187,167019,2,0,P|212:197|182:178,1,93.6000003570557,8|0,0:0|0:0,0:0:0:0:
40,247,167200,1,0,0:0:0:0:
40,247,167382,1,0,0:0:0:0:
143,320,167564,6,0,P|177:316|144:313,1,93.6000003570557,0|0,3:0|0:0,0:0:0:0:
40,247,167746,2,0,P|66:268|45:242,1,93.6000003570557,8|0,0:0|0:0,0:0:0:0:
86,131,167928,2,0,P|90:165|93:132,1,93.6000003570557,2|0,0:0|0:0,0:0:0:0:
247,25,168110,6,2,B|316:43|316:43|319:86|347:114|386:106|413:71|413:71|508:97,1,280.800001071167,2|0,0:1|0:1,0:1:0:0:
451,195,168473,2,2,B|381:176|381:176|378:133|350:105|311:113|284:148|284:148|189:122,1,280.800001071167,2|0,1:1|0:1,0:1:0:0:
0,329,168837,6,2,B|96:303|96:303|100:243|139:205|193:215|231:264|231:264|362:228,1,396.00000377655,2|0,0:1|0:1,0:1:0:0:
328,237,169200,2,2,B|232:263|232:263|228:323|189:361|135:351|97:302|97:302|-34:338,1,396.00000377655,2|0,1:1|0:1,0:1:0:0:
62,162,169564,6,0,P|20:74|88:150,1,280.800001071167,4|0,1:0|0:0,0:0:0:0:
268,41,169928,2,0,P|237:55|265:37,1,93.6000003570557,8|0,0:0|0:0,0:0:0:0:
408,69,170110,1,0,0:0:0:0:
408,69,170291,1,0,0:0:0:0:
505,187,170473,6,0,P|526:158|499:170,1,93.6000003570557,0|0,3:0|0:0,0:0:0:0:
408,69,170655,2,0,P|402:33|391:61,1,93.6000003570557,8|0,0:0|0:0,0:0:0:0:
258,33,170837,2,0,P|228:12|241:38,1,93.6000003570557,2|0,0:0|0:0,0:0:0:0:
250,180,171019,6,0,P|220:234|287:201,2,187.200000714111,0|0|0,0:0|3:0|1:0,0:0:0:0:
81,315,171564,1,0,0:0:0:0:
81,315,171746,1,0,0:0:0:0:
81,315,171928,2,0,P|111:261|44:294,2,187.200000714111,0|8|0,3:0|0:0|1:0,0:0:0:0:
94,47,172473,6,0,P|33:74|105:53,1,280.800001071167,4|0,1:0|0:0,0:0:0:0:
224,14,172837,2,0,P|218:79|235:6,1,280.800001071167,8|0,0:0|0:0,0:0:0:0:
196,193,173200,1,0,0:0:0:0:
297,281,173382,6,0,P|323:259|295:268,1,93.6000003570557,0|0,3:0|0:0,0:0:0:0:
196,193,173564,2,0,P|174:167|183:195,1,93.6000003570557,8|0,0:0|0:0,0:0:0:0:
143,311,173746,2,0,P|117:332|144:323,1,93.6000003570557,2|0,0:0|0:0,0:0:0:0:
410,263,173928,6,0,P|468:219|397:221,2,187.200000714111,2|0|0,0:0|3:0|1:0,0:0:0:0:
267,382,174473,1,0,0:0:0:0:
267,382,174655,1,0,0:0:0:0:
267,382,174837,2,0,P|238:352|321:351,1,187.200000714111,0|8,3:0|0:0,0:0:0:0:
232,95,175201,2,0,P|203:124|286:125,1,187.200000714111,2|0,0:0|3:0,0:0:0:0:
287,139,175564,1,0,0:0:0:0:
379,137,175746,6,0,P|486:128|351:207,1,468.000001785278,12|0,0:0|0:0,0:0:0:0:
318,39,176292,6,0,P|339:26|320:51,1,93.6000003570557,0|0,3:0|0:0,0:0:0:0:
430,186,176473,2,0,P|453:193|422:195,1,93.6000003570557,8|0,0:0|0:0,0:0:0:0:
321,339,176655,2,0,P|313:363|311:331,1,93.6000003570557,2|0,0:0|0:0,0:0:0:0:
195,170,176837,5,0,0:1:0:0:
195,170,177019,2,0,P|254:226|173:244,2,187.200000714111,0|8|0,3:0|0:0|0:0,0:0:0:0:
60,33,177564,1,2,0:0:0:0:
60,33,177746,2,0,P|116:92|134:11,2,187.200000714111,0|8|0,3:0|0:0|0:0,0:0:0:0:
42,275,178291,6,0,P|-6:228|75:266,1,280.800001071167,4|0,3:1|0:0,0:0:0:0:
163,347,178655,2,0,P|132:359|159:340,1,93.6000003570557,8|0,0:0|0:0,0:0:0:0:
280,239,178837,1,0,0:0:0:0:
280,239,179019,1,0,0:0:0:0:
321,340,179201,6,0,P|346:327|322:335,1,93.6000003570557,0|0,3:0|0:0,0:0:0:0:
280,239,179382,2,0,P|278:219|277:235,1,93.6000003570557,8|0,0:0|0:0,0:0:0:0:
198,167,179564,2,0,P|175:151|194:168,1,93.6000003570557,2|0,0:0|0:0,0:0:0:0:
33,209,179746,6,2,B|68:147|68:147|110:155|144:135|147:95|120:60|120:60|170:-24,1,280.800001071167,2|0,0:1|0:1,0:1:0:0:
250,55,180110,2,2,B|213:117|213:117|171:109|136:129|134:169|161:204|161:204|111:289,1,280.800001071167,0|0,1:0|0:0,0:1:0:0:
461,344,180473,6,2,B|435:248|435:248|375:244|337:205|347:151|396:113|396:113|360:-18,1,396.00000377655,2|0,0:1|0:1,0:1:0:0:
369,16,180837,2,2,B|395:112|395:112|455:116|493:155|483:209|434:247|434:247|470:378,1,396.00000377655,2|0,1:1|0:1,0:1:0:0:
354,328,181200,5,2,0:0:0:0:
