osu file format v14

[General]
AudioFilename: audio.mp3
AudioLeadIn: 0
PreviewTime: 58222
Countdown: 0
SampleSet: Normal
StackLeniency: 0.7
Mode: 1
LetterboxInBreaks: 0
WidescreenStoryboard: 0

[Editor]
Bookmarks: 23404,35041,46677,56495,69950,93222,123019,146292,169564,181201
DistanceSpacing: 0.3
BeatDivisor: 8
GridSize: 32
TimelineZoom: 2.599999

[Metadata]
Title:Shape of the Sun
TitleUnicode:Shape of the Sun
Artist:Creo
ArtistUnicode:Creo
Creator:Jaltzu
Version:Inner Oni
Source:
Tags:electronic instrumental english dnb drum and & bass edm dance music newgrounds featured artist fa realy0_
BeatmapID:3005435
BeatmapSetID:1463070

[Difficulty]
HPDrainRate:6
CircleSize:2
OverallDifficulty:6
ApproachRate:10
SliderMultiplier:1.4
SliderTickRate:1

[Events]
//Background and Video events
0,0,"78619110_p0.jpg",0,-30
//Break Periods
//Storyboard Layer 0 (Background)
//Storyboard Layer 1 (Fail)
//Storyboard Layer 2 (Pass)
//Storyboard Layer 3 (Foreground)
//Storyboard Layer 4 (Overlay)
//Storyboard Sound Samples

[TimingPoints]
132,363.636363636364,4,1,0,20,1,0
132,-125,4,1,0,20,0,0
10707,-125,4,1,0,21,0,0
10738,-125,4,1,0,22,0,0
10768,-125,4,1,0,23,0,0
10798,-125,4,1,0,24,0,0
10828,-125,4,1,0,25,0,0
10859,-125,4,1,0,26,0,0
10889,-125,4,1,0,27,0,0
10919,-125,4,1,0,28,0,0
10950,-125,4,1,0,29,0,0
10980,-125,4,1,0,30,0,0
11010,-125,4,1,0,31,0,0
11041,-125,4,1,0,32,0,0
11071,-125,4,1,0,33,0,0
11101,-125,4,1,0,34,0,0
11132,-125,4,1,0,35,0,0
11162,-125,4,1,0,36,0,0
11192,-125,4,1,0,37,0,0
11222,-125,4,1,0,38,0,0
11253,-125,4,1,0,39,0,0
11283,-125,4,1,0,40,0,0
11313,-125,4,1,0,41,0,0
11344,-125,4,1,0,42,0,0
11374,-125,4,1,0,43,0,0
11404,-125,4,1,0,44,0,0
11435,-125,4,1,0,45,0,0
11465,-125,4,1,0,46,0,0
11495,-125,4,1,0,47,0,0
11525,-125,4,1,0,48,0,0
11556,-125,4,1,0,49,0,0
11586,-111.111111111111,4,1,0,50,0,0
31541,-110.497237569061,4,1,0,50,0,0
31722,-109.89010989011,4,1,0,51,0,0
31904,-109.289617486339,4,1,0,51,0,0
32086,-108.695652173913,4,1,0,52,0,0
32268,-108.108108108108,4,1,0,52,0,0
32450,-107.52688172043,4,1,0,53,0,0
33177,-105.263157894737,4,1,0,55,0,0
33541,-104.166666666667,4,1,0,56,0,0
33950,-103.092783505155,4,1,0,57,0,0
34313,-102.040816326531,4,1,0,58,0,0
34677,-101.010101010101,4,1,0,59,0,0
34995,-100,4,1,0,60,0,0
42268,-99.502487562189,4,1,0,60,0,0
42450,-99.2555831265509,4,1,0,60,0,0
42632,-99.009900990099,4,1,0,61,0,0
42813,-98.7654320987654,4,1,0,61,0,0
43177,-98.2800982800983,4,1,0,61,0,0
43359,-98.0392156862745,4,1,0,62,0,0
43541,-97.799511002445,4,1,0,62,0,0
43722,-97.5609756097561,4,1,0,62,0,0
44086,-97.0873786407767,4,1,0,63,0,0
44450,-96.6183574879227,4,1,0,63,0,0
44632,-96.3855421686747,4,1,0,63,0,0
44813,-96.1538461538461,4,1,0,64,0,0
45177,-95.6937799043062,4,1,0,64,0,0
45359,-95.4653937947494,4,1,0,64,0,0
45541,-95.2380952380952,4,1,0,65,0,0
45904,-94.7867298578199,4,1,0,65,0,0
46086,-94.5626477541371,4,1,0,65,0,0
46268,-94.3396226415094,4,1,0,66,0,0
46632,-93.8967136150235,4,1,0,66,0,0
46995,-93.4579439252336,4,1,0,67,0,0
47359,-93.0232558139535,4,1,0,67,0,0
47541,-92.8074245939675,4,1,0,67,0,0
47722,-92.5925925925926,4,1,0,68,0,0
47904,-92.378752886836,4,1,0,68,0,0
48086,-92.1658986175115,4,1,0,68,0,0
48268,-91.9540229885057,4,1,0,68,0,0
48450,-91.743119266055,4,1,0,69,0,0
48632,-91.533180778032,4,1,0,69,0,0
48995,-91.1161731207289,4,1,0,69,0,0
49177,-90.9090909090909,4,1,0,70,0,0
49359,-90.702947845805,4,1,0,70,0,0
49541,-90.4977375565611,4,1,0,70,0,0
49904,-90.0900900900901,4,1,0,71,0,0
50268,-89.6860986547085,4,1,0,71,0,0
50450,-89.4854586129754,4,1,0,71,0,0
50632,-89.2857142857143,4,1,0,72,0,0
50995,-88.8888888888889,4,1,0,72,0,0
51177,-88.6917960088692,4,1,0,72,0,0
51359,-88.4955752212389,4,1,0,73,0,0
51722,-88.1057268722467,4,1,0,73,0,0
51904,-87.9120879120879,4,1,0,73,0,0
52086,-87.719298245614,4,1,0,74,0,0
52268,-87.527352297593,4,1,0,74,0,0
52450,-87.3362445414847,4,1,0,74,0,0
52813,-86.9565217391304,4,1,0,75,0,0
52995,-86.7678958785249,4,1,0,75,0,0
53359,-86.3930885529158,4,1,0,75,0,0
53541,-86.2068965517241,4,1,0,76,0,0
53904,-85.8369098712446,4,1,0,76,0,0
54086,-85.6531049250535,4,1,0,76,0,0
54268,-85.4700854700855,4,1,0,77,0,0
54450,-85.2878464818763,4,1,0,77,0,0
54813,-84.9256900212314,4,1,0,77,0,0
54995,-84.7457627118644,4,1,0,78,0,0
55177,-84.5665961945032,4,1,0,78,0,0
55359,-84.3881856540084,4,1,0,78,0,0
55722,-84.0336134453781,4,1,0,79,0,0
56086,-83.6820083682008,4,1,0,79,0,0
56268,-83.5073068893528,4,1,0,79,0,0
56450,-83.3333333333333,4,1,0,80,0,0
56632,-82.6446280991736,4,1,0,72,0,0
56722,-82.3045267489712,4,1,0,73,0,0
56813,-81.9672131147541,4,1,0,74,0,0
56995,-81.3008130081301,4,1,0,76,0,0
57086,-80.9716599190283,4,1,0,77,0,0
57177,-80.6451612903226,4,1,0,78,0,0
57268,-80.3212851405623,4,1,0,79,0,0
57359,-80,4,1,0,80,0,0
57541,-79.3650793650794,4,1,0,82,0,0
57632,-79.0513833992095,4,1,0,83,0,0
57722,-78.7401574803149,4,1,0,84,0,0
57813,-78.4313725490196,4,1,0,85,0,0
57904,-78.125,4,1,0,86,0,0
58086,-77.5193798449612,4,1,0,88,0,0
58177,-77.2200772200772,4,1,0,89,0,0
58268,-76.9230769230769,4,1,0,100,0,0
58313,-76.9230769230769,4,1,0,100,0,1
64404,-47.6190476190476,4,1,0,100,0,1
64768,-76.9230769230769,4,1,0,100,0,1
69859,-58.8235294117647,4,1,0,100,0,1
70222,-76.9230769230769,4,1,0,100,0,1
76041,-47.6190476190476,4,1,0,100,0,1
76404,-76.9230769230769,4,1,0,100,0,1
80177,-77.8210116731517,4,1,0,100,0,1
80268,-78.7401574803149,4,1,0,100,0,1
80359,-79.6812749003984,4,1,0,100,0,1
80450,-80.6451612903226,4,1,0,100,0,1
80541,-81.6326530612245,4,1,0,100,0,1
80632,-82.6446280991736,4,1,0,100,0,1
80722,-83.6820083682008,4,1,0,100,0,1
80813,-84.7457627118644,4,1,0,100,0,1
80904,-85.8369098712446,4,1,0,100,0,1
80995,-86.9565217391304,4,1,0,100,0,1
81086,-88.1057268722467,4,1,0,100,0,1
81177,-89.2857142857143,4,1,0,100,0,1
81268,-90.4977375565611,4,1,0,100,0,1
81359,-91.743119266055,4,1,0,100,0,1
81450,-93.0232558139535,4,1,0,100,0,1
81541,-94.3396226415094,4,1,0,50,0,1
81586,-94.3396226415094,4,1,0,50,0,0
81904,-100,4,1,0,50,0,0
104132,365.853658536585,4,1,0,50,1,8
104132,-99.3936984395189,4,1,0,50,0,0
104269,-100.765820233777,4,1,0,50,0,0
104497,359.281437125748,4,1,0,50,1,8
104497,-103.401923275773,4,1,0,50,0,0
104856,371.517027863777,4,1,0,50,1,0
104856,-100.938730190774,4,1,0,50,0,0
105185,-102.543068088597,4,1,0,50,0,0
105599,370.37037037037,4,1,0,50,1,8
105599,-104.515050167224,4,1,0,50,0,0
105969,375,4,1,0,50,1,8
105969,-104.918032786885,4,1,0,50,0,0
106344,384.615384615385,4,1,0,50,1,0
106344,-104.004160166407,4,1,0,50,0,0
106488,-104.87676979549,4,1,0,50,0,0
106680,-105.764145954521,4,1,0,50,0,0
107113,392.156862745098,4,1,0,50,1,8
107113,-105.518624037143,4,1,0,50,0,0
107260,-106.439595529537,4,1,0,50,0,0
107456,-107.365256602963,4,1,0,50,0,0
107897,404.040404040404,4,1,0,50,1,0
107897,-106.067034365719,4,1,0,50,0,0
108301,397.350993377483,4,1,0,50,1,8
108301,-109.817702613661,4,1,0,50,0,0
108698,410.958904109589,4,1,0,50,1,8
108698,-108.143181572402,4,1,0,50,0,0
109108,447.761194029851,4,1,0,50,1,8
109108,-101.132686084142,4,1,0,50,0,0
109555,424.028268551237,4,1,0,50,1,0
109555,-108.845906849673,4,1,0,50,0,0
109979,451.127819548872,4,1,0,50,1,8
109979,-104.318798247444,4,1,0,50,0,0
110430,476.190476190476,4,1,0,50,1,8
110430,-100.796290696502,4,1,0,50,0,0
111322,-100.796290696502,4,1,0,60,0,0
111382,363.636363636364,4,1,0,60,1,0
118609,-99.502487562189,4,1,0,60,0,0
118791,-99.2555831265509,4,1,0,60,0,0
118973,-99.009900990099,4,1,0,61,0,0
119154,-98.7654320987654,4,1,0,61,0,0
119518,-98.2800982800983,4,1,0,61,0,0
119700,-98.0392156862745,4,1,0,62,0,0
119882,-97.799511002445,4,1,0,62,0,0
120063,-97.5609756097561,4,1,0,62,0,0
120427,-97.0873786407767,4,1,0,63,0,0
120791,-96.6183574879227,4,1,0,63,0,0
120973,-96.3855421686747,4,1,0,63,0,0
121154,-96.1538461538461,4,1,0,64,0,0
121518,-95.6937799043062,4,1,0,64,0,0
121700,-95.4653937947494,4,1,0,64,0,0
121882,-95.2380952380952,4,1,0,65,0,0
121972,-95.1248513674197,4,1,0,65,0,0
122245,-94.7867298578199,4,1,0,65,0,0
122427,-94.5626477541371,4,1,0,65,0,0
122609,-94.3396226415094,4,1,0,66,0,0
122973,-93.8967136150235,4,1,0,66,0,0
123336,-93.4579439252336,4,1,0,67,0,0
123700,-93.0232558139535,4,1,0,67,0,0
123882,-92.8074245939675,4,1,0,67,0,0
124063,-92.5925925925926,4,1,0,68,0,0
124245,-92.378752886836,4,1,0,68,0,0
124427,-92.1658986175115,4,1,0,68,0,0
124609,-91.9540229885057,4,1,0,68,0,0
124791,-91.743119266055,4,1,0,69,0,0
124973,-91.533180778032,4,1,0,69,0,0
125336,-91.1161731207289,4,1,0,69,0,0
125518,-90.9090909090909,4,1,0,70,0,0
125700,-90.702947845805,4,1,0,70,0,0
125882,-90.4977375565611,4,1,0,70,0,0
126245,-90.0900900900901,4,1,0,71,0,0
126609,-89.6860986547085,4,1,0,71,0,0
126791,-89.4854586129754,4,1,0,71,0,0
126973,-89.2857142857143,4,1,0,72,0,0
127336,-88.8888888888889,4,1,0,72,0,0
127518,-88.6917960088692,4,1,0,72,0,0
127700,-88.4955752212389,4,1,0,73,0,0
128063,-88.1057268722467,4,1,0,73,0,0
128245,-87.9120879120879,4,1,0,73,0,0
128427,-87.719298245614,4,1,0,74,0,0
128518,-87.6232201533406,4,1,0,74,0,0
128609,-87.527352297593,4,1,0,74,0,0
128791,-87.3362445414847,4,1,0,74,0,0
129154,-86.9565217391304,4,1,0,75,0,0
129336,-86.7678958785249,4,1,0,75,0,0
129700,-86.3930885529158,4,1,0,75,0,0
129882,-86.2068965517241,4,1,0,76,0,0
130245,-85.8369098712446,4,1,0,76,0,0
130427,-85.6531049250535,4,1,0,76,0,0
130609,-85.4700854700855,4,1,0,77,0,0
130791,-85.2878464818763,4,1,0,77,0,0
131154,-84.9256900212314,4,1,0,77,0,0
131336,-84.7457627118644,4,1,0,78,0,0
131518,-84.5665961945032,4,1,0,78,0,0
131700,-84.3881856540084,4,1,0,78,0,0
132063,-84.0336134453781,4,1,0,79,0,0
132427,-83.6820083682008,4,1,0,79,0,0
132609,-83.5073068893528,4,1,0,79,0,0
132791,-83.3333333333333,4,1,0,80,0,0
132973,-82.6446280991736,4,1,0,72,0,0
133063,-82.3045267489712,4,1,0,73,0,0
133154,-81.9672131147541,4,1,0,74,0,0
133336,-81.3008130081301,4,1,0,76,0,0
133427,-80.9716599190283,4,1,0,77,0,0
133518,-80.6451612903226,4,1,0,78,0,0
133609,-80.3212851405623,4,1,0,79,0,0
133700,-80,4,1,0,80,0,0
133882,-79.3650793650794,4,1,0,82,0,0
133973,-79.0513833992095,4,1,0,83,0,0
134063,-78.7401574803149,4,1,0,84,0,0
134154,-78.4313725490196,4,1,0,85,0,0
134245,-78.125,4,1,0,86,0,0
134427,-77.5193798449612,4,1,0,88,0,0
134518,-77.2200772200772,4,1,0,89,0,0
134609,-76.9230769230769,4,1,0,100,0,0
134654,-76.9230769230769,4,1,0,100,0,1
140745,-47.6190476190476,4,1,0,100,0,1
141109,-76.9230769230769,4,1,0,100,0,1
146200,-58.8235294117647,4,1,0,100,0,1
146563,-76.9230769230769,4,1,0,100,0,1
152382,-47.6190476190476,4,1,0,100,0,1
152745,-76.9230769230769,4,1,0,100,0,1
157927,-76.9230769230769,4,1,0,100,0,0
158200,-83.3333333333333,4,1,0,90,0,0
160745,-62.5,4,1,0,90,0,0
161109,-83.3333333333333,4,1,0,90,0,0
164018,-50,4,1,0,90,0,0
164382,-83.3333333333333,4,1,0,90,0,0
169472,-62.5,4,1,0,90,0,0
169836,-83.3333333333333,4,1,0,90,0,0
175654,-50,4,1,0,90,0,0
176018,-83.3333333333333,4,1,0,90,0,0
180972,-83.3333333333333,4,1,0,70,0,0
181154,-83.3333333333333,4,1,0,50,0,0

[HitObjects]
256,192,10677,12,0,11586,0:0:0:0:
256,192,11768,5,4,0:0:0:0:
256,192,12132,1,0,0:0:0:0:
256,192,12495,1,8,0:0:0:0:
256,192,12677,1,8,0:0:0:0:
256,192,12859,1,0,0:0:0:0:
256,192,13041,1,8,0:0:0:0:
256,192,13404,1,0,0:0:0:0:
256,192,14132,1,0,0:0:0:0:
256,192,14313,1,0,0:0:0:0:
256,192,14495,1,8,0:0:0:0:
256,192,14859,1,8,0:0:0:0:
256,192,15222,1,8,0:0:0:0:
256,192,15586,1,0,0:0:0:0:
256,192,15768,1,0,0:0:0:0:
256,192,16677,1,0,0:0:0:0:
256,192,16859,1,8,0:0:0:0:
256,192,17041,1,0,0:0:0:0:
256,192,17222,1,0,0:0:0:0:
256,192,17404,1,8,0:0:0:0:
256,192,17768,1,8,0:0:0:0:
256,192,18313,1,8,0:0:0:0:
256,192,18495,1,0,0:0:0:0:
256,192,18677,1,0,0:0:0:0:
256,192,18859,1,8,0:0:0:0:
256,192,19222,1,8,0:0:0:0:
256,192,19404,1,0,0:0:0:0:
256,192,19768,1,0,0:0:0:0:
256,192,19950,1,8,0:0:0:0:
256,192,20132,1,0,0:0:0:0:
256,192,20313,1,8,0:0:0:0:
256,192,20677,1,8,0:0:0:0:
256,192,20859,1,8,0:0:0:0:
256,192,24132,1,0,0:0:0:0:
256,192,24313,1,0,0:0:0:0:
256,192,24495,1,0,0:0:0:0:
256,192,24677,1,8,0:0:0:0:
256,192,25041,1,0,0:0:0:0:
256,192,25222,1,8,0:0:0:0:
256,192,25586,1,8,0:0:0:0:
256,192,25768,1,0,0:0:0:0:
256,192,26132,1,8,0:0:0:0:
256,192,26495,1,0,0:0:0:0:
256,192,26859,1,8,0:0:0:0:
256,192,27222,1,8,0:0:0:0:
256,192,27404,1,0,0:0:0:0:
256,192,27586,1,8,0:0:0:0:
256,192,27950,1,0,0:0:0:0:
256,192,28132,1,0,0:0:0:0:
256,192,28495,1,0,0:0:0:0:
256,192,28677,1,8,0:0:0:0:
256,192,28859,1,0,0:0:0:0:
256,192,29041,1,8,0:0:0:0:
256,192,29404,1,0,0:0:0:0:
256,192,29768,1,0,0:0:0:0:
256,192,29950,1,0,0:0:0:0:
256,192,30132,1,8,0:0:0:0:
256,192,30313,1,0,0:0:0:0:
256,192,30495,1,8,0:0:0:0:
256,192,30859,1,8,0:0:0:0:
256,192,31041,1,0,0:0:0:0:
256,192,31404,1,0,0:0:0:0:
256,192,31586,1,8,0:0:0:0:
256,192,31768,1,0,0:0:0:0:
256,192,31950,1,8,0:0:0:0:
256,192,32313,1,8,0:0:0:0:
256,192,32495,1,8,0:0:0:0:
256,192,33222,1,0,0:0:0:0:
256,192,33586,12,0,34859,0:0:0:0:
256,192,35041,5,4,0:0:0:0:
256,192,35404,1,8,0:0:0:0:
256,192,35768,1,8,0:0:0:0:
256,192,35950,1,0,0:0:0:0:
256,192,36132,1,8,0:0:0:0:
256,192,36313,1,0,0:0:0:0:
256,192,36495,1,8,0:0:0:0:
256,192,36677,1,0,0:0:0:0:
256,192,36859,1,0,0:0:0:0:
256,192,37041,1,8,0:0:0:0:
256,192,37404,1,0,0:0:0:0:
256,192,37586,1,0,0:0:0:0:
256,192,37768,1,8,0:0:0:0:
256,192,37950,1,0,0:0:0:0:
256,192,38313,1,8,0:0:0:0:
256,192,38677,1,8,0:0:0:0:
256,192,38859,1,0,0:0:0:0:
256,192,39041,1,8,0:0:0:0:
256,192,39404,1,0,0:0:0:0:
256,192,39586,1,0,0:0:0:0:
256,192,39768,1,8,0:0:0:0:
256,192,40132,1,8,0:0:0:0:
256,192,40313,1,0,0:0:0:0:
256,192,40495,1,0,0:0:0:0:
256,192,40677,1,8,0:0:0:0:
256,192,40859,1,0,0:0:0:0:
256,192,41222,1,8,0:0:0:0:
256,192,41586,1,8,0:0:0:0:
256,192,41768,1,0,0:0:0:0:
256,192,41950,1,8,0:0:0:0:
256,192,42313,1,0,0:0:0:0:
256,192,42495,1,0,0:0:0:0:
256,192,42677,1,8,0:0:0:0:
256,192,42859,1,0,0:0:0:0:
256,192,43222,1,0,0:0:0:0:
256,192,43404,1,8,0:0:0:0:
256,192,43586,1,8,0:0:0:0:
256,192,43768,1,0,0:0:0:0:
256,192,44132,1,8,0:0:0:0:
256,192,44495,1,8,0:0:0:0:
256,192,44677,1,0,0:0:0:0:
256,192,44859,1,8,0:0:0:0:
256,192,45222,1,0,0:0:0:0:
256,192,45404,1,0,0:0:0:0:
256,192,45586,1,8,0:0:0:0:
256,192,45950,1,8,0:0:0:0:
256,192,46132,1,0,0:0:0:0:
256,192,46313,1,8,0:0:0:0:
256,192,46677,1,0,0:0:0:0:
256,192,47041,1,8,0:0:0:0:
256,192,47404,1,8,0:0:0:0:
256,192,47586,1,0,0:0:0:0:
256,192,47768,1,8,0:0:0:0:
256,192,47950,1,8,0:0:0:0:
256,192,48132,1,0,0:0:0:0:
256,192,48313,1,0,0:0:0:0:
256,192,48495,1,8,0:0:0:0:
256,192,48677,1,0,0:0:0:0:
256,192,49041,1,0,0:0:0:0:
256,192,49222,1,8,0:0:0:0:
256,192,49404,1,0,0:0:0:0:
256,192,49586,1,0,0:0:0:0:
256,192,49950,1,8,0:0:0:0:
256,192,50313,1,8,0:0:0:0:
256,192,50495,1,0,0:0:0:0:
256,192,50677,1,8,0:0:0:0:
256,192,51041,1,0,0:0:0:0:
256,192,51222,1,0,0:0:0:0:
256,192,51404,1,8,0:0:0:0:
256,192,51768,1,8,0:0:0:0:
256,192,51950,1,0,0:0:0:0:
256,192,52132,1,0,0:0:0:0:
256,192,52313,1,8,0:0:0:0:
256,192,52495,1,0,0:0:0:0:
256,192,52859,1,8,0:0:0:0:
256,192,53041,1,8,0:0:0:0:
256,192,53404,1,0,0:0:0:0:
256,192,53586,1,8,0:0:0:0:
256,192,53950,1,8,0:0:0:0:
256,192,54132,1,0,0:0:0:0:
256,192,54313,1,8,0:0:0:0:
256,192,54495,1,8,0:0:0:0:
256,192,54859,1,0,0:0:0:0:
256,192,55041,1,8,0:0:0:0:
256,192,55222,1,0,0:0:0:0:
256,192,55404,1,0,0:0:0:0:
256,192,55768,1,8,0:0:0:0:
256,192,56132,1,8,0:0:0:0:
256,192,56313,1,0,0:0:0:0:
256,192,56495,1,8,0:0:0:0:
256,192,56677,1,0,0:0:0:0:
256,192,56768,1,0,0:0:0:0:
256,192,56859,1,8,0:0:0:0:
256,192,57041,1,0,0:0:0:0:
256,192,57132,1,0,0:0:0:0:
256,192,57222,1,0,0:0:0:0:
256,192,57313,1,0,0:0:0:0:
256,192,57404,1,8,0:0:0:0:
256,192,57586,1,0,0:0:0:0:
256,192,57677,1,0,0:0:0:0:
256,192,57768,1,0,0:0:0:0:
256,192,57859,1,0,0:0:0:0:
256,192,57950,1,8,0:0:0:0:
256,192,58132,1,8,0:0:0:0:
256,192,58222,1,8,0:0:0:0:
256,192,58313,5,4,0:0:0:0:
256,192,58677,1,8,0:0:0:0:
256,192,58859,1,8,0:0:0:0:
256,192,58950,1,0,0:0:0:0:
256,192,59041,1,8,0:0:0:0:
256,192,59132,1,8,0:0:0:0:
256,192,59222,1,8,0:0:0:0:
256,192,59313,1,0,0:0:0:0:
256,192,59404,1,8,0:0:0:0:
256,192,59586,1,0,0:0:0:0:
256,192,59677,1,8,0:0:0:0:
256,192,59768,1,0,0:0:0:0:
256,192,59950,1,0,0:0:0:0:
256,192,60041,1,0,0:0:0:0:
256,192,60132,1,8,0:0:0:0:
256,192,60313,1,0,0:0:0:0:
256,192,60495,1,8,0:0:0:0:
256,192,60586,1,0,0:0:0:0:
256,192,60677,1,0,0:0:0:0:
256,192,60768,1,0,0:0:0:0:
256,192,60859,1,8,0:0:0:0:
256,192,61041,1,0,0:0:0:0:
256,192,61222,1,0,0:0:0:0:
256,192,61586,1,8,0:0:0:0:
256,192,61768,1,0,0:0:0:0:
256,192,61859,1,0,0:0:0:0:
256,192,61950,1,8,0:0:0:0:
256,192,62041,1,8,0:0:0:0:
256,192,62132,1,0,0:0:0:0:
256,192,62313,1,8,0:0:0:0:
256,192,62495,1,0,0:0:0:0:
256,192,62586,1,8,0:0:0:0:
256,192,62677,1,8,0:0:0:0:
256,192,62768,1,8,0:0:0:0:
256,192,62859,1,0,0:0:0:0:
256,192,63041,1,8,0:0:0:0:
256,192,63222,1,0,0:0:0:0:
256,192,63313,1,0,0:0:0:0:
256,192,63404,1,8,0:0:0:0:
256,192,63495,1,8,0:0:0:0:
256,192,63586,1,0,0:0:0:0:
256,192,63677,1,0,0:0:0:0:
256,192,63768,1,8,0:0:0:0:
256,192,63859,1,0,0:0:0:0:
256,192,63950,1,8,0:0:0:0:
256,192,64132,1,0,0:0:0:0:
256,192,64495,1,12,0:0:0:0:
256,192,64859,1,0,0:0:0:0:
256,192,65041,1,0,0:0:0:0:
256,192,65132,1,0,0:0:0:0:
256,192,65222,1,8,0:0:0:0:
256,192,65404,1,0,0:0:0:0:
256,192,65586,1,8,0:0:0:0:
256,192,65677,1,0,0:0:0:0:
256,192,65768,1,0,0:0:0:0:
256,192,65859,1,0,0:0:0:0:
256,192,65950,1,8,0:0:0:0:
256,192,66132,1,0,0:0:0:0:
256,192,66313,1,8,0:0:0:0:
256,192,66404,1,8,0:0:0:0:
256,192,66495,1,0,0:0:0:0:
256,192,66586,1,0,0:0:0:0:
256,192,66677,1,8,0:0:0:0:
256,192,66859,1,0,0:0:0:0:
256,192,66950,1,8,0:0:0:0:
256,192,67041,1,0,0:0:0:0:
256,192,67404,1,8,0:0:0:0:
256,192,67586,1,0,0:0:0:0:
256,192,67677,1,0,0:0:0:0:
256,192,67768,1,8,0:0:0:0:
256,192,67859,1,8,0:0:0:0:
256,192,67950,1,0,0:0:0:0:
256,192,68041,1,0,0:0:0:0:
256,192,68132,1,8,0:0:0:0:
256,192,68313,1,0,0:0:0:0:
256,192,68495,1,8,0:0:0:0:
256,192,68586,1,0,0:0:0:0:
256,192,68677,1,0,0:0:0:0:
256,192,68768,1,0,0:0:0:0:
256,192,68859,1,8,0:0:0:0:
256,192,68950,1,0,0:0:0:0:
256,192,69041,1,0,0:0:0:0:
256,192,69132,1,0,0:0:0:0:
256,192,69222,1,8,0:0:0:0:
256,192,69313,1,8,0:0:0:0:
256,192,69404,1,0,0:0:0:0:
256,192,69495,1,0,0:0:0:0:
256,192,69586,1,8,0:0:0:0:
256,192,69950,5,4,0:0:0:0:
256,192,70313,1,8,0:0:0:0:
256,192,70495,1,8,0:0:0:0:
256,192,70586,1,8,0:0:0:0:
256,192,70677,1,0,0:0:0:0:
256,192,70768,1,8,0:0:0:0:
256,192,70859,1,0,0:0:0:0:
256,192,70950,1,0,0:0:0:0:
256,192,71041,1,8,0:0:0:0:
256,192,71222,1,8,0:0:0:0:
256,192,71313,1,0,0:0:0:0:
256,192,71404,1,8,0:0:0:0:
256,192,71586,1,0,0:0:0:0:
256,192,71677,1,0,0:0:0:0:
256,192,71768,1,8,0:0:0:0:
256,192,71950,1,0,0:0:0:0:
256,192,72132,1,8,0:0:0:0:
256,192,72222,1,8,0:0:0:0:
256,192,72313,1,0,0:0:0:0:
256,192,72404,1,8,0:0:0:0:
256,192,72495,1,8,0:0:0:0:
256,192,72677,1,0,0:0:0:0:
256,192,72859,1,0,0:0:0:0:
256,192,73222,1,8,0:0:0:0:
256,192,73404,1,8,0:0:0:0:
256,192,73495,1,8,0:0:0:0:
256,192,73586,1,0,0:0:0:0:
256,192,73677,1,8,0:0:0:0:
256,192,73768,1,0,0:0:0:0:
256,192,73950,1,8,0:0:0:0:
256,192,74132,1,0,0:0:0:0:
256,192,74222,1,0,0:0:0:0:
256,192,74313,1,8,0:0:0:0:
256,192,74404,1,8,0:0:0:0:
256,192,74495,1,0,0:0:0:0:
256,192,74677,1,8,0:0:0:0:
256,192,74859,1,8,0:0:0:0:
256,192,74950,1,8,0:0:0:0:
256,192,75041,1,0,0:0:0:0:
256,192,75132,1,8,0:0:0:0:
256,192,75222,1,0,0:0:0:0:
256,192,75313,1,8,0:0:0:0:
256,192,75404,1,8,0:0:0:0:
256,192,75495,1,0,0:0:0:0:
256,192,75586,1,8,0:0:0:0:
256,192,75768,1,0,0:0:0:0:
256,192,76132,1,12,0:0:0:0:
256,192,76495,1,8,0:0:0:0:
256,192,76677,1,0,0:0:0:0:
256,192,76768,1,8,0:0:0:0:
256,192,76859,1,8,0:0:0:0:
256,192,77041,1,0,0:0:0:0:
256,192,77222,1,8,0:0:0:0:
256,192,77313,1,8,0:0:0:0:
256,192,77404,1,0,0:0:0:0:
256,192,77495,1,0,0:0:0:0:
256,192,77586,1,8,0:0:0:0:
256,192,77768,1,0,0:0:0:0:
256,192,77950,1,0,0:0:0:0:
256,192,78041,1,0,0:0:0:0:
256,192,78132,1,8,0:0:0:0:
256,192,78222,1,0,0:0:0:0:
256,192,78313,1,8,0:0:0:0:
256,192,78495,1,0,0:0:0:0:
256,192,78586,1,8,0:0:0:0:
256,192,78677,1,0,0:0:0:0:
256,192,79041,1,8,0:0:0:0:
256,192,79222,1,0,0:0:0:0:
256,192,79313,1,8,0:0:0:0:
256,192,79404,1,8,0:0:0:0:
256,192,79495,1,8,0:0:0:0:
256,192,79586,1,0,0:0:0:0:
256,192,79677,1,0,0:0:0:0:
256,192,79768,1,8,0:0:0:0:
256,192,79950,1,0,0:0:0:0:
256,192,80132,1,8,0:0:0:0:
256,192,80222,1,0,0:0:0:0:
256,192,80313,1,0,0:0:0:0:
256,192,80404,1,0,0:0:0:0:
256,192,80495,1,8,0:0:0:0:
256,192,80586,1,0,0:0:0:0:
256,192,80677,1,0,0:0:0:0:
256,192,80768,1,0,0:0:0:0:
256,192,80859,1,8,0:0:0:0:
256,192,80950,1,8,0:0:0:0:
256,192,81041,1,0,0:0:0:0:
256,192,81132,1,0,0:0:0:0:
256,192,81222,1,8,0:0:0:0:
256,192,81313,1,0,0:0:0:0:
256,192,81404,1,8,0:0:0:0:
256,192,81495,1,8,0:0:0:0:
256,192,81586,1,4,0:0:0:0:
256,192,81950,5,0,0:0:0:0:
256,192,82313,1,8,0:0:0:0:
256,192,82495,1,8,0:0:0:0:
256,192,82677,1,0,0:0:0:0:
256,192,82859,1,0,0:0:0:0:
256,192,83041,1,8,0:0:0:0:
256,192,83222,1,8,0:0:0:0:
256,192,83404,1,0,0:0:0:0:
256,192,83768,1,8,0:0:0:0:
256,192,83859,1,8,0:0:0:0:
256,192,83950,1,0,0:0:0:0:
256,192,84132,1,0,0:0:0:0:
256,192,84313,1,8,0:0:0:0:
256,192,84495,1,0,0:0:0:0:
256,192,84677,1,8,0:0:0:0:
256,192,84859,1,0,0:0:0:0:
256,192,85222,1,8,0:0:0:0:
256,192,85404,1,8,0:0:0:0:
256,192,85586,1,0,0:0:0:0:
256,192,85768,1,0,0:0:0:0:
256,192,85950,1,8,0:0:0:0:
256,192,86132,1,0,0:0:0:0:
256,192,86313,1,8,0:0:0:0:
256,192,86677,1,8,0:0:0:0:
256,192,86768,1,8,0:0:0:0:
256,192,86859,1,0,0:0:0:0:
256,192,87041,1,8,0:0:0:0:
256,192,87222,1,0,0:0:0:0:
256,192,87404,1,0,0:0:0:0:
256,192,87586,1,8,0:0:0:0:
256,192,87768,1,0,0:0:0:0:
256,192,88132,1,8,0:0:0:0:
256,192,88313,1,8,0:0:0:0:
256,192,88495,1,0,0:0:0:0:
256,192,88677,1,8,0:0:0:0:
256,192,88859,1,8,0:0:0:0:
256,192,89041,1,0,0:0:0:0:
256,192,89222,1,8,0:0:0:0:
256,192,89586,1,8,0:0:0:0:
256,192,89677,1,8,0:0:0:0:
256,192,89768,1,0,0:0:0:0:
256,192,89950,1,0,0:0:0:0:
256,192,90132,1,8,0:0:0:0:
256,192,90313,1,8,0:0:0:0:
256,192,90495,1,0,0:0:0:0:
256,192,90677,1,0,0:0:0:0:
256,192,91041,1,8,0:0:0:0:
256,192,91404,1,0,0:0:0:0:
256,192,91586,1,0,0:0:0:0:
256,192,91768,1,8,0:0:0:0:
256,192,91950,1,8,0:0:0:0:
256,192,92132,1,0,0:0:0:0:
256,192,92495,1,8,0:0:0:0:
256,192,92586,1,8,0:0:0:0:
256,192,92677,1,0,0:0:0:0:
256,192,92859,1,0,0:0:0:0:
256,192,93041,1,8,0:0:0:0:
256,192,93222,5,4,0:0:0:0:
256,192,93586,1,0,0:0:0:0:
256,192,93950,1,8,0:0:0:0:
256,192,94132,1,8,0:0:0:0:
256,192,94313,1,0,0:0:0:0:
256,192,94495,1,8,0:0:0:0:
256,192,94677,1,8,0:0:0:0:
256,192,94859,1,0,0:0:0:0:
256,192,95041,1,8,0:0:0:0:
256,192,95404,1,8,0:0:0:0:
256,192,95495,1,0,0:0:0:0:
256,192,95586,1,0,0:0:0:0:
256,192,95768,1,0,0:0:0:0:
256,192,95950,1,0,0:0:0:0:
256,192,96132,1,8,0:0:0:0:
256,192,96313,1,8,0:0:0:0:
256,192,96495,1,0,0:0:0:0:
256,192,96859,1,8,0:0:0:0:
256,192,97041,1,0,0:0:0:0:
256,192,97222,1,0,0:0:0:0:
256,192,97404,1,8,0:0:0:0:
256,192,97586,1,8,0:0:0:0:
256,192,97768,1,0,0:0:0:0:
256,192,97950,1,8,0:0:0:0:
256,192,98313,1,8,0:0:0:0:
256,192,98404,1,0,0:0:0:0:
256,192,98495,1,0,0:0:0:0:
256,192,98677,1,0,0:0:0:0:
256,192,98859,1,0,0:0:0:0:
256,192,99041,1,8,0:0:0:0:
256,192,99222,1,0,0:0:0:0:
256,192,99404,1,0,0:0:0:0:
256,192,99768,1,8,0:0:0:0:
256,192,99950,1,8,0:0:0:0:
256,192,100132,1,0,0:0:0:0:
256,192,100313,1,0,0:0:0:0:
256,192,100495,1,8,0:0:0:0:
256,192,100677,1,0,0:0:0:0:
256,192,100859,1,8,0:0:0:0:
256,192,101222,1,8,0:0:0:0:
256,192,101313,1,0,0:0:0:0:
256,192,101404,1,0,0:0:0:0:
256,192,101586,1,0,0:0:0:0:
256,192,101768,1,8,0:0:0:0:
256,192,101950,1,8,0:0:0:0:
256,192,102132,1,0,0:0:0:0:
256,192,102313,1,0,0:0:0:0:
256,192,102677,1,8,0:0:0:0:
256,192,103041,1,0,0:0:0:0:
256,192,103222,1,0,0:0:0:0:
256,192,103404,1,8,0:0:0:0:
256,192,103586,1,8,0:0:0:0:
256,192,103768,1,0,0:0:0:0:
256,192,104132,1,8,0:0:0:0:
256,192,104314,1,0,0:0:0:0:
256,192,104497,1,0,0:0:0:0:
256,192,104856,5,8,0:0:0:0:
256,192,105227,1,0,0:0:0:0:
256,192,105599,1,8,0:0:0:0:
256,192,105969,1,0,0:0:0:0:
256,192,106344,1,0,0:0:0:0:
256,192,106536,1,8,0:0:0:0:
256,192,106728,1,0,0:0:0:0:
256,192,107113,1,8,0:0:0:0:
256,192,107309,1,8,0:0:0:0:
256,192,107505,1,0,0:0:0:0:
256,192,107897,1,0,0:0:0:0:
256,192,108301,1,0,0:0:0:0:
256,192,108698,1,8,0:0:0:0:
256,192,109108,1,0,0:0:0:0:
256,192,109555,1,8,0:0:0:0:
256,192,109979,1,0,0:0:0:0:
256,192,110430,1,0,0:0:0:0:
256,192,111382,5,4,0:0:0:0:
256,192,111745,1,8,0:0:0:0:
256,192,112109,1,8,0:0:0:0:
256,192,112291,1,0,0:0:0:0:
256,192,112472,1,8,0:0:0:0:
256,192,112654,1,0,0:0:0:0:
256,192,112836,1,8,0:0:0:0:
256,192,113018,1,8,0:0:0:0:
256,192,113200,1,0,0:0:0:0:
256,192,113382,1,8,0:0:0:0:
256,192,113745,1,8,0:0:0:0:
256,192,113927,1,0,0:0:0:0:
256,192,114109,1,8,0:0:0:0:
256,192,114291,1,0,0:0:0:0:
256,192,114654,1,8,0:0:0:0:
256,192,115018,1,8,0:0:0:0:
256,192,115200,1,0,0:0:0:0:
256,192,115382,1,8,0:0:0:0:
256,192,115745,1,0,0:0:0:0:
256,192,115927,1,0,0:0:0:0:
256,192,116109,1,8,0:0:0:0:
256,192,116472,1,8,0:0:0:0:
256,192,116654,1,0,0:0:0:0:
256,192,116836,1,8,0:0:0:0:
256,192,116927,1,8,0:0:0:0:
256,192,117018,1,8,0:0:0:0:
256,192,117200,1,0,0:0:0:0:
256,192,117563,1,8,0:0:0:0:
256,192,117927,1,8,0:0:0:0:
256,192,118109,1,0,0:0:0:0:
256,192,118291,1,8,0:0:0:0:
256,192,118654,1,0,0:0:0:0:
256,192,118836,1,0,0:0:0:0:
256,192,119018,1,8,0:0:0:0:
256,192,119200,1,8,0:0:0:0:
256,192,119563,1,0,0:0:0:0:
256,192,119745,1,8,0:0:0:0:
256,192,119927,1,0,0:0:0:0:
256,192,120109,1,0,0:0:0:0:
256,192,120472,1,8,0:0:0:0:
256,192,120836,1,8,0:0:0:0:
256,192,121018,1,0,0:0:0:0:
256,192,121200,1,8,0:0:0:0:
256,192,121563,1,0,0:0:0:0:
256,192,121745,1,0,0:0:0:0:
256,192,121927,1,8,0:0:0:0:
256,192,122018,1,8,0:0:0:0:
256,192,122291,1,8,0:0:0:0:
256,192,122472,1,0,0:0:0:0:
256,192,122654,1,8,0:0:0:0:
256,192,123018,1,0,0:0:0:0:
256,192,123382,1,8,0:0:0:0:
256,192,123745,1,8,0:0:0:0:
256,192,123927,1,0,0:0:0:0:
256,192,124109,1,8,0:0:0:0:
256,192,124291,1,8,0:0:0:0:
256,192,124472,1,8,0:0:0:0:
256,192,124654,1,0,0:0:0:0:
256,192,124836,1,8,0:0:0:0:
256,192,125018,1,0,0:0:0:0:
256,192,125382,1,0,0:0:0:0:
256,192,125563,1,8,0:0:0:0:
256,192,125745,1,0,0:0:0:0:
256,192,125927,1,0,0:0:0:0:
256,192,126291,1,8,0:0:0:0:
256,192,126654,1,8,0:0:0:0:
256,192,126836,1,0,0:0:0:0:
256,192,127018,1,8,0:0:0:0:
256,192,127382,1,0,0:0:0:0:
256,192,127563,1,0,0:0:0:0:
256,192,127745,1,8,0:0:0:0:
256,192,128109,1,8,0:0:0:0:
256,192,128291,1,0,0:0:0:0:
256,192,128472,1,0,0:0:0:0:
256,192,128563,1,0,0:0:0:0:
256,192,128654,1,8,0:0:0:0:
256,192,128836,1,0,0:0:0:0:
256,192,129200,1,8,0:0:0:0:
256,192,129382,1,8,0:0:0:0:
256,192,129745,1,0,0:0:0:0:
256,192,129927,1,8,0:0:0:0:
256,192,130291,1,8,0:0:0:0:
256,192,130472,1,0,0:0:0:0:
256,192,130654,1,8,0:0:0:0:
256,192,130836,1,0,0:0:0:0:
256,192,131200,1,0,0:0:0:0:
256,192,131382,1,8,0:0:0:0:
256,192,131563,1,0,0:0:0:0:
256,192,131745,1,0,0:0:0:0:
256,192,132109,1,8,0:0:0:0:
256,192,132473,1,8,0:0:0:0:
256,192,132654,1,0,0:0:0:0:
256,192,132836,1,8,0:0:0:0:
256,192,133018,1,0,0:0:0:0:
256,192,133109,1,0,0:0:0:0:
256,192,133200,1,8,0:0:0:0:
256,192,133382,1,0,0:0:0:0:
256,192,133473,1,0,0:0:0:0:
256,192,133563,1,0,0:0:0:0:
256,192,133654,1,0,0:0:0:0:
256,192,133745,1,8,0:0:0:0:
256,192,133927,1,0,0:0:0:0:
256,192,134018,1,0,0:0:0:0:
256,192,134109,1,0,0:0:0:0:
256,192,134200,1,0,0:0:0:0:
256,192,134291,1,8,0:0:0:0:
256,192,134473,1,8,0:0:0:0:
256,192,134563,1,8,0:0:0:0:
256,192,134654,5,4,0:0:0:0:
256,192,135018,1,8,0:0:0:0:
256,192,135200,1,8,0:0:0:0:
256,192,135291,1,8,0:0:0:0:
256,192,135382,1,0,0:0:0:0:
256,192,135472,1,8,0:0:0:0:
256,192,135563,1,8,0:0:0:0:
256,192,135654,1,0,0:0:0:0:
256,192,135745,1,8,0:0:0:0:
256,192,135927,1,0,0:0:0:0:
256,192,136018,1,8,0:0:0:0:
256,192,136109,1,0,0:0:0:0:
256,192,136291,1,0,0:0:0:0:
256,192,136382,1,0,0:0:0:0:
256,192,136472,1,8,0:0:0:0:
256,192,136654,1,0,0:0:0:0:
256,192,136836,1,8,0:0:0:0:
256,192,136927,1,8,0:0:0:0:
256,192,137018,1,0,0:0:0:0:
256,192,137109,1,0,0:0:0:0:
256,192,137200,1,8,0:0:0:0:
256,192,137382,1,0,0:0:0:0:
256,192,137563,1,0,0:0:0:0:
256,192,137927,1,8,0:0:0:0:
256,192,138109,1,8,0:0:0:0:
256,192,138200,1,0,0:0:0:0:
256,192,138291,1,8,0:0:0:0:
256,192,138382,1,0,0:0:0:0:
256,192,138472,1,0,0:0:0:0:
256,192,138654,1,8,0:0:0:0:
256,192,138836,1,8,0:0:0:0:
256,192,138927,1,8,0:0:0:0:
256,192,139018,1,0,0:0:0:0:
256,192,139109,1,8,0:0:0:0:
256,192,139200,1,0,0:0:0:0:
256,192,139382,1,8,0:0:0:0:
256,192,139563,1,8,0:0:0:0:
256,192,139654,1,0,0:0:0:0:
256,192,139745,1,8,0:0:0:0:
256,192,139836,1,8,0:0:0:0:
256,192,139927,1,0,0:0:0:0:
256,192,140018,1,0,0:0:0:0:
256,192,140109,1,8,0:0:0:0:
256,192,140200,1,0,0:0:0:0:
256,192,140291,1,8,0:0:0:0:
256,192,140472,1,0,0:0:0:0:
256,192,140836,1,12,0:0:0:0:
256,192,141200,1,0,0:0:0:0:
256,192,141382,1,0,0:0:0:0:
256,192,141472,1,0,0:0:0:0:
256,192,141563,1,8,0:0:0:0:
256,192,141745,1,0,0:0:0:0:
256,192,141927,1,0,0:0:0:0:
256,192,142018,1,8,0:0:0:0:
256,192,142109,1,0,0:0:0:0:
256,192,142200,1,0,0:0:0:0:
256,192,142291,1,8,0:0:0:0:
256,192,142472,1,0,0:0:0:0:
256,192,142654,1,0,0:0:0:0:
256,192,142745,1,8,0:0:0:0:
256,192,142836,1,0,0:0:0:0:
256,192,142927,1,8,0:0:0:0:
256,192,143018,1,8,0:0:0:0:
256,192,143200,1,0,0:0:0:0:
256,192,143291,1,8,0:0:0:0:
256,192,143382,1,0,0:0:0:0:
256,192,143745,1,8,0:0:0:0:
256,192,143927,1,0,0:0:0:0:
256,192,144018,1,8,0:0:0:0:
256,192,144109,1,8,0:0:0:0:
256,192,144200,1,0,0:0:0:0:
256,192,144291,1,0,0:0:0:0:
256,192,144382,1,0,0:0:0:0:
256,192,144472,1,8,0:0:0:0:
256,192,144654,1,0,0:0:0:0:
256,192,144836,1,8,0:0:0:0:
256,192,144927,1,0,0:0:0:0:
256,192,145018,1,0,0:0:0:0:
256,192,145109,1,8,0:0:0:0:
256,192,145200,1,8,0:0:0:0:
256,192,145291,1,0,0:0:0:0:
256,192,145382,1,0,0:0:0:0:
256,192,145472,1,8,0:0:0:0:
256,192,145563,1,8,0:0:0:0:
256,192,145654,1,8,0:0:0:0:
256,192,145745,1,0,0:0:0:0:
256,192,145836,1,0,0:0:0:0:
256,192,145927,1,8,0:0:0:0:
256,192,146291,5,4,0:0:0:0:
256,192,146654,1,8,0:0:0:0:
256,192,146836,1,8,0:0:0:0:
256,192,146927,1,0,0:0:0:0:
256,192,147018,1,8,0:0:0:0:
256,192,147109,1,8,0:0:0:0:
256,192,147200,1,0,0:0:0:0:
256,192,147291,1,0,0:0:0:0:
256,192,147382,1,8,0:0:0:0:
256,192,147563,1,8,0:0:0:0:
256,192,147654,1,0,0:0:0:0:
256,192,147745,1,8,0:0:0:0:
256,192,147927,1,0,0:0:0:0:
256,192,148018,1,0,0:0:0:0:
256,192,148109,1,8,0:0:0:0:
256,192,148291,1,0,0:0:0:0:
256,192,148472,1,8,0:0:0:0:
256,192,148563,1,0,0:0:0:0:
256,192,148654,1,0,0:0:0:0:
256,192,148745,1,8,0:0:0:0:
256,192,148836,1,8,0:0:0:0:
256,192,149018,1,0,0:0:0:0:
256,192,149200,1,0,0:0:0:0:
256,192,149563,1,8,0:0:0:0:
256,192,149745,1,8,0:0:0:0:
256,192,149836,1,0,0:0:0:0:
256,192,149927,1,0,0:0:0:0:
256,192,150018,1,8,0:0:0:0:
256,192,150109,1,0,0:0:0:0:
256,192,150291,1,8,0:0:0:0:
256,192,150472,1,0,0:0:0:0:
256,192,150563,1,8,0:0:0:0:
256,192,150654,1,8,0:0:0:0:
256,192,150745,1,0,0:0:0:0:
256,192,150836,1,0,0:0:0:0:
256,192,151018,1,8,0:0:0:0:
256,192,151200,1,8,0:0:0:0:
256,192,151291,1,0,0:0:0:0:
256,192,151382,1,0,0:0:0:0:
256,192,151472,1,8,0:0:0:0:
256,192,151563,1,0,0:0:0:0:
256,192,151654,1,0,0:0:0:0:
256,192,151745,1,8,0:0:0:0:
256,192,151836,1,0,0:0:0:0:
256,192,151927,1,8,0:0:0:0:
256,192,152109,1,0,0:0:0:0:
256,192,152472,1,12,0:0:0:0:
256,192,152836,1,8,0:0:0:0:
256,192,153018,1,0,0:0:0:0:
256,192,153109,1,8,0:0:0:0:
256,192,153200,1,8,0:0:0:0:
256,192,153382,1,0,0:0:0:0:
256,192,153563,1,8,0:0:0:0:
256,192,153654,1,0,0:0:0:0:
256,192,153745,1,0,0:0:0:0:
256,192,153836,1,0,0:0:0:0:
256,192,153927,1,8,0:0:0:0:
256,192,154109,1,0,0:0:0:0:
256,192,154291,1,0,0:0:0:0:
256,192,154382,1,8,0:0:0:0:
256,192,154472,1,0,0:0:0:0:
256,192,154563,1,0,0:0:0:0:
256,192,154654,1,8,0:0:0:0:
256,192,154836,1,0,0:0:0:0:
256,192,154927,1,8,0:0:0:0:
256,192,155018,1,0,0:0:0:0:
256,192,155382,1,8,0:0:0:0:
256,192,155563,1,8,0:0:0:0:
256,192,155654,1,0,0:0:0:0:
256,192,155745,1,8,0:0:0:0:
256,192,155836,1,8,0:0:0:0:
256,192,155927,1,0,0:0:0:0:
256,192,156018,1,8,0:0:0:0:
256,192,156109,1,8,0:0:0:0:
256,192,156291,1,0,0:0:0:0:
256,192,156472,1,8,0:0:0:0:
256,192,156563,1,0,0:0:0:0:
256,192,156654,1,0,0:0:0:0:
256,192,156745,1,8,0:0:0:0:
256,192,156836,1,8,0:0:0:0:
256,192,156927,1,0,0:0:0:0:
256,192,157018,1,0,0:0:0:0:
256,192,157109,1,8,0:0:0:0:
256,192,157200,1,8,0:0:0:0:
256,192,157291,1,8,0:0:0:0:
256,192,157382,1,0,0:0:0:0:
256,192,157472,1,0,0:0:0:0:
256,192,157563,1,8,0:0:0:0:
256,192,157654,1,0,0:0:0:0:
256,192,157745,1,8,0:0:0:0:
256,192,157836,1,8,0:0:0:0:
256,192,157927,1,4,0:0:0:0:
256,192,158291,5,8,0:0:0:0:
256,192,158472,1,0,0:0:0:0:
256,192,158563,1,0,0:0:0:0:
256,192,158654,1,0,0:0:0:0:
256,192,158836,1,0,0:0:0:0:
256,192,159018,1,8,0:0:0:0:
256,192,159109,1,8,0:0:0:0:
256,192,159200,1,0,0:0:0:0:
256,192,159382,1,8,0:0:0:0:
256,192,159563,1,0,0:0:0:0:
256,192,159745,1,8,0:0:0:0:
256,192,159836,1,8,0:0:0:0:
256,192,159927,1,0,0:0:0:0:
256,192,160018,1,8,0:0:0:0:
256,192,160109,1,0,0:0:0:0:
256,192,160291,1,0,0:0:0:0:
256,192,160472,1,8,0:0:0:0:
256,192,160654,1,0,0:0:0:0:
256,192,160836,1,4,0:0:0:0:
256,192,161200,1,8,0:0:0:0:
256,192,161382,1,0,0:0:0:0:
256,192,161563,1,0,0:0:0:0:
256,192,161654,1,0,0:0:0:0:
256,192,161745,1,0,0:0:0:0:
256,192,161927,1,8,0:0:0:0:
256,192,162109,1,0,0:0:0:0:
256,192,162200,1,8,0:0:0:0:
256,192,162291,1,0,0:0:0:0:
256,192,162472,1,0,0:0:0:0:
256,192,162563,1,0,0:0:0:0:
256,192,162654,1,8,0:0:0:0:
256,192,162836,1,0,0:0:0:0:
256,192,162927,1,0,0:0:0:0:
256,192,163018,1,8,0:0:0:0:
256,192,163109,1,8,0:0:0:0:
256,192,163200,1,0,0:0:0:0:
256,192,163291,1,0,0:0:0:0:
256,192,163382,1,8,0:0:0:0:
256,192,163745,1,0,0:0:0:0:
256,192,164109,1,12,0:0:0:0:
256,192,164472,1,8,0:0:0:0:
256,192,164654,1,0,0:0:0:0:
256,192,164836,1,8,0:0:0:0:
256,192,164927,1,8,0:0:0:0:
256,192,165018,1,8,0:0:0:0:
256,192,165200,1,0,0:0:0:0:
256,192,165382,1,0,0:0:0:0:
256,192,165472,1,0,0:0:0:0:
256,192,165563,1,8,0:0:0:0:
256,192,165745,1,0,0:0:0:0:
256,192,165927,1,8,0:0:0:0:
256,192,166018,1,8,0:0:0:0:
256,192,166109,1,0,0:0:0:0:
256,192,166200,1,0,0:0:0:0:
256,192,166291,1,8,0:0:0:0:
256,192,166472,1,0,0:0:0:0:
256,192,166654,1,0,0:0:0:0:
256,192,167018,1,8,0:0:0:0:
256,192,167200,1,0,0:0:0:0:
256,192,167291,1,0,0:0:0:0:
256,192,167382,1,0,0:0:0:0:
256,192,167563,1,0,0:0:0:0:
256,192,167745,1,8,0:0:0:0:
256,192,167927,1,0,0:0:0:0:
256,192,168109,1,8,0:0:0:0:
256,192,168200,1,0,0:0:0:0:
256,192,168291,1,0,0:0:0:0:
256,192,168382,1,0,0:0:0:0:
256,192,168472,1,8,0:0:0:0:
256,192,168563,1,0,0:0:0:0:
256,192,168654,1,0,0:0:0:0:
256,192,168745,1,0,0:0:0:0:
256,192,168836,1,8,0:0:0:0:
256,192,168927,1,8,0:0:0:0:
256,192,169018,1,0,0:0:0:0:
256,192,169109,1,0,0:0:0:0:
256,192,169200,1,8,0:0:0:0:
256,192,169563,5,4,0:0:0:0:
256,192,169927,1,8,0:0:0:0:
256,192,170109,1,0,0:0:0:0:
256,192,170200,1,0,0:0:0:0:
256,192,170291,1,0,0:0:0:0:
256,192,170472,1,0,0:0:0:0:
256,192,170654,1,8,0:0:0:0:
256,192,170745,1,8,0:0:0:0:
256,192,170836,1,0,0:0:0:0:
256,192,171018,1,8,0:0:0:0:
256,192,171200,1,0,0:0:0:0:
256,192,171291,1,0,0:0:0:0:
256,192,171382,1,8,0:0:0:0:
256,192,171563,1,0,0:0:0:0:
256,192,171745,1,8,0:0:0:0:
256,192,171836,1,8,0:0:0:0:
256,192,171927,1,0,0:0:0:0:
256,192,172018,1,8,0:0:0:0:
256,192,172109,1,8,0:0:0:0:
256,192,172291,1,0,0:0:0:0:
256,192,172472,1,0,0:0:0:0:
256,192,172836,1,8,0:0:0:0:
256,192,173018,1,0,0:0:0:0:
256,192,173200,1,8,0:0:0:0:
256,192,173291,1,8,0:0:0:0:
256,192,173382,1,0,0:0:0:0:
256,192,173563,1,8,0:0:0:0:
256,192,173745,1,0,0:0:0:0:
256,192,173836,1,0,0:0:0:0:
256,192,173927,1,0,0:0:0:0:
256,192,174109,1,0,0:0:0:0:
256,192,174291,1,8,0:0:0:0:
256,192,174472,1,8,0:0:0:0:
256,192,174563,1,0,0:0:0:0:
256,192,174654,1,8,0:0:0:0:
256,192,174745,1,8,0:0:0:0:
256,192,174836,1,0,0:0:0:0:
256,192,174927,1,0,0:0:0:0:
256,192,175018,1,8,0:0:0:0:
256,192,175382,1,0,0:0:0:0:
256,192,175745,1,12,0:0:0:0:
256,192,176109,1,8,0:0:0:0:
256,192,176291,1,0,0:0:0:0:
256,192,176472,1,8,0:0:0:0:
256,192,176563,1,8,0:0:0:0:
256,192,176654,1,0,0:0:0:0:
256,192,176836,1,0,0:0:0:0:
256,192,177018,1,0,0:0:0:0:
256,192,177109,1,0,0:0:0:0:
256,192,177200,1,8,0:0:0:0:
256,192,177382,1,0,0:0:0:0:
256,192,177563,1,8,0:0:0:0:
256,192,177654,1,0,0:0:0:0:
256,192,177745,1,0,0:0:0:0:
256,192,177836,1,0,0:0:0:0:
256,192,177927,1,8,0:0:0:0:
256,192,178109,1,0,0:0:0:0:
256,192,178291,1,0,0:0:0:0:
256,192,178654,1,8,0:0:0:0:
256,192,178836,1,0,0:0:0:0:
256,192,178927,1,0,0:0:0:0:
256,192,179018,1,0,0:0:0:0:
256,192,179200,1,0,0:0:0:0:
256,192,179382,1,8,0:0:0:0:
256,192,179563,1,0,0:0:0:0:
256,192,179745,1,8,0:0:0:0:
256,192,179836,1,0,0:0:0:0:
256,192,179927,1,0,0:0:0:0:
256,192,180018,1,0,0:0:0:0:
256,192,180109,1,8,0:0:0:0:
256,192,180200,1,0,0:0:0:0:
256,192,180291,1,0,0:0:0:0:
256,192,180382,1,0,0:0:0:0:
256,192,180472,1,8,0:0:0:0:
256,192,180563,1,8,0:0:0:0:
256,192,180654,1,0,0:0:0:0:
256,192,180745,1,0,0:0:0:0:
256,192,180836,1,8,0:0:0:0:
256,192,181018,1,8,0:0:0:0:
256,192,181109,1,8,0:0:0:0:
256,192,181200,5,4,0:0:0:0:
