osu file format v14

[General]
AudioFilename: audio.mp3
AudioLeadIn: 0
PreviewTime: 15603
Countdown: 0
SampleSet: Soft
StackLeniency: 0.7
Mode: 0
LetterboxInBreaks: 0
WidescreenStoryboard: 1

[Editor]
Bookmarks: 54313,69797,100765,131732,162700,193668,224636,240119,271087,302055
DistanceSpacing: 0.7
BeatDivisor: 3
GridSize: 8
TimelineZoom: 3.599998

[Metadata]
Title:Nautilus
TitleUnicode:Nautilus
Artist:Creo
ArtistUnicode:Creo
Creator:VINXIS
Version:Light Insane
Source:osu!
Tags:cheesecake mapper's mappers' guild mapper mappers featured artist
BeatmapID:2144333
BeatmapSetID:1015289

[Difficulty]
HPDrainRate:4
CircleSize:4
OverallDifficulty:7
ApproachRate:7.5
SliderMultiplier:2.1
SliderTickRate:1

[Events]
//Background and Video events
0,0,"bg.jpg",0,0
//Break Periods
2,131941,146325
2,194602,195922
2,198473,200519
2,202344,203180
2,206215,208261
2,210086,214793
2,217828,219874
//Storyboard Layer 0 (Background)
//Storyboard Layer 1 (Fail)
//Storyboard Layer 2 (Pass)
//Storyboard Layer 3 (Foreground)
//Storyboard Layer 4 (Overlay)
//Storyboard Sound Samples

[TimingPoints]
129,483.870967741935,4,2,69,100,1,0
854,-250,4,2,1,40,0,0
11741,-250,4,2,1,20,0,0
13677,-250,4,2,1,30,0,0
15612,-250,4,2,1,40,0,0
31096,-250,4,2,3,50,0,0
31821,-250,4,2,4,50,0,0
31822,-250,4,2,4,50,0,0
32548,-250,4,2,5,50,0,0
33032,-250,4,2,6,50,0,0
33757,-250,4,2,7,50,0,0
33758,-250,4,2,7,50,0,0
33999,-250,4,2,8,50,0,0
34482,-250,4,2,9,50,0,0
34483,-250,4,2,9,50,0,0
34967,-250,4,2,10,50,0,0
35692,-250,4,2,4,50,0,0
35693,-250,4,2,4,50,0,0
36419,-250,4,2,11,50,0,0
36903,-250,4,2,7,50,0,0
38596,-100,4,2,1,50,0,0
54322,-142.857142857143,4,2,1,50,0,0
62064,-117.647058823529,4,2,1,50,0,0
65450,-117.647058823529,4,2,1,60,0,0
65451,-117.647058823529,4,2,1,60,0,0
69806,-79.9999999999999,4,2,12,90,0,0
70289,-79.9999999999999,4,2,1,90,0,0
70290,-79.9999999999999,4,2,1,90,0,0
70774,-79.9999999999999,4,2,12,90,0,0
71741,-79.9999999999999,4,2,13,90,0,0
73435,-79.9999999999999,4,2,0,90,0,0
73677,-79.9999999999999,4,2,42,90,0,0
77548,-79.9999999999999,4,2,12,90,0,0
78031,-79.9999999999999,4,2,1,90,0,0
78032,-79.9999999999999,4,2,1,90,0,0
78516,-79.9999999999999,4,2,12,90,0,0
78999,-79.9999999999999,4,2,1,90,0,0
79483,-79.9999999999999,4,2,12,90,0,0
80934,-79.9999999999999,4,2,1,90,0,0
80935,-79.9999999999999,4,2,1,90,0,0
81419,-79.9999999999999,4,2,42,90,0,0
85290,-79.9999999999999,4,2,12,90,0,0
85773,-79.9999999999999,4,2,1,90,0,0
85774,-79.9999999999999,4,2,1,90,0,0
86258,-79.9999999999999,4,2,12,90,0,0
86741,-79.9999999999999,4,2,1,90,0,0
87225,-79.9999999999999,4,2,14,90,0,0
88193,-79.9999999999999,4,2,13,90,0,0
89161,-79.9999999999999,4,2,42,90,0,0
93032,-79.9999999999999,4,2,12,90,0,0
94482,-79.9999999999999,4,2,1,90,0,0
94483,-100,4,2,1,90,0,0
95935,-100,4,2,13,90,0,0
96903,-79.9999999999999,4,2,42,90,0,0
100774,-80,4,2,34,90,0,0
129806,-133.333333333333,4,2,1,90,0,0
147225,-181.818181818181,4,2,1,80,0,0
162709,-153.846153846153,4,2,96,80,0,0
193677,-222.22222222222,4,2,1,50,0,0
224645,-153.846153846153,4,2,1,50,0,0
232387,-125,4,2,1,50,0,0
239524,-100,4,2,1,60,0,0
240128,-79.9999999999999,4,2,12,90,0,0
240611,-79.9999999999999,4,2,1,90,0,0
240612,-79.9999999999999,4,2,1,90,0,0
241096,-79.9999999999999,4,2,12,90,0,0
242064,-79.9999999999999,4,2,13,90,0,0
243757,-79.9999999999999,4,2,0,90,0,0
243758,-79.9999999999999,4,2,0,90,0,0
243999,-79.9999999999999,4,2,42,90,0,0
247870,-79.9999999999999,4,2,12,90,0,0
249321,-79.9999999999999,4,2,1,90,0,0
249322,-79.9999999999999,4,2,1,90,0,0
249806,-79.9999999999999,4,2,12,90,0,0
251257,-79.9999999999999,4,2,1,90,0,0
251258,-79.9999999999999,4,2,1,90,0,0
251741,-79.9999999999999,4,2,42,90,0,0
255612,-79.9999999999999,4,2,12,90,0,0
256095,-79.9999999999999,4,2,1,90,0,0
256096,-79.9999999999999,4,2,1,90,0,0
256580,-79.9999999999999,4,2,12,90,0,0
257548,-79.9999999999999,4,2,14,90,0,0
258516,-79.9999999999999,4,2,13,90,0,0
259483,-79.9999999999999,4,2,42,90,0,0
263354,-79.9999999999999,4,2,12,90,0,0
264805,-79.9999999999999,4,2,1,90,0,0
264806,-79.9999999999999,4,2,1,90,0,0
266258,-79.9999999999999,4,2,13,90,0,0
267225,-79.9999999999999,4,2,42,90,0,0
271096,-79.9999999999999,4,2,34,90,0,1
300128,-133.333333333333,4,2,1,90,0,1
302063,-133.333333333333,4,2,1,100,0,1
302064,-25,4,2,1,100,0,0

[Colours]
Combo1 : 17,254,176
Combo2 : 173,255,95
Combo3 : 255,88,100
Combo4 : 255,94,55

[HitObjects]
60,132,15612,6,0,P|91:146|191:155,2,126,2|0|2,0:0|0:0|0:0,0:0:0:0:
27,58,17548,1,2,0:0:0:0:
485,58,19483,5,2,0:0:0:0:
452,252,23354,6,0,P|421:238|321:229,2,126,2|0|2,0:0|0:0|0:0,0:0:0:0:
485,326,25290,1,2,0:0:0:0:
485,326,27225,6,0,L|407:317,1,42,2|0,0:0|0:0,0:0:0:0:
477,237,27709,2,0,L|399:228,1,42,2|0,0:0|0:0,0:0:0:0:
366,293,28193,2,0,L|288:284,1,42,2|0,0:0|0:0,0:0:0:0:
358,204,28677,2,0,L|280:195,1,42,2|0,0:0|0:0,0:0:0:0:
247,260,29161,6,0,L|169:251,1,42,2|0,0:0|0:0,0:0:0:0:
239,171,29645,2,0,L|161:162,1,42,2|0,0:0|0:0,0:0:0:0:
128,227,30128,2,0,L|50:218,2,42,2|0|10,0:0|0:0|0:0,0:0:0:0:
322,187,31096,6,0,P|336:136|338:57,1,126,2|2,0:0|0:0,0:0:0:0:
338,63,32064,1,2,0:0:0:0:
411,4,32548,1,2,0:0:0:0:
480,69,33032,6,0,L|490:203,1,126,2|2,0:0|0:0,0:0:0:0:
504,215,33999,2,0,L|404:211,1,84,2|2,0:0|0:0,0:0:0:0:
272,304,34967,6,0,L|412:309,1,126,2|2,0:0|0:0,0:0:0:0:
397,309,35935,1,2,0:0:0:0:
467,368,36419,1,2,0:0:0:0:
489,280,36903,1,2,0:0:0:0:
182,88,38596,5,8,0:0:0:0:
182,88,38717,1,8,0:0:0:0:
182,88,38838,6,0,L|197:318,1,210,6|0,1:2|0:0,0:0:0:0:
249,362,39564,1,2,0:0:0:0:
114,361,40290,1,2,0:0:0:0:
114,361,40532,1,2,0:0:0:0:
114,361,41983,2,0,L|2:356,2,105,0|2|0,0:0|0:0|0:0,0:0:0:0:
205,324,42709,6,0,B|301:309|301:309|327:322|327:322|424:301,1,210,6|0,1:2|0:0,0:0:0:0:
481,328,43435,2,0,P|487:266|421:131,1,210,2|0,0:0|0:0,0:0:0:0:
401,64,44161,1,2,0:0:0:0:
344,240,44645,1,2,0:0:0:0:
157,34,46338,5,8,0:0:0:0:
157,34,46459,1,8,0:0:0:0:
157,34,46580,2,0,B|164:87|164:87|351:55,1,210,6|0,1:2|0:0,0:0:0:0:
406,74,47306,2,0,P|387:133|396:282,1,210,2|0,0:0|0:0,0:0:0:0:
339,340,48032,1,2,0:0:0:0:
339,340,48274,1,2,0:0:0:0:
171,189,49725,6,0,L|60:182,2,105,0|2|0,0:0|0:0|0:0,0:0:0:0:
230,126,50451,1,2,0:0:0:0:
296,208,51177,1,2,0:0:0:0:
370,133,51903,1,2,0:0:0:0:
370,133,52387,5,2,0:0:0:0:
108,136,53354,1,0,1:0:0:0:
59,64,53717,1,8,1:3:0:0:
59,64,53838,2,0,L|69:-23,2,52.5,8|4|4,0:0|0:3|0:3,0:0:0:0:
127,156,54322,6,0,P|122:209|101:324,1,146.999995513916,6|0,1:2|1:0,0:0:0:0:
249,157,55290,2,0,P|254:210|275:325,1,146.999995513916,2|0,1:2|1:0,0:0:0:0:
238,372,56016,1,0,0:0:0:0:
339,343,56258,6,0,L|426:351,1,73.4999977569581,2|0,1:2|0:0,0:0:0:0:
493,270,56741,2,0,L|346:256,1,146.999995513916,0|2,1:0|1:2,0:0:0:0:
346,256,57467,1,0,0:0:0:0:
304,187,57709,2,0,L|325:21,1,146.999995513916,0|2,1:0|1:2,0:0:0:0:
157,283,58677,5,0,1:0:0:0:
322,41,59161,2,0,L|304:187,1,146.999995513916,2|0,1:2|1:0,0:0:0:0:
256,274,59887,1,0,0:0:0:0:
157,283,60128,6,0,L|51:267,1,73.4999977569581,2|0,1:2|0:0,0:0:0:0:
174,203,60612,2,0,L|68:187,1,73.4999977569581,2|0,1:2|0:0,0:0:0:0:
46,124,61096,2,0,L|65:38,2,73.4999977569581,2|0|2,1:2|0:0|1:2,0:0:0:0:
3,216,61822,1,8,0:0:0:0:
3,216,61943,1,8,0:0:0:0:
3,216,62064,5,8,1:2:0:0:
251,259,62548,1,8,1:2:0:0:
9,122,63032,1,8,1:2:0:0:
257,79,63516,2,0,L|260:177,1,89.2500017023087,8|0,1:2|0:0,0:0:0:0:
220,245,63999,6,0,P|216:323|328:358,1,178.500003404617,8|8,1:2|1:2,0:0:0:0:
424,295,64967,2,0,P|428:217|316:182,1,178.500003404617,8|8,1:2|1:2,0:0:0:0:
89,353,65935,6,0,L|189:346,1,89.2500017023087,10|0,1:2|3:0,0:0:0:0:
175,263,66419,2,0,L|85:269,1,89.2500017023087,10|0,1:2|3:0,0:0:0:0:
31,202,66903,2,0,L|24:112,1,89.2500017023087,10|0,1:2|3:0,0:0:0:0:
111,100,67387,2,0,L|117:189,1,89.2500017023087,10|0,1:2|3:0,0:0:0:0:
185,241,67870,6,0,L|179:291,3,44.6250008511543,2|0|0|0,1:2|3:0|3:0|3:0,0:0:0:0:
262,186,68354,2,0,L|256:136,3,44.6250008511543,2|0|0|0,1:2|3:0|3:0|3:0,0:0:0:0:
347,237,68838,2,0,L|341:287,3,44.6250008511543,2|0|0|0,1:2|3:0|3:0|3:0,0:0:0:0:
424,182,69322,1,10,1:2:0:0:
424,182,69806,6,2,P|333:154|280:3,1,262.5,6|8,1:2|1:2,0:1:0:0:
63,149,70774,2,2,P|154:177|207:328,1,262.5,2|8,1:2|1:2,0:1:0:0:
117,291,71499,1,0,0:0:0:0:
230,341,71741,6,0,L|368:359,2,131.25,2|4|10,1:3|0:3|1:2,0:0:0:0:
215,112,72709,2,0,L|77:130,2,131.25,4|2|12,1:3|0:3|1:2,0:0:0:0:
363,92,73435,1,2,0:0:0:0:
241,99,73677,6,0,P|187:206|270:360,1,262.5,2|8,1:0|1:2,0:0:0:0:
388,331,74403,2,0,P|442:224|359:70,1,262.5,2|0,0:3|0:0,0:0:0:0:
313,147,75128,2,0,L|311:290,1,131.25,10|0,1:2|0:0,0:0:0:0:
251,354,75612,6,0,P|156:372|30:227,1,262.5,4|8,1:0|1:2,0:0:0:0:
11,145,76338,1,0,0:0:0:0:
161,103,76580,2,0,L|168:263,1,131.25,4|0,1:1|0:0,0:0:0:0:
166,234,76943,1,0,0:0:0:0:
166,234,77064,1,8,1:2:0:0:
262,327,77306,1,0,0:0:0:0:
428,283,77548,6,2,B|441:89|441:89|384:128,1,262.5,6|8,1:2|1:2,0:1:0:0:
256,48,78274,1,0,0:0:0:0:
127,127,78516,2,2,B|71:89|71:89|84:283,1,262.5,2|8,1:2|1:2,0:1:0:0:
500,219,79483,6,0,B|321:184|427:268|243:231,1,262.5,2|8,1:2|1:2,0:0:0:0:
145,275,80209,1,2,0:3:0:0:
191,130,80451,2,0,L|172:-7,2,131.25,2|0|8,1:1|0:0|1:2,0:0:0:0:
493,331,81419,6,0,P|486:224|335:166,1,262.5,2|8,1:1|1:2,0:0:0:0:
316,80,82145,1,2,0:3:0:0:
264,184,82387,2,0,P|269:256|283:332,1,131.25,0|0,1:2|0:0,0:0:0:0:
130,315,82870,2,0,P|140:250|144:184,1,131.25,10|0,1:2|0:0,0:0:0:0:
139,53,83354,6,0,B|185:109|185:109|396:97,1,262.5,8|8,1:1|1:2,0:0:0:0:
471,128,84080,1,0,0:0:0:0:
435,209,84322,2,0,L|259:178,1,131.25,4|0,1:1|3:0,0:0:0:0:
87,153,84806,1,8,1:2:0:0:
87,153,84927,2,0,P|62:246|74:335,1,131.25
62,280,85290,6,2,P|179:282|376:261,1,262.5,6|8,1:2|1:2,0:1:0:0:
322,45,86258,2,2,P|205:43|8:64,1,262.5,2|8,1:2|1:2,0:1:0:0:
0,170,86983,1,0,0:0:0:0:
111,237,87225,6,0,L|105:374,1,131.25,4|0,1:2|0:0,0:0:0:0:
209,236,87709,2,0,L|203:373,1,131.25,10|0,1:2|0:0,0:0:0:0:
302,356,88193,2,2,L|461:349,1,131.25,2|2,1:3|0:3,0:1:0:0:
298,259,88677,2,2,L|457:252,1,131.25,12|10,1:2|0:1,0:1:0:0:
496,298,89161,6,0,P|513:170|453:55,1,262.5,2|8,1:1|1:2,0:0:0:0:
288,90,89887,2,0,P|270:217|330:332,1,262.5,2|0,0:3|0:0,0:0:0:0:
407,283,90612,2,0,L|387:139,1,131.25,10|0,1:2|0:0,0:0:0:0:
413,44,91096,6,0,B|444:85|444:85|183:32,1,262.5,4|8,1:0|1:2,0:0:0:0:
153,1,91822,1,0,0:0:0:0:
127,118,92064,2,0,P|178:142|281:133,1,131.25,4|0,1:1|0:0,0:0:0:0:
251,142,92427,1,0,0:0:0:0:
251,142,92548,1,8,1:2:0:0:
360,200,92790,1,0,0:0:0:0:
235,160,93032,6,2,P|235:253|414:366,1,262.5,2|8,1:2|1:2,0:1:0:0:
455,363,93758,1,0,0:0:0:0:
504,278,93999,2,2,P|504:185|325:72,1,262.5,2|8,1:2|1:2,0:1:0:0:
141,67,94967,5,2,1:2:0:0:
61,115,95209,1,0,0:0:0:0:
60,22,95451,1,8,1:2:0:0:
141,67,95693,1,0,0:0:0:0:
112,202,95935,5,4,1:3:0:0:
243,240,96177,1,2,0:3:0:0:
281,108,96419,2,0,L|274:1,1,105,12|0,1:2|0:0,0:0:0:0:
129,107,96903,6,0,B|171:174|171:174|148:262|148:262|206:356,1,262.5,2|8,1:1|1:2,0:0:0:0:
243,248,97628,1,2,0:3:0:0:
344,282,97870,2,0,L|349:150,1,131.25,0|0,1:2|0:0,0:0:0:0:
457,150,98354,2,0,L|451:281,1,131.25,10|0,1:2|0:0,0:0:0:0:
377,372,98838,6,0,P|267:353|90:382,1,262.5,10|8,1:1|1:2,0:0:0:0:
16,77,99806,2,0,L|10:150,3,65.625,6|8|8|8,1:1|0:3|0:3|0:3,0:0:0:0:
105,85,100290,2,0,L|99:158,3,65.625,8|4|4|4,1:2|0:3|0:3|0:3,0:0:0:0:
196,29,100774,6,0,L|272:38,2,65.625,2|0|2,1:3|0:0|0:0,0:0:0:0:
162,8,101137,1,0,0:0:0:0:
162,8,101258,1,12,1:2:0:0:
311,119,101499,2,0,L|235:128,2,65.625,2|0|2,0:3|0:0|1:2,0:0:0:0:
344,86,101862,1,0,0:0:0:0:
344,86,101983,1,4,0:0:0:0:
435,73,102225,2,0,L|425:216,1,131.25,8|0,1:2|0:0,0:0:0:0:
322,319,102709,6,0,L|398:328,2,65.625,2|0|2,1:3|0:0|0:2,0:0:0:0:
291,293,103072,1,0,0:0:0:0:
291,293,103193,1,12,1:2:0:0:
165,318,103435,2,0,L|89:327,2,65.625,2|0|2,0:3|0:0|1:2,0:0:0:0:
205,295,103798,1,0,0:0:0:0:
205,295,103919,1,4,0:0:0:0:
245,214,104161,2,0,L|244:22,1,131.25,8|0,1:2|0:0,0:0:0:0:
163,0,104645,6,0,P|161:35|138:137,1,131.25,4|2,1:3|0:0,0:0:0:0:
140,128,105008,1,0,0:0:0:0:
140,128,105128,1,12,1:2:0:0:
40,174,105370,2,0,P|42:209|65:311,1,131.25,4|2,0:3|1:2,0:0:0:0:
63,302,105733,1,0,0:0:0:0:
63,302,105853,1,4,0:0:0:0:
0,382,106096,1,8,1:2:0:0:
0,382,106338,1,0,0:0:0:0:
190,259,106580,6,0,P|191:231|229:108,1,131.25,4|2,1:3|0:0,0:0:0:0:
216,131,106943,1,0,0:0:0:0:
216,131,107064,1,12,1:2:0:0:
442,30,107306,2,0,P|441:58|403:181,1,131.25,4|2,0:3|1:2,0:0:0:0:
415,157,107669,1,0,0:0:0:0:
415,157,107790,2,0,L|424:234,1,65.625,4|0,3:2|3:0,0:0:0:0:
332,152,108032,2,0,P|258:175|146:168,1,131.25,8|0,1:2|3:0,0:0:0:0:
175,167,108395,1,0,3:0:0:0:
146,154,108516,6,0,L|76:163,2,65.625,2|0|2,1:3|0:0|0:0,0:0:0:0:
171,115,108878,1,0,0:0:0:0:
171,115,108999,1,12,1:2:0:0:
247,8,109241,2,0,L|317:-1,2,65.625,2|0|2,0:3|0:0|1:2,0:0:0:0:
224,48,109603,1,0,0:0:0:0:
224,48,109724,1,4,0:0:0:0:
282,124,109967,2,0,L|264:303,1,131.25,8|0,1:2|0:0,0:0:0:0:
140,312,110451,6,0,L|147:377,2,65.625,2|0|2,1:3|0:0|0:0,0:0:0:0:
159,272,110814,1,0,0:0:0:0:
159,272,110935,1,12,1:2:0:0:
53,219,111177,2,0,L|60:153,2,65.625,2|0|2,0:3|0:0|1:2,0:0:0:0:
27,257,111540,1,0,0:0:0:0:
27,257,111661,1,4,0:0:0:0:
154,182,111903,2,0,B|210:179|210:179|225:186|225:186|283:180,1,131.25,8|0,1:2|0:0,0:0:0:0:
365,131,112387,6,0,P|360:97|373:-14,1,131.25,4|2,1:3|0:2,0:0:0:0:
368,0,112749,1,0,0:0:0:0:
368,0,112870,1,12,1:2:0:0:
467,142,113112,2,0,P|472:176|459:287,1,131.25,4|2,0:3|1:2,0:0:0:0:
464,273,113474,1,0,0:0:0:0:
464,273,113595,1,4,0:0:0:0:
402,345,113838,2,0,P|331:336|283:286,1,131.25,8|0,1:2|0:0,0:0:0:0:
167,137,114322,6,0,P|130:113|37:101,1,131.25,4|2,1:3|0:0,0:0:0:0:
45,99,114685,1,0,0:0:0:0:
45,99,114806,1,12,1:2:0:0:
0,306,115048,2,0,P|37:330|130:342,1,131.25,4|2,0:3|1:2,0:0:0:0:
121,343,115411,1,0,0:0:0:0:
121,343,115532,1,4,0:0:0:0:
177,239,115774,1,8,1:2:0:0:
165,347,116016,1,0,0:0:0:0:
146,216,116258,6,0,L|76:202,4,65.625,8|0|2|0|12,1:3|0:0|0:2|0:0|1:2,0:0:0:0:
191,371,116983,2,0,L|261:357,4,65.625,8|0|2|0|4,0:3|0:0|1:2|0:0|0:0,0:0:0:0:
81,283,117709,1,8,1:2:0:0:
202,280,117951,1,0,0:0:0:0:
323,277,118193,6,0,L|336:352,4,65.625,8|0|2|0|12,1:3|0:0|0:0|0:0|1:2,0:0:0:0:
247,175,118919,2,0,L|258:110,4,65.625,8|0|2|0|4,0:3|0:0|1:2|0:0|0:0,0:0:0:0:
338,24,119645,1,8,1:2:0:0:
196,31,119887,1,0,0:0:0:0:
54,38,120128,6,0,P|43:78|42:116,4,65.625,4|0|2|0|12,1:3|0:0|0:0|0:0|1:2,0:0:0:0:
136,150,120854,2,0,P|139:182|148:213,4,65.625,4|0|2|0|4,0:3|0:0|1:2|0:0|0:0,0:0:0:0:
276,201,121580,1,8,1:2:0:0:
419,160,121822,1,0,0:0:0:0:
512,276,122064,5,4,1:3:0:0:
512,276,122185,1,0,0:0:0:0:
512,276,122306,1,2,0:0:0:0:
433,324,122548,2,0,L|278:300,1,131.25,12|4,1:2|0:3,0:0:0:0:
260,237,122911,1,0,0:0:0:0:
260,237,123032,2,0,L|275:157,2,65.625,2|0|4,1:2|0:0|3:2,0:0:0:0:
224,312,123395,1,0,3:0:0:0:
224,312,123516,2,0,L|84:309,1,131.25,8|8,1:2|3:2,0:0:0:0:
44,244,123878,1,0,3:0:0:0:
44,244,123999,6,0,L|56:162,4,65.625,8|0|2|0|12,1:3|0:0|0:0|0:0|1:2,0:0:0:0:
181,239,124725,2,0,L|169:157,4,65.625,8|0|2|0|4,0:3|0:0|1:2|0:0|0:0,0:0:0:0:
270,288,125451,1,8,1:2:0:0:
270,288,125572,1,0,0:0:0:0:
270,288,125693,1,0,0:0:0:0:
331,215,125935,6,0,L|401:226,4,65.625,8|0|2|0|12,1:3|0:0|0:0|0:0|1:2,0:0:0:0:
237,137,126661,1,8,0:3:0:0:
237,137,126782,1,0,0:0:0:0:
237,137,126903,2,0,L|234:69,3,65.625,2|0|4|0,1:2|0:0|0:0|0:0,0:0:0:0:
143,138,127387,2,0,L|140:70,3,65.625,8|0|0|0,1:2|0:0|0:0|0:0,0:0:0:0:
73,197,127870,6,0,P|14:212|-9:214,4,65.625,4|0|2|0|12,1:3|0:0|0:0|0:0|1:2,0:0:0:0:
164,258,128596,2,0,P|196:263|227:273,4,65.625,4|0|2|0|4,0:3|0:0|1:2|0:0|0:0,0:0:0:0:
50,320,129322,1,8,1:2:0:0:
50,320,129443,1,0,0:0:0:0:
50,320,129564,1,0,0:0:0:0:
78,208,129806,5,2,1:2:0:0:
132,117,130290,1,2,1:2:0:0:
196,248,130774,1,2,1:2:0:0:
275,80,131258,1,8,1:2:0:0:
340,309,131741,5,6,1:2:0:0:
467,94,147225,6,0,L|454:3,2,77.0000023498536,2|0|0,0:0|0:0|0:0,0:0:0:0:
373,117,148193,2,0,L|360:26,2,77.0000023498536,0|0|0,3:0|0:0|0:0,0:0:0:0:
279,140,149161,2,0,L|266:49,2,77.0000023498536,2|0|0,0:0|0:0|0:0,0:0:0:0:
185,163,150128,2,0,L|172:72,2,77.0000023498536,0|0|0,3:0|0:0|0:0,0:0:0:0:
139,237,151096,6,0,P|94:252|51:251,2,77.0000023498536,2|0|0,0:0|0:0|0:0,0:0:0:0:
146,146,152064,1,0,3:0:0:0:
146,146,152387,1,0,0:0:0:0:
146,146,152709,1,0,0:0:0:0:
343,186,153032,2,0,P|298:201|255:200,2,77.0000023498536,2|0|0,0:0|0:0|0:0,0:0:0:0:
350,95,153999,1,0,3:0:0:0:
350,95,154322,1,0,0:0:0:0:
350,95,154645,1,0,0:0:0:0:
246,136,154967,6,0,B|234:226,2,77.0000023498536,2|0|0,0:0|0:0|0:0,0:0:0:0:
199,56,155935,1,0,3:0:0:0:
316,75,156258,1,0,0:0:0:0:
246,136,156580,1,0,0:0:0:0:
375,206,156903,2,0,B|387:116,2,77.0000023498536,2|0|0,0:0|0:0|0:0,0:0:0:0:
422,286,157871,1,0,3:0:0:0:
305,267,158194,1,0,0:0:0:0:
375,206,158516,1,0,0:0:0:0:
305,267,158838,5,2,0:0:0:0:
231,332,159161,1,0,0:0:0:0:
206,227,159483,1,0,0:0:0:0:
380,201,159806,1,0,3:0:0:0:
454,266,160129,1,0,0:0:0:0:
479,161,160451,1,0,0:0:0:0:
303,141,160774,1,2,0:0:0:0:
229,206,161097,1,0,0:0:0:0:
204,101,161419,1,0,0:0:0:0:
378,75,161741,1,2,1:2:0:0:
378,75,162709,6,0,L|383:127,2,45.4999979171754,2|0|0,1:1|0:0|0:0,0:0:0:0:
298,27,163193,1,10,1:2:0:0:
252,30,163354,1,0,0:0:0:0:
207,34,163516,1,0,0:0:0:0:
161,37,163677,2,0,L|156:89,2,45.4999979171754,2|0|0,1:1|0:0|0:0,0:0:0:0:
195,177,164161,1,12,1:2:0:0:
240,180,164322,1,0,0:0:0:0:
285,184,164484,1,0,0:0:0:0:
332,187,164645,6,0,L|337:239,2,45.4999979171754,2|0|0,1:1|0:0|0:0,0:0:0:0:
416,136,165128,1,10,1:2:0:0:
419,181,165289,1,0,0:0:0:0:
423,226,165451,1,0,0:0:0:0:
426,273,165612,2,0,L|478:278,2,45.4999979171754,2|0|0,1:1|0:0|0:0,0:0:0:0:
321,243,166096,1,12,1:2:0:0:
317,288,166257,1,0,0:0:0:0:
313,333,166419,1,0,0:0:0:0:
311,380,166580,6,0,L|259:385,2,45.4999979171754,4|0|0,1:1|0:0|0:0,0:0:0:0:
186,293,167064,2,0,L|238:298,2,45.4999979171754,10|0|0,1:2|0:0|0:0,0:0:0:0:
161,379,167548,2,0,L|109:384,2,45.4999979171754,4|0|0,1:1|0:0|0:0,0:0:0:0:
36,292,168032,2,0,L|88:297,2,45.4999979171754,12|0|0,1:2|0:0|0:0,0:0:0:0:
133,222,168516,6,0,L|137:157,2,45.4999979171754,4|0|0,1:1|0:0|0:0,0:0:0:0:
223,177,168999,2,0,L|227:112,2,45.4999979171754,10|0|0,1:2|0:0|0:0,0:0:0:0:
140,90,169483,2,0,L|144:25,2,45.4999979171754,4|0|0,1:1|0:0|0:0,0:0:0:0:
230,45,169967,2,0,L|234:-20,2,45.4999979171754,4|0|0,1:2|0:0|0:0,0:0:0:0:
332,50,170451,6,0,L|385:53,2,45.4999979171754,2|0|0,1:3|0:0|0:0,0:0:0:0:
300,138,170935,1,10,1:2:0:0:
306,182,171096,1,0,0:0:0:0:
313,227,171258,1,0,0:0:0:0:
320,272,171419,2,0,L|331:331,2,45.4999979171754,2|0|0,1:3|0:0|0:0,0:0:0:0:
444,302,171903,1,12,1:2:0:0:
437,257,172064,1,0,0:0:0:0:
430,212,172226,1,0,0:0:0:0:
423,167,172387,6,0,L|412:108,2,45.4999979171754,2|0|0,1:3|0:0|0:0,0:0:0:0:
337,82,172870,1,10,1:2:0:0:
293,75,173031,1,0,0:0:0:0:
248,68,173193,1,0,0:0:0:0:
202,61,173354,2,0,L|157:53,2,45.4999979171754,2|0|0,1:3|0:0|0:0,0:0:0:0:
99,112,173838,1,12,1:2:0:0:
105,156,173999,1,0,0:0:0:0:
112,201,174161,1,0,0:0:0:0:
119,246,174322,6,0,L|129:304,2,45.4999979171754,4|0|0,1:3|0:0|0:0,0:0:0:0:
210,239,174806,2,0,L|202:194,2,45.4999979171754,10|0|0,1:2|0:0|0:0,0:0:0:0:
301,226,175290,2,0,L|311:284,2,45.4999979171754,4|0|0,1:3|0:0|0:0,0:0:0:0:
392,219,175774,2,0,L|384:174,2,45.4999979171754,12|0|0,1:2|0:0|0:0,0:0:0:0:
392,322,176258,6,0,L|381:380,2,45.4999979171754,4|0|0,1:3|0:0|0:0,0:0:0:0:
301,315,176742,2,0,L|308:270,2,45.4999979171754,10|0|0,1:2|0:0|0:0,0:0:0:0:
210,302,177226,2,0,L|199:360,2,45.4999979171754,4|0|0,1:3|0:0|0:0,0:0:0:0:
119,295,177710,2,0,L|126:250,2,45.4999979171754,12|0|0,1:2|0:0|0:0,0:0:0:0:
39,130,178193,5,2,1:1:0:0:
84,124,178354,1,0,0:0:0:0:
129,125,178515,1,0,0:0:0:0:
173,136,178676,1,10,1:2:0:0:
212,158,178838,1,0,0:0:0:0:
248,187,178999,1,0,0:0:0:0:
287,210,179160,1,2,1:1:0:0:
331,219,179322,1,0,0:0:0:0:
377,219,179483,1,0,0:0:0:0:
422,212,179645,2,0,L|433:149,2,45.4999979171754,12|0|0,1:2|0:0|0:0,0:0:0:0:
334,127,180128,5,2,1:1:0:0:
302,94,180289,1,0,0:0:0:0:
271,61,180450,1,0,0:0:0:0:
240,28,180611,1,10,1:2:0:0:
244,73,180773,1,0,0:0:0:0:
249,118,180934,1,0,0:0:0:0:
253,163,181095,1,2,1:1:0:0:
258,209,181257,1,0,0:0:0:0:
263,254,181418,1,0,0:0:0:0:
267,299,181580,2,0,L|275:363,2,45.4999979171754,12|0|0,1:2|0:0|0:0,0:0:0:0:
340,160,182064,5,4,1:1:0:0:
297,145,182225,1,0,0:0:0:0:
252,141,182386,1,0,0:0:0:0:
207,146,182547,1,10,1:2:0:0:
164,161,182709,1,0,0:0:0:0:
125,184,182870,1,0,0:0:0:0:
92,215,183031,1,4,1:1:0:0:
66,252,183193,1,0,0:0:0:0:
49,294,183354,1,0,0:0:0:0:
41,339,183516,2,0,L|42:392,2,45.4999979171754,12|0|0,1:2|0:0|0:0,0:0:0:0:
148,362,183999,5,4,1:1:0:0:
160,318,184160,1,0,0:0:0:0:
172,274,184321,1,0,0:0:0:0:
184,230,184482,1,10,1:2:0:0:
146,206,184644,1,0,0:0:0:0:
108,181,184805,1,0,0:0:0:0:
70,156,184966,1,4,1:1:0:0:
86,114,185128,1,0,0:0:0:0:
103,72,185289,1,0,0:0:0:0:
119,29,185451,2,0,L|167:36,2,45.4999979171754,4|0|0,1:2|0:0|0:0,0:0:0:0:
70,156,185935,5,2,1:3:0:0:
115,154,186096,1,0,0:0:0:0:
160,152,186257,1,0,0:0:0:0:
206,150,186418,1,10,1:2:0:0:
251,148,186580,1,0,0:0:0:0:
297,146,186741,1,0,0:0:0:0:
342,145,186902,1,2,1:3:0:0:
388,143,187064,1,0,0:0:0:0:
433,141,187225,1,0,0:0:0:0:
479,139,187387,2,0,L|475:203,2,45.4999979171754,12|0|0,1:2|0:0|0:0,0:0:0:0:
393,243,187870,5,2,1:3:0:0:
364,207,188031,1,0,0:0:0:0:
327,181,188192,1,0,0:0:0:0:
284,166,188353,1,10,1:2:0:0:
239,164,188515,1,0,0:0:0:0:
195,173,188676,1,0,0:0:0:0:
155,195,188837,1,2,1:3:0:0:
123,227,188999,1,0,0:0:0:0:
101,267,189160,1,0,0:0:0:0:
90,311,189322,2,0,L|95:367,2,45.4999979171754,12|0|0,1:2|0:0|0:0,0:0:0:0:
75,160,189806,5,4,1:3:0:0:
101,196,189967,1,0,0:0:0:0:
129,231,190128,1,0,0:0:0:0:
174,224,190289,1,10,1:2:0:0:
219,217,190451,1,0,0:0:0:0:
264,210,190612,1,0,0:0:0:0:
309,203,190773,1,4,1:3:0:0:
354,195,190935,1,0,0:0:0:0:
399,188,191096,1,0,0:0:0:0:
444,181,191258,2,0,L|437:115,2,45.4999979171754,12|0|0,1:2|0:0|0:0,0:0:0:0:
411,278,191741,5,4,1:3:0:0:
302,293,192225,1,2,1:2:0:0:
192,273,192709,1,4,1:3:0:0:
99,214,193193,1,12,1:2:0:0:
70,100,193677,6,0,L|61:27,2,70.8749978370667,2|0|0,0:0|0:0|0:0,0:0:0:0:
351,199,196822,5,0,0:0:0:0:
351,199,197064,2,0,L|359:254,1,47.2499985580445,2|0,0:0|0:0,0:0:0:0:
421,296,197548,2,0,L|500:280,2,70.8749978370667,2|0|0,0:0|0:0|0:0,0:0:0:0:
425,290,201419,6,0,L|439:215,2,70.8749978370667,2|0|0,0:0|0:0|0:0,0:0:0:0:
15,289,204080,6,0,L|31:189,2,94.499997116089,2|2|2,0:0|0:0|0:0,0:0:0:0:
102,302,205290,2,0,L|114:221,2,70.8749978370667,2|0|0,0:0|0:0|0:0,0:0:0:0:
380,143,209161,6,0,L|367:62,2,70.8749978370667,2|0|0,0:0|0:0|0:0,0:0:0:0:
497,289,215693,6,0,L|481:189,2,94.499997116089,2|2|2,0:0|0:0|0:0,0:0:0:0:
410,302,216903,2,0,L|397:221,2,70.8749978370667,2|0|0,0:0|0:0|0:0,0:0:0:0:
256,192,220774,12,8,224161,0:0:0:0:
262,358,224645,6,0,L|113:348,1,136.499993751526,4|0,1:2|3:0,0:0:0:0:
62,287,225370,1,0,0:0:0:0:
62,287,225612,2,0,P|56:231|73:151,1,136.499993751526,0|0,0:0|3:0,0:0:0:0:
168,176,226338,1,0,0:0:0:0:
168,176,226580,2,0,P|174:120|157:40,1,136.499993751526,0|0,0:0|3:0,0:0:0:0:
245,4,227306,1,0,0:0:0:0:
245,4,227548,2,0,L|390:16,1,136.499993751526,0|0,0:0|3:0,0:0:0:0:
427,103,228274,1,0,0:0:0:0:
427,103,228516,6,0,L|282:115,1,136.499993751526,2|0,1:2|3:0,0:0:0:0:
229,191,229241,1,0,0:0:0:0:
229,191,229483,2,0,L|84:179,1,136.499993751526,0|0,0:0|3:0,0:0:0:0:
12,227,230209,1,0,0:0:0:0:
12,227,230451,2,0,P|15:285|58:367,1,136.499993751526,0|0,0:0|3:0,0:0:0:0:
128,309,231177,1,0,0:0:0:0:
128,309,231419,2,0,P|176:325|222:321,1,68.2499968757631
193,326,231782,1,8,0:0:0:0:
193,326,231903,1,0,3:0:0:0:
306,350,232145,1,8,0:0:0:0:
306,350,232266,1,8,0:0:0:0:
306,350,232387,6,0,P|355:331|483:327,1,168,2|0,1:2|3:0,0:0:0:0:
392,228,233112,1,0,0:0:0:0:
478,106,233354,2,0,P|429:125|301:129,1,168,2|0,1:2|3:0,0:0:0:0:
260,32,234080,1,0,0:0:0:0:
195,147,234322,6,0,L|224:330,1,168,2|0,1:2|3:0,0:0:0:0:
292,372,235048,1,0,0:0:0:0:
125,331,235290,2,0,L|96:148,1,168,2|0,1:2|3:0,0:0:0:0:
28,106,236016,1,0,0:0:0:0:
96,40,236258,5,2,1:2:0:0:
31,252,236741,1,2,1:2:0:0:
192,39,237225,1,2,1:2:0:0:
257,251,237708,1,2,1:2:0:0:
404,42,238193,6,0,L|413:90,3,42,2|0|0|0,1:2|3:0|3:0|3:0,0:0:0:0:
321,57,238677,2,0,L|330:105,3,42,2|0|0|0,1:2|3:0|3:0|3:0,0:0:0:0:
402,303,239524,5,8,0:0:0:0:
402,303,239645,2,0,L|392:390,2,52.5,0|8|4,1:0|0:3|0:3,0:0:0:0:
459,220,240128,6,2,B|261:219|261:219|319:253,1,262.5,6|8,1:2|1:2,0:1:0:0:
53,353,241096,2,2,B|251:354|251:354|193:320,1,262.5,2|8,1:2|1:2,0:1:0:0:
73,263,241822,1,0,0:0:0:0:
186,210,242064,5,2,1:3:0:0:
105,138,242306,1,4,0:3:0:0:
50,277,242548,2,0,P|17:202|29:16,1,262.5,10|4,1:2|1:3,0:0:0:0:
178,0,243274,1,2,0:3:0:0:
105,138,243516,2,0,L|235:121,1,131.25,12|2,1:2|0:0,0:0:0:0:
287,231,243999,6,0,P|263:138|402:9,1,262.5,2|8,1:1|1:2,0:0:0:0:
472,66,244725,2,0,P|496:159|357:288,1,262.5,2|0,0:3|0:0,0:0:0:0:
320,321,245451,2,0,L|177:298,1,131.25,10|0,1:2|0:0,0:0:0:0:
156,377,245935,6,0,B|101:327|101:327|156:104,1,262.5,4|8,1:1|1:2,0:0:0:0:
74,48,246661,1,0,0:0:0:0:
270,49,246903,2,0,L|277:210,1,131.25,4|0,1:1|0:0,0:0:0:0:
275,180,247266,1,0,0:0:0:0:
275,180,247387,1,8,1:2:0:0:
206,254,247628,1,0,0:0:0:0:
283,320,247870,6,2,P|383:323|442:164,1,262.5,6|8,1:2|1:2,0:1:0:0:
421,88,248596,1,0,0:0:0:0:
323,37,248838,2,2,P|223:34|164:193,1,262.5,2|8,1:2|1:2,0:1:0:0:
55,358,249806,6,0,B|75:269|75:269|34:206|34:206|61:112,1,262.5,2|8,1:2|1:2,0:0:0:0:
160,47,250532,1,2,0:3:0:0:
121,194,250774,2,0,L|250:216,2,131.25,2|0|8,1:1|0:0|1:2,0:0:0:0:
481,248,251741,6,0,P|474:141|323:83,1,262.5,2|8,1:1|1:2,0:0:0:0:
196,80,252467,1,2,0:3:0:0:
257,255,252709,2,0,P|262:183|276:107,1,131.25,0|0,1:2|0:0,0:0:0:0:
115,113,253193,2,0,P|125:178|129:244,1,131.25,10|0,1:2|0:0,0:0:0:0:
241,283,253677,6,0,B|195:339|195:339|-16:327,1,262.5,8|8,1:1|1:2,0:0:0:0:
0,153,254402,1,0,0:0:0:0:
45,238,254645,2,0,L|221:207,1,131.25,4|0,1:1|3:0,0:0:0:0:
332,183,255128,1,8,1:2:0:0:
332,183,255249,2,0,P|342:88|316:9,1,131.25
334,53,255612,6,0,P|241:120|278:284,1,262.5,6|8,1:2|1:2,0:0:0:0:
9,364,256580,2,0,P|102:297|65:133,1,262.5,2|8,1:2|1:2,0:0:0:0:
31,106,257306,1,0,0:0:0:0:
167,6,257548,6,0,L|181:160,1,131.25,4|0,1:2|0:0,0:0:0:0:
266,0,258032,2,0,L|280:154,1,131.25,10|0,1:2|0:0,0:0:0:0:
363,179,258516,2,2,L|351:309,1,131.25,2|2,1:3|0:3,0:1:0:0:
462,185,258999,2,2,L|450:315,1,131.25,12|10,1:2|0:1,0:1:0:0:
277,366,259483,6,0,P|155:346|90:212,1,262.5,2|8,1:1|1:2,0:0:0:0:
201,92,260209,2,0,P|323:112|388:246,1,262.5,2|0,0:3|0:0,0:0:0:0:
304,281,260935,2,0,L|185:200,1,131.25,10|0,1:2|0:0,0:0:0:0:
82,20,261419,6,0,P|61:108|83:285,1,262.5,4|8,1:1|1:2,0:0:0:0:
30,350,262145,1,0,0:0:0:0:
167,361,262387,2,0,L|179:200,1,131.25,4|0,1:1|0:0,0:0:0:0:
176,230,262749,1,0,0:0:0:0:
176,230,262870,1,8,1:2:0:0:
316,197,263112,1,0,0:0:0:0:
445,160,263354,6,2,B|460:96|460:96|265:42,1,262.5,6|8,1:2|1:2,0:1:0:0:
355,160,264080,1,0,0:0:0:0:
262,156,264322,2,2,B|247:220|247:220|442:274,1,262.5,2|8,1:2|1:2,0:1:0:0:
202,307,265290,5,2,1:2:0:0:
145,224,265532,1,0,0:0:0:0:
88,307,265774,1,8,1:2:0:0:
145,224,266016,1,0,0:0:0:0:
290,217,266258,5,4,1:3:0:0:
212,95,266499,1,2,0:3:0:0:
145,224,266741,1,12,1:2:0:0:
354,384,267225,6,0,B|334:307|334:307|383:230|383:230|357:123,1,262.5,2|8,1:1|1:2,0:0:0:0:
268,90,267950,1,2,0:3:0:0:
179,149,268193,2,0,L|174:281,1,131.25,0|0,1:2|0:0,0:0:0:0:
66,281,268677,2,0,L|72:150,1,131.25,10|0,1:2|0:0,0:0:0:0:
148,52,269161,6,0,P|258:71|435:42,1,262.5,10|8,1:1|1:2,0:0:0:0:
507,354,270128,2,0,L|513:281,3,65.625,6|8|8|8,1:1|0:3|0:3|0:3,0:0:0:0:
418,346,270612,2,0,L|424:273,3,65.625,8|4|4|4,1:2|0:3|0:3|0:3,0:0:0:0:
370,212,271096,6,0,L|292:215,2,65.625,2|0|2,1:3|0:0|0:0,0:0:0:0:
411,190,271459,1,0,0:0:0:0:
411,190,271580,1,12,1:2:0:0:
400,65,271822,2,0,L|478:62,2,65.625,2|0|2,0:3|0:0|1:2,0:0:0:0:
365,95,272185,1,0,0:0:0:0:
365,95,272306,1,4,0:0:0:0:
259,0,272548,2,0,L|270:137,1,131.25,8|0,1:2|0:0,0:0:0:0:
158,342,273032,6,0,L|236:345,2,65.625,2|0|2,1:3|0:0|0:0,0:0:0:0:
123,311,273395,1,0,0:0:0:0:
123,311,273516,1,12,1:2:0:0:
128,195,273758,2,0,L|50:192,2,65.625,2|0|2,0:3|0:0|1:2,0:0:0:0:
166,230,274121,1,0,0:0:0:0:
166,230,274242,1,4,0:0:0:0:
269,130,274484,2,0,L|258:267,1,131.25,8|0,1:2|0:0,0:0:0:0:
324,336,274967,5,4,1:3:0:0:
340,334,275087,1,0,0:0:0:0:
356,333,275208,1,2,0:0:0:0:
373,332,275329,1,0,0:0:0:0:
389,331,275450,1,12,1:2:0:0:
435,243,275693,1,4,0:3:0:0:
418,244,275813,1,0,0:0:0:0:
402,245,275934,1,2,1:2:0:0:
385,246,276055,1,0,0:0:0:0:
369,247,276176,1,4,0:0:0:0:
307,183,276419,2,0,L|317:32,1,131.25,8|0,1:2|0:0,0:0:0:0:
208,20,276903,5,4,1:3:0:0:
191,21,277023,1,0,0:0:0:0:
175,22,277144,1,2,0:0:0:0:
158,23,277265,1,0,0:0:0:0:
142,24,277386,1,12,1:2:0:0:
97,113,277629,1,4,0:3:0:0:
114,112,277749,1,0,0:0:0:0:
130,111,277870,1,2,1:2:0:0:
147,110,277991,1,0,0:0:0:0:
163,109,278112,2,0,L|171:192,1,65.625,4|0,0:0|3:0,0:0:0:0:
233,231,278354,2,0,P|294:209|387:201,1,131.25,8|0,1:2|3:0,0:0:0:0:
423,130,278838,6,0,L|434:47,2,65.625,2|0|2,1:3|0:0|0:0,0:0:0:0:
445,175,279201,1,0,0:0:0:0:
445,175,279322,1,12,1:2:0:0:
435,319,279564,2,0,L|446:402,2,65.625,2|0|2,0:3|0:0|1:2,0:0:0:0:
455,280,279927,1,0,0:0:0:0:
455,280,280048,1,4,0:0:0:0:
338,272,280290,2,0,L|158:289,1,131.25,8|0,1:2|0:0,0:0:0:0:
73,256,280774,6,0,L|62:339,2,65.625,2|0|2,1:3|0:0|0:0,0:0:0:0:
54,220,281137,1,0,0:0:0:0:
54,220,281258,1,12,1:2:0:0:
69,76,281500,2,0,L|58:-7,2,65.625,2|0|2,0:3|0:0|1:2,0:0:0:0:
52,119,281863,1,0,0:0:0:0:
52,119,281984,1,4,0:0:0:0:
165,136,282226,2,0,L|345:119,1,131.25,8|0,1:2|0:0,0:0:0:0:
413,124,282709,5,4,1:3:0:0:
409,108,282830,1,0,0:0:0:0:
405,91,282951,1,2,0:0:0:0:
402,76,283072,1,0,0:0:0:0:
398,59,283192,1,12,1:2:0:0:
490,39,283435,1,4,0:3:0:0:
494,55,283556,1,0,0:0:0:0:
498,72,283677,1,2,1:2:0:0:
501,87,283798,1,0,0:0:0:0:
505,104,283918,1,4,0:0:0:0:
477,182,284161,2,0,L|319:188,1,131.25,8|0,1:2|0:0,0:0:0:0:
206,176,284645,5,4,1:3:0:0:
210,192,284766,1,0,0:0:0:0:
214,209,284887,1,2,0:0:0:0:
217,224,285008,1,0,0:0:0:0:
221,241,285128,1,12,1:2:0:0:
129,261,285371,1,4,0:3:0:0:
125,245,285492,1,0,0:0:0:0:
121,228,285613,1,2,1:2:0:0:
118,213,285734,1,0,0:0:0:0:
114,196,285854,1,4,0:0:0:0:
142,118,286097,2,0,L|300:112,1,131.25,8|0,1:2|0:0,0:0:0:0:
333,45,286580,5,8,1:3:0:0:
362,59,286700,1,0,0:0:0:0:
393,69,286821,1,2,0:0:0:0:
425,76,286942,1,0,0:0:0:0:
458,78,287063,1,12,1:2:0:0:
435,233,287306,1,8,0:3:0:0:
406,219,287426,1,0,0:0:0:0:
375,209,287547,1,2,1:2:0:0:
343,202,287668,1,0,0:0:0:0:
310,200,287789,1,4,0:0:0:0:
229,292,288032,2,0,L|214:161,1,131.25,8|0,1:2|0:0,0:0:0:0:
191,6,288516,5,8,1:3:0:0:
162,20,288636,1,0,0:0:0:0:
131,30,288757,1,2,0:0:0:0:
99,37,288878,1,0,0:0:0:0:
66,39,288999,1,12,1:2:0:0:
89,194,289242,1,8,0:3:0:0:
118,180,289362,1,0,0:0:0:0:
149,170,289483,1,2,1:2:0:0:
181,163,289604,1,0,0:0:0:0:
214,161,289725,1,4,0:0:0:0:
295,253,289968,2,0,L|310:122,1,131.25,8|0,1:2|0:0,0:0:0:0:
391,25,290451,5,4,1:3:0:0:
395,57,290571,1,0,0:0:0:0:
400,89,290692,1,2,0:0:0:0:
405,122,290813,1,0,0:0:0:0:
410,154,290934,1,12,1:2:0:0:
483,198,291177,1,4,0:3:0:0:
478,230,291297,1,0,0:0:0:0:
473,262,291418,1,2,1:2:0:0:
468,295,291539,1,0,0:0:0:0:
463,327,291660,1,4,0:0:0:0:
383,365,291903,2,0,L|260:343,2,65.625,8|0|0,1:2|0:0|0:0,0:0:0:0:
304,256,292387,6,0,L|189:277,2,65.625,4|0|2,1:3|0:0|0:0,0:0:0:0:
189,352,292870,2,0,L|41:328,1,131.25,12|4,1:2|0:3,0:0:0:0:
34,301,293233,1,0,0:0:0:0:
34,301,293354,2,0,L|56:227,1,65.625,2|0,1:2|0:0,0:0:0:0:
157,205,293596,1,4,0:0:0:0:
157,205,293717,1,0,3:0:0:0:
157,205,293838,2,0,L|138:142,1,65.625,8|0,1:2|0:0,0:0:0:0:
241,171,294080,2,0,L|222:108,1,65.625,0|0,3:0|3:0,0:0:0:0:
262,19,294322,5,8,1:3:0:0:
289,36,294442,1,0,0:0:0:0:
320,48,294563,1,2,0:0:0:0:
352,52,294684,1,0,0:0:0:0:
385,50,294805,1,12,1:2:0:0:
444,175,295048,1,8,0:3:0:0:
416,157,295168,1,0,0:0:0:0:
385,145,295289,1,2,1:2:0:0:
353,141,295410,1,0,0:0:0:0:
320,143,295531,1,4,0:0:0:0:
236,207,295774,2,0,L|235:279,2,65.625,8|0|0,1:2|0:0|0:0,0:0:0:0:
203,113,296258,5,8,1:3:0:0:
175,130,296378,1,0,0:0:0:0:
144,142,296499,1,2,0:0:0:0:
112,146,296620,1,0,0:0:0:0:
79,144,296741,1,12,1:2:0:0:
21,269,296984,1,8,0:3:0:0:
21,269,297104,1,0,0:0:0:0:
21,269,297225,2,0,L|31:343,3,65.625,2|0|4|0,1:2|0:0|0:0|0:0,0:0:0:0:
108,250,297709,2,0,L|118:324,3,65.625,8|0|0|0,1:2|0:0|0:0|0:0,0:0:0:0:
193,206,298193,6,0,L|283:226,2,65.625,4|0|2,1:3|0:0|0:0,0:0:0:0:
165,176,298556,1,0,0:0:0:0:
165,176,298677,1,12,1:2:0:0:
248,96,298919,2,0,L|158:76,2,65.625,4|0|2,0:3|0:0|1:2,0:0:0:0:
279,137,299282,1,0,0:0:0:0:
279,137,299403,1,4,0:0:0:0:
369,87,299645,1,8,1:2:0:0:
369,87,299766,1,0,0:0:0:0:
369,87,299887,1,0,0:0:0:0:
434,208,300128,5,2,1:2:0:0:
380,117,300612,1,2,1:2:0:0:
316,248,301096,1,2,1:2:0:0:
237,80,301580,1,8,1:2:0:0:
172,309,302063,5,6,1:2:0:0:
