osu file format v14

[General]
AudioFilename: audio.mp3
AudioLeadIn: 0
PreviewTime: 15603
Countdown: 0
SampleSet: Soft
StackLeniency: 0.7
Mode: 0
LetterboxInBreaks: 0
WidescreenStoryboard: 1

[Editor]
Bookmarks: 54313,69797,100765,131732,162700,193668,224636,240119,271087,302055
DistanceSpacing: 0.7
BeatDivisor: 3
GridSize: 8
TimelineZoom: 3.599998

[Metadata]
Title:Nautilus
TitleUnicode:Nautilus
Artist:Creo
ArtistUnicode:Creo
Creator:VINXIS
Version:Insane
Source:osu!
Tags:cheesecake mapper's mappers' guild mapper mappers featured artist
BeatmapID:2137447
BeatmapSetID:1015289

[Difficulty]
HPDrainRate:5
CircleSize:5
OverallDifficulty:8
ApproachRate:8
SliderMultiplier:2.3
SliderTickRate:1

[Events]
//Background and Video events
0,0,"bg.jpg",0,0
//Break Periods
2,19683,22604
2,131941,146475
2,193877,208411
//Storyboard Layer 0 (Background)
//Storyboard Layer 1 (Fail)
//Storyboard Layer 2 (Pass)
//Storyboard Layer 3 (Foreground)
//Storyboard Layer 4 (Overlay)
//Storyboard Sound Samples

[TimingPoints]
129,483.870967741935,4,2,69,80,1,0
15612,-250,4,2,1,40,0,0
27346,-250,4,2,1,80,0,0
30612,-250,4,2,1,40,0,0
31096,-200,4,2,3,50,0,0
31821,-200,4,2,4,50,0,0
32548,-200,4,2,5,50,0,0
33032,-200,4,2,6,50,0,0
33758,-200,4,2,7,50,0,0
33999,-200,4,2,8,50,0,0
34483,-200,4,2,9,50,0,0
34967,-200,4,2,10,50,0,0
35692,-200,4,2,4,50,0,0
36419,-200,4,2,11,50,0,0
36903,-200,4,2,7,50,0,0
38596,-200,4,2,1,50,0,0
38838,-125,4,2,1,50,0,0
54322,-133.333333333333,4,2,1,50,0,0
62064,-117.647058823529,4,2,1,50,0,0
63758,-117.647058823529,4,2,1,80,0,0
63999,-117.647058823529,4,2,1,50,0,0
64240,-117.647058823529,4,2,1,80,0,0
64483,-117.647058823529,4,2,1,50,0,0
64724,-117.647058823529,4,2,1,80,0,0
64967,-117.647058823529,4,2,1,50,0,0
65208,-117.647058823529,4,2,1,80,0,0
65451,-117.647058823529,4,2,1,60,0,0
65692,-117.647058823529,4,2,1,80,0,0
65935,-117.647058823529,4,2,1,60,0,0
69806,-83.3333333333333,4,2,12,90,0,0
70289,-83.3333333333333,4,2,1,90,0,0
70774,-83.3333333333333,4,2,12,90,0,0
71741,-83.3333333333333,4,2,13,90,0,0
72466,-83.3333333333333,4,2,13,80,0,0
72709,-83.3333333333333,4,2,13,90,0,0
73435,-83.3333333333333,4,2,0,90,0,0
73677,-83.3333333333333,4,2,42,90,0,0
77548,-83.3333333333333,4,2,12,90,0,0
78031,-83.3333333333333,4,2,1,90,0,0
78516,-83.3333333333333,4,2,12,90,0,0
78999,-83.3333333333333,4,2,1,90,0,0
79483,-83.3333333333333,4,2,12,90,0,0
80935,-83.3333333333333,4,2,1,90,0,0
81419,-83.3333333333333,4,2,42,90,0,0
85290,-83.3333333333333,4,2,12,90,0,0
85773,-83.3333333333333,4,2,1,90,0,0
86258,-83.3333333333333,4,2,12,90,0,0
86741,-83.3333333333333,4,2,1,90,0,0
87225,-83.3333333333333,4,2,14,90,0,0
88193,-83.3333333333333,4,2,13,90,0,0
89161,-83.3333333333333,4,2,42,90,0,0
93032,-83.3333333333333,4,2,12,90,0,0
94482,-83.3333333333333,4,2,1,90,0,0
95935,-83.3333333333333,4,2,13,90,0,0
96903,-83.3333333333333,4,2,42,90,0,0
100774,-100,4,2,34,90,0,0
123636,-100,4,2,34,80,0,0
123758,-100,4,2,34,90,0,0
129806,-100,4,2,1,90,0,0
131741,-133.333333333333,4,2,1,90,0,0
147225,-133.333333333333,4,2,1,80,0,0
162709,-100,4,2,96,80,0,0
193677,-100,4,2,1,50,0,0
209161,-166.666666666667,4,2,1,50,0,0
210128,-166.666666666667,4,2,1,80,0,0
215692,-166.666666666667,4,2,1,50,0,0
215935,-166.666666666667,4,2,1,80,0,0
216177,-166.666666666667,4,2,1,50,0,0
216418,-166.666666666667,4,2,1,80,0,0
216661,-166.666666666667,4,2,1,50,0,0
217870,-166.666666666667,4,2,1,80,0,0
220774,-166.666666666667,4,2,1,50,0,0
232387,-133.333333333333,4,2,1,50,0,0
236620,-133.333333333333,4,2,1,80,0,0
236741,-133.333333333333,4,2,1,50,0,0
236982,-133.333333333333,4,2,1,80,0,0
237225,-133.333333333333,4,2,1,50,0,0
237587,-133.333333333333,4,2,1,80,0,0
237709,-133.333333333333,4,2,1,50,0,0
237950,-133.333333333333,4,2,1,80,0,0
238193,-133.333333333333,4,2,1,50,0,0
239524,-133.333333333333,4,2,1,60,0,0
240128,-83.3333333333333,4,2,12,90,0,0
240611,-83.3333333333333,4,2,1,90,0,0
241096,-83.3333333333333,4,2,12,90,0,0
242064,-83.3333333333333,4,2,13,90,0,0
242789,-83.3333333333333,4,2,13,80,0,0
243032,-83.3333333333333,4,2,13,90,0,0
243758,-83.3333333333333,4,2,0,90,0,0
243999,-83.3333333333333,4,2,42,90,0,0
247870,-83.3333333333333,4,2,12,90,0,0
249321,-83.3333333333333,4,2,1,90,0,0
249806,-83.3333333333333,4,2,12,90,0,0
251258,-83.3333333333333,4,2,1,90,0,0
251741,-83.3333333333333,4,2,42,90,0,0
255612,-83.3333333333333,4,2,12,90,0,0
256095,-83.3333333333333,4,2,1,90,0,0
256580,-83.3333333333333,4,2,12,90,0,0
257548,-83.3333333333333,4,2,14,90,0,0
258516,-83.3333333333333,4,2,13,90,0,0
259483,-83.3333333333333,4,2,42,90,0,0
263354,-83.3333333333333,4,2,12,90,0,0
264805,-83.3333333333333,4,2,1,90,0,0
266258,-83.3333333333333,4,2,13,90,0,0
267225,-83.3333333333333,4,2,42,90,0,0
271096,-100,4,2,1,80,0,1
271097,-100,4,2,34,90,0,1
300128,-100,4,2,1,90,0,1
302063,-100,4,2,1,100,0,1
302064,-100,4,2,1,80,0,0

[Colours]
Combo1 : 17,254,176
Combo2 : 173,255,95
Combo3 : 255,88,100
Combo4 : 255,94,55

[HitObjects]
179,131,15612,6,0,L|325:115,2,138,2|0|2,0:0|0:0|0:0,0:0:0:0:
88,182,17548,1,2,0:0:0:0:
415,186,19483,5,2,0:0:0:0:
195,177,23354,6,0,L|179:34,2,138,2|0|2,0:0|0:0|0:0,0:0:0:0:
146,247,25290,1,2,0:0:0:0:
366,137,27225,5,2,0:0:0:0:
256,192,27346,12,10,30612,0:0:0:0:
37,234,31096,6,0,P|91:245|214:200,1,172.5,2|2,0:0|0:0,0:0:0:0:
260,249,32064,1,2,0:0:0:0:
311,94,32548,1,2,0:0:0:0:
410,21,33032,5,2,0:0:0:0:
410,21,33758,1,2,0:0:0:0:
410,21,33999,1,2,0:0:0:0:
312,17,34483,1,2,0:0:0:0:
491,157,34967,6,0,L|308:136,1,172.5,2|2,0:0|0:0,0:0:0:0:
259,172,35935,1,2,0:0:0:0:
312,17,36419,1,2,0:0:0:0:
220,69,36903,1,2,0:0:0:0:
305,359,38596,1,8,0:0:0:0:
305,359,38717,1,8,0:0:0:0:
305,359,38838,6,0,P|322:300|286:167,1,184,6|0,1:2|0:0,0:0:0:0:
140,192,39564,2,0,P|123:251|159:384,1,184,2|0,0:0|0:0,0:0:0:0:
226,357,40290,1,2,0:0:0:0:
226,357,40532,1,2,0:0:0:0:
273,35,41983,1,0,0:0:0:0:
273,35,42225,1,2,0:0:0:0:
273,35,42467,1,0,0:0:0:0:
208,80,42709,6,0,B|182:126|182:126|220:271,1,184,6|0,1:2|0:0,0:0:0:0:
280,285,43435,2,0,L|464:297,1,184,2|0,0:0|0:0,0:0:0:0:
508,243,44161,1,2,0:0:0:0:
487,366,44645,5,2,0:0:0:0:
25,18,46338,1,8,0:0:0:0:
25,18,46459,1,8,0:0:0:0:
25,18,46580,6,0,P|20:91|46:205,1,184,6|0,1:2|0:0,0:0:0:0:
193,182,47306,2,0,P|198:109|172:-5,1,184,2|0,0:0|0:0,0:0:0:0:
100,14,48032,1,2,0:0:0:0:
100,14,48274,1,2,0:0:0:0:
407,58,49725,2,0,L|418:155,2,92,0|2|0,0:0|0:0|0:0,0:0:0:0:
353,8,50451,5,2,0:0:0:0:
499,94,51177,1,2,0:0:0:0:
350,231,51903,1,2,0:0:0:0:
350,231,52387,5,2,0:0:0:0:
177,27,53354,1,0,1:0:0:0:
154,310,53717,1,8,1:3:0:0:
154,310,53838,2,0,L|161:380,2,46,8|4|4,0:0|0:3|0:3,0:0:0:0:
97,253,54322,6,0,P|145:233|276:257,1,172.500006580353,6|0,1:2|1:0,0:0:0:0:
261,248,55290,2,0,P|309:268|440:244,1,172.500006580353,2|0,1:2|1:0,0:0:0:0:
365,112,56016,1,0,0:0:0:0:
426,252,56258,6,0,L|427:152,1,86.2500032901765,2|0,1:2|0:0,0:0:0:0:
365,112,56741,2,0,B|301:104|301:104|270:125|270:125|186:121,1,172.500006580353,0|2,1:0|1:2,0:0:0:0:
245,52,57467,1,0,0:0:0:0:
200,122,57709,2,0,P|205:178|148:299,1,172.500006580353,0|2,1:0|1:2,0:0:0:0:
165,287,58677,5,0,1:0:0:0:
165,287,59161,2,0,P|233:302|349:292,1,172.500006580353,2|0,1:2|1:0,0:0:0:0:
393,346,59887,1,0,0:0:0:0:
335,295,60128,2,0,L|342:203,1,86.2500032901765,2|0,1:2|0:0,0:0:0:0:
431,177,60612,2,0,L|424:263,1,86.2500032901765,2|0,1:2|0:0,0:0:0:0:
341,208,61096,2,0,L|348:116,1,86.2500032901765,2|0,1:2|0:0,0:0:0:0:
347,121,61459,1,8,0:0:0:0:
347,121,61580,1,2,1:2:0:0:
265,33,61822,1,8,0:0:0:0:
265,33,61943,1,8,0:0:0:0:
265,33,62064,6,0,B|136:17|211:92|75:69,1,195.500003728867,8|8,1:2|1:2,0:0:0:0:
81,70,63032,2,0,P|102:152|91:263,1,195.500003728867,8|8,1:2|1:2,0:0:0:0:
30,314,63758,1,0,0:0:0:0:
90,260,63999,6,0,P|138:273|186:277,1,97.7500018644333,8|0,1:2|0:0,0:0:0:0:
200,347,64483,2,0,P|247:334|291:313,1,97.7500018644333,8|0,1:2|0:0,0:0:0:0:
337,366,64967,2,0,P|371:331|399:291,1,97.7500018644333,8|0,1:2|0:0,0:0:0:0:
465,313,65451,2,0,P|477:265|481:217,1,97.7500018644333,8|0,1:2|0:0,0:0:0:0:
405,122,65935,5,10,1:2:0:0:
405,122,66177,1,0,3:0:0:0:
304,227,66419,1,10,1:2:0:0:
304,227,66661,1,0,3:0:0:0:
202,99,66903,1,10,1:2:0:0:
202,99,67145,1,0,3:0:0:0:
115,273,67387,1,10,1:2:0:0:
115,273,67628,1,0,3:0:0:0:
38,117,67870,5,2,1:2:0:0:
36,104,67990,1,0,3:0:0:0:
35,92,68111,1,0,3:0:0:0:
33,80,68232,1,0,3:0:0:0:
32,68,68354,5,2,1:2:0:0:
30,92,68474,1,0,3:0:0:0:
29,116,68595,1,0,3:0:0:0:
27,141,68716,1,0,3:0:0:0:
26,165,68838,5,2,1:2:0:0:
31,128,68958,1,0,3:0:0:0:
37,92,69079,1,0,3:0:0:0:
43,56,69200,1,0,3:0:0:0:
49,20,69321,5,10,1:2:0:0:
462,363,69806,6,2,B|388:368|388:368|312:321|312:321|205:363,1,275.999991577149,6|8,1:2|1:2,0:1:0:0:
410,290,70532,1,0,0:0:0:0:
156,307,70774,6,2,B|141:209|141:209|192:156|192:156|173:54,1,275.999991577149,2|8,1:2|1:2,0:1:0:0:
219,235,71499,1,0,0:0:0:0:
113,130,71741,5,2,1:3:0:0:
398,182,71983,1,4,0:3:0:0:
275,0,72225,2,0,P|261:67|276:137,1,137.999995788574,10|0,1:2|0:0,0:0:0:0:
333,323,72709,5,4,1:3:0:0:
140,167,72951,1,2,0:3:0:0:
33,374,73193,1,12,1:2:0:0:
33,374,73435,1,2,0:0:0:0:
196,283,73677,6,0,P|221:198|181:9,1,275.999991577149,2|8,1:0|1:2,0:0:0:0:
318,0,74403,2,0,P|305:42|325:136,1,137.999995788574,2|0,0:3|1:0,0:0:0:0:
113,211,74887,1,0,0:0:0:0:
113,211,75008,1,0,0:0:0:0:
113,211,75128,2,0,L|105:69,1,137.999995788574,10|0,1:2|0:0,0:0:0:0:
427,149,75612,6,0,B|361:231|361:231|386:292|386:292|307:395,1,275.999991577149,4|8,1:0|1:2,0:0:0:0:
303,283,76338,1,0,0:0:0:0:
445,250,76580,1,4,1:1:0:0:
250,198,76822,1,0,0:0:0:0:
250,198,76943,1,0,0:0:0:0:
250,198,77064,2,0,L|94:212,1,137.999995788574,8|0,1:2|0:0,0:0:0:0:
63,354,77548,6,2,P|152:285|147:87,1,275.999991577149,6|8,1:2|1:2,0:1:0:0:
25,22,78274,1,0,0:0:0:0:
236,304,78516,6,2,L|523:289,1,275.999991577149,2|8,1:2|1:2,0:1:0:0:
511,289,79241,1,0,0:0:0:0:
249,34,79483,5,2,1:2:0:0:
240,67,79603,1,0,0:0:0:0:
239,101,79724,1,0,0:0:0:0:
245,135,79845,1,0,0:0:0:0:
257,167,79967,2,0,L|233:316,1,137.999995788574,8|2,1:2|0:3,0:0:0:0:
382,357,80451,1,2,1:1:0:0:
382,357,80572,2,0,L|403:220,1,137.999995788574
472,170,80935,1,8,1:2:0:0:
23,223,81419,6,0,P|7:300|175:347,1,275.999991577149,2|8,1:1|1:2,0:0:0:0:
206,211,82145,2,0,P|190:134|358:87,1,275.999991577149,2|0,0:3|0:0,0:0:0:0:
470,155,82870,2,0,P|475:225|456:293,1,137.999995788574,10|0,1:2|0:0,0:0:0:0:
496,366,83354,5,8,1:1:0:0:
293,292,83596,1,0,0:0:0:0:
380,160,83838,5,8,1:2:0:0:
123,258,84080,1,0,0:0:0:0:
403,266,84322,5,4,1:1:0:0:
38,170,84564,1,0,3:0:0:0:
198,358,84806,1,8,1:2:0:0:
198,358,84927,2,0,P|223:268|219:180,1,137.999995788574
152,256,85290,6,2,B|217:299|217:299|318:252|318:252|431:271,1,275.999991577149,6|8,1:2|1:2,0:1:0:0:
512,300,86016,1,0,0:0:0:0:
224,223,86258,6,2,B|81:129|81:129|194:116,1,275.999991577149,2|8,1:2|1:2,0:1:0:0:
429,94,86983,1,0,0:0:0:0:
152,256,87225,5,4,1:2:0:0:
210,28,87467,1,0,0:0:0:0:
240,332,87709,5,10,1:2:0:0:
121,82,87951,1,0,0:0:0:0:
395,216,88193,5,2,1:3:0:0:
395,216,88435,1,2,0:3:0:0:
130,195,88677,1,12,1:2:0:0:
256,322,88919,1,10,0:1:0:0:
448,272,89161,6,0,P|451:136|330:108,1,275.999991577149,2|8,1:1|1:2,0:0:0:0:
276,54,89887,2,0,P|213:108|209:216,1,137.999995788574,2|0,0:3|1:2,0:0:0:0:
368,302,90370,1,0,0:0:0:0:
368,302,90491,1,0,0:0:0:0:
368,302,90612,2,0,P|305:248|301:140,1,137.999995788574,10|0,1:2|0:0,0:0:0:0:
92,74,91096,6,0,P|100:162|43:348,1,275.999991577149,4|8,1:0|1:2,0:0:0:0:
169,351,91822,1,0,0:0:0:0:
0,223,92064,1,4,1:1:0:0:
199,153,92306,1,0,0:0:0:0:
199,153,92427,1,0,0:0:0:0:
199,153,92548,2,0,L|207:301,1,137.999995788574,8|0,1:2|0:0,0:0:0:0:
365,339,93032,6,2,P|317:211|321:74,1,275.999991577149,2|8,1:2|1:2,0:1:0:0:
278,10,93758,1,0,0:0:0:0:
480,253,93999,6,2,L|206:291,1,275.999991577149,2|8,1:2|1:2,0:1:0:0:
151,356,94725,1,0,0:0:0:0:
148,202,94967,5,2,1:2:0:0:
246,368,95209,1,0,0:0:0:0:
238,168,95451,1,8,1:2:0:0:
90,302,95693,1,0,0:0:0:0:
309,265,95935,5,4,1:3:0:0:
86,103,96177,1,2,0:3:0:0:
19,370,96419,1,12,1:2:0:0:
19,370,96661,1,0,0:0:0:0:
169,301,96903,6,0,B|216:243|216:243|179:2,1,275.999991577149,2|8,1:1|1:2,0:0:0:0:
110,8,97628,2,0,L|77:167,1,137.999995788574,2|0,0:3|1:2,0:0:0:0:
17,205,98112,1,0,0:0:0:0:
147,219,98354,2,0,P|165:147|346:61,1,275.999991577149,10|10,1:2|1:1,0:0:0:0:
425,166,99080,5,0,0:0:0:0:
425,166,99201,1,0,0:0:0:0:
425,166,99322,1,8,1:2:0:0:
341,30,99564,1,0,0:0:0:0:
465,247,99806,1,6,1:1:0:0:
434,263,99926,1,8,0:3:0:0:
401,271,100047,1,8,0:3:0:0:
366,270,100168,1,8,0:3:0:0:
333,262,100289,1,8,1:2:0:0:
303,245,100410,1,4,0:3:0:0:
278,221,100531,1,4,0:3:0:0:
259,192,100652,1,4,0:3:0:0:
248,160,100774,5,2,1:3:0:0:
243,202,100894,1,0,0:0:0:0:
237,245,101015,1,2,0:0:0:0:
231,288,101136,1,0,0:0:0:0:
226,331,101257,1,12,1:2:0:0:
314,384,101499,1,2,0:3:0:0:
354,368,101619,1,0,0:0:0:0:
396,359,101740,1,2,1:2:0:0:
439,356,101861,1,0,0:0:0:0:
482,359,101982,1,4,0:0:0:0:
151,270,102225,2,0,L|153:384,1,115,8|0,1:2|0:0,0:0:0:0:
239,183,102709,5,2,1:3:0:0:
197,170,102829,1,0,0:0:0:0:
154,172,102950,1,2,0:2:0:0:
114,187,103071,1,0,0:0:0:0:
81,214,103192,1,12,1:2:0:0:
13,161,103435,1,2,0:3:0:0:
50,139,103555,1,0,0:0:0:0:
78,107,103676,1,2,1:2:0:0:
93,67,103797,1,0,0:0:0:0:
94,24,103918,1,4,0:0:0:0:
279,0,104161,2,0,L|249:153,1,115,8|0,1:2|0:0,0:0:0:0:
241,289,104645,5,4,1:3:0:0:
281,302,104765,1,0,0:0:0:0:
324,305,104887,2,0,L|385:296,2,57.5,2|0|12,0:0|0:0|1:2,0:0:0:0:
400,174,105371,1,4,0:3:0:0:
362,154,105492,1,0,0:0:0:0:
320,145,105612,2,0,L|259:154,2,57.5,2|0|4,1:2|0:0|0:0,0:0:0:0:
159,116,106096,2,0,L|175:2,1,115,8|0,1:2|0:0,0:0:0:0:
69,149,106580,5,4,1:3:0:0:
83,234,106821,1,2,0:0:0:0:
97,319,107063,1,12,1:2:0:0:
198,211,107306,1,4,0:3:0:0:
212,296,107547,1,2,1:2:0:0:
226,381,107790,2,0,L|292:381,2,57.5,4|0|8,3:2|3:0|1:2,0:0:0:0:
327,304,108274,2,0,L|384:304,1,57.5,0|0,3:0|3:0,0:0:0:0:
454,353,108516,5,2,1:3:0:0:
471,313,108636,1,0,0:0:0:0:
481,271,108757,1,2,0:0:0:0:
482,228,108878,1,0,0:0:0:0:
474,186,108999,1,12,1:2:0:0:
365,52,109241,1,2,0:3:0:0:
368,94,109361,1,0,0:0:0:0:
372,137,109482,1,2,1:2:0:0:
376,180,109603,1,0,0:0:0:0:
380,223,109724,1,4,0:0:0:0:
474,186,109967,2,0,L|465:29,1,115,8|0,1:2|0:0,0:0:0:0:
415,17,110451,5,2,1:3:0:0:
371,17,110571,1,0,0:0:0:0:
328,18,110692,1,2,0:0:0:0:
285,19,110813,1,0,0:0:0:0:
242,19,110934,1,12,1:2:0:0:
257,100,111177,1,2,0:3:0:0:
213,100,111297,1,0,0:0:0:0:
170,99,111418,1,2,1:2:0:0:
127,98,111539,1,0,0:0:0:0:
84,98,111660,1,4,0:0:0:0:
9,154,111903,2,0,L|0:18,1,115,8|0,1:2|0:0,0:0:0:0:
95,180,112387,5,4,1:3:0:0:
109,220,112507,1,0,0:0:0:0:
112,263,112628,2,0,L|100:320,2,57.5,2|0|12,0:2|0:0|1:2,0:0:0:0:
210,384,113112,1,4,0:3:0:0:
195,343,113232,1,0,0:0:0:0:
192,300,113354,2,0,L|204:243,2,57.5,2|0|4,1:2|0:0|0:0,0:0:0:0:
291,182,113838,2,0,L|437:208,1,115,8|0,1:2|0:0,0:0:0:0:
475,263,114322,5,4,1:3:0:0:
484,177,114563,1,2,0:0:0:0:
494,91,114805,1,12,1:2:0:0:
426,3,115048,1,4,0:3:0:0:
402,81,115289,1,2,1:2:0:0:
321,99,115531,1,4,0:0:0:0:
250,141,115774,2,0,L|254:268,1,115,8|0,1:2|0:0,0:0:0:0:
512,355,116258,5,8,1:3:0:0:
481,325,116378,1,0,0:0:0:0:
443,304,116499,1,2,0:2:0:0:
401,294,116620,1,0,0:0:0:0:
358,295,116741,2,0,L|272:309,1,57.5,12|0,1:2|0:0,0:0:0:0:
236,368,116983,1,8,0:3:0:0:
206,337,117103,1,0,0:0:0:0:
185,299,117224,1,2,1:2:0:0:
175,257,117345,1,0,0:0:0:0:
176,214,117467,2,0,L|190:128,1,57.5,4|0,0:0|0:0,0:0:0:0:
254,128,117709,1,8,1:2:0:0:
220,3,117951,1,0,0:0:0:0:
87,109,118193,5,8,1:3:0:0:
91,151,118313,1,0,0:0:0:0:
91,194,118434,1,2,0:0:0:0:
86,237,118555,1,0,0:0:0:0:
76,279,118677,2,0,L|90:363,1,57.5,12|0,1:2|0:0,0:0:0:0:
149,373,118919,1,8,0:3:0:0:
191,368,119039,1,0,0:0:0:0:
234,368,119160,1,2,1:2:0:0:
277,373,119281,1,0,0:0:0:0:
319,384,119403,2,0,L|403:370,1,57.5,4|0,0:0|0:0,0:0:0:0:
398,297,119645,1,8,1:2:0:0:
512,373,119887,1,0,0:0:0:0:
284,231,120128,5,4,1:3:0:0:
278,188,120248,1,0,0:0:0:0:
296,150,120369,1,2,0:0:0:0:
332,126,120490,1,0,0:0:0:0:
374,124,120612,2,0,L|439:142,1,57.5,12|0,1:2|0:0,0:0:0:0:
365,42,120854,1,4,0:3:0:0:
322,37,120974,1,0,0:0:0:0:
279,33,121095,1,2,1:2:0:0:
236,29,121216,1,0,0:0:0:0:
193,25,121338,2,0,L|203:103,1,57.5,4|0,0:0|0:0,0:0:0:0:
164,145,121580,1,8,1:2:0:0:
329,132,121822,1,0,0:0:0:0:
233,197,122064,5,4,1:3:0:0:
228,239,122184,1,0,0:0:0:0:
228,282,122305,1,2,0:0:0:0:
234,325,122426,1,0,0:0:0:0:
245,367,122548,2,0,L|332:368,1,57.5,12|0,1:2|0:0,0:0:0:0:
147,378,122790,1,4,0:3:0:0:
151,335,122910,1,0,0:0:0:0:
151,292,123031,1,2,1:2:0:0:
145,249,123152,1,0,0:0:0:0:
134,207,123274,2,0,L|47:206,1,57.5,4|0,3:2|3:0,0:0:0:0:
312,225,123516,2,0,L|311:167,1,57.5,8|0,1:2|0:0,0:0:0:0:
223,167,123758,2,0,L|223:224,1,57.5,8|0,3:2|3:0,0:0:0:0:
401,200,123999,5,8,1:3:0:0:
423,163,124119,1,0,0:0:0:0:
434,121,124240,1,2,0:0:0:0:
431,79,124361,1,0,0:0:0:0:
416,38,124483,2,0,L|338:28,1,57.5,12|0,1:2|0:0,0:0:0:0:
283,64,124725,1,8,0:3:0:0:
260,100,124845,1,0,0:0:0:0:
249,142,124966,1,2,1:2:0:0:
252,184,125087,1,0,0:0:0:0:
267,225,125209,2,0,L|345:235,1,57.5,4|0,0:0|0:0,0:0:0:0:
363,299,125451,1,8,1:2:0:0:
363,299,125572,1,0,0:0:0:0:
363,299,125693,1,0,0:0:0:0:
485,119,125935,5,8,1:3:0:0:
471,78,126055,1,0,0:0:0:0:
441,47,126176,1,2,0:0:0:0:
402,30,126297,1,0,0:0:0:0:
359,31,126419,2,0,L|347:117,1,57.5,12|0,1:2|0:0,0:0:0:0:
400,157,126661,1,8,0:3:0:0:
386,198,126781,1,0,0:0:0:0:
356,229,126903,5,2,1:2:0:0:
312,230,127023,1,0,0:0:0:0:
270,222,127144,1,4,0:0:0:0:
233,201,127265,1,0,0:0:0:0:
199,175,127386,1,8,1:2:0:0:
159,159,127507,1,0,0:0:0:0:
116,156,127628,2,0,L|39:157,1,57.5
21,246,127870,5,4,1:3:0:0:
63,242,127990,1,0,0:0:0:0:
102,260,128111,1,2,0:0:0:0:
126,294,128232,1,0,0:0:0:0:
129,337,128353,1,12,1:2:0:0:
252,173,128596,1,4,0:3:0:0:
209,176,128716,1,0,0:0:0:0:
170,158,128837,1,2,1:2:0:0:
146,124,128958,1,0,0:0:0:0:
143,81,129079,1,4,0:0:0:0:
226,5,129322,1,8,1:2:0:0:
226,5,129443,1,0,0:0:0:0:
226,5,129564,1,0,0:0:0:0:
291,262,129806,5,2,1:2:0:0:
291,262,129927,1,0,0:0:0:0:
291,262,130048,1,0,0:0:0:0:
212,311,130290,2,0,L|65:299,1,115,2|0,1:2|0:0,0:0:0:0:
97,301,130653,1,0,0:0:0:0:
97,301,130774,1,2,1:2:0:0:
97,301,130895,2,0,L|91:134,1,115
93,186,131258,1,8,1:2:0:0:
159,130,131499,1,0,0:0:0:0:
6,85,131741,5,6,1:2:0:0:
63,62,147225,5,2,0:0:0:0:
63,62,147548,1,0,0:0:0:0:
63,62,147870,1,0,0:0:0:0:
202,78,148193,2,0,L|187:207,2,115.000004386902,0|0|0,3:0|0:0|0:0,0:0:0:0:
449,62,149161,5,2,0:0:0:0:
449,62,149484,1,0,0:0:0:0:
449,62,149806,1,0,0:0:0:0:
310,78,150129,2,0,L|325:207,2,115.000004386902,0|0|0,3:0|0:0|0:0,0:0:0:0:
359,304,151096,5,2,0:0:0:0:
359,304,151419,1,0,0:0:0:0:
359,304,151741,1,0,0:0:0:0:
280,325,152064,1,0,3:0:0:0:
280,325,152387,1,0,0:0:0:0:
280,325,152709,1,0,0:0:0:0:
167,277,153032,6,0,L|158:142,2,115.000004386902,2|0|0,0:0|0:0|0:0,0:0:0:0:
270,181,153999,2,0,L|278:315,2,115.000004386902,0|0|0,3:0|0:0|0:0,0:0:0:0:
442,230,154967,6,0,L|451:345,1,115.000004386902,2|0,0:0|0:0,0:0:0:0:
283,224,155612,1,0,0:0:0:0:
283,224,155935,2,0,L|292:360,1,115.000004386902,0|0,3:0|0:0,0:0:0:0:
146,185,156580,1,0,0:0:0:0:
146,185,156903,6,0,L|135:36,2,115.000004386902,2|0|0,0:0|0:0|0:0,0:0:0:0:
366,199,157870,2,0,L|376:347,2,115.000004386902,0|0|0,3:0|0:0|0:0,0:0:0:0:
446,233,158838,5,2,0:0:0:0:
446,233,159161,1,0,0:0:0:0:
446,233,159483,1,0,0:0:0:0:
420,321,159806,1,0,3:0:0:0:
420,321,160129,1,0,0:0:0:0:
420,321,160451,1,0,0:0:0:0:
276,269,160774,5,2,0:0:0:0:
276,269,161097,1,0,0:0:0:0:
276,269,161419,1,0,0:0:0:0:
415,333,161741,1,2,1:2:0:0:
415,333,162709,6,0,P|430:295|432:259,1,76.6666666666667,2|0,1:1|0:0,0:0:0:0:
376,209,163032,1,0,0:0:0:0:
376,209,163193,2,0,P|369:168|353:136,1,76.6666666666667,10|0,1:2|0:0,0:0:0:0:
280,121,163516,1,0,0:0:0:0:
280,121,163677,2,0,P|254:89|224:69,1,76.6666666666667,2|0,1:1|0:0,0:0:0:0:
152,92,164000,1,0,0:0:0:0:
152,92,164161,2,0,P|113:77|77:74,2,76.6666666666667,12|0|0,1:2|0:0|0:0,0:0:0:0:
22,121,164645,6,0,P|7:159|5:195,1,76.6666666666667,2|0,1:1|0:0,0:0:0:0:
61,245,164968,1,0,0:0:0:0:
61,245,165129,2,0,P|68:286|84:318,1,76.6666666666667,10|0,1:2|0:0,0:0:0:0:
157,333,165452,1,0,0:0:0:0:
157,333,165613,2,0,P|183:365|213:385,1,76.6666666666667,2|0,1:1|0:0,0:0:0:0:
285,362,165936,1,0,0:0:0:0:
285,362,166097,2,0,P|323:376|359:379,2,76.6666666666667,12|0|0,1:2|0:0|0:0,0:0:0:0:
83,317,166580,5,4,1:1:0:0:
75,284,166741,1,0,0:0:0:0:
70,250,166902,1,0,0:0:0:0:
75,216,167063,1,10,1:2:0:0:
94,189,167225,1,0,0:0:0:0:
113,161,167386,1,0,0:0:0:0:
119,127,167547,1,4,1:1:0:0:
117,93,167709,1,0,0:0:0:0:
112,60,167870,1,0,0:0:0:0:
104,26,168032,2,0,L|5:41,2,76.6666666666667,12|0|0,1:2|0:0|0:0,0:0:0:0:
35,127,168516,5,4,1:1:0:0:
82,109,168677,1,0,0:0:0:0:
133,101,168838,1,0,0:0:0:0:
184,103,168999,1,10,1:2:0:0:
233,116,169161,1,0,0:0:0:0:
279,139,169322,1,0,0:0:0:0:
319,170,169483,1,4,1:1:0:0:
351,210,169645,1,0,0:0:0:0:
376,254,169806,1,0,0:0:0:0:
390,303,169967,1,4,1:2:0:0:
290,384,170209,2,0,L|302:279,1,57.5,8|0,0:0|0:0,0:0:0:0:
268,255,170451,6,0,P|236:239|183:236,2,76.6666666666667,2|0|0,1:3|0:0|0:0,0:0:0:0:
349,156,170935,2,0,P|314:172|276:176,2,76.6666666666667,10|0|0,1:2|0:0|0:0,0:0:0:0:
183,305,171419,2,0,P|147:307|99:331,2,76.6666666666667,2|0|0,1:3|0:0|0:0,0:0:0:0:
252,110,171903,2,0,P|213:107|179:91,2,76.6666666666667,12|0|0,1:2|0:0|0:0,0:0:0:0:
435,78,172387,6,0,L|426:-24,2,76.6666666666667,2|0|0,1:3|0:0|0:0,0:0:0:0:
479,209,172870,2,0,L|472:285,2,76.6666666666667,10|0|0,1:2|0:0|0:0,0:0:0:0:
252,110,173354,2,0,L|243:8,2,76.6666666666667,2|0|0,1:3|0:0|0:0,0:0:0:0:
296,241,173838,2,0,L|289:317,2,76.6666666666667,12|0|0,1:2|0:0|0:0,0:0:0:0:
102,96,174322,5,4,1:3:0:0:
90,145,174483,1,0,0:0:0:0:
90,196,174644,1,0,0:0:0:0:
103,246,174805,1,10,1:2:0:0:
126,291,174967,1,0,0:0:0:0:
160,329,175128,1,0,0:0:0:0:
202,358,175289,1,4,1:3:0:0:
249,377,175451,1,0,0:0:0:0:
300,384,175612,1,0,0:0:0:0:
350,379,175774,2,0,L|437:371,2,76.6666666666667,12|0|0,1:2|0:0|0:0,0:0:0:0:
376,258,176258,5,4,1:3:0:0:
350,214,176419,1,0,0:0:0:0:
312,179,176580,1,0,0:0:0:0:
266,157,176741,1,10,1:2:0:0:
216,149,176903,1,0,0:0:0:0:
166,157,177064,1,0,0:0:0:0:
120,179,177225,1,4,1:3:0:0:
82,213,177387,1,0,0:0:0:0:
56,257,177548,1,0,0:0:0:0:
44,306,177709,2,0,L|53:383,2,76.6666666666667,12|0|0,1:2|0:0|0:0,0:0:0:0:
0,140,178193,5,2,1:1:0:0:
76,148,178354,1,0,0:0:0:0:
152,157,178515,1,0,0:0:0:0:
228,165,178677,2,0,P|247:132|258:93,2,76.6666666666667,10|0|0,1:2|0:0|0:0,0:0:0:0:
117,267,179161,5,2,1:1:0:0:
193,259,179322,1,0,0:0:0:0:
269,250,179483,1,0,0:0:0:0:
345,242,179645,2,0,P|364:274|375:314,2,76.6666666666667,12|0|0,1:2|0:0|0:0,0:0:0:0:
47,318,180128,5,2,1:1:0:0:
17,248,180289,1,0,0:0:0:0:
32,174,180450,1,0,0:0:0:0:
87,122,180612,2,0,P|138:116|184:123,2,76.6666666666667,10|0|0,1:2|0:0|0:0,0:0:0:0:
240,39,181096,5,2,1:1:0:0:
269,108,181257,1,0,0:0:0:0:
254,182,181418,1,0,0:0:0:0:
199,234,181580,2,0,P|148:240|102:233,2,76.6666666666667,12|0|0,1:2|0:0|0:0,0:0:0:0:
19,353,182064,5,4,1:1:0:0:
3,278,182225,1,0,0:0:0:0:
15,202,182386,1,0,0:0:0:0:
52,136,182547,1,10,1:2:0:0:
110,86,182709,1,0,0:0:0:0:
181,60,182870,1,0,0:0:0:0:
258,60,183032,2,0,L|356:68,2,76.6666666666667,4|0|0,1:1|0:0|0:0,0:0:0:0:
325,161,183516,2,0,L|248:154,2,76.6666666666667,12|0|0,1:2|0:0|0:0,0:0:0:0:
423,113,183999,5,4,1:1:0:0:
436,187,184160,1,0,0:0:0:0:
419,262,184321,1,0,0:0:0:0:
374,323,184482,1,10,1:2:0:0:
308,361,184644,1,0,0:0:0:0:
233,369,184805,1,0,0:0:0:0:
160,347,184967,2,0,P|116:340|74:343,2,76.6666666666667,4|0|0,1:1|0:0|0:0,0:0:0:0:
216,297,185451,1,4,1:2:0:0:
12,345,185693,2,0,L|20:283,1,57.5,8|0,0:0|0:0,0:0:0:0:
0,214,185935,5,2,1:3:0:0:
76,210,186096,1,0,0:0:0:0:
153,207,186257,1,0,0:0:0:0:
229,204,186418,1,10,1:2:0:0:
306,201,186580,1,0,0:0:0:0:
383,198,186741,1,0,0:0:0:0:
459,195,186903,5,2,1:3:0:0:
382,189,187064,1,0,0:0:0:0:
306,184,187225,1,0,0:0:0:0:
229,178,187386,1,12,1:2:0:0:
153,173,187548,1,0,0:0:0:0:
76,167,187709,1,0,0:0:0:0:
0,162,187870,5,2,1:3:0:0:
65,123,188031,1,0,0:0:0:0:
140,112,188192,1,0,0:0:0:0:
214,132,188353,1,10,1:2:0:0:
274,179,188515,1,0,0:0:0:0:
310,246,188676,1,0,0:0:0:0:
318,322,188838,5,2,1:3:0:0:
242,322,188999,1,0,0:0:0:0:
169,299,189160,1,0,0:0:0:0:
107,254,189321,1,12,1:2:0:0:
63,192,189483,1,0,0:0:0:0:
41,119,189644,1,0,0:0:0:0:
43,42,189806,6,0,P|73:17|119:6,2,76.6666666666667,4|0|0,1:3|0:0|0:0,0:0:0:0:
118,104,190290,2,0,P|148:129|194:140,2,76.6666666666667,10|0|0,1:2|0:0|0:0,0:0:0:0:
192,42,190774,2,0,P|222:17|268:6,2,76.6666666666667,4|0|0,1:3|0:0|0:0,0:0:0:0:
267,104,191258,2,0,P|297:129|343:140,2,76.6666666666667,12|0|0,1:2|0:0|0:0,0:0:0:0:
343,42,191741,5,4,1:3:0:0:
169,342,192225,1,2,1:2:0:0:
169,42,192709,1,4,1:3:0:0:
343,342,193193,1,12,1:2:0:0:
256,192,193677,5,2,0:0:0:0:
59,260,209161,6,0,L|75:381,2,103.499996841431,2|0|0,0:0|0:0|0:0,0:0:0:0:
99,199,210128,2,0,L|105:110,3,68.9999978942872
182,133,211096,2,0,L|177:201,3,68.9999978942872
255,203,212064,2,0,L|260:135,3,68.9999978942872
311,74,213032,6,0,P|359:92|401:94,3,68.9999978942872
482,140,213999,2,0,P|448:146|416:160,3,68.9999978942872
314,203,214967,2,0,P|362:221|404:223,3,68.9999978942872,0|0|0|2,0:0|0:0|0:0|0:0,0:0:0:0:
485,269,215935,1,0,0:0:0:0:
485,269,216177,2,0,P|451:275|419:289,1,68.9999978942872,2|0,0:0|0:0,0:0:0:0:
359,335,216661,1,2,0:0:0:0:
359,335,216903,6,0,L|231:320,2,103.499996841431,2|0|0,0:0|0:0|0:0,0:0:0:0:
417,284,217870,2,0,L|433:204,3,68.9999978942872
357,198,218838,2,0,L|343:265,3,68.9999978942872
283,179,219806,2,0,L|269:246,3,68.9999978942872
256,192,220774,12,8,224161,0:0:0:0:
62,88,224645,6,0,L|213:78,1,137.999995788574,4|0,1:2|3:0,0:0:0:0:
199,78,225370,1,0,0:0:0:0:
442,148,225612,2,0,L|291:138,1,137.999995788574,0|0,0:0|3:0,0:0:0:0:
304,138,226337,1,0,0:0:0:0:
80,232,226580,2,0,L|231:222,1,137.999995788574,0|0,0:0|3:0,0:0:0:0:
217,222,227305,1,0,0:0:0:0:
424,296,227548,2,0,L|273:286,1,137.999995788574,0|0,0:0|3:0,0:0:0:0:
286,286,228273,1,0,0:0:0:0:
216,234,228516,6,0,P|199:303|209:371,1,137.999995788574,2|0,1:2|3:0,0:0:0:0:
208,368,229241,1,0,0:0:0:0:
345,369,229483,2,0,P|362:300|352:232,1,137.999995788574,0|0,0:0|3:0,0:0:0:0:
352,234,230208,1,0,0:0:0:0:
281,190,230451,6,0,P|212:207|144:197,1,137.999995788574,0|0,0:0|3:0,0:0:0:0:
146,197,231176,1,0,0:0:0:0:
146,61,231419,2,0,P|215:44|271:54,1,103.499996841431,0|8,0:0|0:0,0:0:0:0:
246,47,231903,1,0,3:0:0:0:
363,5,232145,1,8,0:0:0:0:
363,5,232266,1,8,0:0:0:0:
363,5,232387,6,0,P|372:59|359:136,1,129.375004935265,2|0,1:2|0:0,0:0:0:0:
360,132,232870,2,0,P|306:160|278:161,1,86.2500032901765,0|0,3:0|0:0,0:0:0:0:
427,296,233354,2,0,P|418:242|431:165,1,129.375004935265,2|0,1:2|0:0,0:0:0:0:
429,168,233838,2,0,P|483:140|511:139,1,86.2500032901765,0|0,3:0|0:0,0:0:0:0:
347,214,234322,6,0,P|291:206|224:240,1,129.375004935265,2|0,1:2|0:0,0:0:0:0:
227,236,234806,2,0,P|187:268|136:277,1,86.2500032901765,0|0,3:0|0:0,0:0:0:0:
104,338,235290,2,0,P|69:312|60:226,1,129.375004935265,2|0,1:2|0:0,0:0:0:0:
57,231,235774,2,0,P|87:190|121:170,1,86.2500032901765,0|0,3:0|0:0,0:0:0:0:
125,91,236258,6,0,P|169:108|265:103,1,129.375004935265,2|0,1:2|0:0,0:0:0:0:
314,141,236741,2,0,P|325:105|325:42,1,86.2500032901765,2|0,1:2|0:0,0:0:0:0:
417,236,237225,2,0,P|373:219|277:224,1,129.375004935265,2|0,1:2|0:0,0:0:0:0:
228,186,237709,2,0,P|217:222|217:285,1,86.2500032901765,2|0,1:2|0:0,0:0:0:0:
158,325,238193,5,2,1:2:0:0:
138,316,238313,1,0,3:0:0:0:
117,311,238434,1,0,3:0:0:0:
95,310,238555,1,0,3:0:0:0:
74,313,238676,1,2,1:2:0:0:
53,318,238797,1,0,3:0:0:0:
34,328,238918,1,0,3:0:0:0:
16,340,239039,1,0,3:0:0:0:
273,330,239524,1,8,0:0:0:0:
273,330,239645,2,0,L|277:395,2,43.1250016450883,0|8|4,1:0|0:3|0:3,0:0:0:0:
184,263,240128,6,2,B|184:205|184:205|237:135|237:135|98:119,1,275.999991577149,6|8,1:2|1:2,0:1:0:0:
6,98,240854,1,0,0:0:0:0:
108,202,241096,6,2,B|306:203|306:203|230:294,1,275.999991577149,2|8,1:2|1:2,0:1:0:0:
189,353,241822,1,0,0:0:0:0:
240,117,242064,5,2,1:3:0:0:
189,353,242306,1,4,0:3:0:0:
108,202,242548,2,0,P|94:135|109:65,1,137.999995788574,10|0,1:2|0:0,0:0:0:0:
299,203,243032,5,4,1:3:0:0:
87,356,243274,1,2,0:3:0:0:
1,112,243516,1,12,1:2:0:0:
1,112,243758,1,2,0:0:0:0:
171,280,243999,6,0,P|312:293|388:190,1,275.999991577149,2|8,1:1|1:2,0:0:0:0:
457,23,244725,2,0,P|444:65|464:159,1,137.999995788574,2|0,0:3|1:2,0:0:0:0:
318,17,245209,1,0,0:0:0:0:
318,17,245330,1,0,0:0:0:0:
318,17,245451,2,0,P|331:59|311:153,1,137.999995788574,10|0,1:2|0:0,0:0:0:0:
457,272,245935,6,0,B|404:211|404:211|175:238,1,275.999991577149,4|8,1:1|1:2,0:0:0:0:
104,301,246661,1,0,0:0:0:0:
142,34,246903,1,4,1:1:0:0:
397,143,247145,1,0,0:0:0:0:
397,143,247266,1,0,0:0:0:0:
397,143,247387,2,0,L|378:283,1,137.999995788574,8|0,1:2|0:0,0:0:0:0:
94,316,247870,6,2,B|73:120|73:120|143:178,1,275.999991577149,6|8,1:2|1:2,0:1:0:0:
253,274,248596,1,0,0:0:0:0:
457,82,248838,6,2,P|308:58|231:167,1,275.999991577149,2|8,1:2|1:2,0:1:0:0:
235,143,249564,1,0,0:0:0:0:
48,364,249806,5,2,1:2:0:0:
80,323,249927,1,0,0:0:0:0:
102,277,250048,1,0,0:0:0:0:
111,226,250169,1,0,0:0:0:0:
107,174,250290,2,0,L|121:25,1,137.999995788574,8|2,1:2|0:3,0:0:0:0:
235,143,250774,1,2,1:1:0:0:
235,143,250895,2,0,L|222:280,1,137.999995788574
266,339,251258,1,8,1:2:0:0:
498,79,251741,6,0,P|419:53|309:207,1,275.999991577149,2|8,1:1|1:2,0:0:0:0:
297,350,252467,2,0,P|376:376|486:222,1,275.999991577149,2|0,0:3|0:0,0:0:0:0:
203,190,253193,2,0,L|217:328,1,137.999995788574,10|0,1:2|0:0,0:0:0:0:
31,327,253677,5,8,1:1:0:0:
309,236,253919,1,0,0:0:0:0:
93,104,254161,5,8,1:2:0:0:
395,189,254403,1,0,0:0:0:0:
36,187,254645,5,4,1:1:0:0:
387,87,254887,1,0,3:0:0:0:
200,69,255128,1,8,1:2:0:0:
200,69,255249,2,0,P|193:144|212:216,1,137.999995788574
159,282,255612,6,0,B|101:188|116:112|116:112|98:153|44:171,1,275.999991577149,6|8,1:2|1:2,0:0:0:0:
25,67,256338,1,0,0:0:0:0:
171,357,256580,6,0,B|221:348|233:298|233:298|280:389|432:350,1,275.999991577149,2|8,1:2|1:2,0:0:0:0:
465,286,257306,1,0,0:0:0:0:
283,33,257548,5,4,1:2:0:0:
159,282,257790,1,0,0:0:0:0:
272,52,258032,5,10,1:2:0:0:
391,302,258274,1,0,0:0:0:0:
235,178,258516,5,2,1:3:0:0:
235,178,258758,1,2,0:3:0:0:
500,157,259000,1,12,1:2:0:0:
374,284,259242,1,10,0:1:0:0:
209,95,259483,6,0,P|57:182|52:279,1,275.999991577149,2|8,1:1|1:2,0:0:0:0:
131,296,260209,2,0,P|185:359|293:363,1,137.999995788574,2|0,0:3|1:0,0:0:0:0:
293,290,260692,1,0,0:0:0:0:
293,290,260813,1,0,0:0:0:0:
293,290,260935,2,0,P|239:227|131:223,1,137.999995788574,10|0,1:2|0:0,0:0:0:0:
101,145,261419,6,0,L|383:127,1,275.999991577149,4|8,1:1|1:2,0:0:0:0:
452,66,262145,1,0,0:0:0:0:
365,213,262387,1,4,1:1:0:0:
201,227,262628,1,0,0:0:0:0:
201,227,262749,1,0,0:0:0:0:
201,227,262870,2,0,L|230:376,1,137.999995788574,8|0,1:2|0:0,0:0:0:0:
281,200,263354,6,2,P|317:94|478:64,1,275.999991577149,6|8,1:2|1:2,0:1:0:0:
464,58,264080,1,0,0:0:0:0:
227,362,264322,6,2,P|191:256|30:226,1,275.999991577149,2|8,1:2|1:2,0:1:0:0:
43,220,265048,1,0,0:0:0:0:
141,363,265290,5,2,1:2:0:0:
195,136,265532,1,0,0:0:0:0:
291,327,265774,5,8,1:2:0:0:
43,220,266016,1,0,0:0:0:0:
342,136,266258,5,4,1:3:0:0:
59,378,266499,1,2,0:3:0:0:
2,12,266741,1,12,1:2:0:0:
2,12,266983,1,0,0:0:0:0:
208,49,267225,6,0,B|224:136|224:136|192:209|192:209|215:327,1,275.999991577149,2|8,1:1|1:2,0:0:0:0:
296,346,267951,2,0,L|263:187,1,137.999995788574,2|0,0:3|1:2,0:0:0:0:
150,127,268434,1,0,0:0:0:0:
319,37,268677,2,0,P|318:123|470:203,1,275.999991577149,10|10,1:2|1:1,0:0:0:0:
512,295,269403,5,0,0:0:0:0:
512,295,269524,1,0,0:0:0:0:
512,295,269645,1,8,1:2:0:0:
493,105,269887,1,0,0:0:0:0:
512,295,270129,1,6,1:1:0:0:
481,311,270249,1,8,0:3:0:0:
448,319,270370,1,8,0:3:0:0:
413,318,270491,1,8,0:3:0:0:
380,310,270612,1,8,1:2:0:0:
350,293,270733,1,4,0:3:0:0:
325,269,270854,1,4,0:3:0:0:
306,240,270975,1,4,0:3:0:0:
295,208,271097,5,2,1:3:0:0:
290,250,271217,1,0,0:0:0:0:
284,293,271338,1,2,0:0:0:0:
278,336,271459,1,0,0:0:0:0:
273,379,271580,1,12,1:2:0:0:
172,380,271822,1,2,0:3:0:0:
177,338,271942,1,0,0:0:0:0:
183,295,272063,1,2,1:2:0:0:
189,252,272184,1,0,0:0:0:0:
194,209,272305,1,4,0:0:0:0:
149,144,272548,2,0,P|158:93|143:25,1,115,8|0,1:2|0:0,0:0:0:0:
194,209,273032,5,2,1:3:0:0:
229,184,273152,1,0,0:0:0:0:
270,171,273273,1,2,0:0:0:0:
313,170,273394,1,0,0:0:0:0:
355,180,273515,1,12,1:2:0:0:
512,114,273758,1,2,0:3:0:0:
470,124,273879,1,0,0:0:0:0:
427,122,274000,1,2,1:2:0:0:
386,109,274121,1,0,0:0:0:0:
350,85,274241,1,4,0:0:0:0:
258,21,274483,2,0,P|197:14|134:30,1,115,8|0,1:2|0:0,0:0:0:0:
58,74,274967,6,0,L|-1:79,1,57.5,4|0,1:3|0:0,0:0:0:0:
69,159,275209,2,0,L|10:148,1,57.5,2|0,0:0|0:0,0:0:0:0:
66,245,275451,2,0,L|12:219,1,57.5,12|0,1:2|0:0,0:0:0:0:
127,323,275693,1,4,0:3:0:0:
162,345,275813,1,0,0:0:0:0:
205,341,275934,1,2,1:2:0:0:
236,313,276055,1,0,0:0:0:0:
245,272,276176,1,4,0:0:0:0:
335,231,276419,2,0,P|330:278|339:345,1,115,8|0,1:2|0:0,0:0:0:0:
409,0,276903,6,0,L|468:5,1,57.5,4|0,1:3|0:0,0:0:0:0:
398,85,277145,2,0,L|456:74,1,57.5,2|0,0:0|0:0,0:0:0:0:
401,171,277387,2,0,L|454:145,1,57.5,12|0,1:2|0:0,0:0:0:0:
472,250,277628,1,4,0:3:0:0:
429,257,277748,1,0,0:0:0:0:
387,249,277869,1,2,1:2:0:0:
350,228,277990,1,0,0:0:0:0:
322,195,278112,2,0,P|323:164|327:136,2,57.5,4|0|8,0:0|3:0|1:2,0:0:0:0:
228,335,278596,2,0,P|228:302|223:277,1,57.5,0|0,3:0|3:0,0:0:0:0:
166,166,278838,5,2,1:3:0:0:
123,160,278958,1,0,0:0:0:0:
82,171,279079,1,2,0:0:0:0:
49,199,279200,1,0,0:0:0:0:
30,237,279321,1,12,1:2:0:0:
79,313,279564,1,2,0:3:0:0:
121,318,279684,1,0,0:0:0:0:
162,307,279805,1,2,1:2:0:0:
195,279,279926,1,0,0:0:0:0:
214,241,280047,1,4,0:0:0:0:
345,160,280290,2,0,P|347:209|362:281,1,115,8|0,1:2|0:0,0:0:0:0:
457,282,280774,5,2,1:3:0:0:
461,239,280894,1,0,0:0:0:0:
466,196,281015,1,2,0:0:0:0:
471,153,281136,1,0,0:0:0:0:
475,110,281257,1,12,1:2:0:0:
378,101,281499,1,2,0:3:0:0:
374,144,281619,1,0,0:0:0:0:
369,187,281740,1,2,1:2:0:0:
364,230,281861,1,0,0:0:0:0:
360,273,281982,1,4,0:0:0:0:
411,360,282225,2,0,P|351:358|294:340,1,115,8|0,1:2|0:0,0:0:0:0:
192,263,282709,6,0,L|201:325,1,57.5,4|0,1:3|0:0,0:0:0:0:
106,275,282951,2,0,L|115:337,1,57.5,2|0,0:0|0:0,0:0:0:0:
21,287,283193,2,0,L|30:349,1,57.5,12|0,1:2|0:0,0:0:0:0:
67,201,283435,1,4,0:3:0:0:
109,194,283556,1,0,0:0:0:0:
152,188,283677,1,2,1:2:0:0:
195,182,283798,1,0,0:0:0:0:
237,176,283918,1,4,0:0:0:0:
309,114,284161,2,0,P|296:63|297:-7,1,115,8|0,1:2|0:0,0:0:0:0:
401,8,284645,6,0,L|463:-1,1,57.5,4|0,1:3|0:0,0:0:0:0:
413,94,284887,2,0,L|475:85,1,57.5,2|0,0:0|0:0,0:0:0:0:
425,179,285129,2,0,L|487:170,1,57.5,12|0,1:2|0:0,0:0:0:0:
476,246,285370,1,4,0:3:0:0:
435,258,285490,1,0,0:0:0:0:
393,264,285611,1,2,1:2:0:0:
350,261,285732,1,0,0:0:0:0:
308,252,285853,1,4,0:0:0:0:
237,299,286096,2,0,P|181:285|118:292,1,115,8|0,1:2|0:0,0:0:0:0:
33,340,286580,5,8,1:3:0:0:
48,299,286700,1,0,0:0:0:0:
54,257,286821,1,2,0:0:0:0:
49,214,286942,1,0,0:0:0:0:
35,173,287064,2,0,L|48:114,1,57.5,12|0,1:2|0:0,0:0:0:0:
181,0,287306,1,8,0:3:0:0:
165,40,287426,1,0,0:0:0:0:
159,82,287547,1,2,1:2:0:0:
164,125,287668,1,0,0:0:0:0:
178,166,287790,2,0,L|165:225,1,57.5,4|0,0:0|0:0,0:0:0:0:
126,283,288032,1,8,1:2:0:0:
236,288,288274,1,0,0:0:0:0:
346,293,288516,5,8,1:3:0:0:
350,250,288636,1,0,0:0:0:0:
355,207,288757,1,2,0:0:0:0:
360,164,288878,1,0,0:0:0:0:
364,121,288999,2,0,L|361:65,1,57.5,12|0,1:2|0:0,0:0:0:0:
449,143,289241,1,8,0:3:0:0:
444,185,289361,1,0,0:0:0:0:
439,228,289482,1,2,1:2:0:0:
434,271,289603,1,0,0:0:0:0:
430,314,289725,2,0,L|433:370,1,57.5,4|0,0:0|0:0,0:0:0:0:
512,325,289967,1,8,1:2:0:0:
348,378,290209,1,0,0:0:0:0:
229,308,290451,5,4,1:3:0:0:
186,299,290571,1,0,0:0:0:0:
144,301,290692,1,2,0:0:0:0:
103,315,290813,1,0,0:0:0:0:
67,339,290935,2,0,L|62:274,1,57.5,12|0,1:2|0:0,0:0:0:0:
170,203,291177,1,4,0:3:0:0:
127,212,291297,1,0,0:0:0:0:
85,210,291418,1,2,1:2:0:0:
44,196,291539,1,0,0:0:0:0:
8,172,291661,2,0,L|3:237,1,57.5,4|0,0:0|0:0,0:0:0:0:
117,118,291903,1,8,1:2:0:0:
117,118,292024,1,0,0:0:0:0:
117,118,292145,1,0,0:0:0:0:
0,303,292387,5,4,1:3:0:0:
0,303,292508,1,0,0:0:0:0:
0,303,292629,1,2,0:0:0:0:
142,262,292870,2,0,P|197:289|257:294,1,115,12|4,1:2|0:3,0:0:0:0:
288,272,293233,1,0,0:0:0:0:
322,246,293354,2,0,L|386:244,1,57.5,2|0,1:2|0:0,0:0:0:0:
381,162,293596,2,0,L|323:163,1,57.5,4|0,0:0|3:0,0:0:0:0:
245,196,293838,2,0,L|243:132,1,57.5,8|0,1:2|0:0,0:0:0:0:
161,137,294080,2,0,L|162:194,1,57.5,0|0,3:0|3:0,0:0:0:0:
69,287,294322,5,8,1:3:0:0:
79,230,294442,1,0,0:0:0:0:
78,173,294563,1,2,0:0:0:0:
66,117,294684,1,0,0:0:0:0:
43,64,294805,1,12,1:2:0:0:
252,24,295048,1,8,0:3:0:0:
242,81,295168,1,0,0:0:0:0:
243,138,295289,1,2,1:2:0:0:
255,194,295410,1,0,0:0:0:0:
278,247,295531,1,4,0:0:0:0:
167,143,295774,1,8,1:2:0:0:
167,143,295895,1,0,0:0:0:0:
167,143,296016,1,0,0:0:0:0:
278,247,296258,5,8,1:3:0:0:
317,265,296378,1,0,0:0:0:0:
358,275,296499,1,2,0:0:0:0:
401,279,296620,1,0,0:0:0:0:
444,275,296741,2,0,L|446:214,1,57.5,12|0,1:2|0:0,0:0:0:0:
510,168,296983,1,8,0:3:0:0:
496,127,297103,1,0,0:0:0:0:
466,96,297225,5,2,1:2:0:0:
422,95,297346,1,0,0:0:0:0:
380,103,297467,1,4,0:0:0:0:
343,124,297588,1,0,0:0:0:0:
309,150,297709,1,8,1:2:0:0:
269,166,297830,1,0,0:0:0:0:
226,169,297951,2,0,L|149:168,1,57.5
90,212,298193,5,4,1:3:0:0:
108,250,298313,1,0,0:0:0:0:
120,292,298434,1,2,0:0:0:0:
125,335,298555,1,0,0:0:0:0:
123,378,298676,1,12,1:2:0:0:
226,169,298919,1,4,0:3:0:0:
207,130,299039,1,0,0:0:0:0:
195,88,299160,1,2,1:2:0:0:
190,45,299281,1,0,0:0:0:0:
192,2,299402,1,4,0:0:0:0:
327,41,299645,1,8,1:2:0:0:
327,41,299766,1,0,0:0:0:0:
327,41,299887,1,0,0:0:0:0:
221,262,300128,5,2,1:2:0:0:
221,262,300249,1,0,0:0:0:0:
221,262,300370,1,0,0:0:0:0:
300,311,300612,2,0,L|447:299,1,115,2|0,1:2|0:0,0:0:0:0:
415,301,300975,1,0,0:0:0:0:
415,301,301096,1,2,1:2:0:0:
415,301,301217,2,0,L|421:134,1,115
419,186,301580,1,8,1:2:0:0:
353,130,301821,1,0,0:0:0:0:
506,85,302063,5,6,1:2:0:0:
