osu file format v14

[General]
AudioFilename: audio.mp3
AudioLeadIn: 0
PreviewTime: 15603
Countdown: 0
SampleSet: Soft
StackLeniency: 0.7
Mode: 0
LetterboxInBreaks: 0
WidescreenStoryboard: 1

[Editor]
Bookmarks: 54313,69797,100765,131732,162700,193668,224636,240119,271087,302055
DistanceSpacing: 0.8
BeatDivisor: 3
GridSize: 8
TimelineZoom: 3.599998

[Metadata]
Title:Nautilus
TitleUnicode:Nautilus
Artist:Creo
ArtistUnicode:Creo
Creator:VINXIS
Version:Hard
Source:osu!
Tags:cheesecake mapper's mappers' guild mapper mappers featured artist
BeatmapID:2128333
BeatmapSetID:1015289

[Difficulty]
HPDrainRate:5
CircleSize:3
OverallDifficulty:6
ApproachRate:6.7
SliderMultiplier:1.6
SliderTickRate:1

[Events]
//Background and Video events
0,0,"bg.jpg",0,0
//Break Periods
2,131941,146025
2,193877,207961
2,217828,222961
//Storyboard Layer 0 (Background)
//Storyboard Layer 1 (Fail)
//Storyboard Layer 2 (Pass)
//Storyboard Layer 3 (Foreground)
//Storyboard Layer 4 (Overlay)
//Storyboard Sound Samples

[TimingPoints]
129,483.870967741935,4,2,69,100,1,0
854,-100,4,2,1,40,0,0
11741,-100,4,2,1,20,0,0
13677,-100,4,2,1,30,0,0
15612,-100,4,2,1,40,0,0
31096,-100,4,2,3,50,0,0
31821,-100,4,2,4,50,0,0
31822,-100,4,2,4,50,0,0
32548,-100,4,2,5,50,0,0
33032,-100,4,2,6,50,0,0
33757,-100,4,2,7,50,0,0
33758,-100,4,2,7,50,0,0
33999,-100,4,2,8,50,0,0
34482,-100,4,2,9,50,0,0
34483,-100,4,2,9,50,0,0
34967,-100,4,2,10,50,0,0
35692,-100,4,2,4,50,0,0
35693,-100,4,2,4,50,0,0
36419,-100,4,2,11,50,0,0
36903,-100,4,2,7,50,0,0
38596,-100,4,2,1,50,0,0
54322,-100,4,2,1,50,0,0
62064,-100,4,2,1,50,0,0
65450,-100,4,2,1,60,0,0
65451,-100,4,2,1,60,0,0
69806,-79.9999999999999,4,2,12,90,0,0
70289,-79.9999999999999,4,2,1,90,0,0
70290,-79.9999999999999,4,2,1,90,0,0
70774,-79.9999999999999,4,2,12,90,0,0
71741,-79.9999999999999,4,2,13,90,0,0
73435,-79.9999999999999,4,2,0,90,0,0
73677,-79.9999999999999,4,2,42,90,0,0
77548,-79.9999999999999,4,2,12,90,0,0
78031,-79.9999999999999,4,2,1,90,0,0
78032,-79.9999999999999,4,2,1,90,0,0
78516,-79.9999999999999,4,2,12,90,0,0
78999,-79.9999999999999,4,2,1,90,0,0
79483,-79.9999999999999,4,2,12,90,0,0
80934,-79.9999999999999,4,2,1,90,0,0
80935,-79.9999999999999,4,2,1,90,0,0
81419,-79.9999999999999,4,2,42,90,0,0
85290,-79.9999999999999,4,2,12,90,0,0
85773,-79.9999999999999,4,2,1,90,0,0
85774,-79.9999999999999,4,2,1,90,0,0
86258,-79.9999999999999,4,2,12,90,0,0
86741,-79.9999999999999,4,2,1,90,0,0
87225,-79.9999999999999,4,2,14,90,0,0
88193,-79.9999999999999,4,2,13,90,0,0
89161,-79.9999999999999,4,2,42,90,0,0
93032,-79.9999999999999,4,2,12,90,0,0
94482,-79.9999999999999,4,2,1,90,0,0
94483,-79.9999999999999,4,2,1,90,0,0
95935,-79.9999999999999,4,2,13,90,0,0
96903,-79.9999999999999,4,2,42,90,0,0
100774,-100,4,2,34,90,0,0
129806,-100,4,2,1,90,0,0
147225,-100,4,2,1,80,0,0
162709,-100,4,2,96,80,0,0
193677,-100,4,2,1,50,0,0
224645,-100,4,2,1,50,0,0
232387,-100,4,2,1,50,0,0
239524,-100,4,2,1,60,0,0
240128,-79.9999999999999,4,2,12,90,0,0
240611,-79.9999999999999,4,2,1,90,0,0
240612,-79.9999999999999,4,2,1,90,0,0
241096,-79.9999999999999,4,2,12,90,0,0
242064,-79.9999999999999,4,2,13,90,0,0
243757,-79.9999999999999,4,2,0,90,0,0
243758,-79.9999999999999,4,2,0,90,0,0
243999,-79.9999999999999,4,2,42,90,0,0
247870,-79.9999999999999,4,2,12,90,0,0
249321,-79.9999999999999,4,2,1,90,0,0
249322,-79.9999999999999,4,2,1,90,0,0
249806,-79.9999999999999,4,2,12,90,0,0
251257,-79.9999999999999,4,2,1,90,0,0
251258,-79.9999999999999,4,2,1,90,0,0
251741,-79.9999999999999,4,2,42,90,0,0
255612,-79.9999999999999,4,2,12,90,0,0
256095,-79.9999999999999,4,2,1,90,0,0
256096,-79.9999999999999,4,2,1,90,0,0
256580,-79.9999999999999,4,2,12,90,0,0
257548,-79.9999999999999,4,2,14,90,0,0
258516,-79.9999999999999,4,2,13,90,0,0
259483,-79.9999999999999,4,2,42,90,0,0
263354,-79.9999999999999,4,2,12,90,0,0
264805,-79.9999999999999,4,2,1,90,0,0
264806,-79.9999999999999,4,2,1,90,0,0
266258,-79.9999999999999,4,2,13,90,0,0
267225,-79.9999999999999,4,2,42,90,0,0
271096,-100,4,2,34,90,0,1
300128,-100,4,2,1,90,0,1
302063,-100,4,2,1,100,0,1
302064,-25,4,2,1,100,0,0

[Colours]
Combo1 : 17,254,176
Combo2 : 173,255,95
Combo3 : 255,88,100
Combo4 : 255,94,55

[HitObjects]
13,216,38838,6,0,P|43:270|166:290,1,160,6|0,1:2|0:0,0:0:0:0:
200,232,39564,2,0,L|367:250,1,160,2|0,0:0|0:0,0:0:0:0:
451,221,40290,2,0,L|449:131,1,80,2|2,0:0|0:0,0:0:0:0:
133,119,41983,2,0,L|117:32,2,80,0|2|0,0:0|0:0|0:0,0:0:0:0:
87,204,42709,6,0,L|257:226,1,160,6|0,1:2|0:0,0:0:0:0:
328,273,43435,2,0,P|354:212|350:116,1,160,2|0,0:0|0:0,0:0:0:0:
255,131,44161,2,0,L|85:109,1,160,2|2,0:0|0:0,0:0:0:0:
434,328,46338,1,8,0:0:0:0:
434,328,46580,6,0,B|452:251|452:251|436:171,1,160,6|0,1:2|0:0,0:0:0:0:
457,77,47306,2,0,L|279:85,1,160,2|0,0:0|0:0,0:0:0:0:
217,138,48032,2,0,L|225:223,1,80,2|2,0:0|0:0,0:0:0:0:
146,313,49725,2,0,L|50:302,2,80,0|2|0,0:0|0:0|0:0,0:0:0:0:
231,357,50451,6,0,L|482:349,2,240,2|2|2,0:0|0:0|0:0,0:0:0:0:
38,343,52387,1,2,0:0:0:0:
508,10,53838,2,0,L|505:97,1,80,8|4,0:0|0:3,0:0:0:0:
433,154,54322,6,0,L|261:126,1,160,6|0,1:2|1:0,0:0:0:0:
247,318,55290,2,0,L|419:346,1,160,2|0,1:2|1:0,0:0:0:0:
250,228,56258,6,0,L|170:233,2,80,2|0|0,1:2|0:0|1:0,0:0:0:0:
225,37,57225,2,0,L|145:42,2,80,2|0|0,1:2|0:0|1:0,0:0:0:0:
48,112,58193,6,0,L|34:276,1,160,2|0,1:2|1:0,0:0:0:0:
226,286,59161,2,0,L|239:126,1,160,2|0,1:2|1:0,0:0:0:0:
409,37,60128,6,0,L|305:39,1,80,2|0,1:2|0:0,0:0:0:0:
285,124,60612,2,0,L|389:122,1,80,2|0,1:2|0:0,0:0:0:0:
450,187,61096,1,2,1:2:0:0:
450,187,61338,1,0,0:0:0:0:
450,187,61580,1,2,1:2:0:0:
295,301,62064,5,8,1:2:0:0:
202,132,62548,1,8,1:2:0:0:
176,322,63032,1,8,1:2:0:0:
302,177,63516,1,8,1:2:0:0:
457,289,63999,6,0,P|484:186|486:91,1,160,8|8,1:2|1:2,0:0:0:0:
300,86,64967,2,0,P|273:189|271:284,1,160,8|8,1:2|1:2,0:0:0:0:
115,357,65935,6,0,L|-4:340,1,80,10|0,1:2|3:0,0:0:0:0:
54,251,66419,2,0,L|173:268,1,80,10|0,1:2|3:0,0:0:0:0:
199,192,66903,2,0,L|318:175,1,80,10|0,1:2|3:0,0:0:0:0:
260,86,67387,2,0,L|141:103,1,80,10|0,1:2|3:0,0:0:0:0:
87,75,67870,6,0,L|72:167,1,80,2|0,1:2|3:0,0:0:0:0:
163,189,68354,2,0,L|148:281,1,80,2|0,1:2|3:0,0:0:0:0:
239,303,68838,2,0,L|224:395,2,80,2|0|10,1:2|3:0|1:2,0:0:0:0:
322,77,69806,6,2,B|228:42|228:42|123:86,1,200,6|8,1:2|1:2,0:1:0:0:
137,321,70774,2,2,B|228:359|228:359|322:324,1,200,2|8,1:2|1:2,0:1:0:0:
437,360,71499,1,0,0:0:0:0:
486,250,71741,2,0,L|478:146,2,100,2|4|10,1:3|0:3|1:2,0:0:0:0:
276,131,72709,2,0,L|284:235,2,100,4|2|12,1:3|0:3|1:2,0:0:0:0:
162,91,73435,1,2,0:0:0:0:
58,150,73677,6,0,P|36:260|79:377,1,200,2|8,1:0|1:2,0:0:0:0:
177,329,74403,2,0,P|287:351|404:308,1,200,2|0,0:3|0:0,0:0:0:0:
473,267,75128,2,0,L|457:147,1,100,10|0,1:2|0:0,0:0:0:0:
511,58,75612,6,0,L|264:72,1,200,4|8,1:0|1:2,0:0:0:0:
258,177,76338,1,0,0:0:0:0:
199,72,76580,2,0,L|0:83,1,200,4|8,1:1|1:2,0:0:0:0:
5,323,77548,6,2,B|76:338|76:338|131:317|131:317|228:333,1,200,6|8,1:2|1:2,0:1:0:0:
234,213,78274,1,0,0:0:0:0:
316,300,78516,2,2,B|387:315|387:315|442:294|442:294|539:310,1,200,2|8,1:2|1:2,0:1:0:0:
376,105,79483,6,0,P|368:154|371:204,1,100,2|0,1:2|0:0,0:0:0:0:
259,158,79967,2,0,L|132:133,1,100,8|2,1:2|0:3,0:0:0:0:
185,20,80451,2,0,L|367:59,2,100,2|0|8,1:1|0:0|1:2,0:0:0:0:
23,198,81419,6,0,P|36:301|150:333,1,200,2|8,1:1|1:2,0:0:0:0:
222,285,82145,2,0,P|209:182|95:150,1,200,2|0,0:3|0:0,0:0:0:0:
27,81,82870,2,0,L|154:20,1,100,10|0,1:2|0:0,0:0:0:0:
235,13,83354,6,0,B|279:58|279:58|433:52,1,200,8|8,1:1|1:2,0:0:0:0:
218,189,84322,2,0,P|317:164|442:183,1,200,4|8,1:1|1:2,0:0:0:0:
448,58,85048,1,0,0:0:0:0:
328,68,85290,6,2,L|93:24,1,200,6|8,1:2|1:2,0:1:0:0:
68,263,86258,2,2,L|303:307,1,200,2|8,1:2|1:2,0:1:0:0:
348,213,86983,1,0,0:0:0:0:
294,105,87225,6,0,L|304:5,1,100,4|0,1:2|0:0,0:0:0:0:
424,29,87709,2,0,L|413:128,1,100,10|0,1:2|0:0,0:0:0:0:
461,261,88193,5,2,1:3:0:0:
461,261,88435,1,2,0:3:0:0:
461,261,88677,1,12,1:2:0:0:
461,261,88919,1,10,0:1:0:0:
461,261,89161,6,0,P|345:263|226:303,1,200,2|8,1:1|1:2,0:0:0:0:
274,165,89887,2,0,P|158:163|39:123,1,200,2|0,0:3|0:0,0:0:0:0:
7,238,90612,2,0,L|18:365,1,100,10|0,1:2|0:0,0:0:0:0:
136,349,91096,6,0,L|383:335,1,200,4|8,1:0|1:2,0:0:0:0:
456,330,91822,1,0,0:0:0:0:
450,210,92064,2,0,L|439:11,1,200,4|8,1:1|1:2,0:0:0:0:
209,83,93032,6,2,B|122:28|122:28|-28:59,1,200,2|8,1:2|1:2,0:1:0:0:
14,167,93758,1,0,0:0:0:0:
2,286,93999,2,2,B|89:341|89:341|239:310,1,200,2|8,1:2|1:2,0:1:0:0:
413,247,94967,6,0,L|443:367,1,100,2|0,1:2|0:0,0:0:0:0:
321,376,95451,2,0,L|296:278,1,100,8|0,1:2|0:0,0:0:0:0:
326,162,95935,1,4,1:3:0:0:
326,162,96177,1,2,0:3:0:0:
326,162,96419,1,12,1:2:0:0:
117,42,96903,6,0,P|110:168|83:257,1,200,2|8,1:1|1:2,0:0:0:0:
206,268,97628,2,0,P|213:142|240:53,1,200,2|0,0:3|0:0,0:0:0:0:
346,30,98354,2,0,L|330:156,1,100,10|0,1:2|0:0,0:0:0:0:
423,208,98838,5,10,1:1:0:0:
239,363,99322,1,8,1:2:0:0:
91,173,99806,2,0,L|109:58,1,100,6|8,1:1|0:3,0:0:0:0:
226,88,100290,2,0,L|210:186,1,100,8|4,1:2|0:3,0:0:0:0:
191,283,100774,6,0,L|327:307,2,80,2|2|12,1:3|0:0|1:2,0:0:0:0:
106,328,101499,2,0,L|-30:352,2,80,2|2|4,0:3|1:2|0:0,0:0:0:0:
100,231,102225,1,8,1:2:0:0:
198,66,102709,6,0,L|334:90,2,80,2|2|12,1:3|0:2|1:2,0:0:0:0:
113,111,103435,2,0,L|-23:135,2,80,2|2|4,0:3|1:2|0:0,0:0:0:0:
107,15,104160,1,8,1:2:0:0:
288,160,104645,6,0,P|299:97|270:-4,1,160,4|12,1:3|1:2,0:0:0:0:
369,212,105370,2,0,P|358:275|360:387,1,160,4|4,0:3|0:0,0:0:0:0:
454,167,106096,1,8,1:2:0:0:
232,210,106580,6,0,P|221:273|250:374,1,160,4|12,1:3|1:2,0:0:0:0:
151,158,107306,2,0,P|162:95|160:-17,1,160,4|4,0:3|3:2,0:0:0:0:
47,151,108032,2,0,L|56:260,1,80,8|0,1:2|3:0,0:0:0:0:
108,310,108516,6,0,L|-28:334,2,80,2|2|12,1:3|0:0|1:2,0:0:0:0:
193,355,109241,2,0,L|329:379,2,80,2|2|4,0:3|1:2|0:0,0:0:0:0:
199,258,109967,1,8,1:2:0:0:
101,93,110451,6,0,L|-35:117,2,80,2|2|12,1:3|0:0|1:2,0:0:0:0:
186,138,111177,2,0,L|322:162,2,80,2|2|4,0:3|1:2|0:0,0:0:0:0:
192,43,111902,1,8,1:2:0:0:
409,167,112387,6,0,P|398:104|427:3,1,160,4|12,1:3|1:2,0:0:0:0:
328,219,113112,2,0,P|339:282|337:394,1,160,4|4,0:3|0:0,0:0:0:0:
468,247,113838,1,8,1:2:0:0:
229,223,114322,6,0,P|218:286|247:387,1,160,4|12,1:3|1:2,0:0:0:0:
148,171,115048,2,0,P|159:108|157:-4,1,160,4|4,0:3|0:0,0:0:0:0:
63,202,115774,2,0,L|72:311,1,80,8|0,1:2|0:0,0:0:0:0:
82,382,116258,5,8,1:3:0:0:
82,382,116499,1,2,0:2:0:0:
82,382,116741,2,0,L|183:360,1,80,12|8,1:2|0:3,0:0:0:0:
164,268,117225,2,0,L|242:285,2,80,2|4|8,1:2|0:0|1:2,0:0:0:0:
214,121,118193,5,8,1:3:0:0:
214,121,118434,1,2,0:0:0:0:
214,121,118677,2,0,L|113:99,1,80,12|8,1:2|0:3,0:0:0:0:
132,8,119161,2,0,L|53:25,2,80,2|4|8,1:2|0:0|1:2,0:0:0:0:
322,33,120128,6,0,L|332:125,1,80,4|2,1:3|0:0,0:0:0:0:
427,113,120612,2,0,L|437:205,1,80,12|4,1:2|0:3,0:0:0:0:
363,257,121096,2,0,L|252:274,2,80,2|4|8,1:2|0:0|1:2,0:0:0:0:
182,323,122064,6,0,L|172:231,1,80,4|2,1:3|0:0,0:0:0:0:
77,243,122548,2,0,L|67:151,1,80,12|4,1:2|0:3,0:0:0:0:
141,99,123032,2,0,L|252:82,1,80,2|4,1:2|3:2,0:0:0:0:
294,148,123516,2,0,L|405:131,1,80,8|8,1:2|3:2,0:0:0:0:
460,198,123999,5,8,1:3:0:0:
460,198,124241,1,2,0:0:0:0:
460,198,124483,2,0,L|470:312,1,80,12|8,1:2|0:3,0:0:0:0:
388,333,124967,2,0,L|284:326,1,80,2|4,1:2|0:0,0:0:0:0:
246,253,125451,2,0,L|142:246,1,80,8|0,1:2|0:0,0:0:0:0:
78,250,125935,5,8,1:3:0:0:
78,250,126177,1,2,0:0:0:0:
78,250,126419,2,0,L|68:136,1,80,12|8,1:2|0:3,0:0:0:0:
150,115,126903,2,0,L|254:122,1,80,2|4,1:2|0:0,0:0:0:0:
245,25,127387,2,0,L|165:19,1,80,8|0,1:2|0:0,0:0:0:0:
142,112,127870,6,0,L|129:214,2,80,4|2|12,1:3|0:0|1:2,0:0:0:0:
237,125,128596,2,0,L|224:227,2,80,4|2|4,0:3|1:2|0:0,0:0:0:0:
332,138,129322,2,0,L|319:240,1,80,8|0,1:2|0:0,0:0:0:0:
393,281,129806,5,2,1:2:0:0:
223,371,130290,1,2,1:2:0:0:
60,268,130774,1,2,1:2:0:0:
251,249,131258,1,8,1:2:0:0:
241,57,131741,5,6,1:2:0:0:
375,35,147225,6,0,L|526:46,2,106.666666666667,2|0|0,0:0|0:0|0:0,0:0:0:0:
362,162,148193,2,0,L|513:173,2,106.666666666667,0|0|0,3:0|0:0|0:0,0:0:0:0:
245,108,149161,2,0,L|94:119,2,106.666666666667,2|0|0,0:0|0:0|0:0,0:0:0:0:
258,235,150129,2,0,L|107:246,2,106.666666666667,0|0|0,3:0|0:0|0:0,0:0:0:0:
375,184,151096,6,0,L|388:322,2,106.666666666667,2|0|0,0:0|0:0|0:0,0:0:0:0:
502,172,152064,2,0,L|512:278,2,106.666666666667,0|0|0,3:0|0:0|0:0,0:0:0:0:
395,100,153032,2,0,L|275:89,2,106.666666666667,2|0|0,0:0|0:0|0:0,0:0:0:0:
383,227,153999,2,0,L|263:216,2,106.666666666667,0|0|0,3:0|0:0|0:0,0:0:0:0:
485,303,154967,6,0,P|498:227|515:188,2,106.666666666667,2|0|0,0:0|0:0|0:0,0:0:0:0:
363,342,155935,2,0,P|287:329|248:312,2,106.666666666667,0|0|0,3:0|0:0|0:0,0:0:0:0:
370,214,156903,2,0,L|394:81,2,106.666666666667,2|0|0,0:0|0:0|0:0,0:0:0:0:
242,214,157870,2,0,L|223:109,2,106.666666666667,0|0|0,3:0|0:0|0:0,0:0:0:0:
256,192,158838,12,2,161741,1:2:0:0:
383,233,162709,6,0,L|395:307,2,53.3333333333333,2|0|0,1:1|0:0|0:0,0:0:0:0:
310,168,163193,2,0,P|269:217|181:211,1,106.666666666667,10|0,1:2|0:0,0:0:0:0:
164,298,163677,2,0,L|171:367,2,53.3333333333333,2|0|0,1:1|0:0|0:0,0:0:0:0:
95,230,164161,2,0,P|64:187|14:171,1,106.666666666667,12|0,1:2|0:0,0:0:0:0:
12,74,164645,5,2,1:1:0:0:
52,86,164806,1,0,0:0:0:0:
92,99,164967,1,0,0:0:0:0:
131,114,165128,2,0,L|259:124,1,106.666666666667,10|0,1:2|0:0,0:0:0:0:
284,206,165612,1,2,1:1:0:0:
324,194,165773,1,0,0:0:0:0:
364,181,165934,1,0,0:0:0:0:
403,166,166096,2,0,L|531:156,1,106.666666666667,12|0,1:2|0:0,0:0:0:0:
505,254,166580,6,0,L|505:307,2,53.3333333333333,4|0|0,1:1|0:0|0:0,0:0:0:0:
412,281,167064,2,0,P|339:258|267:270,1,106.666666666667,10|0,1:2|0:0,0:0:0:0:
228,311,167548,2,0,L|227:364,2,53.3333333333333,4|0|0,1:1|0:0|0:0,0:0:0:0:
140,270,168032,2,0,P|120:220|117:167,1,106.666666666667,12|0,1:2|0:0,0:0:0:0:
132,72,168516,5,4,1:1:0:0:
174,72,168677,1,0,0:0:0:0:
216,70,168838,1,0,0:0:0:0:
248,97,168999,2,0,L|230:227,1,106.666666666667,10|0,1:2|0:0,0:0:0:0:
310,260,169483,1,4,1:1:0:0:
352,260,169644,1,0,0:0:0:0:
394,262,169805,1,0,0:0:0:0:
426,235,169967,2,0,L|408:105,1,106.666666666667,4|0,1:2|0:0,0:0:0:0:
342,60,170451,6,0,L|337:-9,2,53.3333333333333,2|0|0,1:3|0:0|0:0,0:0:0:0:
262,114,170935,2,0,L|265:167,2,53.3333333333333,10|0|0,1:2|0:0|0:0,0:0:0:0:
175,72,171419,2,0,L|170:3,2,53.3333333333333,2|0|0,1:3|0:0|0:0,0:0:0:0:
88,114,171903,2,0,L|96:250,1,106.666666666667,12|0,1:2|0:0,0:0:0:0:
60,310,172387,5,2,1:3:0:0:
101,319,172548,1,0,0:0:0:0:
143,319,172709,1,0,0:0:0:0:
183,307,172870,1,10,1:2:0:0:
223,294,173032,1,0,0:0:0:0:
265,300,173193,1,0,0:0:0:0:
306,309,173354,1,2,1:3:0:0:
348,309,173516,1,0,0:0:0:0:
390,302,173677,1,0,0:0:0:0:
426,280,173839,2,0,L|418:144,1,106.666666666667,12|0,1:2|0:0,0:0:0:0:
310,111,174322,6,0,L|254:136,2,53.3333333333333,4|0|0,1:3|0:0|0:0,0:0:0:0:
242,42,174806,2,0,L|181:35,2,53.3333333333333,10|0|0,1:2|0:0|0:0,0:0:0:0:
336,20,175290,2,0,L|384:-1,2,53.3333333333333,4|0|0,1:3|0:0|0:0,0:0:0:0:
404,89,175774,2,0,L|457:94,2,53.3333333333333,12|0|0,1:2|0:0|0:0,0:0:0:0:
388,184,176258,5,4,1:3:0:0:
347,171,176419,1,0,0:0:0:0:
311,147,176580,1,0,0:0:0:0:
281,116,176741,1,10,1:2:0:0:
252,83,176903,1,0,0:0:0:0:
214,62,177064,1,0,0:0:0:0:
172,54,177225,2,0,L|105:36,2,53.3333333333333,4|0|0,1:3|0:0|0:0,0:0:0:0:
77,129,177709,2,0,L|10:111,2,53.3333333333333,12|0|0,1:2|0:0|0:0,0:0:0:0:
137,232,178193,6,0,L|125:306,2,53.3333333333333,2|0|0,1:1|0:0|0:0,0:0:0:0:
208,166,178677,2,0,P|249:215|337:209,1,106.666666666667,10|0,1:2|0:0,0:0:0:0:
350,298,179161,2,0,L|343:367,2,53.3333333333333,2|0|0,1:1|0:0|0:0,0:0:0:0:
417,230,179645,2,0,P|447:187|497:171,1,106.666666666667,12|0,1:2|0:0,0:0:0:0:
512,74,180128,5,2,1:1:0:0:
472,86,180289,1,0,0:0:0:0:
432,99,180450,1,0,0:0:0:0:
393,114,180612,2,0,L|265:124,1,106.666666666667,10|0,1:2|0:0,0:0:0:0:
240,206,181095,1,2,1:1:0:0:
200,194,181258,1,0,0:0:0:0:
160,181,181419,1,0,0:0:0:0:
121,166,181580,2,0,L|-7:156,1,106.666666666667,12|0,1:2|0:0,0:0:0:0:
9,255,182064,6,0,L|10:325,2,53.3333333333333,4|0|0,1:1|0:0|0:0,0:0:0:0:
105,259,182548,2,0,P|178:282|250:270,1,106.666666666667,10|0,1:2|0:0,0:0:0:0:
294,321,183032,2,0,L|294:374,2,53.3333333333333,4|0|0,1:1|0:0|0:0,0:0:0:0:
368,259,183516,2,0,P|387:209|390:156,1,106.666666666667,12|0,1:2|0:0,0:0:0:0:
359,65,183999,5,4,1:1:0:0:
317,65,184160,1,0,0:0:0:0:
275,63,184321,1,0,0:0:0:0:
243,90,184483,2,0,L|261:220,1,106.666666666667,10|0,1:2|0:0,0:0:0:0:
181,253,184966,1,4,1:1:0:0:
139,253,185128,1,0,0:0:0:0:
97,255,185290,1,0,0:0:0:0:
65,228,185451,2,0,L|83:98,1,106.666666666667,4|0,1:2|0:0,0:0:0:0:
167,76,185935,6,0,L|172:7,2,53.3333333333333,2|0|0,1:3|0:0|0:0,0:0:0:0:
253,121,186419,2,0,L|249:174,2,53.3333333333333,10|0|0,1:2|0:0|0:0,0:0:0:0:
337,72,186903,2,0,L|342:3,2,53.3333333333333,2|0|0,1:3|0:0|0:0,0:0:0:0:
424,114,187387,2,0,L|416:250,1,106.666666666667,12|0,1:2|0:0,0:0:0:0:
470,300,187870,5,2,1:3:0:0:
428,307,188031,1,0,0:0:0:0:
386,307,188193,1,0,0:0:0:0:
345,298,188354,1,10,1:2:0:0:
303,292,188515,1,0,0:0:0:0:
263,305,188677,1,0,0:0:0:0:
223,317,188838,1,2,1:3:0:0:
181,317,188999,1,0,0:0:0:0:
140,308,189160,1,0,0:0:0:0:
106,281,189323,2,0,L|114:145,1,106.666666666667,12|0,1:2|0:0,0:0:0:0:
189,118,189806,6,0,L|245:143,2,53.3333333333333,4|0|0,1:3|0:0|0:0,0:0:0:0:
257,49,190290,2,0,L|317:42,2,53.3333333333333,10|0|0,1:2|0:0|0:0,0:0:0:0:
163,27,190774,2,0,L|114:6,2,53.3333333333333,4|0|0,1:3|0:0|0:0,0:0:0:0:
95,96,191258,2,0,L|41:101,2,53.3333333333333,12|0|0,1:2|0:0|0:0,0:0:0:0:
111,191,191741,5,4,1:3:0:0:
297,143,192225,1,2,1:2:0:0:
160,277,192709,1,4,1:3:0:0:
335,355,193193,1,12,1:2:0:0:
408,177,193677,5,2,0:0:0:0:
58,127,209161,6,0,L|53:253,2,120,2|0|0,0:0|0:0|0:0,0:0:0:0:
58,127,213032,5,0,0:0:0:0:
58,127,215693,6,0,L|221:114,2,160,2|2|2,0:0|0:0|0:0,0:0:0:0:
15,213,216903,2,0,L|39:363,2,120,2|0|0,0:0|0:0|0:0,0:0:0:0:
207,65,224161,5,8,0:0:0:0:
207,65,224645,6,0,P|122:62|35:37,1,160,4|0,1:2|3:0,0:0:0:0:
34,234,225612,2,0,P|119:237|206:262,1,160,0|0,0:0|3:0,0:0:0:0:
382,282,226580,6,0,P|404:192|390:83,1,160,0|0,0:0|3:0,0:0:0:0:
210,99,227548,2,0,P|188:189|202:298,1,160,0|0,0:0|3:0,0:0:0:0:
11,325,228516,6,0,L|31:137,1,160,2|0,1:2|3:0,0:0:0:0:
180,49,229483,2,0,L|339:65,1,160,0|0,0:0|3:0,0:0:0:0:
466,210,230451,2,0,L|482:50,2,160,0|0|0,0:0|3:0|0:0,0:0:0:0:
323,339,231903,1,0,3:0:0:0:
336,147,232387,5,2,1:2:0:0:
164,233,232870,1,0,3:0:0:0:
302,365,233354,1,2,1:2:0:0:
474,279,233837,1,0,3:0:0:0:
348,133,234322,6,0,P|327:226|339:292,1,160,2|0,1:2|3:0,0:0:0:0:
149,249,235290,2,0,P|170:156|158:90,1,160,2|0,1:2|3:0,0:0:0:0:
256,192,236258,12,0,239161,0:0:0:0:
190,307,240128,6,2,B|284:342|284:342|389:298,1,200,6|8,1:2|1:2,0:1:0:0:
375,63,241096,2,2,B|284:25|284:25|190:60,1,200,2|8,1:2|1:2,0:1:0:0:
75,24,241822,1,0,0:0:0:0:
26,134,242064,2,0,L|34:238,2,100,2|4|10,1:3|0:3|1:2,0:0:0:0:
236,253,243032,2,0,L|228:149,2,100,4|2|12,1:3|0:3|1:2,0:0:0:0:
350,293,243758,1,2,0:0:0:0:
240,340,243999,6,0,P|124:338|5:298,1,200,2|8,1:1|1:2,0:0:0:0:
51,195,244725,2,0,P|167:197|286:237,1,200,2|0,0:3|0:0,0:0:0:0:
362,253,245451,2,0,L|373:126,1,100,10|0,1:2|0:0,0:0:0:0:
376,35,245935,6,0,L|129:49,1,200,4|8,1:1|1:2,0:0:0:0:
56,54,246661,1,0,0:0:0:0:
62,174,246903,2,0,L|73:373,1,200,4|8,1:1|1:2,0:0:0:0:
289,270,247870,6,2,B|360:255|360:255|415:276|415:276|512:260,1,200,6|8,1:2|1:2,0:1:0:0:
512,148,248596,1,0,0:0:0:0:
476,33,248838,2,2,B|405:18|405:18|350:39|350:39|253:23,1,200,2|8,1:2|1:2,0:1:0:0:
88,170,249806,6,0,P|96:219|93:269,1,100,2|0,1:2|0:0,0:0:0:0:
205,223,250290,2,0,L|332:198,1,100,8|2,1:2|0:3,0:0:0:0:
279,85,250774,2,0,L|97:124,2,100,2|0|8,1:1|0:0|1:2,0:0:0:0:
489,198,251741,6,0,P|476:301|362:333,1,200,2|8,1:1|1:2,0:0:0:0:
290,285,252467,2,0,P|303:182|417:150,1,200,2|0,0:3|0:0,0:0:0:0:
485,81,253193,2,0,L|358:20,1,100,10|0,1:2|0:0,0:0:0:0:
277,13,253677,6,0,B|233:58|233:58|79:52,1,200,8|8,1:1|1:2,0:0:0:0:
294,189,254645,2,0,P|195:164|70:183,1,200,4|8,1:1|1:2,0:0:0:0:
64,58,255370,1,0,0:0:0:0:
184,68,255612,6,0,L|419:24,1,200,6|8,1:2|1:2,0:0:0:0:
444,263,256580,2,0,L|209:307,1,200,2|8,1:2|1:2,0:0:0:0:
164,213,257306,1,0,0:0:0:0:
218,105,257548,6,0,L|208:5,1,100,4|0,1:2|0:0,0:0:0:0:
88,29,258032,2,0,L|99:128,1,100,10|0,1:2|0:0,0:0:0:0:
45,235,258516,5,2,1:3:0:0:
45,235,258758,1,2,0:3:0:0:
45,235,258999,1,12,1:2:0:0:
45,235,259241,1,10,0:1:0:0:
45,235,259483,6,0,P|11:137|44:41,1,200,2|8,1:1|1:2,0:0:0:0:
157,76,260209,2,0,P|267:54|384:97,1,200,2|0,0:3|0:0,0:0:0:0:
423,171,260935,2,0,L|436:270,1,100,10|0,1:2|0:0,0:0:0:0:
343,346,261419,6,0,L|107:330,1,200,4|8,1:1|1:2,0:0:0:0:
27,365,262145,1,0,0:0:0:0:
66,251,262387,2,0,L|66:21,1,200,4|8,1:1|1:2,0:0:0:0:
303,83,263354,6,2,B|390:28|390:28|540:59,1,200,6|8,1:2|1:2,0:1:0:0:
498,167,264080,1,0,0:0:0:0:
510,286,264322,2,2,B|423:341|423:341|273:310,1,200,2|8,1:2|1:2,0:1:0:0:
99,247,265290,6,0,L|69:367,1,100,2|0,1:2|0:0,0:0:0:0:
191,376,265774,2,0,L|215:278,1,100,8|0,1:2|0:0,0:0:0:0:
186,162,266258,1,4,1:3:0:0:
186,162,266499,1,2,0:3:0:0:
186,162,266741,1,12,1:2:0:0:
395,42,267225,6,0,P|402:168|429:257,1,200,2|8,1:1|1:2,0:0:0:0:
306,268,267951,2,0,P|299:142|272:53,1,200,2|0,0:3|0:0,0:0:0:0:
166,30,268677,2,0,L|182:156,1,100,10|0,1:2|0:0,0:0:0:0:
89,208,269161,5,10,1:1:0:0:
291,339,269645,1,8,1:2:0:0:
470,178,270128,2,0,L|452:63,1,100,6|8,1:1|0:3,0:0:0:0:
335,93,270612,2,0,L|350:191,1,100,8|4,1:2|0:3,0:0:0:0:
321,283,271096,6,0,L|242:296,2,80,2|2|12,1:3|0:0|1:2,0:0:0:0:
406,328,271822,2,0,L|484:341,2,80,2|2|4,0:3|1:2|0:0,0:0:0:0:
412,231,272548,1,8,1:2:0:0:
314,66,273032,6,0,L|235:79,2,80,2|2|12,1:3|0:0|1:2,0:0:0:0:
399,111,273757,2,0,L|477:124,2,80,2|2|4,0:3|1:2|0:0,0:0:0:0:
405,15,274482,1,8,1:2:0:0:
297,173,274967,6,0,P|289:134|310:10,1,160,4|12,1:3|1:2,0:0:0:0:
213,226,275693,2,0,P|221:265|200:389,1,160,4|4,0:3|0:0,0:0:0:0:
132,181,276418,1,8,1:2:0:0:
332,173,276903,6,0,P|340:134|319:10,1,160,4|12,1:3|1:2,0:0:0:0:
416,226,277629,2,0,P|408:265|429:389,1,160,4|4,0:3|0:0,0:0:0:0:
497,181,278354,1,8,1:2:0:0:
151,207,278838,6,0,L|73:220,2,80,2|2|12,1:3|0:0|1:2,0:0:0:0:
236,252,279564,2,0,L|315:265,2,80,2|2|4,0:3|1:2|0:0,0:0:0:0:
242,155,280289,1,8,1:2:0:0:
405,97,280774,6,0,L|483:110,2,80,2|2|12,1:3|0:0|1:2,0:0:0:0:
320,142,281499,2,0,L|241:155,2,80,2|2|4,0:3|1:2|0:0,0:0:0:0:
314,47,282224,1,8,1:2:0:0:
179,219,282709,6,0,P|171:258|192:382,1,160,4|12,1:3|1:2,0:0:0:0:
95,166,283435,2,0,P|103:127|82:3,1,160,4|4,0:3|0:0,0:0:0:0:
14,211,284160,1,8,1:2:0:0:
260,158,284645,6,0,P|252:119|273:-5,1,160,4|12,1:3|1:2,0:0:0:0:
176,211,285371,2,0,P|184:250|163:374,1,160,4|4,0:3|0:0,0:0:0:0:
95,166,286096,1,8,1:2:0:0:
315,345,286580,5,8,1:3:0:0:
315,345,286821,1,2,0:0:0:0:
315,345,287064,2,0,L|394:327,1,80,12|8,1:2|0:3,0:0:0:0:
411,233,287548,2,0,L|490:250,2,80,2|4|8,1:2|0:0|1:2,0:0:0:0:
315,121,288515,5,8,1:3:0:0:
315,121,288758,1,2,0:0:0:0:
315,121,288999,2,0,L|393:103,1,80,12|8,1:2|0:3,0:0:0:0:
380,8,289483,2,0,L|458:25,2,80,2|4|8,1:2|0:0|1:2,0:0:0:0:
190,33,290451,6,0,L|181:112,1,80,4|2,1:3|0:0,0:0:0:0:
85,113,290935,2,0,L|76:192,1,80,12|4,1:2|0:3,0:0:0:0:
149,257,291419,2,0,L|228:269,2,80,2|4|8,1:2|0:0|1:2,0:0:0:0:
330,323,292386,6,0,L|338:243,1,80,4|2,1:3|0:0,0:0:0:0:
435,243,292870,2,0,L|443:163,1,80,12|4,1:2|0:3,0:0:0:0:
371,99,293354,2,0,L|291:86,1,80,2|4,1:2|0:0,0:0:0:0:
218,148,293838,2,0,L|138:135,1,80,8|0,1:2|3:0,0:0:0:0:
61,187,294321,5,8,1:3:0:0:
61,187,294563,1,2,0:0:0:0:
61,187,294806,2,0,L|54:266,1,80,12|8,1:2|0:3,0:0:0:0:
124,333,295290,2,0,L|203:327,1,80,2|4,1:2|0:0,0:0:0:0:
266,253,295774,2,0,L|345:247,1,80,8|0,1:2|0:0,0:0:0:0:
446,228,296257,5,8,1:3:0:0:
446,228,296499,1,2,0:0:0:0:
446,228,296741,2,0,L|452:148,1,80,12|8,1:2|0:3,0:0:0:0:
362,115,297225,2,0,L|282:120,1,80,2|4,1:2|0:0,0:0:0:0:
267,25,297709,2,0,L|346:19,1,80,8|0,1:2|0:0,0:0:0:0:
370,112,298193,6,0,L|380:191,2,80,4|2|12,1:3|0:0|1:2,0:0:0:0:
275,125,298919,2,0,L|285:204,2,80,4|2|4,0:3|1:2|0:0,0:0:0:0:
180,138,299645,2,0,L|190:217,1,80,8|0,1:2|0:0,0:0:0:0:
275,262,300128,5,2,1:2:0:0:
91,320,300612,1,2,1:2:0:0:
76,128,301096,1,2,1:2:0:0:
261,76,301580,1,8,1:2:0:0:
142,226,302063,5,6,1:2:0:0:
