osu file format v14

[General]
AudioFilename: audio.mp3
AudioLeadIn: 0
PreviewTime: 15603
Countdown: 0
SampleSet: Soft
StackLeniency: 0.7
Mode: 0
LetterboxInBreaks: 0
WidescreenStoryboard: 1

[Editor]
Bookmarks: 54313,69797,100765,131732,162700,193668,224636,240119,271087,302055
DistanceSpacing: 1.2
BeatDivisor: 6
GridSize: 8
TimelineZoom: 3.599998

[Metadata]
Title:Nautilus
TitleUnicode:Nautilus
Artist:Creo
ArtistUnicode:Creo
Creator:VINXIS
Version:Extra
Source:osu!
Tags:cheesecake mapper's mappers' guild mapper mappers featured artist
BeatmapID:2134945
BeatmapSetID:1015289

[Difficulty]
HPDrainRate:5
CircleSize:4
OverallDifficulty:9
ApproachRate:9
SliderMultiplier:2.6
SliderTickRate:1

[Events]
//Background and Video events
0,0,"bg.jpg",0,0
//Break Periods
2,131941,146625
2,194602,196222
2,198473,200819
2,202344,203480
2,206215,208561
2,210086,215093
2,217828,220174
//Storyboard Layer 0 (Background)
//Storyboard Layer 1 (Fail)
//Storyboard Layer 2 (Pass)
//Storyboard Layer 3 (Foreground)
//Storyboard Layer 4 (Overlay)
//Storyboard Sound Samples

[TimingPoints]
129,483.870967741935,4,2,69,100,1,0
854,-250,4,2,1,40,0,0
11741,-250,4,2,1,20,0,0
13677,-250,4,2,1,30,0,0
15612,-250,4,2,1,40,0,0
31096,-250,4,2,3,50,0,0
31821,-250,4,2,4,50,0,0
31822,-250,4,2,4,50,0,0
32548,-250,4,2,5,50,0,0
33032,-250,4,2,6,50,0,0
33757,-250,4,2,7,50,0,0
33758,-250,4,2,7,50,0,0
33999,-250,4,2,8,50,0,0
34483,-250,4,2,9,50,0,0
34967,-250,4,2,10,50,0,0
35692,-250,4,2,4,50,0,0
35693,-250,4,2,4,50,0,0
36419,-250,4,2,11,50,0,0
36903,-250,4,2,7,50,0,0
38596,-100,4,2,1,50,0,0
39564,-166.666666666667,4,2,1,50,0,0
42709,-100,4,2,1,50,0,0
43435,-166.666666666667,4,2,1,50,0,0
46580,-100,4,2,1,50,0,0
47306,-166.666666666667,4,2,1,50,0,0
49725,-250.000000000001,4,2,1,50,0,0
53354,-133.333333333333,4,2,1,50,0,0
54322,-181.818181818181,4,2,1,50,0,0
64483,-133.333333333333,4,2,1,50,0,0
64967,-105.263157894737,4,2,1,50,0,0
65451,-86.9565217391303,4,2,1,60,0,0
69806,-66.6666666666667,4,2,12,90,0,0
70289,-66.6666666666667,4,2,1,90,0,0
70290,-133.333333333333,4,2,1,90,0,0
70774,-66.6666666666667,4,2,12,90,0,0
71741,-66.6666666666667,4,2,13,90,0,0
73435,-66.6666666666667,4,2,0,90,0,0
73677,-66.6666666666667,4,2,42,90,0,0
77548,-66.6666666666667,4,2,12,90,0,0
78031,-66.6666666666667,4,2,1,90,0,0
78032,-66.6666666666667,4,2,1,90,0,0
78516,-66.6666666666667,4,2,12,90,0,0
78999,-133.333333333333,4,2,1,90,0,0
79483,-66.6666666666667,4,2,12,90,0,0
80935,-100,4,2,1,90,0,0
81419,-66.6666666666667,4,2,42,90,0,0
85290,-66.6666666666667,4,2,12,90,0,0
85773,-66.6666666666667,4,2,1,90,0,0
85774,-133.333333333333,4,2,1,90,0,0
86258,-66.6666666666667,4,2,12,90,0,0
86741,-66.6666666666667,4,2,1,90,0,0
87225,-66.6666666666667,4,2,14,90,0,0
88193,-66.6666666666667,4,2,13,90,0,0
89161,-66.6666666666667,4,2,42,90,0,0
93032,-66.6666666666667,4,2,12,90,0,0
94482,-66.6666666666667,4,2,1,90,0,0
94483,-133.333333333333,4,2,1,90,0,0
95935,-133.333333333333,4,2,13,90,0,0
96903,-66.6666666666667,4,2,42,90,0,0
100774,-80,4,2,34,90,0,0
129806,-133.333333333333,4,2,1,90,0,0
147225,-153.846153846153,4,2,1,80,0,0
162709,-153.846153846153,4,2,96,80,0,0
193677,-222.22222222222,4,2,1,50,0,0
224645,-181.818181818181,4,2,1,50,0,0
239524,-100,4,2,1,60,0,0
240128,-66.6666666666667,4,2,12,90,0,0
240611,-66.6666666666667,4,2,1,90,0,0
240612,-133.333333333333,4,2,1,90,0,0
241096,-66.6666666666667,4,2,12,90,0,0
242064,-66.6666666666667,4,2,13,90,0,0
243758,-66.6666666666667,4,2,0,90,0,0
243999,-66.6666666666667,4,2,42,90,0,0
247870,-66.6666666666667,4,2,12,90,0,0
249321,-66.6666666666667,4,2,1,90,0,0
249322,-133.333333333333,4,2,1,90,0,0
249806,-66.6666666666667,4,2,12,90,0,0
251258,-133.333333333333,4,2,1,90,0,0
251741,-66.6666666666667,4,2,42,90,0,0
255612,-66.6666666666667,4,2,12,90,0,0
256095,-66.6666666666667,4,2,1,90,0,0
256096,-133.333333333333,4,2,1,90,0,0
256580,-66.6666666666667,4,2,12,90,0,0
257548,-66.6666666666667,4,2,14,90,0,0
258516,-66.6666666666667,4,2,13,90,0,0
259483,-66.6666666666667,4,2,42,90,0,0
263354,-66.6666666666667,4,2,12,90,0,0
264805,-66.6666666666667,4,2,1,90,0,0
264806,-133.333333333333,4,2,1,90,0,0
266258,-133.333333333333,4,2,13,90,0,0
267225,-66.6666666666667,4,2,42,90,0,0
271096,-79.9999999999999,4,2,34,90,0,1
300128,-133.333333333333,4,2,1,90,0,1
302063,-133.333333333333,4,2,1,100,0,1
302064,-25,4,2,1,100,0,0

[Colours]
Combo1 : 17,254,176
Combo2 : 173,255,95
Combo3 : 255,88,100
Combo4 : 255,94,55

[HitObjects]
71,132,129,5,6,2:3:0:0:
71,132,854,2,0,L|81:293,1,156,2|2,0:0|0:0,0:0:0:0:
80,287,2064,1,2,0:0:0:0:
430,84,3999,5,2,0:0:0:0:
420,305,7870,5,2,0:0:0:0:
420,305,8596,2,0,P|339:291|266:308,1,156,2|2,0:0|0:0,0:0:0:0:
268,307,9806,1,2,0:0:0:0:
154,68,11741,6,0,L|152:125,1,52,2|0,0:0|0:0,0:0:0:0:
237,120,12225,2,0,L|238:68,1,52,2|0,0:0|0:0,0:0:0:0:
196,198,12709,2,0,L|198:255,1,52,2|0,0:0|0:0,0:0:0:0:
113,250,13193,2,0,L|111:198,1,52,2|0,0:0|0:0,0:0:0:0:
326,136,13677,6,0,L|324:193,1,52,2|0,0:0|0:0,0:0:0:0:
409,188,14161,2,0,L|410:136,1,52,2|0,0:0|0:0,0:0:0:0:
368,266,14645,2,0,L|370:323,1,52,2|0,0:0|0:0,0:0:0:0:
285,318,15129,2,0,L|283:266,1,52,2|0,0:0|0:0,0:0:0:0:
197,123,15612,5,2,0:0:0:0:
197,123,15854,2,0,L|142:131,2,52,0|2|0,0:0|0:0|0:0,0:0:0:0:
50,293,16580,5,2,0:0:0:0:
50,293,16822,2,0,L|105:285,2,52,0|2|0,0:0|0:0|0:0,0:0:0:0:
322,219,17548,5,2,0:0:0:0:
322,219,17790,2,0,L|314:164,2,52,0|2|0,0:0|0:0|0:0,0:0:0:0:
421,252,18516,5,2,0:0:0:0:
421,252,18758,2,0,L|429:307,2,52,0|2|0,0:0|0:0|0:0,0:0:0:0:
476,172,19483,6,0,P|479:147|485:122,3,52,2|0|2|0,0:0|0:0|0:0|0:0,0:0:0:0:
398,49,20451,2,0,P|394:74|388:99,3,52,2|0|2|0,0:0|0:0|0:0|0:0,0:0:0:0:
198,170,21419,6,0,P|194:195|188:220,3,52,2|0|2|0,0:0|0:0|0:0|0:0,0:0:0:0:
276,293,22387,2,0,P|279:267|285:242,1,52,2|0,0:0|0:0,0:0:0:0:
362,300,22870,2,0,P|365:274|371:249,1,52,2|0,0:0|0:0,0:0:0:0:
343,168,23354,6,0,L|399:171,3,52,2|0|2|0,0:0|0:0|0:0|0:0,0:0:0:0:
500,300,24322,2,0,L|444:297,3,52,2|0|2|0,0:0|0:0|0:0|0:0,0:0:0:0:
499,112,25290,6,0,L|443:115,3,52,2|0|2|0,0:0|0:0|0:0|0:0,0:0:0:0:
342,244,26258,2,0,L|398:241,3,52,2|0|2|0,0:0|0:0|0:0|0:0,0:0:0:0:
277,179,27225,6,0,L|273:127,1,52,2|0,0:0|0:0,0:0:0:0:
329,62,27709,1,2,0:0:0:0:
329,62,27951,1,0,0:0:0:0:
236,0,28193,2,0,L|240:52,1,52,2|0,0:0|0:0,0:0:0:0:
184,117,28677,1,2,0:0:0:0:
184,117,28919,1,0,0:0:0:0:
107,65,29161,6,0,L|52:56,1,52,2|0,0:0|0:0,0:0:0:0:
40,144,29645,2,0,L|91:152,1,52,2|0,0:0|0:0,0:0:0:0:
184,117,30128,6,0,L|235:108,1,52,2|0,0:0|0:0,0:0:0:0:
251,196,30612,1,10,0:0:0:0:
251,196,31096,6,0,L|224:352,1,156,2|2,0:0|0:0,0:0:0:0:
224,349,32064,1,2,0:0:0:0:
136,368,32548,1,2,0:0:0:0:
320,329,33032,2,0,L|478:354,1,156,2|2,0:0|0:0,0:0:0:0:
474,353,33999,1,2,0:0:0:0:
458,233,34483,1,2,0:0:0:0:
358,278,34967,6,0,P|318:280|269:187,1,156,2|2,0:0|0:0,0:0:0:0:
268,190,35935,1,2,0:0:0:0:
281,78,36419,1,2,0:0:0:0:
177,127,36903,1,2,0:0:0:0:
190,102,38596,5,8,0:0:0:0:
190,102,38717,1,8,0:0:0:0:
190,102,38838,2,0,B|223:144|223:144|286:143|286:143|307:115|307:115|427:122,1,260,6|0,1:2|0:0,0:0:0:0:
462,184,39564,2,0,L|436:344,1,155.999995239258,2|0,0:0|0:0,0:0:0:0:
362,370,40290,1,2,0:0:0:0:
362,370,40532,1,2,0:0:0:0:
362,370,41983,1,0,0:0:0:0:
321,277,42225,1,2,0:0:0:0:
226,363,42467,1,0,0:0:0:0:
135,248,42709,6,0,B|108:189|108:189|156:-2,1,260,6|0,1:2|0:0,0:0:0:0:
242,28,43435,2,0,L|205:180,1,155.999995239258,2|0,0:0|0:0,0:0:0:0:
264,245,44161,2,0,L|418:291,1,155.999995239258,2|2,0:0|0:0,0:0:0:0:
28,61,46338,5,8,0:0:0:0:
28,61,46459,1,8,0:0:0:0:
28,61,46580,2,0,P|134:56|299:76,1,260,6|0,1:2|0:0,0:0:0:0:
458,161,47306,2,0,P|352:166|294:162,1,155.999995239258,2|0,0:0|0:0,0:0:0:0:
234,218,48032,1,2,0:0:0:0:
234,218,48274,1,2,0:0:0:0:
24,211,49725,6,0,L|28:266,2,52,0|2|0,0:0|0:0|0:0,0:0:0:0:
70,141,50451,1,2,0:0:0:0:
70,141,51177,1,2,0:0:0:0:
70,141,51903,1,2,0:0:0:0:
70,141,52387,5,2,0:0:0:0:
70,141,53354,5,0,1:0:0:0:
450,180,53717,1,8,1:3:0:0:
450,180,53838,2,0,L|453:233,2,48.750001859665,8|4|4,0:0|0:3|0:3,0:0:0:0:
182,23,54322,6,0,L|166:172,1,143.000004364014,6|0,1:2|1:0,0:0:0:0:
330,361,55290,2,0,L|346:212,1,143.000004364014,2|0,1:2|1:0,0:0:0:0:
393,140,56016,1,0,0:0:0:0:
393,140,56258,6,0,L|318:128,1,71.5000021820069,2|0,1:2|0:0,0:0:0:0:
253,282,56741,2,0,L|362:299,1,107.25000327301,0|0,1:0|0:0,0:0:0:0:
399,298,57225,6,0,L|411:223,1,71.5000021820069,2|0,1:2|0:0,0:0:0:0:
257,158,57709,2,0,L|239:267,1,107.25000327301,0|0,1:0|0:0,0:0:0:0:
253,282,58193,6,0,P|183:295|117:270,1,143.000004364014,2|0,1:2|1:0,0:0:0:0:
325,346,59161,2,0,P|395:333|461:358,1,143.000004364014,2|0,1:2|1:0,0:0:0:0:
507,283,59887,1,0,0:0:0:0:
425,188,60128,6,0,L|427:262,1,71.5000021820069,2|0,1:2|0:0,0:0:0:0:
332,188,60612,2,0,L|334:260,1,71.5000021820069,2|0,1:2|0:0,0:0:0:0:
239,188,61096,2,0,L|240:259,1,71.5000021820069,2|0,1:2|0:0,0:0:0:0:
194,324,61459,1,8,0:0:0:0:
194,324,61580,1,2,1:2:0:0:
285,109,61822,1,8,0:0:0:0:
285,109,61943,1,8,0:0:0:0:
225,52,62064,6,0,L|80:44,1,143.000004364014,8|8,1:2|1:2,0:0:0:0:
287,332,63032,2,0,L|432:340,1,143.000004364014,8|8,1:2|1:2,0:0:0:0:
494,384,63758,1,0,0:0:0:0:
463,257,63999,6,0,L|469:145,1,107.25000327301,8|0,1:2|0:0,0:0:0:0:
372,100,64483,6,0,L|364:246,1,146.250005578995,8|0,1:2|0:0,0:0:0:0:
265,235,64967,6,0,L|275:39,1,185.249995053291,8|0,1:2|0:0,0:0:0:0:
178,0,65451,6,0,L|166:223,1,224.250004277229,8|0,1:2|0:0,0:0:0:0:
215,303,65935,5,10,1:2:0:0:
40,252,66177,1,0,3:0:0:0:
309,316,66419,5,10,1:2:0:0:
134,367,66661,1,0,3:0:0:0:
390,354,66903,5,10,1:2:0:0:
215,303,67145,1,0,3:0:0:0:
484,265,67387,5,10,1:2:0:0:
309,316,67629,1,0,3:0:0:0:
309,316,67749,1,0,3:0:0:0:
309,316,67870,5,2,1:2:0:0:
261,345,67990,1,0,3:0:0:0:
207,360,68111,1,0,3:0:0:0:
151,357,68232,1,0,3:0:0:0:
99,339,68354,5,2,1:2:0:0:
121,268,68474,1,0,3:0:0:0:
175,217,68595,1,0,3:0:0:0:
246,198,68716,1,0,3:0:0:0:
318,216,68838,5,2,1:2:0:0:
403,245,68958,1,0,3:0:0:0:
475,191,69079,1,0,3:0:0:0:
471,101,69200,1,0,3:0:0:0:
399,57,69321,1,10,1:2:0:0:
399,57,69685,6,0,L|381:89,1,37.3750007128716
399,57,69806,6,2,L|-7:33,1,390.00001487732,6|8,1:2|1:2,0:1:0:0:
478,229,70532,1,0,0:0:0:0:
58,121,70774,6,2,L|447:144,1,390.00001487732,2|8,1:2|1:2,0:1:0:0:
0,201,71499,1,0,0:0:0:0:
319,54,71741,5,2,1:3:0:0:
304,336,71983,1,4,0:3:0:0:
301,41,72225,2,0,P|160:50|117:192,1,292.50001115799,10|0,1:2|0:0,0:0:0:0:
17,173,72709,6,0,P|25:235|-5:373,1,195.00000743866,4|2,1:3|0:3,0:0:0:0:
233,145,73193,1,12,1:2:0:0:
0,32,73435,1,2,0:0:0:0:
276,64,73677,6,0,B|324:122|324:122|261:347,1,292.50001115799,2|0,1:0|0:0,0:0:0:0:
180,277,74161,2,0,L|190:374,1,97.50000371933,8|0,1:2|0:0,0:0:0:0:
277,360,74403,6,0,P|357:350|481:372,1,195.00000743866,2|0,0:3|1:0,0:0:0:0:
95,329,74887,1,0,0:0:0:0:
95,329,75008,1,0,0:0:0:0:
95,329,75128,2,0,L|89:225,1,97.50000371933,10|0,1:2|0:0,0:0:0:0:
148,171,75370,2,0,L|154:67,1,97.50000371933
79,12,75612,6,0,P|132:38|368:49,1,292.50001115799,4|0,1:0|0:0,0:0:0:0:
448,29,76096,2,0,L|465:139,1,97.50000371933,8|0,1:2|0:0,0:0:0:0:
429,248,76338,2,0,L|326:240,1,97.50000371933
42,201,76580,5,4,1:1:0:0:
42,201,76822,1,0,0:0:0:0:
115,246,76943,1,0,0:0:0:0:
170,179,77064,2,0,L|267:186,1,97.50000371933,8|0,1:2|0:0,0:0:0:0:
356,331,77306,2,0,L|258:323,1,97.50000371933
93,132,77548,6,2,B|37:110|26:44|26:44|57:190|21:341,1,390.00001487732,6|8,1:2|1:2,0:1:0:0:
140,30,78274,1,0,0:0:0:0:
20,339,78516,6,2,B|70:320|95:241|95:241|162:348|337:338,1,390.00001487732,2|8,1:2|1:2,0:1:0:0:
483,81,79241,1,0,0:0:0:0:
319,358,79483,5,2,1:2:0:0:
266,307,79603,1,0,0:0:0:0:
235,241,79724,1,0,0:0:0:0:
228,169,79845,1,0,0:0:0:0:
248,99,79967,2,0,P|297:64|336:54,1,97.50000371933,8|0,1:2|0:0,0:0:0:0:
425,294,80209,2,0,P|378:279|340:249,1,97.50000371933,2|0,0:3|0:0,0:0:0:0:
200,12,80451,5,2,1:1:0:0:
121,59,80572,2,0,L|130:259,1,195.00000743866
206,384,80935,6,0,B|194:353|196:323|196:323|221:297|226:258|226:258|213:193,1,195,8|0,1:2|0:0,0:0:0:0:
151,136,81419,6,0,P|203:164|447:161,1,292.50001115799,2|0,1:1|0:0,0:0:0:0:
475,237,81903,2,0,L|467:337,1,97.50000371933,8|0,1:2|0:0,0:0:0:0:
208,384,82145,2,0,L|216:284,1,97.50000371933,2|0,0:3|0:0,0:0:0:0:
434,144,82387,6,0,L|320:123,1,97.50000371933,0|0,1:2|0:0,0:0:0:0:
294,350,82628,2,0,L|408:371,1,97.50000371933
215,173,82870,2,0,B|155:191|155:191|102:178|102:178|23:208,2,195.00000743866,10|0|8,1:2|0:0|1:1,0:0:0:0:
215,173,83596,6,0,P|195:226|193:284,1,97.50000371933
103,261,83838,1,8,1:2:0:0:
112,213,83958,1,0,0:0:0:0:
113,164,84079,1,0,0:0:0:0:
105,116,84200,1,0,0:0:0:0:
89,70,84322,5,4,1:1:0:0:
183,91,84442,1,0,3:0:0:0:
279,79,84563,1,0,3:0:0:0:
365,35,84684,1,0,3:0:0:0:
395,139,84806,5,8,1:2:0:0:
395,139,84927,2,0,P|386:221|415:350,1,195.00000743866
478,262,85290,6,2,P|428:255|95:347,1,390.00001487732,6|8,1:2|1:2,0:1:0:0:
0,36,86016,1,0,0:0:0:0:
264,379,86258,6,2,B|310:308|310:308|244:4,1,390.00001487732,2|8,1:2|1:2,0:1:0:0:
220,288,86983,1,0,0:0:0:0:
430,121,87225,5,4,1:2:0:0:
150,26,87467,1,0,0:0:0:0:
430,121,87709,5,10,1:2:0:0:
89,219,87951,1,0,0:0:0:0:
343,11,88193,6,2,L|340:117,1,97.50000371933,2|2,1:3|0:1,0:1:0:0:
169,373,88435,2,2,L|172:267,1,97.50000371933,2|2,0:3|0:1,0:1:0:0:
75,105,88677,2,2,L|181:108,1,97.50000371933,12|2,1:2|0:1,0:1:0:0:
437,279,88919,2,2,L|331:276,1,97.50000371933,10|2,0:1|0:1,0:1:0:0:
254,0,89161,6,0,B|245:292,1,292.50001115799,2|0,1:1|0:0,0:0:0:0:
162,363,89645,2,0,P|157:310|137:256,1,97.50000371933,8|0,1:2|0:0,0:0:0:0:
261,306,89887,6,0,B|406:303|406:303|376:298|358:275,1,195.00000743866,2|0,0:3|1:2,0:0:0:0:
15,74,90371,1,0,0:0:0:0:
15,74,90492,1,0,0:0:0:0:
15,74,90612,2,0,L|9:178,1,97.50000371933,10|0,1:2|0:0,0:0:0:0:
68,232,90854,2,0,L|74:336,1,97.50000371933
139,162,91096,6,0,P|200:183|428:125,1,292.50001115799,4|0,1:0|0:0,0:0:0:0:
476,188,91580,2,0,L|493:298,1,97.50000371933,8|0,1:2|0:0,0:0:0:0:
512,31,91822,2,0,L|409:39,1,97.50000371933
42,201,92064,5,4,1:1:0:0:
42,201,92306,1,0,0:0:0:0:
115,156,92427,1,0,0:0:0:0:
170,223,92548,2,0,L|267:216,1,97.50000371933,8|0,1:2|0:0,0:0:0:0:
381,337,92790,2,0,L|283:345,1,97.50000371933
34,110,93032,6,2,P|81:72|401:85,1,390.00001487732,2|8,1:2|1:2,0:1:0:0:
506,7,93758,1,0,0:0:0:0:
340,382,93999,6,2,B|270:263|295:126|295:126|359:147|379:210,1,390.00001487732,2|8,1:2|1:2,0:1:0:0:
421,288,94725,1,0,0:0:0:0:
91,248,94967,5,2,1:2:0:0:
117,106,95209,1,0,0:0:0:0:
220,325,95451,5,8,1:2:0:0:
194,183,95693,1,0,0:0:0:0:
9,208,95935,5,4,1:3:0:0:
295,43,96177,1,2,0:3:0:0:
366,341,96419,1,12,1:2:0:0:
194,183,96661,1,0,0:0:0:0:
376,362,96903,6,0,P|457:258|435:12,1,390.00001487732,2|8,1:1|1:2,0:0:0:0:
443,19,97508,1,0,0:0:0:0:
443,19,97628,2,0,L|338:34,1,97.50000371933,2|0,0:3|0:0,0:0:0:0:
293,128,97870,6,0,L|389:142,1,97.50000371933,0|0,1:2|0:0,0:0:0:0:
207,0,98112,2,0,L|192:96,1,97.50000371933
227,197,98354,2,0,P|169:187|32:215,1,195.00000743866,10|0,1:2|0:0,0:0:0:0:
269,339,98838,5,10,1:1:0:0:
346,32,99080,1,0,0:0:0:0:
269,339,99322,1,8,1:2:0:0:
226,341,99442,1,0,0:0:0:0:
183,340,99563,1,0,0:0:0:0:
141,335,99684,1,0,0:0:0:0:
99,326,99806,5,6,1:1:0:0:
79,269,99926,1,8,0:3:0:0:
76,208,100047,1,8,0:3:0:0:
92,150,100168,1,8,0:3:0:0:
126,99,100289,5,8,1:2:0:0:
212,69,100410,1,4,0:3:0:0:
302,52,100531,1,4,0:3:0:0:
393,47,100652,1,4,0:3:0:0:
484,55,100774,5,2,1:3:0:0:
474,95,100894,1,0,0:0:0:0:
469,135,101015,1,2,0:0:0:0:
469,176,101136,1,0,0:0:0:0:
433,256,101258,2,0,L|336:244,1,81.25,12|0,1:2|0:0,0:0:0:0:
203,214,101499,1,2,0:3:0:0:
258,298,101619,1,0,0:0:0:0:
203,214,101741,2,0,L|106:202,1,81.25,2|0,1:2|0:0,0:0:0:0:
44,243,101983,2,0,L|32:340,1,81.25,4|0,0:0|0:0,0:0:0:0:
97,381,102225,5,8,1:2:0:0:
83,119,102467,1,0,0:0:0:0:
345,105,102709,5,2,1:3:0:0:
357,143,102829,1,0,0:0:0:0:
363,183,102950,1,2,0:2:0:0:
361,224,103071,1,0,0:0:0:0:
441,281,103193,2,0,L|452:182,1,81.25,12|0,1:2|0:0,0:0:0:0:
185,190,103435,1,2,0:3:0:0:
276,177,103556,1,0,0:0:0:0:
185,190,103678,2,0,L|193:270,1,81.25,2|0,1:2|0:0,0:0:0:0:
144,339,103919,2,0,L|55:320,1,81.25,4|0,0:0|0:0,0:0:0:0:
431,347,104161,6,0,L|352:330,1,81.25,8|0,1:2|0:0,0:0:0:0:
298,269,104403,2,0,L|307:188,1,81.25
359,80,104645,5,4,1:3:0:0:
320,93,104765,1,0,0:0:0:0:
280,100,104886,1,2,0:0:0:0:
240,101,105007,1,0,0:0:0:0:
183,43,105128,2,0,L|95:36,1,81.25,12|0,1:2|0:0,0:0:0:0:
0,112,105370,1,4,0:3:0:0:
40,112,105491,1,0,0:0:0:0:
97,170,105612,2,0,L|185:177,1,81.25,2|0,1:2|0:0,0:0:0:0:
244,232,105854,2,0,L|237:312,1,81.25,4|0,0:0|0:0,0:0:0:0:
178,368,106096,5,8,1:2:0:0:
477,333,106338,1,0,0:0:0:0:
85,333,106580,5,4,1:3:0:0:
88,292,106700,1,0,0:0:0:0:
91,251,106821,1,2,0:0:0:0:
94,211,106942,1,0,0:0:0:0:
44,141,107064,2,0,P|54:97|54:47,1,81.25,12|0,1:2|0:0,0:0:0:0:
178,9,107306,2,0,P|168:53|168:103,1,81.25,4|0,0:3|0:0,0:0:0:0:
232,183,107548,6,0,L|326:179,1,81.25,2|0,1:2|0:0,0:0:0:0:
506,116,107790,1,4,3:2:0:0:
429,72,107911,1,0,3:0:0:0:
411,159,108032,2,0,L|424:240,1,81.25,8|0,1:2|0:0,0:0:0:0:
492,373,108274,2,0,L|505:292,1,81.25,0|0,3:0|3:0,0:0:0:0:
328,280,108516,5,2,1:3:0:0:
290,294,108636,1,0,0:0:0:0:
250,300,108757,1,2,0:0:0:0:
209,296,108878,1,0,0:0:0:0:
122,323,108999,2,0,L|132:241,1,81.25,12|0,1:2|0:0,0:0:0:0:
195,184,109241,1,2,0:3:0:0:
107,158,109362,1,0,0:0:0:0:
195,184,109483,2,0,L|185:102,1,81.25,2|0,1:2|0:0,0:0:0:0:
241,36,109725,2,0,L|336:27,1,81.25,4|0,0:0|0:0,0:0:0:0:
365,145,109967,6,0,L|284:137,1,81.25,8|0,1:2|0:0,0:0:0:0:
425,1,110209,2,0,L|411:81,1,81.25
195,184,110451,5,2,1:3:0:0:
198,224,110571,1,0,0:0:0:0:
221,256,110692,1,2,0:0:0:0:
258,273,110813,1,0,0:0:0:0:
340,303,110935,2,0,L|336:386,1,81.25,12|0,1:2|0:0,0:0:0:0:
269,106,111177,1,2,0:3:0:0:
351,76,111298,1,0,0:0:0:0:
269,106,111420,2,0,L|273:189,1,81.25,2|0,1:2|0:0,0:0:0:0:
419,248,111661,2,0,L|415:166,1,81.25,4|0,0:0|0:0,0:0:0:0:
111,212,111903,6,0,L|115:295,1,81.25,8|0,1:2|0:0,0:0:0:0:
261,354,112145,2,0,L|257:272,1,81.25
181,117,112387,5,4,1:3:0:0:
140,113,112507,1,0,0:0:0:0:
100,109,112628,1,2,0:2:0:0:
59,106,112749,1,0,0:0:0:0:
3,177,112870,2,0,L|0:258,1,81.25,12|0,1:2|0:0,0:0:0:0:
175,29,113112,1,4,0:3:0:0:
215,25,113233,1,0,0:0:0:0:
272,96,113354,2,0,L|275:177,1,81.25,2|0,1:2|0:0,0:0:0:0:
149,287,113596,2,0,L|146:206,1,81.25,4|0,0:0|0:0,0:0:0:0:
314,313,113838,5,8,1:2:0:0:
60,331,114080,1,0,0:0:0:0:
331,117,114322,5,4,1:3:0:0:
372,113,114442,1,0,0:0:0:0:
412,109,114563,1,2,0:0:0:0:
453,106,114684,1,0,0:0:0:0:
509,177,114806,2,0,L|512:258,1,81.25,12|0,1:2|0:0,0:0:0:0:
337,29,115047,1,4,0:3:0:0:
297,25,115168,1,0,0:0:0:0:
240,96,115290,2,0,L|237:177,1,81.25,2|0,1:2|0:0,0:0:0:0:
363,287,115532,2,0,L|366:206,1,81.25,4|0,0:0|0:0,0:0:0:0:
198,313,115773,5,8,1:2:0:0:
452,331,116015,1,0,0:0:0:0:
218,331,116258,5,8,1:3:0:0:
118,334,116378,1,0,0:0:0:0:
43,269,116499,1,2,0:2:0:0:
33,170,116620,1,0,0:0:0:0:
139,120,116741,2,0,L|131:201,1,81.25,12|0,1:2|0:0,0:0:0:0:
239,26,116983,5,8,0:3:0:0:
338,22,117103,1,0,0:0:0:0:
413,87,117224,1,2,1:2:0:0:
423,186,117345,1,0,0:0:0:0:
317,236,117467,2,0,L|326:156,1,81.25,4|0,0:0|0:0,0:0:0:0:
510,216,117709,2,0,L|502:297,1,81.25,8|0,1:2|0:0,0:0:0:0:
342,351,117951,2,0,L|252:335,1,81.25
43,269,118193,5,8,1:3:0:0:
63,173,118314,1,0,0:0:0:0:
112,89,118435,1,2,0:0:0:0:
37,26,118556,1,0,0:0:0:0:
195,37,118677,2,0,L|278:48,1,81.25,12|0,1:2|0:0,0:0:0:0:
470,7,118919,5,8,0:3:0:0:
450,103,119040,1,0,0:0:0:0:
401,187,119161,1,2,1:2:0:0:
476,250,119282,1,0,0:0:0:0:
318,239,119403,2,0,L|235:228,1,81.25,4|0,0:0|0:0,0:0:0:0:
195,37,119645,2,0,L|275:47,1,81.25,8|0,1:2|0:0,0:0:0:0:
138,140,119887,2,0,L|55:129,1,81.25
168,317,120128,5,4,1:3:0:0:
259,351,120249,1,0,0:0:0:0:
353,328,120370,1,2,0:0:0:0:
444,361,120491,1,0,0:0:0:0:
502,261,120612,2,0,L|494:172,1,81.25,12|0,1:2|0:0,0:0:0:0:
382,65,120854,5,4,0:3:0:0:
291,31,120975,1,0,0:0:0:0:
197,54,121096,1,2,1:2:0:0:
106,21,121217,1,0,0:0:0:0:
48,121,121338,2,0,L|56:210,1,81.25,4|0,0:0|0:0,0:0:0:0:
232,235,121580,2,0,L|224:154,1,81.25,8|0,1:2|0:0,0:0:0:0:
77,320,121822,2,0,L|157:312,1,81.25
376,349,122064,5,4,1:3:0:0:
390,252,122185,1,0,0:0:0:0:
328,176,122306,1,2,0:0:0:0:
342,79,122427,1,0,0:0:0:0:
273,0,122548,2,0,L|192:7,1,81.25,12|0,1:2|0:0,0:0:0:0:
98,74,122790,5,4,0:3:0:0:
84,171,122911,1,0,0:0:0:0:
146,247,123032,1,2,1:2:0:0:
132,344,123153,1,0,0:0:0:0:
239,352,123274,2,0,L|254:255,1,81.25,4|0,3:2|3:0,0:0:0:0:
315,184,123516,2,0,L|234:171,1,81.25,8|0,1:2|0:0,0:0:0:0:
251,65,123758,2,0,L|331:77,1,81.25,8|0,3:2|3:0,0:0:0:0:
16,285,123999,6,0,P|14:232|20:187,1,81.25,8|0,1:3|0:0,0:0:0:0:
206,174,124241,2,0,P|208:227|202:272,1,81.25,2|0,0:0|0:0,0:0:0:0:
112,349,124483,2,0,L|116:252,1,81.25,12|0,1:2|0:0,0:0:0:0:
488,226,124725,6,0,P|490:279|484:324,1,81.25,8|0,0:3|0:0,0:0:0:0:
298,337,124967,2,0,P|296:284|302:239,1,81.25,2|0,1:2|0:0,0:0:0:0:
392,162,125209,2,0,L|388:259,1,81.25,4|0,0:0|0:0,0:0:0:0:
247,169,125451,1,8,1:2:0:0:
247,169,125572,1,0,0:0:0:0:
247,169,125693,1,0,0:0:0:0:
483,44,125935,6,0,L|396:37,1,81.25,8|0,1:3|0:0,0:0:0:0:
304,56,126177,2,0,L|217:63,1,81.25,2|0,0:0|0:0,0:0:0:0:
134,16,126419,2,0,L|47:9,1,81.25,12|0,1:2|0:0,0:0:0:0:
0,95,126661,1,8,0:3:0:0:
4,135,126781,1,0,0:0:0:0:
9,175,126903,5,2,1:2:0:0:
57,210,127023,1,0,0:0:0:0:
115,230,127144,1,4,0:0:0:0:
175,233,127265,1,0,0:0:0:0:
234,217,127387,5,8,1:2:0:0:
308,187,127507,1,0,0:0:0:0:
386,205,127628,1,0,0:0:0:0:
439,265,127749,1,0,0:0:0:0:
447,344,127870,5,4,1:3:0:0:
350,359,127991,1,0,0:0:0:0:
261,317,128112,1,2,0:0:0:0:
178,368,128233,1,0,0:0:0:0:
119,289,128354,2,0,L|26:277,1,81.25,12|0,1:2|0:0,0:0:0:0:
0,95,128596,5,4,0:3:0:0:
97,81,128717,1,0,0:0:0:0:
186,123,128838,1,2,1:2:0:0:
269,72,128959,1,0,0:0:0:0:
328,151,129080,2,0,L|421:163,1,81.25,4|0,0:0|0:0,0:0:0:0:
251,209,129322,1,8,1:2:0:0:
251,209,129443,1,0,0:0:0:0:
251,209,129564,1,0,0:0:0:0:
507,178,129806,5,2,1:2:0:0:
507,178,129927,1,0,0:0:0:0:
507,178,130048,1,0,0:0:0:0:
262,221,130290,2,0,L|272:329,1,97.50000371933,2|0,1:2|0:0,0:0:0:0:
270,318,130653,1,0,0:0:0:0:
270,318,130774,1,2,1:2:0:0:
270,318,130895,2,0,L|378:307,1,97.50000371933
424,247,131258,2,0,L|415:149,2,97.50000371933,8|0|6,1:2|0:0|1:2,0:0:0:0:
103,61,147225,6,0,L|87:185,2,112.666661509196,2|0|0,0:0|0:0|0:0,0:0:0:0:
189,73,148193,2,0,L|173:197,2,112.666661509196,0|0|0,3:0|0:0|0:0,0:0:0:0:
348,208,149161,6,0,L|364:84,2,112.666661509196,2|0|0,0:0|0:0|0:0,0:0:0:0:
262,196,150129,2,0,L|278:72,2,112.666661509196,0|0|0,3:0|0:0|0:0,0:0:0:0:
357,286,151096,6,0,L|487:297,2,112.666661509196,2|0|0,0:0|0:0|0:0,0:0:0:0:
207,356,152064,2,0,L|77:367,2,112.666661509196,0|0|0,3:0|0:0|0:0,0:0:0:0:
359,199,153032,6,0,L|489:188,2,112.666661509196,2|0|0,0:0|0:0|0:0,0:0:0:0:
209,129,154000,2,0,L|79:118,2,112.666661509196,0|0|0,3:0|0:0|0:0,0:0:0:0:
486,172,154967,6,0,P|493:258|479:298,2,112.666661509196,2|0|0,0:0|0:0|0:0,0:0:0:0:
254,359,155935,2,0,P|247:273|261:233,2,112.666661509196,0|0|0,3:0|0:0|0:0,0:0:0:0:
114,112,156903,6,0,P|107:198|121:238,2,112.666661509196,2|0|0,0:0|0:0|0:0,0:0:0:0:
346,299,157871,2,0,P|353:213|339:173,2,112.666661509196,0|0|0,3:0|0:0|0:0,0:0:0:0:
239,91,158838,5,2,0:0:0:0:
239,91,159161,1,0,0:0:0:0:
239,91,159483,1,0,0:0:0:0:
273,293,159806,5,0,3:0:0:0:
273,293,160129,1,0,0:0:0:0:
273,293,160451,1,0,0:0:0:0:
160,132,160774,5,2,0:0:0:0:
352,252,161096,1,0,0:0:0:0:
160,252,161419,1,0,0:0:0:0:
352,132,161741,5,2,1:2:0:0:
359,139,162709,5,2,1:1:0:0:
359,139,162870,1,0,0:0:0:0:
359,139,163032,1,0,0:0:0:0:
271,179,163193,1,10,1:2:0:0:
271,179,163354,1,0,0:0:0:0:
271,179,163516,1,0,0:0:0:0:
202,121,163677,1,2,1:1:0:0:
202,121,163838,1,0,0:0:0:0:
202,121,164000,1,0,0:0:0:0:
129,186,164161,5,12,1:2:0:0:
115,62,164322,1,0,0:0:0:0:
265,47,164483,1,0,0:0:0:0:
53,132,164645,5,2,1:1:0:0:
53,132,164806,1,0,0:0:0:0:
53,132,164967,1,0,0:0:0:0:
29,236,165128,1,10,1:2:0:0:
29,236,165289,1,0,0:0:0:0:
29,236,165450,1,0,0:0:0:0:
106,320,165612,1,2,1:1:0:0:
106,320,165773,1,0,0:0:0:0:
106,320,165934,1,0,0:0:0:0:
209,322,166096,5,12,1:2:0:0:
15,342,166258,1,0,0:0:0:0:
129,208,166419,1,0,0:0:0:0:
11,136,166580,5,4,1:1:0:0:
33,37,166741,1,0,0:0:0:0:
134,102,166903,1,0,0:0:0:0:
209,11,167064,1,10,1:2:0:0:
253,128,167225,1,0,0:0:0:0:
129,208,167387,1,0,0:0:0:0:
122,336,167548,5,4,1:1:0:0:
122,336,167709,1,0,0:0:0:0:
122,336,167871,1,0,0:0:0:0:
245,302,168032,1,12,1:2:0:0:
245,302,168193,1,0,0:0:0:0:
245,302,168355,1,0,0:0:0:0:
383,195,168516,5,4,1:1:0:0:
383,296,168677,1,0,0:0:0:0:
296,229,168838,1,0,0:0:0:0:
283,127,169000,1,10,1:2:0:0:
383,90,169161,1,0,0:0:0:0:
472,166,169323,1,0,0:0:0:0:
368,316,169483,5,4,1:1:0:0:
368,316,169644,1,0,0:0:0:0:
368,316,169806,1,0,0:0:0:0:
368,316,169846,2,0,L|375:240,1,42.2499980659486,8|4,0:0|1:2,0:0:0:0:
393,68,170209,2,0,L|386:144,1,42.2499980659486,8|0,0:0|0:0,0:0:0:0:
383,195,170451,5,2,1:3:0:0:
472,166,170612,1,0,0:0:0:0:
305,145,170774,1,0,0:0:0:0:
368,316,170935,5,10,1:2:0:0:
279,287,171096,1,0,0:0:0:0:
446,266,171258,1,0,0:0:0:0:
211,222,171419,5,2,1:3:0:0:
182,311,171580,1,0,0:0:0:0:
161,144,171742,1,0,0:0:0:0:
89,348,171903,5,12,1:2:0:0:
0,319,172064,1,0,0:0:0:0:
167,298,172226,1,0,0:0:0:0:
40,205,172387,5,2,1:3:0:0:
48,70,172548,1,0,0:0:0:0:
161,144,172709,1,0,0:0:0:0:
212,19,172870,5,10,1:2:0:0:
273,140,173031,1,0,0:0:0:0:
347,27,173192,1,0,0:0:0:0:
48,70,173354,5,2,1:3:0:0:
56,205,173515,1,0,0:0:0:0:
169,131,173676,1,0,0:0:0:0:
287,255,173838,5,12,1:2:0:0:
295,120,173999,1,0,0:0:0:0:
408,194,174160,1,0,0:0:0:0:
486,92,174322,6,0,L|494:14,2,56.3333307545981,4|0|0,1:3|0:0|0:0,0:0:0:0:
384,33,174806,2,0,L|392:111,2,56.3333307545981,10|0|0,1:2|0:0|0:0,0:0:0:0:
26,92,175290,6,0,L|18:14,2,56.3333307545981,4|0|0,1:3|0:0|0:0,0:0:0:0:
128,33,175774,2,0,L|120:111,2,56.3333307545981,12|0|0,1:2|0:0|0:0,0:0:0:0:
26,292,176258,6,0,L|18:370,2,56.3333307545981,4|0|0,1:3|0:0|0:0,0:0:0:0:
128,351,176742,2,0,L|120:273,2,56.3333307545981,10|0|0,1:2|0:0|0:0,0:0:0:0:
486,292,177225,6,0,L|494:370,2,56.3333307545981,4|0|0,1:3|0:0|0:0,0:0:0:0:
384,351,177709,2,0,L|392:273,2,56.3333307545981,12|0|0,1:2|0:0|0:0,0:0:0:0:
335,223,178193,5,2,1:1:0:0:
271,296,178354,1,0,0:0:0:0:
261,156,178516,1,0,0:0:0:0:
442,179,178677,2,0,L|516:190,2,56.3333307545981,10|0|0,1:2|0:0|0:0,0:0:0:0:
193,221,179161,5,2,1:1:0:0:
346,135,179322,1,0,0:0:0:0:
203,70,179483,1,0,0:0:0:0:
58,132,179645,2,0,L|49:209,2,56.3333307545981,12|0|0,1:2|0:0|0:0,0:0:0:0:
293,32,180128,5,2,1:1:0:0:
188,197,180290,1,0,0:0:0:0:
75,108,180451,1,0,0:0:0:0:
24,261,180612,2,0,L|30:316,2,56.3333307545981,10|0|0,1:2|0:0|0:0,0:0:0:0:
176,92,181096,5,2,1:1:0:0:
0,63,181258,1,0,0:0:0:0:
98,216,181419,1,0,0:0:0:0:
280,192,181580,2,0,L|289:255,2,56.3333307545981,12|0|0,1:2|0:0|0:0,0:0:0:0:
363,41,182064,5,4,1:1:0:0:
363,41,182225,1,0,0:0:0:0:
363,41,182387,1,0,0:0:0:0:
383,146,182548,1,10,1:2:0:0:
383,146,182709,1,0,0:0:0:0:
383,146,182871,1,0,0:0:0:0:
403,251,183032,1,4,1:1:0:0:
403,251,183193,1,0,0:0:0:0:
403,251,183355,1,0,0:0:0:0:
423,356,183516,1,12,1:2:0:0:
423,356,183677,1,0,0:0:0:0:
423,356,183839,1,0,0:0:0:0:
89,356,183999,5,4,1:1:0:0:
89,356,184161,1,0,0:0:0:0:
89,356,184322,1,0,0:0:0:0:
109,251,184483,1,10,1:2:0:0:
109,251,184645,1,0,0:0:0:0:
109,251,184806,1,0,0:0:0:0:
129,146,184967,1,4,1:1:0:0:
129,146,185129,1,0,0:0:0:0:
129,146,185290,1,0,0:0:0:0:
129,146,185330,2,0,L|123:85,1,42.2499980659486,8|4,0:0|1:2,0:0:0:0:
320,24,185693,2,0,L|324:66,1,42.2499980659486,8|0,0:0|0:0,0:0:0:0:
394,120,185935,5,2,1:3:0:0:
254,123,186096,1,0,0:0:0:0:
350,218,186258,1,0,0:0:0:0:
266,300,186419,2,0,L|272:377,2,56.3333307545981,10|0|0,1:2|0:0|0:0,0:0:0:0:
196,224,186903,5,2,1:3:0:0:
355,306,187064,1,0,0:0:0:0:
505,209,187225,1,0,0:0:0:0:
488,317,187387,2,0,L|481:372,2,56.3333307545981,12|0|0,1:2|0:0|0:0,0:0:0:0:
412,211,187870,5,2,1:3:0:0:
264,293,188032,1,0,0:0:0:0:
239,177,188193,1,0,0:0:0:0:
78,207,188354,2,0,L|70:142,2,56.3333307545981,10|0|0,1:2|0:0|0:0,0:0:0:0:
152,263,188838,5,2,1:3:0:0:
221,151,188999,1,0,0:0:0:0:
271,314,189161,1,0,0:0:0:0:
380,173,189322,2,0,L|373:112,2,56.3333307545981,12|0|0,1:2|0:0|0:0,0:0:0:0:
450,259,189806,5,4,1:3:0:0:
450,259,189967,1,0,0:0:0:0:
450,259,190128,1,0,0:0:0:0:
346,112,190290,1,10,1:2:0:0:
346,112,190451,1,0,0:0:0:0:
346,112,190612,1,0,0:0:0:0:
242,259,190774,1,4,1:3:0:0:
242,259,190935,1,0,0:0:0:0:
242,259,191096,1,0,0:0:0:0:
138,112,191258,1,12,1:2:0:0:
138,112,191419,1,0,0:0:0:0:
138,112,191580,1,0,0:0:0:0:
242,259,191741,5,4,1:3:0:0:
346,112,192225,1,2,1:2:0:0:
450,259,192709,1,4,1:3:0:0:
138,112,193193,1,12,1:2:0:0:
138,112,193677,6,0,L|132:13,2,87.7499973220826,2|0|0,0:0|0:0|0:0,0:0:0:0:
110,284,196822,5,0,0:0:0:0:
179,231,197064,1,2,0:0:0:0:
236,298,197306,1,0,0:0:0:0:
303,241,197548,6,0,L|405:263,2,87.7499973220826,2|0|0,0:0|0:0|0:0,0:0:0:0:
374,112,201419,6,0,L|380:13,2,87.7499973220826,2|0|0,0:0|0:0|0:0,0:0:0:0:
402,284,204080,5,2,0:0:0:0:
333,231,204564,1,2,0:0:0:0:
276,298,205048,1,2,0:0:0:0:
209,241,205290,6,0,L|107:263,2,87.7499973220826,2|0|0,0:0|0:0|0:0,0:0:0:0:
374,272,209161,6,0,L|380:371,2,87.7499973220826,2|0|0,0:0|0:0|0:0,0:0:0:0:
348,46,215693,5,2,0:0:0:0:
295,115,216177,1,2,0:0:0:0:
362,172,216661,1,2,0:0:0:0:
305,239,216903,6,0,L|327:341,2,87.7499973220826,2|0|0,0:0|0:0|0:0,0:0:0:0:
256,192,220774,12,8,224161,0:0:0:0:
152,70,224645,6,0,L|159:218,1,143.000004364014,4|0,1:2|3:0,0:0:0:0:
158,212,225370,1,0,0:0:0:0:
257,197,225612,2,0,L|250:345,1,143.000004364014,0|0,0:0|3:0,0:0:0:0:
250,339,226337,1,0,0:0:0:0:
331,298,226580,6,0,P|372:322|472:331,1,143.000004364014,0|0,0:0|3:0,0:0:0:0:
465,332,227306,1,0,0:0:0:0:
483,229,227548,2,0,P|442:205|342:196,1,143.000004364014,0|0,0:0|3:0,0:0:0:0:
348,194,228274,1,0,0:0:0:0:
271,176,228516,6,0,B|239:138|239:138|259:32,1,143.000004364014,2|0,1:2|3:0,0:0:0:0:
256,46,229241,1,0,0:0:0:0:
351,21,229483,2,0,B|383:59|383:59|363:165,1,143.000004364014,0|0,0:0|3:0,0:0:0:0:
365,150,230208,1,0,0:0:0:0:
441,199,230451,6,0,P|435:253|445:345,1,143.000004364014,0|0,0:0|3:0,0:0:0:0:
444,340,231177,1,0,0:0:0:0:
310,363,231419,2,0,P|316:309|307:234,1,107.25000327301,0|8,0:0|0:0,0:0:0:0:
311,256,231903,1,0,3:0:0:0:
253,103,232145,1,8,0:0:0:0:
253,103,232266,1,8,0:0:0:0:
335,137,232387,6,0,L|497:146,1,143.000004364014,2|0,1:2|3:0,0:0:0:0:
236,202,233112,1,0,0:0:0:0:
164,159,233354,2,0,L|21:151,1,143.000004364014,2|0,1:2|3:0,0:0:0:0:
208,384,234080,1,0,0:0:0:0:
251,312,234322,2,0,L|258:169,1,143.000004364014,2|0,1:2|3:0,0:0:0:0:
122,17,235048,1,0,0:0:0:0:
165,89,235290,2,0,L|172:231,1,143.000004364014,2|0,1:2|3:0,0:0:0:0:
121,295,236016,1,0,0:0:0:0:
302,283,236258,5,2,1:2:0:0:
66,224,236741,1,2,1:2:0:0:
311,173,237225,1,2,1:2:0:0:
108,118,237709,1,2,1:2:0:0:
379,236,238193,5,2,1:2:0:0:
388,210,238313,1,0,3:0:0:0:
394,184,238434,1,0,3:0:0:0:
397,158,238555,1,0,3:0:0:0:
398,131,238677,5,2,1:2:0:0:
399,113,238797,1,0,3:0:0:0:
401,95,238918,1,0,3:0:0:0:
404,78,239039,1,0,3:0:0:0:
62,204,239524,1,8,0:0:0:0:
62,204,239645,2,0,L|58:134,2,65,0|8|4,1:0|0:3|0:3,0:0:0:0:
26,353,240128,6,2,L|435:324,1,390.00001487732,6|8,1:2|1:2,0:1:0:0:
472,0,240854,1,0,0:0:0:0:
479,244,241096,6,2,L|70:215,1,390.00001487732,2|8,1:2|1:2,0:1:0:0:
40,0,241822,1,0,0:0:0:0:
107,307,242064,5,2,1:3:0:0:
210,27,242306,1,4,0:3:0:0:
376,327,242548,2,0,P|441:220|389:67,1,292.50001115799,10|0,1:2|0:0,0:0:0:0:
294,82,243032,6,0,P|268:189|288:279,1,195.00000743866,4|2,1:3|0:3,0:0:0:0:
512,384,243516,1,12,1:2:0:0:
172,348,243758,1,2,0:0:0:0:
467,283,243999,6,0,B|485:85|485:85|469:139|420:149,1,292.50001115799,2|0,1:1|0:0,0:0:0:0:
345,101,244483,2,0,L|352:3,1,97.50000371933,8|0,1:2|0:0,0:0:0:0:
372,214,244725,6,0,P|265:222|139:290,1,195.00000743866,2|0,0:3|1:2,0:0:0:0:
51,83,245209,1,0,0:0:0:0:
51,83,245330,1,0,0:0:0:0:
51,83,245451,2,0,L|31:194,1,97.50000371933,10|0,1:2|0:0,0:0:0:0:
124,203,245693,2,0,L|141:107,1,97.50000371933
196,278,245935,6,0,P|299:254|437:379,1,292.50001115799,4|0,1:1|0:0,0:0:0:0:
510,334,246419,2,0,P|500:279|508:213,1,97.50000371933,8|0,1:2|0:0,0:0:0:0:
408,96,246661,2,0,P|418:151|410:217,1,97.50000371933
125,357,246903,5,4,1:1:0:0:
125,357,247145,1,0,0:0:0:0:
93,271,247266,1,0,0:0:0:0:
151,200,247387,2,0,L|142:90,1,97.50000371933,8|0,1:2|0:0,0:0:0:0:
254,196,247628,2,0,L|246:98,1,97.50000371933
350,330,247870,6,2,B|357:183|357:183|450:154|450:154|457:-1,1,390.00001487732,6|8,1:2|1:2,0:1:0:0:
471,353,248596,1,0,0:0:0:0:
371,93,248838,6,2,B|330:54|330:54|188:58|188:58|164:128|164:128|26:127,1,390.00001487732,2|8,1:2|1:2,0:1:0:0:
456,8,249564,1,0,0:0:0:0:
27,131,249806,5,2,1:2:0:0:
22,227,249926,1,0,0:0:0:0:
67,312,250047,1,0,0:0:0:0:
149,362,250168,1,0,0:0:0:0:
246,363,250290,2,0,L|356:354,1,97.50000371933,8|0,1:2|0:0,0:0:0:0:
459,212,250532,2,0,L|361:203,1,97.50000371933,2|0,0:3|0:0,0:0:0:0:
208,64,250774,5,2,1:1:0:0:
166,167,250895,2,0,L|149:362,1,195.00000743866
7,21,251258,6,0,P|81:34|124:91,1,146.250005578995,8|0,1:2|0:0,0:0:0:0:
166,167,251741,6,0,P|275:192|468:106,1,292.50001115799,2|0,1:1|0:0,0:0:0:0:
504,190,252225,2,0,P|483:228|478:313,1,97.50000371933,8|0,1:2|0:0,0:0:0:0:
395,364,252467,2,0,P|374:326|369:241,1,97.50000371933,2|0,0:3|0:0,0:0:0:0:
295,103,252709,6,0,L|309:3,1,97.50000371933,0|0,1:2|0:0,0:0:0:0:
420,23,252951,2,0,L|406:119,1,97.50000371933
208,47,253193,2,0,B|156:31|156:31|-40:95,2,195.00000743866,10|0|8,1:2|0:0|1:1,0:0:0:0:
209,47,253919,6,0,L|216:162,1,97.50000371933
290,320,254161,1,8,1:2:0:0:
294,271,254281,1,0,0:0:0:0:
298,222,254402,1,0,0:0:0:0:
302,174,254523,1,0,0:0:0:0:
307,125,254645,5,4,1:1:0:0:
219,165,254765,1,0,3:0:0:0:
123,156,254886,1,0,3:0:0:0:
46,98,255007,1,0,3:0:0:0:
0,197,255128,5,8,1:2:0:0:
0,197,255249,2,0,P|43:232|76:376,1,195.00000743866
181,365,255612,6,0,P|178:218|322:26,1,390.00001487732,6|8,1:2|1:2,0:0:0:0:
497,29,256338,1,0,0:0:0:0:
378,318,256580,6,0,B|339:264|339:264|-13:318,1,390.00001487732,2|8,1:2|1:2,0:0:0:0:
297,354,257306,1,0,0:0:0:0:
196,0,257548,5,4,1:2:0:0:
5,337,257790,1,0,0:0:0:0:
395,204,258032,5,10,1:2:0:0:
32,35,258274,1,0,0:0:0:0:
343,373,258516,6,2,L|340:267,1,97.50000371933,2|2,1:3|0:1,0:1:0:0:
169,11,258758,2,2,L|172:117,1,97.50000371933,2|2,0:3|0:1,0:1:0:0:
75,279,259000,2,2,L|181:276,1,97.50000371933,12|2,1:2|0:1,0:1:0:0:
437,105,259242,2,2,L|331:108,1,97.50000371933,10|2,0:1|0:1,0:1:0:0:
234,358,259483,6,0,P|283:193|382:198,1,292.50001115799,2|0,1:1|0:0,0:0:0:0:
464,190,259967,2,0,L|474:336,1,97.50000371933,8|0,1:2|0:0,0:0:0:0:
321,80,260209,6,0,L|61:67,1,195.00000743866,2|0,0:3|1:0,0:0:0:0:
8,332,260693,1,0,0:0:0:0:
8,332,260814,1,0,0:0:0:0:
8,332,260935,2,0,P|63:317|135:316,1,97.50000371933,10|0,1:2|0:0,0:0:0:0:
190,349,261177,2,0,P|240:350|317:333,1,97.50000371933
372,366,261419,6,0,P|389:271|377:50,1,292.50001115799,4|0,1:1|0:0,0:0:0:0:
320,6,261903,2,0,L|222:11,1,97.50000371933,8|0,1:2|0:0,0:0:0:0:
477,8,262145,2,0,L|483:117,1,97.50000371933
144,71,262387,5,4,1:1:0:0:
144,71,262628,1,0,0:0:0:0:
64,139,262749,1,0,0:0:0:0:
162,179,262870,2,0,P|234:189|303:189,1,97.50000371933,8|0,1:2|0:0,0:0:0:0:
96,261,263112,2,0,P|47:264|-1:272,1,97.50000371933
358,340,263354,6,2,B|385:207|354:53|354:53|364:111|401:146,1,390.00001487732,6|8,1:2|1:2,0:1:0:0:
498,170,264080,1,0,0:0:0:0:
97,10,264322,6,2,P|25:171|184:246,1,390.00001487732,2|8,1:2|1:2,0:1:0:0:
294,258,265048,1,0,0:0:0:0:
473,234,265290,5,2,1:2:0:0:
447,32,265532,1,0,0:0:0:0:
292,379,265774,5,8,1:2:0:0:
318,177,266016,1,0,0:0:0:0:
485,358,266258,5,4,1:3:0:0:
84,284,266499,1,2,0:3:0:0:
498,127,266741,1,12,1:2:0:0:
304,156,266983,1,0,0:0:0:0:
215,375,267225,6,0,P|154:192|207:8,1,390.00001487732,2|8,1:1|1:2,0:0:0:0:
215,15,267830,1,0,0:2:0:0:
215,15,267951,2,0,L|99:25,1,97.50000371933,2|0,0:3|0:0,0:0:0:0:
257,202,268193,6,0,L|270:102,1,97.50000371933,0|0,1:2|0:0,0:0:0:0:
65,116,268435,2,0,L|161:128,1,97.50000371933
208,281,268677,2,0,P|125:233|16:228,1,195.00000743866,10|0,1:2|0:0,0:0:0:0:
288,90,269161,5,10,1:1:0:0:
267,358,269403,1,0,0:0:0:0:
15,207,269645,1,8,1:2:0:0:
29,173,269766,1,0,0:0:0:0:
37,137,269886,1,0,0:0:0:0:
40,101,270007,1,0,0:0:0:0:
37,64,270128,5,6,1:1:0:0:
94,44,270248,1,8,0:3:0:0:
155,40,270369,1,8,0:3:0:0:
214,54,270490,1,8,0:3:0:0:
266,84,270612,5,8,1:2:0:0:
346,139,270732,1,4,0:3:0:0:
380,228,270853,1,4,0:3:0:0:
358,322,270974,1,4,0:3:0:0:
286,384,271096,5,2,1:3:0:0:
245,380,271216,1,0,0:0:0:0:
206,375,271337,1,2,0:0:0:0:
167,368,271458,1,0,0:0:0:0:
98,323,271580,2,0,L|108:241,1,81.25,12|0,1:2|0:0,0:0:0:0:
195,184,271822,1,2,0:3:0:0:
107,158,271942,1,0,0:0:0:0:
195,184,272064,2,0,L|185:102,1,81.25,2|0,1:2|0:0,0:0:0:0:
121,44,272306,2,0,L|40:51,1,81.25,4|0,0:0|0:0,0:0:0:0:
294,39,272548,6,0,L|213:31,1,81.25,8|0,1:2|0:0,0:0:0:0:
369,159,272790,2,0,L|383:79,1,81.25
110,154,273031,5,2,1:3:0:0:
113,194,273153,1,0,0:0:0:0:
136,226,273274,1,2,0:0:0:0:
173,243,273395,1,0,0:0:0:0:
236,302,273516,2,0,L|232:385,1,81.25,12|0,1:2|0:0,0:0:0:0:
305,155,273757,1,2,0:3:0:0:
191,157,273878,1,0,0:0:0:0:
305,155,274000,2,0,L|309:238,1,81.25,2|0,1:2|0:0,0:0:0:0:
191,157,274241,2,0,L|187:75,1,81.25,4|0,0:0|0:0,0:0:0:0:
218,281,274483,6,0,L|222:364,1,81.25,8|0,1:2|0:0,0:0:0:0:
104,283,274725,2,0,L|100:201,1,81.25
209,65,274967,5,4,1:3:0:0:
250,61,275087,1,0,0:0:0:0:
290,57,275208,1,2,0:0:0:0:
331,54,275329,1,0,0:0:0:0:
387,125,275451,2,0,L|390:206,1,81.25,12|0,1:2|0:0,0:0:0:0:
512,235,275692,1,4,0:3:0:0:
472,231,275813,1,0,0:0:0:0:
415,302,275935,2,0,L|412:383,1,81.25,2|0,1:2|0:0,0:0:0:0:
296,279,276177,2,0,L|293:198,1,81.25,4|0,0:0|0:0,0:0:0:0:
318,369,276418,5,8,1:2:0:0:
60,331,276660,1,0,0:0:0:0:
331,117,276902,5,4,1:3:0:0:
372,113,277024,1,0,0:0:0:0:
412,109,277145,1,2,0:0:0:0:
453,106,277266,1,0,0:0:0:0:
509,177,277387,2,0,L|512:258,1,81.25,12|0,1:2|0:0,0:0:0:0:
337,29,277627,1,4,0:3:0:0:
297,25,277748,1,0,0:0:0:0:
240,96,277870,2,0,L|237:177,1,81.25,2|0,1:2|0:0,0:0:0:0:
326,348,278112,1,4,0:0:0:0:
279,264,278233,1,0,3:0:0:0:
198,313,278354,6,0,L|86:295,1,81.25,8|0,1:2|0:0,0:0:0:0:
108,211,278596,2,0,L|27:198,1,81.25,0|0,3:0|3:0,0:0:0:0:
155,0,278838,5,2,1:3:0:0:
165,40,278958,1,0,0:0:0:0:
170,80,279079,1,2,0:0:0:0:
170,121,279200,1,0,0:0:0:0:
206,201,279322,2,0,L|303:189,1,81.25,12|0,1:2|0:0,0:0:0:0:
357,241,279563,1,2,0:3:0:0:
318,321,279685,1,0,0:0:0:0:
357,241,279806,2,0,L|454:229,1,81.25,2|0,1:2|0:0,0:0:0:0:
496,166,280048,2,0,L|486:85,1,81.25,4|0,0:0|0:0,0:0:0:0:
405,9,280290,6,0,L|308:21,1,81.25,8|0,1:2|0:0,0:0:0:0:
266,84,280532,2,0,L|275:164,1,81.25
138,366,280773,5,2,1:3:0:0:
126,328,280895,1,0,0:0:0:0:
120,288,281016,1,2,0:0:0:0:
122,247,281137,1,0,0:0:0:0:
213,258,281257,2,0,L|224:357,1,81.25,12|0,1:2|0:0,0:0:0:0:
382,216,281499,1,2,0:3:0:0:
294,192,281620,1,0,0:0:0:0:
382,216,281742,2,0,L|374:136,1,81.25,2|0,1:2|0:0,0:0:0:0:
368,339,281983,2,0,L|457:320,1,81.25,4|0,0:0|0:0,0:0:0:0:
130,216,282225,6,0,L|138:136,1,81.25,8|0,1:2|0:0,0:0:0:0:
144,339,282467,2,0,L|55:320,1,81.25
160,123,282709,5,4,1:3:0:0:
199,136,282829,1,0,0:0:0:0:
239,143,282950,1,2,0:0:0:0:
279,144,283071,1,0,0:0:0:0:
322,71,283193,2,0,L|410:64,1,81.25,12|0,1:2|0:0,0:0:0:0:
512,146,283434,1,4,0:3:0:0:
472,146,283555,1,0,0:0:0:0:
415,204,283677,2,0,L|327:211,1,81.25,2|0,1:2|0:0,0:0:0:0:
483,248,283919,2,0,L|490:328,1,81.25,4|0,0:0|0:0,0:0:0:0:
334,368,284160,5,8,1:2:0:0:
35,333,284402,1,0,0:0:0:0:
427,333,284644,5,4,1:3:0:0:
424,292,284766,1,0,0:0:0:0:
421,251,284887,1,2,0:0:0:0:
418,211,285008,1,0,0:0:0:0:
468,141,285128,2,0,P|458:97|458:47,1,81.25,12|0,1:2|0:0,0:0:0:0:
347,34,285370,2,0,P|357:78|357:128,1,81.25,4|0,0:3|0:0,0:0:0:0:
280,183,285612,6,0,L|186:179,1,81.25,2|0,1:2|0:0,0:0:0:0:
198,274,285854,2,0,L|279:277,1,81.25,4|0,0:0|0:0,0:0:0:0:
354,233,286096,5,8,1:2:0:0:
206,7,286338,1,0,0:0:0:0:
27,215,286580,5,8,1:3:0:0:
1,318,286701,1,0,0:0:0:0:
103,344,286822,1,2,0:0:0:0:
129,241,286943,1,0,0:0:0:0:
205,196,287064,2,0,L|192:115,1,81.25,12|0,1:2|0:0,0:0:0:0:
485,215,287306,5,8,0:3:0:0:
511,318,287427,1,0,0:0:0:0:
409,344,287548,1,2,1:2:0:0:
383,241,287669,1,0,0:0:0:0:
307,196,287790,2,0,L|320:115,1,81.25,4|0,0:0|0:0,0:0:0:0:
396,71,288032,1,8,1:2:0:0:
116,71,288274,1,0,0:0:0:0:
64,308,288516,5,8,1:3:0:0:
161,268,288637,1,0,0:0:0:0:
243,334,288758,1,2,0:0:0:0:
340,294,288879,1,0,0:0:0:0:
426,381,289000,2,0,L|514:373,1,81.25,12|0,1:2|0:0,0:0:0:0:
512,194,289241,5,8,0:3:0:0:
415,234,289362,1,0,0:0:0:0:
333,168,289483,1,2,1:2:0:0:
236,208,289604,1,0,0:0:0:0:
150,121,289725,2,0,L|69:128,1,81.25,4|0,0:0|0:0,0:0:0:0:
13,195,289967,1,8,1:2:0:0:
27,7,290209,1,0,0:0:0:0:
32,327,290451,5,4,1:3:0:0:
125,276,290572,1,0,0:0:0:0:
187,361,290693,1,2,0:0:0:0:
245,272,290814,1,0,0:0:0:0:
347,295,290935,2,0,L|339:375,1,81.25,12|0,1:2|0:0,0:0:0:0:
237,156,291177,5,4,0:3:0:0:
324,204,291298,1,0,0:0:0:0:
410,154,291419,1,2,1:2:0:0:
476,213,291540,1,0,0:0:0:0:
509,100,291661,2,0,L|512:19,1,81.25,4|0,0:0|0:0,0:0:0:0:
321,98,291903,1,8,1:2:0:0:
321,98,292024,1,0,0:0:0:0:
321,98,292145,1,0,0:0:0:0:
191,286,292387,5,4,1:3:0:0:
191,286,292508,1,0,0:0:0:0:
191,286,292629,1,2,0:0:0:0:
191,286,292870,2,0,B|208:207|208:207|186:128,1,162.5,12|4,1:2|0:3,0:0:0:0:
133,60,293233,1,0,0:0:0:0:
202,9,293354,2,0,L|297:12,1,81.25,2|0,1:2|0:0,0:0:0:0:
348,101,293596,2,0,L|266:98,1,81.25,4|0,0:0|3:0,0:0:0:0:
139,284,293838,6,0,L|148:368,1,81.25,8|0,1:2|0:0,0:0:0:0:
237,346,294080,2,0,L|228:265,1,81.25,0|0,3:0|3:0,0:0:0:0:
496,285,294322,6,0,B|506:244|506:244|496:205,1,81.25,8|0,1:3|0:0,0:0:0:0:
306,175,294564,2,0,B|296:216|296:216|307:256,1,81.25,2|0,0:0|0:0,0:0:0:0:
398,226,294806,2,0,L|394:129,1,81.25,12|0,1:2|0:0,0:0:0:0:
0,16,295048,6,0,B|-10:57|-10:57|1:97,1,81.25,8|0,0:3|0:0,0:0:0:0:
190,126,295290,2,0,B|200:86|200:86|190:46,1,81.25,2|0,1:2|0:0,0:0:0:0:
98,75,295532,2,0,L|102:172,1,81.25,4|0,0:0|0:0,0:0:0:0:
229,273,295774,1,8,1:2:0:0:
229,273,295895,1,0,0:0:0:0:
229,273,296016,1,0,0:0:0:0:
329,95,296258,6,0,P|334:135|329:175,1,81.25,8|0,1:3|0:0,0:0:0:0:
220,106,296499,2,0,P|214:65|219:25,1,81.25,2|0,0:0|0:0,0:0:0:0:
109,109,296741,2,0,P|114:149|109:189,1,81.25,12|0,1:2|0:0,0:0:0:0:
0,120,296983,2,0,P|-5:79|0:39,1,81.25,8|0,0:3|0:0,0:0:0:0:
186,207,297225,5,2,1:2:0:0:
188,247,297345,1,0,0:0:0:0:
181,287,297466,1,4,0:0:0:0:
164,323,297587,1,0,0:0:0:0:
138,355,297709,5,8,1:2:0:0:
99,284,297829,1,0,0:0:0:0:
96,203,297950,1,0,0:0:0:0:
128,130,298071,1,0,0:0:0:0:
189,77,298193,5,4,1:3:0:0:
263,139,298314,1,0,0:0:0:0:
359,123,298435,1,2,0:0:0:0:
414,42,298556,1,0,0:0:0:0:
493,98,298677,2,0,L|504:193,1,81.25,12|0,1:2|0:0,0:0:0:0:
397,281,298919,5,4,0:3:0:0:
324,220,299040,1,0,0:0:0:0:
228,236,299161,1,2,1:2:0:0:
173,317,299282,1,0,0:0:0:0:
94,261,299403,2,0,L|84:180,1,81.25,4|0,0:0|0:0,0:0:0:0:
281,32,299645,1,8,1:2:0:0:
281,32,299766,1,0,0:0:0:0:
281,32,299887,1,0,0:0:0:0:
52,328,300128,5,2,1:2:0:0:
52,328,300249,1,0,0:0:0:0:
52,328,300370,1,0,0:0:0:0:
250,221,300612,2,0,L|240:329,1,97.50000371933,2|0,1:2|0:0,0:0:0:0:
241,318,300975,1,0,0:0:0:0:
241,318,301096,1,2,1:2:0:0:
241,318,301217,2,0,L|133:307,1,97.50000371933
88,247,301580,2,0,L|97:149,2,97.50000371933,8|0|6,1:2|0:0|1:2,0:0:0:0:
