osu file format v14

[General]
AudioFilename: audio.mp3
AudioLeadIn: 0
PreviewTime: 15603
Countdown: 0
SampleSet: Soft
StackLeniency: 0.7
Mode: 0
LetterboxInBreaks: 0
WidescreenStoryboard: 1

[Editor]
Bookmarks: 54313,69797,100765,131732,162700,193668,224636,240119,271087,302055
DistanceSpacing: 1.8
BeatDivisor: 4
GridSize: 8
TimelineZoom: 3.599998

[Metadata]
Title:Nautilus
TitleUnicode:Nautilus
Artist:Creo
ArtistUnicode:Creo
Creator:VINXIS
Version:Expert
Source:osu!
Tags:cheesecake mapper's mappers' guild mapper mappers featured artist
BeatmapID:2124848
BeatmapSetID:1015289

[Difficulty]
HPDrainRate:6
CircleSize:4
OverallDifficulty:9.5
ApproachRate:9.2
SliderMultiplier:2.8
SliderTickRate:1

[Events]
//Background and Video events
0,0,"bg.jpg",0,0
//Break Periods
2,131941,146616
2,194602,196213
2,198473,200810
2,202344,203471
2,206215,208552
2,210086,215084
2,217828,220165
//Storyboard Layer 0 (Background)
//Storyboard Layer 1 (Fail)
//Storyboard Layer 2 (Pass)
//Storyboard Layer 3 (Foreground)
//Storyboard Layer 4 (Overlay)
//Storyboard Sound Samples

[TimingPoints]
129,483.870967741935,4,2,69,100,1,0
854,-250,4,2,1,40,0,0
11741,-250,4,2,1,20,0,0
13677,-250,4,2,1,30,0,0
15612,-250,4,2,1,40,0,0
31096,-250,4,2,3,50,0,0
31822,-250,4,2,4,50,0,0
32548,-250,4,2,5,50,0,0
33032,-250,4,2,6,50,0,0
33758,-250,4,2,7,50,0,0
33999,-250,4,2,8,50,0,0
34483,-250,4,2,9,50,0,0
34967,-250,4,2,10,50,0,0
35693,-250,4,2,4,50,0,0
36419,-250,4,2,11,50,0,0
36903,-250,4,2,7,50,0,0
38596,-100,4,2,1,50,0,0
39564,-166.666666666667,4,2,1,50,0,0
42709,-100,4,2,1,50,0,0
43435,-166.666666666667,4,2,1,50,0,0
46580,-100,4,2,1,50,0,0
47306,-166.666666666667,4,2,1,50,0,0
49725,-250.000000000001,4,2,1,50,0,0
53354,-133.333333333333,4,2,1,50,0,0
54322,-181.818181818181,4,2,1,50,0,0
64483,-133.333333333333,4,2,1,50,0,0
64967,-105.263157894737,4,2,1,50,0,0
65451,-86.9565217391303,4,2,1,60,0,0
69806,-66.6666666666667,4,2,12,90,0,0
70290,-133.333333333333,4,2,1,90,0,0
70774,-66.6666666666667,4,2,12,90,0,0
71741,-66.6666666666667,4,2,13,90,0,0
73435,-66.6666666666667,4,2,0,90,0,0
73677,-66.6666666666667,4,2,42,90,0,0
77548,-66.6666666666667,4,2,12,90,0,0
78032,-66.6666666666667,4,2,1,90,0,0
78516,-66.6666666666667,4,2,12,90,0,0
78999,-133.333333333333,4,2,1,90,0,0
79483,-66.6666666666667,4,2,12,90,0,0
80935,-100,4,2,1,90,0,0
81419,-66.6666666666667,4,2,42,90,0,0
85290,-66.6666666666667,4,2,12,90,0,0
85774,-133.333333333333,4,2,1,90,0,0
86258,-66.6666666666667,4,2,12,90,0,0
86741,-66.6666666666667,4,2,1,90,0,0
87225,-66.6666666666667,4,2,14,90,0,0
88193,-66.6666666666667,4,2,13,90,0,0
89161,-66.6666666666667,4,2,42,90,0,0
93032,-66.6666666666667,4,2,12,90,0,0
94483,-133.333333333333,4,2,1,90,0,0
95935,-133.333333333333,4,2,13,90,0,0
96903,-66.6666666666667,4,2,42,90,0,0
100774,-80,4,2,34,90,0,0
129806,-133.333333333333,4,2,1,90,0,0
147225,-153.846153846153,4,2,1,80,0,0
162709,-153.846153846153,4,2,96,80,0,0
193677,-222.22222222222,4,2,1,50,0,0
224645,-181.818181818181,4,2,1,50,0,0
239524,-100,4,2,1,60,0,0
240128,-66.6666666666667,4,2,12,90,0,0
240612,-133.333333333333,4,2,1,90,0,0
241096,-66.6666666666667,4,2,12,90,0,0
242064,-66.6666666666667,4,2,13,90,0,0
243758,-66.6666666666667,4,2,0,90,0,0
243999,-66.6666666666667,4,2,42,90,0,0
247870,-66.6666666666667,4,2,12,90,0,0
249322,-133.333333333333,4,2,1,90,0,0
249806,-66.6666666666667,4,2,12,90,0,0
251258,-133.333333333333,4,2,1,90,0,0
251741,-66.6666666666667,4,2,42,90,0,0
255612,-66.6666666666667,4,2,12,90,0,0
256096,-133.333333333333,4,2,1,90,0,0
256580,-66.6666666666667,4,2,12,90,0,0
257548,-66.6666666666667,4,2,14,90,0,0
258516,-66.6666666666667,4,2,13,90,0,0
259483,-66.6666666666667,4,2,42,90,0,0
263354,-66.6666666666667,4,2,12,90,0,0
264806,-133.333333333333,4,2,1,90,0,0
266258,-133.333333333333,4,2,13,90,0,0
267225,-66.6666666666667,4,2,42,90,0,0
271096,-79.9999999999999,4,2,34,90,0,1
300128,-133.333333333333,4,2,1,90,0,1
302064,-25,4,2,1,100,0,0

[Colours]
Combo1 : 17,254,176
Combo2 : 173,255,95
Combo3 : 255,88,100
Combo4 : 255,94,55

[HitObjects]
109,121,129,5,6,2:3:0:0:
232,52,854,1,2,0:0:0:0:
234,194,1580,1,2,0:0:0:0:
234,194,2064,5,2,0:0:0:0:
478,239,3999,5,2,0:0:0:0:
403,263,7870,5,2,0:0:0:0:
280,332,8597,1,2,0:0:0:0:
278,190,9323,1,2,0:0:0:0:
278,190,9805,5,2,0:0:0:0:
96,42,11741,6,0,L|91:121,1,56,2|0,0:0|0:0,0:0:0:0:
174,101,12225,2,0,L|177:45,1,56,2|0,0:0|0:0,0:0:0:0:
299,179,12709,6,0,L|304:258,1,56,2|0,0:0|0:0,0:0:0:0:
221,238,13193,2,0,L|217:182,1,56,2|0,0:0|0:0,0:0:0:0:
489,188,13677,6,0,L|494:267,1,56,2|0,0:0|0:0,0:0:0:0:
411,247,14161,2,0,L|407:191,1,56,2|0,0:0|0:0,0:0:0:0:
286,325,14645,6,0,L|281:404,1,56,2|0,0:0|0:0,0:0:0:0:
364,384,15129,2,0,L|367:328,1,56,2|0,0:0|0:0,0:0:0:0:
156,243,15612,5,2,0:0:0:0:
156,243,15854,2,0,L|81:229,2,56,0|2|0,0:0|0:0|0:0,0:0:0:0:
356,226,16580,5,2,0:0:0:0:
356,226,16822,2,0,L|431:212,2,56,0|2|0,0:0|0:0|0:0,0:0:0:0:
255,312,17548,5,2,0:0:0:0:
255,312,17790,2,0,L|269:387,2,56,0|2|0,0:0|0:0|0:0,0:0:0:0:
215,153,18516,5,2,0:0:0:0:
215,153,18758,2,0,L|229:78,2,56,0|2|0,0:0|0:0|0:0,0:0:0:0:
111,191,19483,6,0,P|99:228|97:257,1,56,2|0,0:0|0:0,0:0:0:0:
8,212,19967,2,0,P|20:175|22:146,1,56,2|0,0:0|0:0,0:0:0:0:
108,282,20451,6,0,P|120:319|122:348,1,56,2|0,0:0|0:0,0:0:0:0:
211,303,20935,2,0,P|199:266|197:237,1,56,2|0,0:0|0:0,0:0:0:0:
315,195,21419,6,0,P|303:232|301:261,1,56,2|0,0:0|0:0,0:0:0:0:
212,216,21903,2,0,P|224:179|226:150,1,56,2|0,0:0|0:0,0:0:0:0:
123,105,22387,6,0,P|135:142|137:171,1,56,2|0,0:0|0:0,0:0:0:0:
88,227,22870,1,2,0:0:0:0:
108,325,23112,1,0,0:0:0:0:
54,215,23354,6,0,L|57:138,1,56,2|0,0:0|0:0,0:0:0:0:
0,85,23838,2,0,L|2:29,1,56,2|0,0:0|0:0,0:0:0:0:
95,25,24322,6,0,L|93:81,1,56,2|0,0:0|0:0,0:0:0:0:
149,155,24806,2,0,L|147:211,1,56,2|0,0:0|0:0,0:0:0:0:
239,206,25290,6,0,L|242:151,1,56,2|0,0:0|0:0,0:0:0:0:
185,76,25774,2,0,L|188:21,1,56,2|0,0:0|0:0,0:0:0:0:
280,16,26258,6,0,L|277:71,1,56,2|0,0:0|0:0,0:0:0:0:
334,146,26742,2,0,L|331:201,1,56,2|0,0:0|0:0,0:0:0:0:
406,255,27225,6,0,P|433:256|461:257,3,56,2|0|2|0,0:0|0:0|0:0|0:0,0:0:0:0:
333,324,28193,2,0,P|305:322|277:321,3,56,2|0|2|0,0:0|0:0|0:0|0:0,0:0:0:0:
262,228,29161,6,0,P|289:229|317:230,3,56,2|0|2|0,0:0|0:0|0:0|0:0,0:0:0:0:
188,297,30129,2,0,P|160:295|132:294,1,56,2|0,0:0|0:0,0:0:0:0:
67,232,30612,1,10,0:0:0:0:
468,201,31096,5,2,0:0:0:0:
366,241,31822,1,2,0:0:0:0:
366,241,32064,1,2,0:0:0:0:
332,91,32548,1,2,0:0:0:0:
232,89,33032,1,2,0:0:0:0:
144,59,33758,1,2,0:0:0:0:
98,207,33999,1,2,0:0:0:0:
72,0,34483,1,2,0:0:0:0:
32,145,34967,5,2,0:0:0:0:
98,207,35693,1,2,0:0:0:0:
98,207,35935,1,2,0:0:0:0:
179,65,36419,1,2,0:0:0:0:
275,105,36903,1,2,0:0:0:0:
301,311,38596,5,8,0:0:0:0:
297,278,38717,1,8,0:0:0:0:
345,217,38838,6,0,B|429:221|429:221|466:118|413:22,1,280,6|0,1:2|0:0,0:0:0:0:
347,63,39564,2,0,L|177:72,1,167.999994873047,2|0,0:0|0:0,0:0:0:0:
116,21,40290,1,2,0:0:0:0:
116,21,40532,1,2,0:0:0:0:
116,21,41983,5,0,0:0:0:0:
80,101,42225,1,2,0:0:0:0:
12,46,42467,1,0,0:0:0:0:
93,123,42709,6,0,B|117:198|117:198|83:271|83:271|134:403,1,280,6|0,1:2|0:0,0:0:0:0:
189,337,43435,2,0,P|310:336|393:318,1,167.999994873047,2|0,0:0|0:0,0:0:0:0:
440,354,44161,2,0,L|430:262,2,83.9999974365235,2|0|2,0:0|0:0|0:0,0:0:0:0:
367,11,46338,5,8,0:0:0:0:
361,39,46459,1,8,0:0:0:0:
411,110,46580,6,0,P|388:178|426:398,1,280,6|0,1:2|0:0,0:0:0:0:
487,320,47306,2,0,P|442:271|318:266,1,167.999994873047,2|0,0:0|0:0,0:0:0:0:
299,325,48032,2,0,L|204:333,1,83.9999974365235,2|2,0:0|0:0,0:0:0:0:
86,72,49725,6,0,L|95:147,2,56,0|2|0,0:0|0:0|0:0,0:0:0:0:
154,176,50451,6,0,L|332:192,2,168,2|2|2,0:0|0:0|0:0,0:0:0:0:
36,178,52387,1,2,0:0:0:0:
431,71,53354,5,0,1:0:0:0:
431,71,53717,1,8,1:3:0:0:
370,129,53838,2,0,L|308:121,2,52.5000020027161,8|4|4,0:0|0:3|0:3,0:0:0:0:
453,169,54322,6,0,L|467:333,1,154.000004699707,6|0,1:2|1:0,0:0:0:0:
59,169,55290,2,0,L|45:333,1,154.000004699707,2|0,1:2|1:0,0:0:0:0:
105,381,56016,1,0,0:0:0:0:
172,322,56258,6,0,L|251:317,1,77.0000023498536,2|0,1:2|0:0,0:0:0:0:
318,257,56741,2,0,P|313:224|320:133,1,115.50000352478,0|0,1:0|0:0,0:0:0:0:
232,68,57225,2,0,L|236:156,1,77.0000023498536,2|0,1:2|0:0,0:0:0:0:
318,26,57709,2,0,L|462:45,1,115.50000352478,0|0,1:0|0:0,0:0:0:0:
440,119,58193,6,0,L|451:302,1,154.000004699707,2|0,1:2|1:0,0:0:0:0:
72,119,59161,2,0,L|61:302,1,154.000004699707,2|0,1:2|1:0,0:0:0:0:
7,329,59887,1,0,0:0:0:0:
142,300,60128,6,0,L|145:390,1,77.0000023498536,2|0,1:2|0:0,0:0:0:0:
232,294,60612,2,0,L|235:384,1,77.0000023498536,2|0,1:2|0:0,0:0:0:0:
324,364,61096,2,0,L|322:288,1,77.0000023498536,2|0,1:2|0:0,0:0:0:0:
366,222,61459,1,8,0:0:0:0:
365,187,61580,1,2,1:2:0:0:
180,223,61822,1,8,0:0:0:0:
179,188,61943,1,8,0:0:0:0:
223,123,62064,6,0,P|223:87|197:11,1,115.50000352478,8|0,1:2|0:0,0:0:0:0:
90,37,62548,2,0,P|88:101|118:175,1,115.50000352478,8|0,1:2|0:0,0:0:0:0:
180,223,63032,2,0,P|144:222|68:249,1,115.50000352478,8|0,1:2|0:0,0:0:0:0:
94,356,63516,2,0,P|158:358|232:328,1,115.50000352478,8|0,1:2|0:0,0:0:0:0:
300,359,63999,6,0,P|326:296|329:238,1,115.50000352478,8|0,1:2|0:0,0:0:0:0:
415,282,64483,6,0,P|406:214|329:114,1,157.500006008148,8|0,1:2|0:0,0:0:0:0:
477,148,64967,6,0,P|435:93|269:50,1,199.499994672775,8|0,1:2|0:0,0:0:0:0:
248,0,65451,6,0,P|153:29|72:148,1,241.500004606247,8|0,1:2|0:0,0:0:0:0:
136,200,65935,6,0,P|126:259|135:362,1,161.000003070831,10|0,1:2|3:0,0:0:0:0:
376,184,66419,2,0,P|386:125|377:22,1,161.000003070831,10|0,1:2|3:0,0:0:0:0:
264,312,66903,2,0,P|323:322|426:313,1,161.000003070831,10|0,1:2|3:0,0:0:0:0:
248,72,67387,2,0,P|189:62|86:71,1,161.000003070831,10|0,1:2|3:0,0:0:0:0:
14,18,67749,1,0,3:0:0:0:
4,105,67870,5,2,1:2:0:0:
9,158,67990,1,0,3:0:0:0:
14,211,68111,1,0,3:0:0:0:
20,265,68232,1,0,3:0:0:0:
109,313,68354,5,2,1:2:0:0:
162,307,68474,1,0,3:0:0:0:
215,302,68595,1,0,3:0:0:0:
269,296,68716,1,0,3:0:0:0:
265,195,68838,5,2,1:2:0:0:
212,201,68958,1,0,3:0:0:0:
159,206,69079,1,0,3:0:0:0:
105,212,69200,1,0,3:0:0:0:
27,354,69322,5,10,1:2:0:0:
27,354,69685,2,0,L|36:293,1,40.2500007677078
109,313,69806,6,2,P|136:224|59:19,1,315.000012016297,6|0,1:2|0:0,0:1:0:0:
190,0,70290,2,0,P|199:60|223:105,1,105.000004005432,8|0,1:2|0:0,0:0:0:0:
422,198,70774,6,2,B|308:174|308:174|241:210|241:210|110:181,1,315.000012016297,2|0,1:2|0:0,0:1:0:0:
40,164,71258,2,0,L|45:217,3,52.5000020027161,8|0|0|0,1:2|0:0|0:0|0:0,0:0:0:0:
115,267,71499,2,0,L|87:385,1,105.000004005432
94,106,71741,6,0,L|223:94,1,105.000004005432,2|0,1:3|0:0,0:0:0:0:
476,224,71983,2,0,L|371:233,1,105.000004005432,4|0,0:3|0:0,0:0:0:0:
275,317,72225,2,0,B|215:98|351:240|292:9,1,315.000012016297,10|0,1:2|0:0,0:0:0:0:
286,0,72709,5,4,1:3:0:0:
357,236,72951,1,2,0:3:0:0:
151,384,73193,1,12,1:2:0:0:
80,148,73435,1,2,0:0:0:0:
161,361,73677,6,0,P|228:335|484:349,1,315.000012016297,2|0,1:0|0:0,0:0:0:0:
496,246,74161,2,0,L|352:224,1,105.000004005432,8|0,1:2|0:0,0:0:0:0:
80,148,74403,1,2,0:3:0:0:
103,32,74524,1,0,0:0:0:0:
103,168,74645,6,0,L|247:190,1,105.000004005432,0|0,1:0|0:0,0:0:0:0:
424,137,74887,1,0,0:0:0:0:
407,253,75008,1,0,0:0:0:0:
453,116,75128,2,0,P|472:45|471:8,1,105.000004005432,10|0,1:2|0:0,0:0:0:0:
332,102,75370,2,0,P|329:49|313:0,1,105.000004005432
38,300,75612,6,0,P|102:342|344:348,1,315.000012016297,4|0,1:0|0:0,0:0:0:0:
402,266,76096,2,0,P|328:241|270:268,1,105.000004005432,8|0,1:2|0:0,0:0:0:0:
512,342,76338,1,0,0:0:0:0:
486,203,76459,1,0,0:0:0:0:
504,372,76580,6,0,L|385:386,1,105.000004005432,4|0,1:1|0:0,0:0:0:0:
208,196,76822,1,0,0:0:0:0:
304,133,76943,1,0,0:0:0:0:
203,76,77064,2,0,L|98:63,1,105.000004005432,8|0,1:2|0:0,0:0:0:0:
296,12,77306,2,0,L|400:0,1,105.000004005432
78,78,77548,6,2,B|13:108|13:108|2:281|2:281|60:329,1,315.000012016297,6|0,1:2|0:0,0:1:0:0:
180,282,78032,2,0,L|129:268,3,52.5000020027161,8|0|0|0,1:2|0:0|0:0|0:0,0:0:0:0:
204,374,78274,2,0,L|322:352,1,105.000004005432
496,95,78516,6,2,P|352:132|311:314,1,315.000012016297,2|0,1:2|0:0,0:1:0:0:
409,353,78999,2,0,P|408:288|374:242,1,105.000004005432,8|0,1:2|0:0,0:0:0:0:
37,149,79483,5,2,1:2:0:0:
21,230,79604,1,0,0:0:0:0:
103,245,79725,1,0,0:0:0:0:
118,164,79846,1,0,0:0:0:0:
185,111,79967,2,0,L|295:128,1,105.000004005432,8|0,1:2|0:0,0:0:0:0:
309,46,80209,2,0,L|205:29,1,105.000004005432,2|0,0:3|0:0,0:0:0:0:
365,348,80451,5,2,1:1:0:0:
457,309,80572,2,0,P|488:237|463:107,1,210.000008010865
511,36,80935,6,0,B|384:3|434:95|301:43,1,210,8|0,1:2|0:0,0:0:0:0:
271,115,81419,6,0,B|186:86|186:86|239:308,1,315.000012016297,2|0,1:1|0:0,0:0:0:0:
301,366,81903,1,8,1:2:0:0:
155,342,82024,1,0,0:0:0:0:
332,264,82145,2,0,L|450:281,1,105.000004005432,2|0,0:3|0:0,0:0:0:0:
124,240,82387,6,0,L|6:257,1,105.000004005432,0|0,1:2|0:0,0:0:0:0:
238,305,82628,2,0,L|213:202,1,105.000004005432
386,120,82870,2,0,L|489:105,1,105.000004005432,10|0,1:2|0:0,0:0:0:0:
272,55,83112,2,0,L|296:157,1,105.000004005432
340,384,83354,6,0,P|378:340|366:192,1,210.000008010865,8|0,1:1|0:0,0:0:0:0:
401,99,83717,1,0,0:0:0:0:
250,40,83838,2,0,P|202:55|157:114,1,105.000004005432,8|0,1:2|0:0,0:0:0:0:
47,91,84080,2,0,L|42:196,1,105.000004005432
76,361,84322,5,4,1:1:0:0:
122,355,84442,1,0,3:0:0:0:
171,351,84563,1,0,3:0:0:0:
217,346,84684,1,0,3:0:0:0:
305,384,84806,5,8,1:2:0:0:
234,257,84927,2,0,P|228:164|232:45,1,210.000008010865
387,28,85290,6,2,P|369:83|145:175,1,315.000012016297,6|0,1:2|0:0,0:1:0:0:
63,138,85774,2,0,B|54:191|54:191|74:239,1,105.000004005432,8|0,1:2|0:0,0:0:0:0:
73,238,86137,1,0,0:0:0:0:
151,176,86258,6,2,P|302:197|386:325,1,315.000012016297,2|0,1:2|0:0,0:1:0:0:
452,265,86741,2,0,P|428:183|427:142,1,105.000004005432,8|0,1:2|0:0,0:0:0:0:
333,173,86983,2,0,P|340:121|358:71,1,105.000004005432,0|0,0:0|0:0,0:0:0:0:
169,218,87225,6,0,L|174:326,1,105.000004005432,4|0,1:2|0:0,0:0:0:0:
99,384,87467,1,0,0:0:0:0:
343,218,87709,2,0,L|338:326,1,105.000004005432,10|0,1:2|0:0,0:0:0:0:
413,384,87951,1,0,0:0:0:0:
91,154,88193,6,2,L|87:212,3,52.5000020027161,2|2|2|2,1:3|0:1|0:1|0:1,0:1:0:0:
192,141,88435,2,2,L|188:83,3,52.5000020027161,2|2|2|2,0:3|0:1|0:1|0:1,0:1:0:0:
323,88,88677,2,2,L|320:141,3,52.5000020027161,12|2|2|2,1:2|0:1|0:1|0:1,0:1:0:0:
424,206,88919,2,2,L|421:154,3,52.5000020027161,10|2|2|2,0:1|0:1|0:1|0:1,0:1:0:0:
512,85,89161,6,0,B|451:36|451:36|207:62,1,315.000012016297,2|0,1:1|0:0,0:0:0:0:
100,32,89645,2,0,L|117:157,1,105.000004005432,8|0,1:2|0:0,0:0:0:0:
210,357,89887,1,2,0:3:0:0:
85,329,90008,1,0,0:0:0:0:
236,343,90128,6,0,L|250:238,1,105.000004005432,0|0,1:2|0:0,0:0:0:0:
340,33,90370,1,0,0:0:0:0:
215,61,90491,1,0,0:0:0:0:
366,47,90612,2,0,P|379:106|380:151,1,105.000004005432,10|0,1:2|0:0,0:0:0:0:
438,347,90854,1,0,0:0:0:0:
438,347,90975,1,0,0:0:0:0:
492,255,91096,6,0,B|460:194|460:194|289:208|289:208|270:286,1,315.000012016297,4|0,1:0|0:0,0:0:0:0:
335,384,91580,2,0,L|364:266,1,105.000004005432,8|0,1:2|0:0,0:0:0:0:
223,103,91822,1,0,0:0:0:0:
168,198,91943,1,0,0:0:0:0:
214,70,92064,6,0,P|158:68|97:54,1,105.000004005432,4|0,1:1|0:0,0:0:0:0:
263,254,92306,1,0,0:0:0:0:
318,159,92427,1,0,0:0:0:0:
272,282,92548,2,0,P|327:283|389:297,1,105.000004005432,8|0,1:2|0:0,0:0:0:0:
327,134,92790,2,0,P|382:132|431:119,1,105.000004005432
192,195,93032,6,2,B|71:218|71:218|78:321|78:321|179:299,1,315.000012016297,2|0,1:2|0:0,0:1:0:0:
272,282,93516,2,0,L|261:393,1,105.000004005432,8|0,1:2|0:0,0:0:0:0:
379,269,93758,2,0,L|369:374,1,105.000004005432
487,250,93999,6,2,B|518:69|518:69|439:56|439:56|425:121,1,315.000012016297,2|0,1:2|0:0,0:1:0:0:
407,188,94483,2,0,L|305:160,1,105.000004005432,8|0,1:2|0:0,0:0:0:0:
48,113,94967,5,2,1:2:0:0:
330,68,95209,1,0,0:0:0:0:
117,29,95451,1,8,1:2:0:0:
99,259,95693,1,0,0:0:0:0:
329,277,95935,5,4,1:3:0:0:
347,47,96177,1,2,0:3:0:0:
275,110,96419,2,0,L|172:95,1,105.000004005432,12|0,1:2|0:0,0:0:0:0:
29,18,96903,6,0,P|40:87|4:332,1,315.000012016297,2|0,1:1|0:0,0:0:0:0:
155,253,97387,1,8,1:2:0:0:
143,108,97508,1,0,0:0:0:0:
133,280,97628,2,0,L|137:384,1,105.000004005432,2|0,0:3|0:0,0:0:0:0:
383,367,97870,6,0,P|401:323|403:255,1,105.000004005432,0|0,1:2|0:0,0:0:0:0:
421,170,98112,2,0,P|377:152|309:150,1,105.000004005432
129,17,98354,2,0,P|111:61|109:129,1,105.000004005432,10|0,1:2|0:0,0:0:0:0:
91,214,98596,2,0,P|135:232|203:234,1,105.000004005432
294,73,98838,6,0,P|226:76|173:101,1,105.000004005432,10|0,1:1|0:0,0:0:0:0:
218,311,99080,2,0,P|286:308|339:283,1,105.000004005432
256,192,99322,5,8,1:2:0:0:
256,192,99443,1,0,0:0:0:0:
256,192,99564,1,0,0:0:0:0:
256,192,99685,1,0,0:0:0:0:
175,236,99806,5,6,1:1:0:0:
122,233,99926,1,8,0:3:0:0:
70,230,100047,1,8,0:3:0:0:
17,227,100168,1,8,0:3:0:0:
23,130,100290,5,8,1:2:0:0:
75,132,100410,1,4,0:3:0:0:
127,135,100531,1,4,0:3:0:0:
180,138,100652,1,4,0:3:0:0:
256,192,100774,5,2,1:3:0:0:
396,165,100895,1,0,0:0:0:0:
256,192,101016,1,2,0:0:0:0:
396,165,101137,2,0,L|407:259,2,87.5,0|12|0,0:0|1:2|0:0,0:0:0:0:
469,59,101499,5,2,0:3:0:0:
329,86,101620,1,0,0:0:0:0:
469,59,101741,1,2,1:2:0:0:
329,86,101862,2,0,L|318:-8,2,87.5,0|4|0,0:0|0:0|0:0,0:0:0:0:
385,274,102225,6,0,L|489:291,1,87.5,8|0,1:2|0:0,0:0:0:0:
277,349,102467,2,0,L|191:334,1,87.5
80,206,102709,5,2,1:3:0:0:
248,231,102830,1,0,0:0:0:0:
80,206,102951,1,2,0:2:0:0:
248,231,103072,2,0,P|262:181|262:137,2,87.5,0|12|0,0:0|1:2|0:0,0:0:0:0:
257,62,103435,5,2,0:3:0:0:
425,37,103556,1,0,0:0:0:0:
257,62,103677,1,2,1:2:0:0:
425,37,103798,2,0,P|439:87|439:131,2,87.5,0|4|0,0:0|0:0|0:0,0:0:0:0:
385,301,104161,6,0,P|428:319|472:324,1,87.5,8|0,1:2|0:0,0:0:0:0:
248,231,104403,2,0,P|204:236|164:254,1,87.5
385,301,104645,5,4,1:3:0:0:
491,273,104766,1,0,0:0:0:0:
463,167,104887,1,2,0:0:0:0:
357,195,105008,1,0,0:0:0:0:
277,137,105128,2,0,L|282:37,1,87.5,12|0,1:2|0:0,0:0:0:0:
140,67,105370,5,4,0:3:0:0:
34,95,105491,1,0,0:0:0:0:
62,201,105612,1,2,1:2:0:0:
168,173,105733,1,0,0:0:0:0:
248,231,105854,2,0,L|243:331,1,87.5,4|0,0:0|0:0,0:0:0:0:
156,362,106096,5,8,1:2:0:0:
356,22,106338,1,0,0:0:0:0:
156,362,106580,5,4,1:3:0:0:
139,219,106701,1,0,0:0:0:0:
297,345,106822,1,2,0:0:0:0:
282,203,106943,1,0,0:0:0:0:
313,360,107064,2,0,L|400:358,1,87.5,12|0,1:2|0:0,0:0:0:0:
439,205,107306,5,4,0:3:0:0:
456,62,107427,1,0,0:0:0:0:
298,188,107548,1,2,1:2:0:0:
313,46,107669,1,0,0:0:0:0:
282,203,107790,2,0,L|194:201,1,87.5,4|0,3:2|3:0,0:0:0:0:
17,132,108032,6,0,L|104:133,1,87.5,8|0,1:2|0:0,0:0:0:0:
383,136,108274,1,0,3:0:0:0:
383,136,108395,1,0,3:0:0:0:
442,216,108516,5,2,1:3:0:0:
313,46,108637,1,0,0:0:0:0:
462,66,108758,1,2,0:0:0:0:
292,195,108878,1,0,0:0:0:0:
456,239,108999,2,0,L|436:343,1,87.5,12|0,1:2|0:0,0:0:0:0:
168,158,109241,5,2,0:3:0:0:
39,328,109362,1,0,0:0:0:0:
188,308,109483,1,2,1:2:0:0:
18,179,109603,1,0,0:0:0:0:
182,135,109725,2,0,L|162:31,1,87.5,4|0,0:0|0:0,0:0:0:0:
104,243,109967,6,0,P|160:256|201:255,1,87.5,8|0,1:2|0:0,0:0:0:0:
408,141,110209,2,0,P|352:128|311:129,1,87.5
112,354,110451,5,2,1:3:0:0:
112,149,110571,1,0,0:0:0:0:
232,314,110693,1,2,0:0:0:0:
38,251,110814,1,0,0:0:0:0:
232,187,110935,2,0,P|240:144|238:85,1,87.5,12|0,1:2|0:0,0:0:0:0:
257,5,111177,5,2,0:3:0:0:
257,210,111297,1,0,0:0:0:0:
137,45,111419,1,2,1:2:0:0:
331,108,111540,1,0,0:0:0:0:
137,172,111661,2,0,P|129:215|131:274,1,87.5,4|0,0:0|0:0,0:0:0:0:
416,345,111903,6,0,L|506:329,1,87.5,8|0,1:2|0:0,0:0:0:0:
96,345,112145,2,0,L|6:329,1,87.5
378,265,112387,5,4,1:3:0:0:
239,228,112508,1,0,0:0:0:0:
376,122,112628,1,2,0:2:0:0:
237,85,112749,1,0,0:0:0:0:
466,79,112870,2,0,L|473:166,1,87.5,12|0,1:2|0:0,0:0:0:0:
332,346,113112,5,4,0:3:0:0:
471,309,113233,1,0,0:0:0:0:
334,203,113353,1,2,1:2:0:0:
473,166,113474,1,0,0:0:0:0:
244,160,113596,2,0,L|237:247,1,87.5,4|0,0:0|0:0,0:0:0:0:
311,372,113838,5,8,1:2:0:0:
201,12,114080,1,0,0:0:0:0:
39,265,114322,5,4,1:3:0:0:
140,240,114442,1,0,0:0:0:0:
232,290,114563,1,2,0:0:0:0:
328,248,114684,1,0,0:0:0:0:
412,312,114806,2,0,P|424:246|420:206,1,87.5,12|0,1:2|0:0,0:0:0:0:
120,77,115048,5,4,0:3:0:0:
221,102,115168,1,0,0:0:0:0:
313,52,115289,1,2,1:2:0:0:
409,94,115411,1,0,0:0:0:0:
493,30,115532,2,0,P|505:96|501:136,1,87.5,4|0,0:0|0:0,0:0:0:0:
487,362,115774,5,8,1:2:0:0:
226,15,116016,1,0,0:0:0:0:
0,384,116258,6,0,P|37:326|41:305,1,87.5,8|0,1:3|0:0,0:0:0:0:
25,197,116499,1,2,0:2:0:0:
120,306,116620,1,0,0:0:0:0:
152,200,116741,2,0,L|146:93,1,87.5,12|0,1:2|0:0,0:0:0:0:
512,384,116983,6,0,P|475:326|471:305,1,87.5,8|0,0:3|0:0,0:0:0:0:
487,197,117224,1,2,1:2:0:0:
392,306,117345,1,0,0:0:0:0:
352,200,117467,2,0,L|358:93,1,87.5,4|0,0:0|0:0,0:0:0:0:
256,0,117709,6,0,L|256:192,1,175,8|0,1:2|0:0,0:0:0:0:
23,41,118193,5,8,1:3:0:0:
156,73,118314,1,0,0:0:0:0:
94,191,118435,1,2,0:0:0:0:
34,312,118556,1,0,0:0:0:0:
161,364,118677,2,0,P|171:322|167:270,1,87.5,12|0,1:2|0:0,0:0:0:0:
489,41,118919,5,8,0:3:0:0:
356,73,119040,1,0,0:0:0:0:
418,191,119161,1,2,1:2:0:0:
478,312,119282,1,0,0:0:0:0:
351,364,119403,2,0,P|340:321|343:278,1,87.5,4|0,0:0|0:0,0:0:0:0:
256,175,119645,6,0,L|256:0,1,175,8|0,1:2|0:0,0:0:0:0:
74,339,120128,6,0,P|61:279|61:243,1,87.5,4|0,1:3|0:0,0:0:0:0:
257,274,120370,1,2,0:0:0:0:
347,306,120491,1,0,0:0:0:0:
437,339,120612,2,0,P|451:279|451:243,1,87.5,12|0,1:2|0:0,0:0:0:0:
74,45,120854,6,0,P|60:105|60:141,1,87.5,4|0,0:3|0:0,0:0:0:0:
257,109,121096,1,2,1:2:0:0:
347,77,121217,1,0,0:0:0:0:
437,45,121338,2,0,P|450:105|450:141,1,87.5,4|0,0:0|0:0,0:0:0:0:
304,192,121580,6,0,L|129:192,1,175,8|0,1:2|0:0,0:0:0:0:
459,327,122064,5,4,1:3:0:0:
351,288,122185,1,0,0:0:0:0:
253,347,122306,1,2,0:0:0:0:
145,308,122427,1,0,0:0:0:0:
47,367,122548,2,0,L|38:278,1,87.5,12|0,1:2|0:0,0:0:0:0:
459,57,122790,5,4,0:3:0:0:
351,96,122911,1,0,0:0:0:0:
253,37,123032,1,2,1:2:0:0:
145,76,123153,1,0,0:0:0:0:
47,17,123274,2,0,L|38:106,1,87.5,4|0,3:2|3:0,0:0:0:0:
7,193,123516,5,8,1:2:0:0:
504,194,123758,1,8,3:2:0:0:
504,194,123878,1,0,3:0:0:0:
442,262,123999,6,0,P|414:225|409:180,1,87.5,8|0,1:3|0:0,0:0:0:0:
512,325,124241,2,0,P|478:351|426:355,1,87.5,2|0,0:0|0:0,0:0:0:0:
338,122,124483,2,0,P|372:96|424:92,1,87.5,12|0,1:2|0:0,0:0:0:0:
208,95,124725,6,0,P|236:132|241:177,1,87.5,8|0,0:3|0:0,0:0:0:0:
138,32,124967,2,0,P|172:6|224:2,1,87.5,2|0,1:2|0:0,0:0:0:0:
312,235,125209,2,0,P|278:261|226:265,1,87.5,4|0,0:0|0:0,0:0:0:0:
408,185,125451,1,8,1:2:0:0:
411,213,125571,1,0,0:0:0:0:
415,242,125692,1,0,0:0:0:0:
419,271,125813,1,0,0:0:0:0:
498,363,125935,6,0,L|508:259,1,87.5,8|0,1:3|0:0,0:0:0:0:
340,363,126177,2,0,L|330:259,1,87.5,2|0,0:0|0:0,0:0:0:0:
172,363,126419,2,0,L|182:259,1,87.5,12|0,1:2|0:0,0:0:0:0:
14,363,126661,2,0,L|4:259,1,87.5,8|0,0:3|0:0,0:0:0:0:
64,44,126903,5,2,1:2:0:0:
111,57,127023,1,0,0:0:0:0:
159,66,127144,1,4,0:0:0:0:
208,69,127265,1,0,0:0:0:0:
255,153,127386,1,8,1:2:0:0:
302,140,127507,1,0,0:0:0:0:
351,139,127628,1,0,0:0:0:0:
400,143,127749,1,0,0:0:0:0:
458,67,127870,5,4,1:3:0:0:
287,55,127991,1,0,0:0:0:0:
276,225,128112,1,2,0:0:0:0:
447,237,128233,1,0,0:0:0:0:
367,99,128354,2,0,L|371:190,1,87.5,12|0,1:2|0:0,0:0:0:0:
107,356,128596,5,4,0:3:0:0:
278,368,128717,1,0,0:0:0:0:
289,198,128838,1,2,1:2:0:0:
118,186,128959,1,0,0:0:0:0:
198,324,129080,2,0,L|194:233,1,87.5,4|0,0:0|0:0,0:0:0:0:
59,36,129322,6,0,L|55:123,2,87.5,8|0|0,1:2|0:0|0:0,0:0:0:0:
453,348,129806,6,0,L|455:286,2,52.5000020027161,2|0|0,1:2|0:0|0:0,0:0:0:0:
352,345,130290,1,2,1:2:0:0:
259,348,130532,2,0,L|261:273,2,52.5000020027161,0|0|2,0:0|0:0|1:2,0:0:0:0:
259,348,130895,2,0,L|146:343,1,105.000004005432
154,343,131258,2,0,L|158:238,1,105.000004005432,8|0,1:2|0:0,0:0:0:0:
477,30,131741,5,6,1:2:0:0:
114,32,147225,6,0,L|124:155,2,121.333327779134,2|0|0,0:0|0:0|0:0,0:0:0:0:
398,352,148193,2,0,L|388:229,2,121.333327779134,0|0|0,3:0|0:0|0:0,0:0:0:0:
47,199,149161,5,2,0:0:0:0:
196,229,149483,1,0,0:0:0:0:
336,172,149806,1,0,0:0:0:0:
315,44,150128,1,0,3:0:0:0:
166,14,150450,1,0,0:0:0:0:
26,71,150773,1,0,0:0:0:0:
97,259,151096,5,2,0:0:0:0:
230,165,151419,1,0,0:0:0:0:
166,14,151741,1,0,0:0:0:0:
309,203,152064,2,0,L|323:82,2,121.333327779134,0|0|0,3:0|0:0|0:0,0:0:0:0:
374,352,153032,5,2,0:0:0:0:
241,258,153355,1,0,0:0:0:0:
305,107,153677,1,0,0:0:0:0:
162,296,154000,2,0,L|148:175,2,121.333327779134,0|0|0,3:0|0:0|0:0,0:0:0:0:
93,355,154967,5,2,0:0:0:0:
93,355,155290,1,0,0:0:0:0:
93,355,155612,1,0,0:0:0:0:
419,355,155935,5,0,3:0:0:0:
419,355,156258,1,0,0:0:0:0:
419,355,156580,1,0,0:0:0:0:
326,303,156903,5,2,0:0:0:0:
485,282,157225,1,0,0:0:0:0:
391,212,157548,1,0,0:0:0:0:
456,121,157870,5,0,3:0:0:0:
297,142,158192,1,0,0:0:0:0:
391,212,158515,1,0,0:0:0:0:
278,106,158838,5,2,0:0:0:0:
263,248,159161,1,0,0:0:0:0:
407,224,159483,1,0,0:0:0:0:
253,85,159806,5,0,3:0:0:0:
311,215,160129,1,0,0:0:0:0:
423,122,160451,1,0,0:0:0:0:
226,63,160774,5,2,0:0:0:0:
341,146,161097,1,0,0:0:0:0:
391,10,161419,1,0,0:0:0:0:
256,192,161741,5,2,1:2:0:0:
256,192,162709,5,2,1:1:0:0:
163,107,162870,1,0,0:0:0:0:
271,40,163032,1,0,0:0:0:0:
160,144,163193,5,10,1:2:0:0:
160,144,163354,1,0,0:0:0:0:
160,144,163516,1,0,0:0:0:0:
86,251,163677,5,2,1:1:0:0:
25,106,163838,1,0,0:0:0:0:
0,304,164000,1,0,0:0:0:0:
19,93,164161,5,12,1:2:0:0:
19,93,164322,1,0,0:0:0:0:
19,93,164484,1,0,0:0:0:0:
177,26,164645,5,2,1:1:0:0:
243,146,164806,1,0,0:0:0:0:
311,0,164968,1,0,0:0:0:0:
244,184,165128,5,10,1:2:0:0:
244,184,165289,1,0,0:0:0:0:
244,184,165451,1,0,0:0:0:0:
342,97,165612,5,2,1:1:0:0:
133,70,165773,1,0,0:0:0:0:
311,0,165935,1,0,0:0:0:0:
226,203,166095,5,12,1:2:0:0:
227,116,166258,1,0,0:0:0:0:
231,31,166418,1,0,0:0:0:0:
152,173,166580,5,4,1:1:0:0:
18,0,166741,1,0,0:0:0:0:
7,219,166903,1,0,0:0:0:0:
133,70,167064,5,10,1:2:0:0:
0,117,167225,1,0,0:0:0:0:
97,248,167387,1,0,0:0:0:0:
0,366,167548,5,4,1:1:0:0:
181,326,167709,1,0,0:0:0:0:
4,268,167870,1,0,0:0:0:0:
183,225,168032,5,12,1:2:0:0:
183,225,168193,1,0,0:0:0:0:
183,225,168355,1,0,0:0:0:0:
89,347,168516,5,4,1:1:0:0:
293,297,168677,1,0,0:0:0:0:
171,130,168838,1,0,0:0:0:0:
184,323,168999,5,10,1:2:0:0:
64,161,169162,1,0,0:0:0:0:
274,151,169322,1,0,0:0:0:0:
24,303,169483,6,0,L|36:382,2,60.6666638895672,4|0|0,1:1|0:0|0:0,0:0:0:0:
4,268,169846,2,0,L|14:187,1,45.4999979171754,8|4,0:0|1:2,0:0:0:0:
59,22,170209,2,0,L|71:84,1,45.4999979171754,8|0,0:0|0:0,0:0:0:0:
33,139,170451,5,2,1:3:0:0:
176,32,170612,1,0,0:0:0:0:
176,32,170774,1,0,0:0:0:0:
33,139,170935,5,10,1:2:0:0:
210,117,171096,1,0,0:0:0:0:
210,117,171258,1,0,0:0:0:0:
33,139,171419,5,2,1:3:0:0:
197,208,171580,1,0,0:0:0:0:
197,208,171742,1,0,0:0:0:0:
33,139,171903,5,12,1:2:0:0:
140,281,172064,1,0,0:0:0:0:
140,281,172226,1,0,0:0:0:0:
387,139,172387,5,2,1:3:0:0:
244,32,172548,1,0,0:0:0:0:
244,32,172710,1,0,0:0:0:0:
387,139,172871,5,10,1:2:0:0:
210,117,173032,1,0,0:0:0:0:
210,117,173194,1,0,0:0:0:0:
387,139,173355,5,2,1:3:0:0:
223,208,173516,1,0,0:0:0:0:
223,208,173678,1,0,0:0:0:0:
387,139,173839,5,12,1:2:0:0:
280,281,174000,1,0,0:0:0:0:
280,281,174162,1,0,0:0:0:0:
448,295,174322,5,4,1:3:0:0:
294,133,174483,1,0,0:0:0:0:
217,353,174645,1,0,0:0:0:0:
201,216,174806,5,10,1:2:0:0:
280,281,174967,1,0,0:0:0:0:
369,230,175129,1,0,0:0:0:0:
388,361,175290,5,4,1:3:0:0:
294,133,175451,1,0,0:0:0:0:
217,353,175613,1,0,0:0:0:0:
369,230,175774,5,12,1:2:0:0:
280,281,175935,1,0,0:0:0:0:
201,216,176097,1,0,0:0:0:0:
120,267,176258,6,0,L|122:338,2,60.6666638895672,4|0|0,1:3|0:0|0:0,0:0:0:0:
369,230,176741,2,0,L|367:301,2,60.6666638895672,10|0|0,1:2|0:0|0:0,0:0:0:0:
56,206,177225,6,0,L|22:143,2,60.6666638895672,4|0|0,1:3|0:0|0:0,0:0:0:0:
435,329,177709,2,0,L|468:391,2,60.6666638895672,12|0|0,1:2|0:0|0:0,0:0:0:0:
237,62,178193,5,2,1:1:0:0:
215,206,178354,1,0,0:0:0:0:
280,321,178516,1,0,0:0:0:0:
309,152,178677,5,10,1:2:0:0:
152,315,178838,1,0,0:0:0:0:
397,366,178999,1,0,0:0:0:0:
189,193,179161,6,0,L|107:198,2,60.6666638895672,2|0|0,1:1|0:0|0:0,0:0:0:0:
481,199,179645,5,12,1:2:0:0:
334,120,179806,1,0,0:0:0:0:
314,317,179967,1,0,0:0:0:0:
359,155,180128,5,2,1:1:0:0:
225,158,180290,1,0,0:0:0:0:
139,254,180451,1,0,0:0:0:0:
143,384,180612,5,10,1:2:0:0:
300,291,180774,1,0,0:0:0:0:
130,225,180935,1,0,0:0:0:0:
397,285,181096,6,0,L|389:363,2,60.6666638895672,2|0|0,1:1|0:0|0:0,0:0:0:0:
311,72,181580,5,12,1:2:0:0:
314,103,181741,1,0,0:0:0:0:
317,134,181903,1,0,0:0:0:0:
257,192,182064,5,4,1:1:0:0:
373,203,182225,1,0,0:0:0:0:
454,119,182387,1,0,0:0:0:0:
427,6,182548,5,10,1:2:0:0:
379,235,182709,1,0,0:0:0:0:
190,112,182870,1,0,0:0:0:0:
70,307,183032,6,0,L|74:386,2,60.6666638895672,4|0|0,1:1|0:0|0:0,0:0:0:0:
66,94,183516,5,12,1:2:0:0:
170,320,183677,1,0,0:0:0:0:
222,87,183838,1,0,0:0:0:0:
239,206,183999,5,4,1:1:0:0:
118,222,184161,1,0,0:0:0:0:
101,102,184322,1,0,0:0:0:0:
222,87,184483,5,10,1:2:0:0:
5,190,184644,1,0,0:0:0:0:
265,286,184805,1,0,0:0:0:0:
68,312,184967,6,0,L|56:391,2,60.6666638895672,4|0|0,1:1|0:0|0:0,0:0:0:0:
88,277,185330,2,0,L|78:196,1,45.4999979171754,8|4,0:0|1:2,0:0:0:0:
275,116,185693,2,0,L|263:178,1,45.4999979171754,8|0,0:0|0:0,0:0:0:0:
197,237,185935,5,2,1:3:0:0:
410,201,186096,1,0,0:0:0:0:
410,201,186258,1,0,0:0:0:0:
113,189,186419,5,10,1:2:0:0:
326,225,186580,1,0,0:0:0:0:
326,225,186742,1,0,0:0:0:0:
166,336,186903,5,2,1:3:0:0:
198,122,187064,1,0,0:0:0:0:
198,122,187225,1,0,0:0:0:0:
78,384,187387,5,12,1:2:0:0:
46,170,187548,1,0,0:0:0:0:
46,170,187709,1,0,0:0:0:0:
206,232,187870,5,2,1:3:0:0:
14,312,188032,1,0,0:0:0:0:
14,312,188193,1,0,0:0:0:0:
297,336,188354,5,10,1:2:0:0:
105,256,188516,1,0,0:0:0:0:
105,256,188677,1,0,0:0:0:0:
372,279,188838,5,2,1:3:0:0:
180,359,189000,1,0,0:0:0:0:
180,359,189161,1,0,0:0:0:0:
463,383,189322,5,12,1:2:0:0:
271,303,189484,1,0,0:0:0:0:
271,303,189645,1,0,0:0:0:0:
444,148,189806,5,4,1:3:0:0:
463,383,189967,1,0,0:0:0:0:
463,383,190128,1,0,0:0:0:0:
295,320,190290,5,10,1:2:0:0:
314,85,190451,1,0,0:0:0:0:
314,85,190612,1,0,0:0:0:0:
174,149,190774,5,4,1:3:0:0:
193,384,190935,1,0,0:0:0:0:
193,384,191096,1,0,0:0:0:0:
25,321,191258,5,12,1:2:0:0:
44,86,191419,1,0,0:0:0:0:
44,86,191580,1,0,0:0:0:0:
120,218,191741,5,4,1:3:0:0:
5,232,191903,1,0,0:0:0:0:
5,232,192064,1,0,0:0:0:0:
212,203,192225,5,2,1:2:0:0:
97,189,192387,1,0,0:0:0:0:
97,189,192548,1,0,0:0:0:0:
304,218,192709,5,4,1:3:0:0:
189,232,192871,1,0,0:0:0:0:
189,232,193032,1,0,0:0:0:0:
476,280,193193,5,12,1:2:0:0:
476,280,193677,6,0,P|473:231|471:168,2,94.499997116089,2|0|0,0:0|0:0|0:0,0:0:0:0:
111,15,196822,5,0,0:0:0:0:
54,84,197064,1,2,0:0:0:0:
143,95,197306,1,0,0:0:0:0:
36,104,197548,6,0,P|39:153|41:216,2,94.499997116089,2|0|0,0:0|0:0|0:0,0:0:0:0:
476,280,201419,6,0,P|473:231|471:168,2,94.499997116089,2|0|0,0:0|0:0|0:0,0:0:0:0:
466,306,204080,5,2,0:0:0:0:
357,274,204564,1,2,0:0:0:0:
268,344,205048,1,2,0:0:0:0:
268,344,205290,6,0,P|271:295|273:232,2,94.499997116089,2|0|0,0:0|0:0|0:0,0:0:0:0:
36,104,209161,6,0,P|39:153|41:216,2,94.499997116089,2|0|0,0:0|0:0|0:0,0:0:0:0:
401,369,215693,5,2,0:0:0:0:
481,288,216177,1,2,0:0:0:0:
374,249,216661,1,2,0:0:0:0:
511,281,216903,6,0,P|508:232|506:169,2,94.499997116089,2|0|0,0:0|0:0|0:0,0:0:0:0:
256,192,220774,12,8,224161,0:0:0:0:
62,134,224645,6,0,L|51:294,1,154.000004699707,4|0,1:2|3:0,0:0:0:0:
51,287,225370,1,0,0:0:0:0:
117,353,225612,2,0,B|207:375|180:322|267:345,1,154.000004699707,0|0,0:0|3:0,0:0:0:0:
266,344,226338,1,0,0:0:0:0:
172,171,226580,6,0,B|132:161|132:161|148:274,1,154.000004699707,0|0,0:0|3:0,0:0:0:0:
147,272,227306,1,0,0:0:0:0:
291,333,227548,2,0,B|352:343|352:343|379:333|379:333|445:341,1,154.000004699707,0|0,0:0|3:0,0:0:0:0:
441,340,228274,1,0,0:0:0:0:
326,105,228516,6,0,L|336:258,1,154.000004699707,2|0,1:2|3:0,0:0:0:0:
336,258,229241,1,0,0:0:0:0:
185,104,229483,2,0,L|174:257,1,154.000004699707,0|0,0:0|3:0,0:0:0:0:
174,257,230208,1,0,0:0:0:0:
64,358,230451,6,0,P|73:303|31:185,1,154.000004699707,0|0,0:0|3:0,0:0:0:0:
48,209,231177,1,0,0:0:0:0:
293,174,231419,2,0,P|284:229|298:303,1,115.50000352478,0|8,0:0|0:0,0:0:0:0:
292,287,231903,1,0,3:0:0:0:
151,239,232145,1,8,0:0:0:0:
155,210,232266,1,8,0:0:0:0:
196,132,232387,6,0,L|185:16,1,115.50000352478,2|0,1:2|0:0,0:0:0:0:
100,0,232870,2,0,L|-8:10,1,77.0000023498536,0|0,3:0|0:0,0:0:0:0:
316,132,233354,6,0,L|327:16,1,115.50000352478,2|0,1:2|0:0,0:0:0:0:
412,0,233838,2,0,L|520:10,1,77.0000023498536,0|0,3:0|0:0,0:0:0:0:
484,245,234322,6,0,P|431:254|345:242,1,115.50000352478,2|0,1:2|0:0,0:0:0:0:
311,304,234806,2,0,L|320:383,1,77.0000023498536,0|0,3:0|0:0,0:0:0:0:
28,245,235290,6,0,P|81:254|167:242,1,115.50000352478,2|0,1:2|0:0,0:0:0:0:
201,304,235774,2,0,L|192:383,1,77.0000023498536,0|0,3:0|0:0,0:0:0:0:
316,132,236258,5,2,1:2:0:0:
196,132,236741,1,2,1:2:0:0:
196,252,237225,1,2,1:2:0:0:
316,252,237709,1,2,1:2:0:0:
316,132,238193,5,2,1:2:0:0:
287,131,238313,1,0,3:0:0:0:
258,130,238434,1,0,3:0:0:0:
229,129,238555,1,0,3:0:0:0:
125,168,238677,5,2,1:2:0:0:
123,150,238798,1,0,3:0:0:0:
140,149,238919,1,0,3:0:0:0:
142,166,239040,1,0,3:0:0:0:
142,166,239524,5,8,0:0:0:0:
187,307,239645,2,0,L|196:207,2,70,0|8|4,1:0|0:3|0:3,0:0:0:0:
142,166,240128,6,2,P|223:218|442:222,1,315.000012016297,6|0,1:2|0:0,0:1:0:0:
512,342,240612,2,0,P|465:320|381:325,1,105.000004005432,8|0,1:2|0:0,0:0:0:0:
172,279,241096,6,2,B|205:333|205:333|326:272|228:94,1,315.000012016297,2|0,1:2|0:0,0:1:0:0:
310,31,241580,2,0,L|323:101,3,52.5000020027161,8|0|0|0,1:2|0:0|0:0|0:0,0:0:0:0:
223,22,241822,2,0,L|117:37,1,105.000004005432
72,115,242064,6,0,L|85:233,1,105.000004005432,2|0,1:3|0:0,0:0:0:0:
397,265,242306,2,0,L|385:160,1,105.000004005432,4|0,0:3|0:0,0:0:0:0:
223,22,242548,2,0,B|163:241|299:99|240:330,1,315.000012016297,10|0,1:2|0:0,0:0:0:0:
223,333,243032,5,4,1:3:0:0:
487,317,243274,1,2,0:3:0:0:
291,113,243516,1,12,1:2:0:0:
27,129,243758,1,2,0:0:0:0:
372,271,243999,6,0,P|440:194|346:28,1,315.000012016297,2|0,1:1|0:0,0:0:0:0:
261,90,244483,2,0,L|268:202,1,105.000004005432,8|0,1:2|0:0,0:0:0:0:
196,369,244725,1,2,0:3:0:0:
105,261,244846,1,0,0:0:0:0:
5,351,244967,6,0,L|144:341,1,105.000004005432,0|0,1:2|0:0,0:0:0:0:
317,275,245209,1,0,0:0:0:0:
408,383,245330,1,0,0:0:0:0:
508,293,245451,2,0,P|452:278|369:303,1,105.000004005432,10|0,1:2|0:0,0:0:0:0:
326,180,245693,2,0,P|270:195|210:258,1,105.000004005432
109,343,245935,6,0,P|141:244|49:66,1,315.000012016297,4|0,1:1|0:0,0:0:0:0:
125,26,246419,2,0,L|232:41,1,105.000004005432,8|0,1:2|0:0,0:0:0:0:
435,86,246661,1,0,0:0:0:0:
306,161,246782,1,0,0:0:0:0:
435,210,246903,6,0,L|424:332,1,105.000004005432,4|0,1:1|0:0,0:0:0:0:
45,354,247145,1,0,0:0:0:0:
174,279,247266,1,0,0:0:0:0:
45,230,247387,2,0,L|56:108,1,105.000004005432,8|0,1:2|0:0,0:0:0:0:
180,57,247628,2,0,L|170:161,1,105.000004005432
65,334,247870,6,2,B|196:319|196:319|236:344|236:344|386:323,1,315.000012016297,6|0,1:2|0:0,0:1:0:0:
453,359,248354,2,0,L|525:371,3,52.5000020027161,8|0|0|0,1:2|0:0|0:0|0:0,0:0:0:0:
401,250,248596,2,0,L|391:145,1,105.000004005432
250,2,248838,6,2,B|342:26|342:26|243:226,1,315.000012016297,2|0,1:2|0:0,0:1:0:0:
159,308,249322,2,0,L|148:192,1,105.000004005432,8|0,1:2|0:0,0:0:0:0:
470,184,249806,5,2,1:2:0:0:
444,273,249927,1,0,0:0:0:0:
355,247,250048,1,0,0:0:0:0:
381,158,250169,1,0,0:0:0:0:
321,91,250290,2,0,L|200:76,1,105.000004005432,8|0,1:2|0:0,0:0:0:0:
190,301,250532,2,0,L|294:313,1,105.000004005432,2|0,0:3|0:0,0:0:0:0:
112,101,250774,5,2,1:1:0:0:
20,140,250895,2,0,P|-11:212|14:342,1,210.000008010865
229,207,251258,6,0,P|151:212|92:262,1,157.500006008148,8|0,1:2|0:0,0:0:0:0:
358,373,251741,6,0,B|388:312|388:312|366:269|366:269|380:65,1,315.000012016297,2|0,1:1|0:0,0:0:0:0:
314,9,252225,1,8,1:2:0:0:
467,47,252346,1,0,0:0:0:0:
288,105,252467,2,0,L|182:86,1,105.000004005432,2|0,0:3|0:0,0:0:0:0:
198,291,252709,6,0,L|301:309,1,105.000004005432,0|0,1:2|0:0,0:0:0:0:
464,249,252951,2,0,L|471:144,1,105.000004005432
431,52,253193,2,0,L|327:33,1,105.000004005432,10|0,1:2|0:0,0:0:0:0:
165,94,253435,2,0,L|157:198,1,105.000004005432
321,284,253677,6,0,B|382:146|289:210|358:68,1,210.000008010865,8|0,1:1|0:0,0:0:0:0:
418,4,254040,1,0,0:0:0:0:
512,51,254161,2,0,L|497:163,1,105.000004005432,8|0,1:2|0:0,0:0:0:0:
261,208,254403,2,0,L|148:197,1,105.000004005432
422,181,254645,5,4,1:1:0:0:
425,226,254765,1,0,3:0:0:0:
429,272,254886,1,0,3:0:0:0:
435,319,255007,1,0,3:0:0:0:
512,374,255128,5,8,1:2:0:0:
346,334,255249,2,0,P|253:326|131:382,1,210.000008010865
0,289,255612,6,0,B|108:291|108:291|101:62,1,315.000012016297,6|0,1:2|0:0,0:0:0:0:
145,4,256096,2,0,L|254:7,1,105.000004005432,8|0,1:2|0:0,0:0:0:0:
249,6,256459,1,0,0:0:0:0:
102,84,256580,6,0,B|319:94|319:94|349:-2,1,315.000012016297,2|0,1:2|0:0,0:0:0:0:
277,168,257064,2,0,L|293:273,1,105.000004005432,8|0,1:2|0:0,0:0:0:0:
387,144,257306,2,0,L|403:249,1,105.000004005432
193,384,257548,6,0,L|198:276,1,105.000004005432,4|0,1:2|0:0,0:0:0:0:
123,218,257790,1,0,0:0:0:0:
123,218,258032,2,0,L|118:110,1,105.000004005432,10|0,1:2|0:0,0:0:0:0:
193,52,258274,1,0,0:0:0:0:
193,52,258516,6,2,L|197:-6,3,52.5000020027161,2|2|2|2,1:3|0:1|0:1|0:1,0:1:0:0:
275,96,258758,2,2,L|279:154,3,52.5000020027161,2|2|2|2,0:3|0:1|0:1|0:1,0:1:0:0:
365,55,258999,2,2,L|368:2,3,52.5000020027161,12|2|2|2,1:2|0:1|0:1|0:1,0:1:0:0:
440,101,259241,2,2,L|443:153,3,52.5000020027161,10|2|2|2,0:1|0:1|0:1|0:1,0:1:0:0:
512,20,259483,6,0,L|454:344,1,315.000012016297,2|0,1:1|0:0,0:0:0:0:
376,363,259967,2,0,L|268:333,1,105.000004005432,8|0,1:2|0:0,0:0:0:0:
96,224,260209,1,2,0:3:0:0:
120,358,260330,1,0,0:0:0:0:
241,184,260451,6,0,L|248:67,1,105.000004005432,0|0,1:0|0:0,0:0:0:0:
147,16,260693,1,0,0:0:0:0:
344,29,260814,1,0,0:0:0:0:
93,95,260935,2,0,P|95:147|109:197,1,105.000004005432,10|0,1:2|0:0,0:0:0:0:
102,381,261177,1,0,0:0:0:0:
102,381,261298,1,0,0:0:0:0:
167,283,261419,6,0,B|394:270|394:270|305:238,1,315.000012016297,4|0,1:1|0:0,0:0:0:0:
331,164,261903,2,0,P|320:91|330:42,1,105.000004005432,8|0,1:2|0:0,0:0:0:0:
125,25,262145,1,0,0:0:0:0:
154,138,262266,1,0,0:0:0:0:
33,94,262387,6,0,L|29:206,1,105.000004005432,4|0,1:1|0:0,0:0:0:0:
247,193,262628,1,0,0:0:0:0:
218,306,262749,1,0,0:0:0:0:
339,262,262870,2,0,L|343:374,1,105.000004005432,8|0,1:2|0:0,0:0:0:0:
466,324,263112,2,0,L|462:219,1,105.000004005432
144,42,263354,6,2,P|96:104|129:336,1,315.000012016297,6|0,1:2|0:0,0:1:0:0:
218,306,263838,2,0,P|266:307|323:276,1,105.000004005432,8|0,1:2|0:0,0:0:0:0:
247,193,264080,2,0,P|289:169|322:114,1,105.000004005432
420,26,264322,6,2,B|450:192|362:138|403:345,1,315.000012016297,2|0,1:2|0:0,0:1:0:0:
492,333,264806,2,0,P|500:274|497:227,1,105.000004005432,8|0,1:2|0:0,0:0:0:0:
151,109,265290,5,2,1:2:0:0:
168,351,265532,1,0,0:0:0:0:
410,334,265774,1,8,1:2:0:0:
393,92,266016,1,0,0:0:0:0:
43,249,266258,5,4,1:3:0:0:
469,249,266499,1,2,0:3:0:0:
119,92,266741,2,0,L|122:199,1,105.000004005432,12|0,1:2|0:0,0:0:0:0:
459,348,267225,6,0,P|424:245|470:41,1,315.000012016297,2|0,1:1|0:0,0:0:0:0:
308,16,267709,1,8,1:2:0:0:
332,138,267830,1,0,0:2:0:0:
192,118,267951,2,0,L|201:0,1,105.000004005432,2|0,0:3|0:0,0:0:0:0:
441,34,268193,6,0,P|459:78|461:146,1,105.000004005432,0|0,1:2|0:0,0:0:0:0:
512,266,268435,2,0,P|468:284|400:286,1,105.000004005432
71,350,268677,2,0,P|53:306|51:238,1,105.000004005432,10|0,1:2|0:0,0:0:0:0:
0,118,268919,2,0,P|44:100|112:98,1,105.000004005432
294,311,269161,6,0,P|226:308|173:283,1,105.000004005432,10|0,1:1|0:0,0:0:0:0:
218,73,269403,2,0,P|286:76|339:101,1,105.000004005432
256,192,269645,5,8,1:2:0:0:
256,192,269766,1,0,0:0:0:0:
256,192,269887,1,0,0:0:0:0:
256,192,270008,1,0,0:0:0:0:
172,226,270129,5,6,1:1:0:0:
175,279,270249,1,8,0:3:0:0:
178,331,270370,1,8,0:3:0:0:
181,384,270491,1,8,0:3:0:0:
332,383,270612,5,8,1:2:0:0:
334,331,270732,1,4,0:3:0:0:
337,279,270853,1,4,0:3:0:0:
344,230,270974,1,4,0:3:0:0:
256,192,271097,5,2,1:3:0:0:
393,60,271217,1,0,0:0:0:0:
344,230,271338,1,2,0:0:0:0:
305,22,271459,1,0,0:0:0:0:
393,60,271580,2,0,L|398:149,1,87.5,12|0,1:2|0:0,0:0:0:0:
112,219,271822,5,2,0:3:0:0:
249,87,271942,1,0,0:0:0:0:
200,257,272063,1,2,1:2:0:0:
161,49,272184,1,0,0:0:0:0:
249,87,272306,2,0,L|254:176,1,87.5,4|0,0:0|0:0,0:0:0:0:
30,357,272548,6,0,P|27:304|40:254,1,87.5,8|0,1:2|0:0,0:0:0:0:
344,230,272790,2,0,P|346:282|334:333,1,87.5
55,191,273032,5,2,1:3:0:0:
267,199,273153,1,0,0:0:0:0:
41,166,273274,1,2,0:0:0:0:
253,174,273395,1,0,0:0:0:0:
152,242,273516,2,0,L|158:135,1,87.5,12|0,1:2|0:0,0:0:0:0:
459,62,273758,5,2,0:3:0:0:
247,70,273879,1,0,0:0:0:0:
473,37,274000,1,2,1:2:0:0:
261,45,274121,1,0,0:0:0:0:
362,113,274242,2,0,L|356:6,1,87.5,4|0,0:0|0:0,0:0:0:0:
488,214,274483,6,0,L|383:209,1,87.5,8|0,1:2|0:0,0:0:0:0:
270,333,274725,2,0,L|375:338,1,87.5
139,200,274967,5,4,1:3:0:0:
332,140,275088,1,0,0:0:0:0:
142,106,275209,1,2,0:0:0:0:
329,234,275330,1,0,0:0:0:0:
332,140,275451,2,0,P|330:71|333:42,1,87.5,12|0,1:2|0:0,0:0:0:0:
41,164,275693,5,4,0:3:0:0:
234,224,275814,1,0,0:0:0:0:
44,258,275935,1,2,1:2:0:0:
231,130,276056,1,0,0:0:0:0:
234,224,276177,2,0,P|236:293|233:322,1,87.5,4|0,0:0|0:0,0:0:0:0:
165,370,276419,5,8,1:2:0:0:
347,14,276661,1,0,0:0:0:0:
406,329,276903,5,4,1:3:0:0:
406,329,277024,1,0,0:0:0:0:
498,164,277145,1,2,0:0:0:0:
498,164,277266,1,0,0:0:0:0:
312,208,277387,2,0,L|314:311,1,87.5,12|0,1:2|0:0,0:0:0:0:
106,55,277628,5,4,0:3:0:0:
106,55,277749,1,0,0:0:0:0:
14,220,277870,1,2,1:2:0:0:
14,220,277991,1,0,0:0:0:0:
200,176,278112,2,0,L|198:73,1,87.5,4|0,0:0|3:0,0:0:0:0:
170,347,278354,6,0,P|224:359|273:359,1,87.5,8|0,1:2|0:0,0:0:0:0:
406,329,278596,1,0,3:0:0:0:
406,329,278717,1,0,3:0:0:0:
298,262,278838,5,2,1:3:0:0:
468,264,278959,1,0,0:0:0:0:
327,170,279080,1,2,0:0:0:0:
159,193,279201,1,0,0:0:0:0:
79,137,279322,2,0,L|89:31,1,87.5,12|0,1:2|0:0,0:0:0:0:
207,318,279564,5,2,0:3:0:0:
37,320,279685,1,0,0:0:0:0:
178,226,279806,1,2,1:2:0:0:
346,249,279927,1,0,0:0:0:0:
426,193,280048,2,0,L|416:87,1,87.5,4|0,0:0|0:0,0:0:0:0:
207,18,280290,6,0,P|198:79|208:130,1,87.5,8|0,1:2|0:0,0:0:0:0:
305,366,280532,2,0,P|314:305|304:254,1,87.5
15,166,280774,5,2,1:3:0:0:
146,236,280895,1,0,0:0:0:0:
285,183,281016,1,2,0:0:0:0:
422,240,281137,1,0,0:0:0:0:
376,140,281258,2,0,L|368:28,1,87.5,12|0,1:2|0:0,0:0:0:0:
485,97,281499,5,2,0:3:0:0:
354,27,281620,1,0,0:0:0:0:
215,80,281741,1,2,1:2:0:0:
78,23,281862,1,0,0:0:0:0:
124,123,281983,2,0,L|132:235,1,87.5,4|0,0:0|0:0,0:0:0:0:
193,312,282225,6,0,P|241:330|302:332,1,87.5,8|0,1:2|0:0,0:0:0:0:
369,52,282467,2,0,P|321:34|260:32,1,87.5
416,339,282709,5,4,1:3:0:0:
450,200,282830,1,0,0:0:0:0:
322,267,282951,1,2,0:0:0:0:
310,136,283072,1,0,0:0:0:0:
468,108,283193,2,0,L|464:17,1,87.5,12|0,1:2|0:0,0:0:0:0:
96,339,283435,5,4,0:3:0:0:
62,200,283556,1,0,0:0:0:0:
190,267,283677,1,2,1:2:0:0:
202,136,283798,1,0,0:0:0:0:
44,108,283919,2,0,L|48:17,1,87.5,4|0,0:0|0:0,0:0:0:0:
256,0,284161,5,8,1:2:0:0:
256,384,284403,1,0,0:0:0:0:
67,7,284645,5,4,1:3:0:0:
187,107,284766,1,0,0:0:0:0:
62,200,284887,1,2,0:0:0:0:
196,280,285008,1,0,0:0:0:0:
81,383,285128,2,0,L|88:281,1,87.5,12|0,1:2|0:0,0:0:0:0:
260,187,285370,5,4,0:3:0:0:
58,104,285491,1,0,0:0:0:0:
189,305,285612,1,2,1:2:0:0:
425,261,285733,1,0,0:0:0:0:
286,193,285854,2,0,L|298:301,1,87.5,4|0,0:0|0:0,0:0:0:0:
256,384,286096,5,8,1:2:0:0:
256,0,286338,1,0,0:0:0:0:
454,148,286580,6,0,P|459:219|451:261,1,87.5,8|0,1:3|0:0,0:0:0:0:
512,311,286822,1,2,0:0:0:0:
423,349,286943,1,0,0:0:0:0:
341,309,287064,2,0,L|350:210,1,87.5,12|0,1:2|0:0,0:0:0:0:
58,148,287306,6,0,P|53:219|61:261,1,87.5,8|0,0:3|0:0,0:0:0:0:
0,311,287548,1,2,1:2:0:0:
89,349,287669,1,0,0:0:0:0:
171,309,287790,2,0,L|162:210,1,87.5,4|0,0:0|0:0,0:0:0:0:
256,0,288032,6,0,L|256:175,1,175,8|0,1:2|0:0,0:0:0:0:
54,337,288516,5,8,1:3:0:0:
3,148,288637,1,0,0:0:0:0:
120,120,288758,1,2,0:0:0:0:
171,309,288879,1,0,0:0:0:0:
64,309,288999,2,0,L|73:205,1,87.5,12|0,1:2|0:0,0:0:0:0:
458,47,289241,5,8,0:3:0:0:
509,236,289362,1,0,0:0:0:0:
392,264,289483,1,2,1:2:0:0:
341,75,289604,1,0,0:0:0:0:
448,75,289725,2,0,L|439:179,1,87.5,4|0,0:0|0:0,0:0:0:0:
256,384,289967,6,0,L|256:209,1,175,8|0,1:2|0:0,0:0:0:0:
16,61,290451,6,0,P|47:97|61:149,1,87.5,4|0,1:3|0:0,0:0:0:0:
148,35,290693,1,2,0:0:0:0:
239,131,290814,1,0,0:0:0:0:
357,73,290935,2,0,P|371:32|400:0,1,87.5,12|0,1:2|0:0,0:0:0:0:
464,323,291177,6,0,P|433:287|419:235,1,87.5,4|0,0:3|0:0,0:0:0:0:
332,349,291419,1,2,1:2:0:0:
241,253,291540,1,0,0:0:0:0:
123,311,291661,2,0,P|108:351|79:384,1,87.5,4|0,0:0|0:0,0:0:0:0:
0,192,291903,6,0,L|96:192,2,87.5,8|0|0,1:2|0:0|0:0,0:0:0:0:
181,0,292387,6,0,P|179:48|159:105,1,87.5,4|0,1:3|0:0,0:0:0:0:
237,150,292628,1,2,0:0:0:0:
237,150,292870,2,0,P|283:128|416:128,1,175,12|4,1:2|0:3,0:0:0:0:
450,192,293233,1,0,0:0:0:0:
503,106,293354,5,2,1:2:0:0:
359,202,293475,2,0,B|339:287|339:287|383:364,1,175,0|0,0:0|3:0,0:0:0:0:
475,310,293838,2,0,L|461:204,1,87.5,8|0,1:2|0:0,0:0:0:0:
253,231,294080,1,0,3:0:0:0:
253,231,294201,1,0,3:0:0:0:
216,75,294322,6,0,P|255:56|298:59,1,87.5,8|0,1:3|0:0,0:0:0:0:
304,304,294564,2,0,P|260:323|218:318,1,87.5,2|0,0:0|0:0,0:0:0:0:
268,148,294806,2,0,P|270:191|252:230,1,87.5,12|0,1:2|0:0,0:0:0:0:
338,82,295048,6,0,P|319:42|322:0,1,87.5,8|0,0:3|0:0,0:0:0:0:
439,113,295290,2,0,P|458:157|453:199,1,87.5,2|0,1:2|0:0,0:0:0:0:
411,30,295532,2,0,P|454:27|493:45,1,87.5,4|0,0:0|0:0,0:0:0:0:
268,148,295774,5,8,1:2:0:0:
219,147,295894,1,0,0:0:0:0:
170,146,296015,1,0,0:0:0:0:
122,145,296136,1,0,0:0:0:0:
36,82,296258,6,0,L|147:59,1,87.5,8|0,1:3|0:0,0:0:0:0:
34,206,296499,2,0,L|145:229,1,87.5,2|0,0:0|0:0,0:0:0:0:
241,44,296741,2,0,L|352:21,1,87.5,12|0,1:2|0:0,0:0:0:0:
240,248,296983,2,0,L|351:271,1,87.5,8|0,0:3|0:0,0:0:0:0:
488,333,297225,5,2,1:2:0:0:
434,356,297345,1,0,0:0:0:0:
377,367,297466,1,4,0:0:0:0:
319,365,297587,1,0,0:0:0:0:
162,290,297709,1,8,1:2:0:0:
138,236,297829,1,0,0:0:0:0:
127,179,297950,1,0,0:0:0:0:
129,121,298071,1,0,0:0:0:0:
271,18,298193,5,4,1:3:0:0:
256,192,298314,1,0,0:0:0:0:
430,209,298435,1,2,0:0:0:0:
445,35,298556,1,0,0:0:0:0:
354,67,298677,2,0,L|349:162,1,87.5,12|0,1:2|0:0,0:0:0:0:
241,366,298919,5,4,0:3:0:0:
256,192,299040,1,0,0:0:0:0:
82,175,299161,1,2,1:2:0:0:
67,349,299282,1,0,0:0:0:0:
158,317,299403,2,0,L|163:222,1,87.5,4|0,0:0|0:0,0:0:0:0:
379,63,299645,6,0,L|488:49,2,87.5,8|0|0,1:2|0:0|0:0,0:0:0:0:
67,349,300128,6,0,L|65:287,2,52.5000020027161,2|0|0,1:2|0:0|0:0,0:0:0:0:
161,346,300612,1,2,1:2:0:0:
261,349,300854,2,0,L|259:278,2,52.5000020027161,0|0|2,0:0|0:0|1:2,0:0:0:0:
261,349,301217,2,0,L|374:344,1,105.000004005432
365,344,301580,2,0,L|361:239,1,105.000004005432,8|0,1:2|0:0,0:0:0:0:
35,30,302064,5,6,1:2:0:0:
