osu file format v14

[General]
AudioFilename: audio.mp3
AudioLeadIn: 0
PreviewTime: 15603
Countdown: 0
SampleSet: Soft
StackLeniency: 0.7
Mode: 0
LetterboxInBreaks: 0
WidescreenStoryboard: 1

[Editor]
Bookmarks: 38829,224636,302055
DistanceSpacing: 0.8
BeatDivisor: 4
GridSize: 8
TimelineZoom: 1

[Metadata]
Title:Nautilus
TitleUnicode:Nautilus
Artist:Creo
ArtistUnicode:Creo
Creator:VINXIS
Version:Cheesecake's Normal
Source:osu!
Tags:cheesecake mapper's mappers' guild mapper mappers featured artist
BeatmapID:2124847
BeatmapSetID:1015289

[Difficulty]
HPDrainRate:4
CircleSize:2.5
OverallDifficulty:4
ApproachRate:5
SliderMultiplier:1.2
SliderTickRate:1

[Events]
//Background and Video events
0,0,"bg.jpg",0,0
//Break Periods
2,39763,41509
2,135812,145665
2,193877,207601
2,210086,211472
2,213232,214133
2,217828,223085
//Storyboard Layer 0 (Background)
//Storyboard Layer 1 (Fail)
//Storyboard Layer 2 (Pass)
//Storyboard Layer 3 (Foreground)
//Storyboard Layer 4 (Overlay)
//Storyboard Sound Samples

[TimingPoints]
129,483.870967741935,4,2,69,100,1,0
38838,-100,4,2,1,50,0,0
65451,-100,4,2,1,60,0,0
69806,-100,4,2,12,90,0,1
71741,-100,4,2,13,90,0,1
73677,-100,4,2,42,90,0,1
77548,-100,4,2,12,90,0,1
81419,-100,4,2,42,90,0,1
85290,-100,4,2,12,90,0,1
87225,-100,4,2,14,90,0,1
88193,-100,4,2,13,90,0,1
89161,-100,4,2,42,90,0,1
93032,-100,4,2,12,90,0,1
94967,-100,4,2,1,90,0,1
95935,-100,4,2,13,90,0,1
96903,-100,4,2,42,90,0,1
98838,-100,4,2,42,90,0,0
100774,-100,4,2,34,90,0,1
129806,-100,4,2,1,90,0,0
135612,-100,4,2,1,100,0,0
147225,-100,4,2,1,80,0,0
149523,-100,4,2,69,100,0,0
150128,-100,4,2,69,80,0,0
155329,-100,4,2,69,100,0,0
155935,-100,4,2,69,80,0,0
156297,-100,4,2,69,100,0,0
156903,-100,4,2,69,80,0,0
157265,-100,4,2,69,100,0,0
157870,-100,4,2,69,80,0,0
161741,-100,4,2,1,80,0,0
162709,-100,4,2,96,80,0,0
193677,-100,4,2,1,50,0,0
213032,-100,4,2,1,100,0,0
215693,-100,4,2,1,50,0,0
239645,-100,4,2,1,60,0,0
240128,-100,4,2,12,90,0,1
242064,-100,4,2,13,90,0,1
243999,-100,4,2,42,90,0,1
247870,-100,4,2,12,90,0,1
251741,-100,4,2,42,90,0,1
255612,-100,4,2,12,90,0,1
257548,-100,4,2,14,90,0,1
258516,-100,4,2,13,90,0,1
259483,-100,4,2,42,90,0,1
263354,-100,4,2,12,90,0,1
265290,-100,4,2,1,90,0,1
266258,-100,4,2,13,90,0,1
267225,-100,4,2,42,90,0,1
269161,-100,4,2,42,90,0,0
271096,-100,4,2,34,90,0,1
300128,-100,4,2,1,90,0,0
302064,-100,4,2,1,100,0,0

[Colours]
Combo1 : 17,254,176
Combo2 : 173,255,95
Combo3 : 255,88,100
Combo4 : 255,94,55

[HitObjects]
256,64,38838,6,0,B|241:113|241:113|261:159|261:159|226:200|244:257,1,180,6|0,1:2|2:0,2:0:0:0:
256,64,42709,6,0,B|271:113|271:113|251:159|251:159|286:200|268:257,1,180,6|0,1:2|2:0,2:0:0:0:
172,225,44161,1,2,2:0:0:0:
105,299,44645,2,0,L|2:309,1,120,2|0,2:0|2:0,2:0:0:0:
174,61,46580,6,0,B|221:37|221:37|314:45|314:45|356:77,1,180,6|0,1:2|2:0,2:0:0:0:
347,177,48032,2,0,L|297:172,1,60,2|2,2:0|2:0,2:0:0:0:
178,110,49725,6,0,L|173:60,2,60,0|2|0,2:0|2:0|2:0,2:0:0:0:
182,159,50451,2,0,B|90:130|107:173|4:150,2,180,2|2|2,2:0|2:0|2:0,2:0:0:0:
221,247,52387,1,2,2:0:0:0:
162,55,53354,1,0,1:0:0:0:
260,36,53838,2,0,L|320:34,1,60,8|4,2:0|2:3,2:0:0:0:
368,31,54322,6,0,L|371:137,1,120,6|0,1:2|1:0,2:0:0:0:
290,202,55290,2,0,L|293:308,1,120,2|0,1:2|1:0,2:0:0:0:
201,343,56258,2,0,P|176:346|151:345,1,60,2|0,1:2|2:0,2:0:0:0:
100,318,56741,2,0,B|86:268|86:268|86:219,2,120,0|2|0,1:0|1:2|1:0,2:0:0:0:
175,258,58193,6,0,L|171:151,1,120,2|0,1:2|1:0,2:0:0:0:
266,131,59161,2,0,L|262:24,1,120,2|0,1:2|1:0,2:0:0:0:
357,7,60128,2,0,L|358:56,1,60,2|0,1:2|2:0,2:0:0:0:
399,92,60612,2,0,L|400:141,1,60,2|0,1:2|2:0,2:0:0:0:
440,182,61096,2,0,L|441:231,2,60,2|0|2,1:2|2:0|1:2,2:0:0:0:
509,110,62064,5,8,1:2:0:0:
414,76,62548,1,8,1:2:0:0:
318,106,63032,1,8,1:2:0:0:
235,49,63516,1,8,1:2:0:0:
164,118,63999,2,0,P|106:136|47:138,2,120,8|8|8,1:2|1:2|1:2,2:0:0:0:
235,49,65451,1,8,1:2:0:0:
312,112,65935,6,0,L|384:117,2,60,10|0|10,1:2|3:0|1:2,2:0:0:0:
285,154,66661,1,0,3:0:0:0:
260,198,66903,2,0,L|188:203,2,60,10|0|10,1:2|3:0|1:2,2:0:0:0:
285,241,67628,1,0,3:0:0:0:
310,283,67870,2,0,B|361:284|361:252|377:284|377:252|377:284|427:285,2,120,2|2|2,1:2|1:2|1:2,2:0:0:0:
232,344,69322,1,10,1:2:0:0:
157,276,69806,6,2,B|153:228|153:228|157:228|157:228|157:180,1,120,6|8,1:2|1:2,2:1:0:0:
255,163,70774,2,2,B|259:211|259:211|255:211|255:211|255:259,1,120,2|8,1:2|1:2,2:1:0:0:
347,253,71741,2,0,L|396:249,1,60,2|4,1:3|2:3,2:0:0:0:
454,242,72225,1,10,1:2:0:0:
446,147,72709,2,0,L|396:150,1,60,4|2,1:3|2:3,2:0:0:0:
347,154,73193,1,12,1:2:0:0:
255,184,73677,6,0,B|266:218|243:266|278:254|228:255|246:366,2,180,2|2|10,1:0|2:3|1:2,2:0:0:0:
248,133,75370,1,0,2:0:0:0:
244,83,75612,2,0,P|332:100|422:105,2,180,4|0|8,1:0|2:0|1:2,2:0:0:0:
147,110,77548,5,6,1:2:0:0:
67,170,78032,2,0,L|69:222,1,60,8|0,1:2|2:0,2:0:0:0:
85,275,78516,2,2,B|135:266|135:266|183:276,1,120,2|8,1:2|1:2,2:1:0:0:
286,319,79483,2,0,B|275:367,2,60,2|0|8,1:2|2:0|1:2,2:0:0:0:
322,287,80209,2,0,B|332:238,1,60,2|2,2:3|1:0,2:0:0:0:
413,282,80935,1,8,1:2:0:0:
458,199,81419,6,0,P|473:110|482:20,2,180,2|2|10,1:0|2:3|1:2,2:0:0:0:
410,183,83112,1,0,2:0:0:0:
366,159,83354,2,0,B|250:138|295:186|157:161,2,180,8|0|8,1:0|2:0|1:2,2:0:0:0:
383,60,85290,6,2,B|346:52|346:52|284:56,1,120,6|8,1:2|1:2,2:1:0:0:
171,81,86258,2,2,B|134:89|134:89|72:84,1,120,2|8,1:2|1:2,2:1:0:0:
34,176,87225,2,0,L|38:231,1,60,4|0,1:2|2:0,2:0:0:0:
69,272,87709,2,0,L|73:327,1,60,10|0,1:2|2:0,2:0:0:0:
117,352,88193,2,2,L|172:348,1,60,2|2,1:3|2:3,2:1:0:0:
211,314,88677,2,2,L|266:310,1,60,12|10,1:2|2:1,2:1:0:0:
315,291,89161,6,0,B|372:282|372:282|430:292|430:292|495:280,2,180,2|2|10,1:0|2:3|1:2,2:0:0:0:
274,265,90854,1,0,2:0:0:0:
238,232,91096,2,0,B|179:243|179:243|111:224|111:224|74:230|49:229,2,180,4|0|8,1:0|2:0|1:2,2:0:0:0:
183,152,93032,5,2,1:2:0:0:
243,77,93516,2,0,L|296:75,1,60,8|0,1:2|2:0,2:0:0:0:
350,75,93999,2,2,B|358:99|358:99|350:131|350:131|358:179,1,120,2|8,1:2|1:2,2:1:0:0:
422,264,94967,2,0,B|430:313,2,60,2|0|8,1:2|2:0|1:2,2:0:0:0:
326,273,95935,2,0,B|317:322,1,60,4|2,1:3|2:3,2:0:0:0:
303,378,96419,1,12,1:2:0:0:
216,336,96903,6,0,B|116:316|148:355|21:328,2,180,2|2|10,1:0|2:3|1:2,2:0:0:0:
240,239,98838,1,10,1:0:0:0:
187,54,99806,2,0,L|137:55,1,60,6|8,1:0|2:3,2:0:0:0:
95,91,100290,2,0,L|45:92,1,60,8|4,1:2|2:3,2:0:0:0:
13,135,100774,6,0,P|17:227|54:310,1,180,2|2,1:3|2:3,2:0:0:0:
96,324,101741,2,0,L|92:381,2,60,2|4|8,1:2|2:0|1:2,2:0:0:0:
176,270,102709,2,0,P|212:187|215:98,1,180,2|2,1:3|2:3,2:0:0:0:
211,50,103677,2,0,L|260:54,1,60,2|4,1:2|2:0,2:0:0:0:
318,63,104161,1,8,1:2:0:0:
344,181,104645,6,0,B|366:236|366:236|482:187,2,180,4|4|8,1:3|2:3|1:2,2:0:0:0:
307,92,106580,2,0,B|417:43|417:43|440:99,2,180,4|4|8,1:3|2:3|1:2,2:0:0:0:
241,162,108516,6,0,P|151:164|69:128,1,180,2|2,1:3|2:3,2:0:0:0:
34,96,109483,2,0,L|27:42,2,60,2|4|8,1:2|2:0|1:2,2:0:0:0:
6,188,110451,2,0,L|29:370,1,180,2|2,1:3|2:3,2:0:0:0:
76,371,111419,2,0,P|100:370|125:365,1,60,2|4,1:2|2:0,2:0:0:0:
175,336,111903,1,8,1:2:0:0:
248,274,112387,6,0,B|310:260|310:260|370:268|370:268|426:298,2,180,4|4|8,1:3|2:3|1:2,2:0:0:0:
175,336,114322,2,0,B|114:348|114:348|56:339|56:339|3:311,2,180,4|4|8,1:3|2:3|1:2,2:0:0:0:
233,259,116258,6,0,P|279:212|325:198,1,120,8|12,1:3|1:2,2:0:0:0:
368,226,116983,1,8,2:3:0:0:
402,259,117225,2,0,L|467:256,1,60,2|4,1:2|2:0,2:0:0:0:
485,214,117709,2,0,P|489:189|490:164,1,60,8|0,1:2|2:0,2:0:0:0:
471,109,118193,2,0,B|414:99|414:99|372:109|372:109|307:102,1,120,8|8,1:3|2:3,2:0:0:0:
257,114,119161,1,2,1:2:0:0:
261,209,119645,1,8,1:2:0:0:
217,294,120128,6,0,P|182:308|105:303,1,120,4|12,1:3|1:2,2:0:0:0:
54,289,120854,1,4,2:3:0:0:
36,244,121096,2,0,L|54:176,1,60,2|4,1:2|2:0,2:0:0:0:
40,139,121580,2,0,L|58:71,1,60,8|0,1:2|2:0,2:0:0:0:
77,38,122064,2,0,L|234:33,2,120,4|4|8,1:3|2:3|1:2,2:0:0:0:
5,216,123999,6,0,B|60:220|51:228|69:229|60:220|99:205|118:197|135:207|99:205|117:216|135:207|226:225|235:244|224:262|226:225|216:243|224:262|213:303|248:375,1,360,8|8,1:3|1:2,2:0:0:0:
344,377,125935,2,0,P|391:271|401:147,1,240,8|2,1:3|1:2,2:0:0:0:
409,102,127145,1,4,2:0:0:0:
410,54,127387,2,0,L|338:59,1,60,8|0,1:2|2:0,2:0:0:0:
309,35,127870,6,0,P|263:44|130:30,1,180,4|4,1:3|2:3,2:0:0:0:
89,7,128838,1,2,1:2:0:0:
73,107,129322,2,0,L|76:172,1,60,8|0,1:2|2:0,2:0:0:0:
78,215,129806,6,0,L|82:314,2,120,2|2|2,1:2|1:2|1:2,2:0:0:0:
168,182,131258,1,8,1:2:0:0:
257,215,131741,1,6,1:2:0:0:
256,192,131983,12,0,135612,2:0:0:0:
289,59,147225,6,0,P|249:48|210:32,2,80,2|0|0,2:0|2:0|2:0,2:0:0:0:
329,109,148193,2,0,P|369:96|410:92,2,80,0|0|0,3:0|2:0|2:0,2:0:0:0:
287,157,149161,2,0,P|245:149|205:136,2,80,2|0|0,2:0|2:0|2:0,2:0:0:0:
311,215,150128,1,0,3:0:0:0:
237,37,151096,6,0,B|178:7|178:7|62:17|62:17|9:57,1,240,2|0,2:0|2:0,2:0:0:0:
19,244,153032,2,0,B|76:274|76:274|192:264|192:264|245:224,1,240,2|0,2:0|2:0,2:0:0:0:
422,286,154967,6,0,B|433:330|433:330|450:372,2,80,2|0|0,2:0|2:0|2:0,2:0:0:0:
362,262,155935,2,0,B|338:301|338:301|320:344,2,80,0|0|0,3:0|2:0|2:0,2:0:0:0:
324,210,156903,2,0,B|278:221|278:221|236:238,2,80,2|0|0,2:0|2:0|2:0,2:0:0:0:
351,152,157870,1,0,3:0:0:0:
190,46,158838,6,0,L|91:50,1,120,2|0,2:0|2:0,2:0:0:0:
69,147,159806,2,0,L|169:144,1,120,0|0,3:0|2:0,2:0:0:0:
193,239,160774,2,0,L|93:242,1,120,2|0,2:0|2:0,2:0:0:0:
76,338,161741,1,2,1:2:0:0:
34,150,162709,6,0,L|37:98,2,40,2|0|0,1:0|2:0|2:0,2:0:0:0:
32,183,163193,1,10,1:2:0:0:
132,196,163677,2,0,L|135:144,2,40,2|0|0,1:0|2:0|2:0,2:0:0:0:
130,229,164161,1,12,1:2:0:0:
230,242,164645,2,0,L|233:190,2,40,2|0|0,1:0|2:0|2:0,2:0:0:0:
228,275,165128,1,10,1:2:0:0:
328,288,165612,2,0,L|331:236,2,40,2|0|0,1:0|2:0|2:0,2:0:0:0:
326,321,166096,1,12,1:2:0:0:
238,360,166580,5,4,1:0:0:0:
161,301,167064,2,0,P|161:280|165:209,1,80,10|0,1:2|2:0,2:0:0:0:
173,190,167548,1,4,1:0:0:0:
266,212,168032,2,0,P|266:193|270:128,1,80,12|0,1:2|2:0,2:0:0:0:
275,106,168516,1,4,1:0:0:0:
367,130,168999,2,0,P|367:111|371:46,1,80,10|0,1:2|2:0,2:0:0:0:
391,25,169483,1,4,1:0:0:0:
469,80,169967,2,0,L|467:129,1,60,4|8,1:2|2:0,2:0:0:0:
487,184,170451,6,0,L|484:236,2,40,2|0|0,1:3|2:0|2:0,2:0:0:0:
453,183,170935,1,10,1:2:0:0:
353,194,171419,2,0,L|350:142,2,40,2|0|0,1:3|2:0|2:0,2:0:0:0:
319,195,171903,1,12,1:2:0:0:
220,213,172387,2,0,L|217:265,2,40,2|0|0,1:3|2:0|2:0,2:0:0:0:
186,212,172870,1,10,1:2:0:0:
86,218,173354,2,0,L|83:166,2,40,2|0|0,1:3|2:0|2:0,2:0:0:0:
53,219,173838,1,12,1:2:0:0:
64,314,174322,5,4,1:3:0:0:
156,341,174806,2,0,P|179:348|248:367,1,80,10|0,1:2|2:0,2:0:0:0:
264,366,175290,1,4,1:3:0:0:
335,301,175774,2,0,P|345:323|409:390,1,80,12|0,1:2|2:0,2:0:0:0:
410,375,176258,1,4,1:3:0:0:
471,301,176741,2,0,P|478:278|492:219,1,80,10|0,1:2|2:0,2:0:0:0:
489,191,177225,1,4,1:3:0:0:
476,95,177709,2,0,P|456:80|433:69,1,60,12|0,1:2|2:0,2:0:0:0:
376,56,178193,6,0,L|373:4,2,40,2|0|0,1:0|2:0|2:0,2:0:0:0:
342,62,178677,1,10,1:2:0:0:
243,82,179161,2,0,L|240:30,2,40,2|0|0,1:0|2:0|2:0,2:0:0:0:
209,88,179645,1,12,1:2:0:0:
209,188,180128,2,0,L|212:240,2,40,2|0|0,1:0|2:0|2:0,2:0:0:0:
243,182,180612,1,10,1:2:0:0:
342,162,181096,2,0,L|345:214,2,40,2|0|0,1:0|2:0|2:0,2:0:0:0:
376,156,181580,1,12,1:2:0:0:
441,226,182064,5,4,1:0:0:0:
487,142,182548,2,0,P|482:121|461:60,1,80,10|0,1:2|2:0,2:0:0:0:
442,41,183032,1,4,1:0:0:0:
368,102,183516,2,0,P|363:81|332:21,1,80,12|0,1:2|2:0,2:0:0:0:
307,17,183999,1,4,1:0:0:0:
234,79,184483,2,0,P|237:98|255:161,1,80,10|0,1:2|2:0,2:0:0:0:
270,183,184967,1,4,1:0:0:0:
366,181,185451,2,0,P|390:187|414:193,1,60,4|8,1:2|2:0,2:0:0:0:
457,230,185935,6,0,L|502:236,2,40,2|0|0,1:3|2:0|2:0,2:0:0:0:
451,263,186419,1,10,1:2:0:0:
353,283,186903,2,0,L|358:328,2,40,2|0|0,1:3|2:0|2:0,2:0:0:0:
319,285,187387,1,12,1:2:0:0:
274,196,187870,2,0,L|232:213,2,40,2|0|0,1:3|2:0|2:0,2:0:0:0:
264,163,188354,1,10,1:2:0:0:
337,97,188838,2,0,L|309:60,2,40,2|0|0,1:3|2:0|2:0,2:0:0:0:
366,78,189322,1,12,1:2:0:0:
461,90,189806,5,4,1:3:0:0:
472,185,190290,2,0,P|469:208|457:267,1,80,10|0,1:2|2:0,2:0:0:0:
446,293,190774,1,4,1:3:0:0:
351,283,191258,2,0,P|331:299|267:335,1,80,12|0,1:2|2:0,2:0:0:0:
257,343,191741,1,4,1:3:0:0:
187,276,192225,2,0,L|192:176,1,120,2|4,1:2|1:3,2:0:0:0:
252,80,193193,1,12,1:2:0:0:
185,9,193677,1,2,2:0:0:0:
211,122,209161,6,0,P|172:143|128:151,2,90,2|0|0,2:0|2:0|2:0,2:0:0:0:
212,122,213032,5,0,2:0:0:0:
216,175,215693,6,0,L|211:274,2,120,2|2|2,2:0|2:0|2:0,2:0:0:0:
247,135,216903,2,0,P|258:88|265:41,2,90,2|0|0,2:0|2:0|2:0,2:0:0:0:
269,135,224645,5,4,1:2:0:0:
234,229,225128,2,0,L|241:278,2,60,0|0|0,3:0|2:0|2:0,2:0:0:0:
171,150,226096,2,0,L|124:132,2,60,0|0|0,3:0|2:0|2:0,2:0:0:0:
269,135,227064,2,0,L|307:103,2,60,0|0|0,3:0|2:0|2:0,2:0:0:0:
234,229,228032,2,0,L|241:278,1,60,0|0,3:0|2:0,2:0:0:0:
254,335,228516,5,2,1:2:0:0:
345,304,228999,2,0,L|394:311,2,60,0|0|0,3:0|2:0|2:0,2:0:0:0:
283,221,229967,2,0,L|233:228,2,60,0|0|0,3:0|2:0|2:0,2:0:0:0:
345,138,230935,2,0,L|394:145,2,60,0|0|0,3:0|2:0|2:0,2:0:0:0:
283,55,231903,2,0,L|233:62,1,60,0|8,3:0|2:0,2:0:0:0:
175,69,232387,5,2,1:2:0:0:
126,151,232870,2,0,L|129:210,1,60,0|0,3:0|2:0,2:0:0:0:
135,258,233354,1,2,1:2:0:0:
230,249,233838,2,0,L|233:190,1,60,0|0,3:0|2:0,2:0:0:0:
236,140,234322,1,2,1:2:0:0:
335,151,234806,2,0,L|338:210,1,60,0|0,3:0|2:0,2:0:0:0:
341,259,235290,1,2,1:2:0:0:
439,249,235774,2,0,L|442:190,1,60,0|0,3:0|2:0,2:0:0:0:
450,141,236258,5,2,1:2:0:0:
456,41,236741,1,2,1:2:0:0:
357,62,237225,1,2,1:2:0:0:
351,161,237709,1,2,1:2:0:0:
252,181,238193,2,0,L|254:230,2,60,2|0|2,1:2|3:0|1:2,2:0:0:0:
246,133,238919,2,0,L|243:83,1,60,0|0,3:0|2:0,2:0:0:0:
339,87,239645,2,0,L|341:136,1,60,0|4,1:0|2:3,2:0:0:0:
349,194,240128,6,2,B|353:242|353:242|349:242|349:242|349:290,1,120,6|8,1:2|1:2,2:1:0:0:
257,328,241096,2,2,B|253:280|253:280|257:280|257:280|257:232,1,120,2|8,1:2|1:2,2:1:0:0:
175,174,242064,2,0,L|126:178,1,60,2|4,1:3|2:3,2:0:0:0:
67,187,242548,1,10,1:2:0:0:
65,282,243032,2,0,L|115:279,1,60,4|2,1:3|2:3,2:0:0:0:
172,273,243516,1,12,1:2:0:0:
257,232,243999,6,0,B|247:202|266:163|237:172|286:172|257:44,2,180,2|2|10,1:0|2:3|1:2,2:0:0:0:
271,280,245693,1,0,2:0:0:0:
277,329,245935,2,0,P|189:312|99:308,2,180,4|0|8,1:0|2:0|1:2,2:0:0:0:
366,284,247870,5,6,1:2:0:0:
384,186,248354,2,0,L|382:134,1,60,8|0,1:2|2:0,2:0:0:0:
378,77,248838,2,2,B|328:86|328:86|280:76,1,120,2|8,1:2|1:2,2:1:0:0:
165,58,249806,2,0,B|176:10,2,60,2|0|8,1:2|2:0|1:2,2:0:0:0:
168,108,250532,2,0,B|158:157,1,60,2|2,2:3|1:0,2:0:0:0:
129,259,251258,1,8,1:2:0:0:
39,214,251741,6,0,P|23:124|14:32,2,180,2|2|10,1:0|2:3|1:2,2:0:0:0:
86,230,253435,1,0,2:0:0:0:
132,253,253677,2,0,B|233:271|193:229|314:250,2,180,8|0|8,1:0|2:0|1:2,2:0:0:0:
113,351,255612,6,0,B|150:359|150:359|212:355,1,120,6|8,1:2|1:2,2:0:0:0:
323,324,256580,2,0,B|360:316|360:316|422:321,1,120,2|8,1:2|1:2,2:0:0:0:
466,229,257548,2,0,L|462:174,1,60,4|0,1:2|2:0,2:0:0:0:
430,132,258032,2,0,L|426:77,1,60,10|0,1:2|2:0,2:0:0:0:
380,56,258516,2,2,L|325:60,1,60,2|2,1:3|2:3,2:1:0:0:
289,97,258999,2,2,L|234:101,1,60,12|10,1:2|2:1,2:1:0:0:
185,122,259483,6,0,B|128:130|128:130|71:120|71:120|8:132,2,180,2|2|10,1:0|2:3|1:2,2:0:0:0:
230,137,261177,1,0,2:0:0:0:
273,156,261419,2,0,B|329:144|329:144|394:163|394:163|429:157|452:158,2,180,4|0|8,1:0|2:0|1:2,2:0:0:0:
315,242,263354,5,6,1:2:0:0:
255,326,263838,2,0,L|202:328,1,60,8|0,1:2|2:0,2:0:0:0:
147,320,264322,2,2,B|139:296|139:296|147:264|147:264|139:216,1,120,2|8,1:2|1:2,2:1:0:0:
79,126,265290,2,0,B|71:77,2,60,2|0|8,1:2|2:0|1:2,2:0:0:0:
175,125,266258,2,0,B|186:64,1,60,4|0,1:3|2:0,2:0:0:0:
198,19,266741,1,12,1:2:0:0:
298,48,267225,6,0,B|389:65|359:30|476:54,2,180,2|2|10,1:0|2:3|1:2,2:0:0:0:
272,145,269161,1,10,1:0:0:0:
328,328,270128,2,0,L|378:327,1,60,6|8,1:0|2:3,2:0:0:0:
432,307,270612,2,0,L|482:306,1,60,8|4,1:2|2:3,2:0:0:0:
511,261,271096,6,0,P|506:169|469:87,1,180,2|2,1:3|2:3,2:0:0:0:
433,59,272064,2,0,L|437:2,2,60,2|4|8,1:2|2:0|1:2,2:0:0:0:
340,85,273032,2,0,P|303:168|300:257,1,180,2|2,1:3|2:3,2:0:0:0:
307,303,273999,2,0,L|258:299,1,60,2|4,1:2|2:0,2:0:0:0:
199,289,274483,1,8,1:2:0:0:
161,200,274967,6,0,B|137:143|137:143|20:193,2,180,4|4|8,1:3|2:3|1:2,2:0:0:0:
186,292,276903,2,0,B|73:340|73:340|50:284,2,180,4|4|8,1:3|2:3|1:2,2:0:0:0:
257,227,278838,6,0,P|346:224|427:260,1,180,2|2,1:3|2:3,2:0:0:0:
457,298,279806,2,0,L|464:352,2,60,2|4|8,1:2|2:0|1:2,2:0:0:0:
507,216,280774,2,0,L|484:38,1,180,2|2,1:3|2:3,2:0:0:0:
440,19,281741,2,0,P|416:20|391:25,1,60,2|4,1:2|2:0,2:0:0:0:
359,70,282225,1,8,1:2:0:0:
320,158,282709,6,0,B|379:171|379:171|437:162|437:162|490:134,2,180,4|4|8,1:3|2:3|1:2,2:0:0:0:
271,74,284645,2,0,B|210:61|210:61|152:70|152:70|98:98,2,180,4|4|8,1:3|2:3|1:2,2:0:0:0:
289,168,286580,6,0,P|362:171|407:161,1,120,8|12,1:3|1:2,2:0:0:0:
444,129,287306,1,8,2:3:0:0:
488,110,287548,2,0,P|492:135|493:160,1,60,2|4,1:2|2:0,2:0:0:0:
488,217,288032,2,0,P|492:242|493:267,1,60,8|0,1:2|2:0,2:0:0:0:
451,301,288516,2,0,B|386:312|386:312|339:301|339:301|266:308,1,180,8|8,1:3|2:3,2:0:0:0:
242,271,289483,1,2,1:2:0:0:
267,178,289967,1,8,1:2:0:0:
300,88,290451,6,0,P|335:74|411:70,1,120,4|12,1:3|1:2,2:0:0:0:
464,64,291177,1,4,2:3:0:0:
506,89,291419,2,0,L|491:150,1,60,2|4,1:2|2:0,2:0:0:0:
450,172,291903,2,0,L|435:233,1,60,8|0,1:2|2:0,2:0:0:0:
392,252,292387,2,0,L|202:258,2,180,4|4|8,1:3|2:3|1:2,2:0:0:0:
421,160,294322,6,0,B|365:155|374:147|356:146|365:155|325:170|307:178|289:168|325:170|308:160|289:168|198:150|190:131|200:113|198:150|208:132|200:113|212:71|176:0,1,360,8|8,1:3|1:2,2:0:0:0:
80,5,296258,2,0,P|32:110|22:234,1,240,8|2,1:3|1:2,2:0:0:0:
26,280,297467,1,4,2:0:0:0:
55,317,297709,2,0,L|118:311,1,60,8|0,1:2|2:0,2:0:0:0:
156,289,298193,6,0,P|201:279|334:293,1,180,4|4,1:3|2:3,2:0:0:0:
362,331,299161,1,2,1:2:0:0:
446,285,299645,2,0,L|443:220,1,60,8|0,1:2|2:0,2:0:0:0:
431,178,300128,6,0,L|427:79,2,120,2|2|2,1:2|1:2|1:2,2:0:0:0:
335,204,301580,1,8,1:2:0:0:
244,165,302064,1,6,1:2:0:0:
