osu file format v14

[General]
AudioFilename: audio.mp3
AudioLeadIn: 0
PreviewTime: 15603
Countdown: 0
SampleSet: Soft
StackLeniency: 0.7
Mode: 0
LetterboxInBreaks: 0
WidescreenStoryboard: 1

[Editor]
Bookmarks: 54313,69797,100765,131732,162700,193668,224636,240119,271087,302055
DistanceSpacing: 1.9
BeatDivisor: 4
GridSize: 8
TimelineZoom: 3.599998

[Metadata]
Title:Nautilus
TitleUnicode:Nautilus
Artist:Creo
ArtistUnicode:Creo
Creator:VINXIS
Version:Another
Source:osu!
Tags:cheesecake mapper's mappers' guild mapper mappers featured artist
BeatmapID:2125746
BeatmapSetID:1015289

[Difficulty]
HPDrainRate:5
CircleSize:4
OverallDifficulty:8.5
ApproachRate:8.8
SliderMultiplier:2.4
SliderTickRate:1

[Events]
//Background and Video events
0,0,"bg.jpg",0,0
//Break Periods
2,131941,146541
2,194602,196138
2,198473,200735
2,202344,203396
2,206215,208477
2,210086,215009
2,217828,220090
//Storyboard Layer 0 (Background)
//Storyboard Layer 1 (Fail)
//Storyboard Layer 2 (Pass)
//Storyboard Layer 3 (Foreground)
//Storyboard Layer 4 (Overlay)
//Storyboard Sound Samples

[TimingPoints]
129,483.870967741935,4,2,69,100,1,0
854,-250,4,2,1,40,0,0
11741,-250,4,2,1,20,0,0
13677,-250,4,2,1,30,0,0
15612,-250,4,2,1,40,0,0
31096,-250,4,2,3,50,0,0
31822,-250,4,2,4,50,0,0
32548,-250,4,2,5,50,0,0
33032,-250,4,2,6,50,0,0
33758,-250,4,2,7,50,0,0
33999,-250,4,2,8,50,0,0
34483,-250,4,2,9,50,0,0
34967,-250,4,2,10,50,0,0
35693,-250,4,2,4,50,0,0
36419,-250,4,2,11,50,0,0
36903,-250,4,2,7,50,0,0
38596,-100,4,2,1,50,0,0
54322,-142.857142857143,4,2,1,50,0,0
62064,-117.647058823529,4,2,1,50,0,0
65451,-117.647058823529,4,2,1,60,0,0
69806,-66.6666666666667,4,2,12,90,0,0
70290,-133.333333333333,4,2,1,90,0,0
70774,-66.6666666666667,4,2,12,90,0,0
71741,-80,4,2,13,90,0,0
73435,-66.6666666666667,4,2,0,90,0,0
73677,-66.6666666666667,4,2,42,90,0,0
77548,-66.6666666666667,4,2,12,90,0,0
78032,-66.6666666666667,4,2,1,90,0,0
78516,-66.6666666666667,4,2,12,90,0,0
78999,-133.333333333333,4,2,1,90,0,0
79483,-80,4,2,12,90,0,0
80935,-100,4,2,1,90,0,0
81419,-66.6666666666667,4,2,42,90,0,0
85290,-66.6666666666667,4,2,12,90,0,0
85774,-133.333333333333,4,2,1,90,0,0
86258,-66.6666666666667,4,2,12,90,0,0
86741,-66.6666666666667,4,2,1,90,0,0
87225,-80,4,2,14,90,0,0
88193,-66.6666666666667,4,2,13,90,0,0
89161,-66.6666666666667,4,2,42,90,0,0
93032,-66.6666666666667,4,2,12,90,0,0
94483,-133.333333333333,4,2,1,90,0,0
95935,-133.333333333333,4,2,13,90,0,0
96903,-66.6666666666667,4,2,42,90,0,0
100774,-80,4,2,34,90,0,0
129806,-133.333333333333,4,2,1,90,0,0
147225,-181.818181818181,4,2,1,80,0,0
162709,-153.846153846153,4,2,96,80,0,0
193677,-222.22222222222,4,2,1,50,0,0
224645,-153.846153846153,4,2,1,50,0,0
232387,-125,4,2,1,50,0,0
239524,-100,4,2,1,60,0,0
240128,-66.6666666666667,4,2,12,90,0,0
240612,-133.333333333333,4,2,1,90,0,0
241096,-66.6666666666667,4,2,12,90,0,0
242064,-79.9999999999999,4,2,13,90,0,0
243758,-66.6666666666667,4,2,0,90,0,0
243999,-66.6666666666667,4,2,42,90,0,0
247870,-66.6666666666667,4,2,12,90,0,0
249322,-133.333333333333,4,2,1,90,0,0
249806,-66.6666666666667,4,2,12,90,0,0
251258,-100,4,2,1,90,0,0
251741,-66.6666666666667,4,2,42,90,0,0
255612,-66.6666666666667,4,2,12,90,0,0
256096,-133.333333333333,4,2,1,90,0,0
256580,-66.6666666666667,4,2,12,90,0,0
257548,-66.6666666666667,4,2,14,90,0,0
258516,-66.6666666666667,4,2,13,90,0,0
259483,-66.6666666666667,4,2,42,90,0,0
263354,-66.6666666666667,4,2,12,90,0,0
264806,-133.333333333333,4,2,1,90,0,0
266258,-133.333333333333,4,2,13,90,0,0
267225,-66.6666666666667,4,2,42,90,0,0
271096,-79.9999999999999,4,2,34,90,0,1
300128,-133.333333333333,4,2,1,90,0,1
302063,-133.333333333333,4,2,1,100,0,1
302064,-25,4,2,1,100,0,0

[Colours]
Combo1 : 17,254,176
Combo2 : 173,255,95
Combo3 : 255,88,100
Combo4 : 255,94,55

[HitObjects]
112,123,129,5,6,2:3:0:0:
112,123,854,1,2,0:0:0:0:
112,123,1580,1,2,0:0:0:0:
191,171,2064,5,2,0:0:0:0:
191,171,3999,1,2,0:0:0:0:
400,123,7870,5,2,0:0:0:0:
400,123,8596,1,2,0:0:0:0:
400,123,9322,1,2,0:0:0:0:
321,171,9806,5,2,0:0:0:0:
321,171,11741,6,0,L|324:227,3,48,2|0|2|0,0:0|0:0|0:0|0:0,0:0:0:0:
230,174,12709,2,0,L|233:230,3,48,2|0|2|0,0:0|0:0|0:0|0:0,0:0:0:0:
139,177,13677,2,0,L|142:233,3,48,2|0|2|0,0:0|0:0|0:0|0:0,0:0:0:0:
48,180,14645,2,0,L|51:236,3,48,2|0|2|0,0:0|0:0|0:0|0:0,0:0:0:0:
97,61,15612,6,0,P|137:77|204:73,1,96,2|2,0:0|0:0,0:0:0:0:
262,115,16338,1,0,0:0:0:0:
218,232,17064,1,2,0:0:0:0:
218,232,17548,5,2,0:0:0:0:
162,61,19483,6,0,L|158:117,3,48,2|0|2|0,0:0|0:0|0:0|0:0,0:0:0:0:
253,64,20451,2,0,L|249:120,3,48,2|0|2|0,0:0|0:0|0:0|0:0,0:0:0:0:
344,67,21419,2,0,L|340:123,3,48,2|0|2|0,0:0|0:0|0:0|0:0,0:0:0:0:
435,70,22387,2,0,L|431:126,3,48,2|0|2|0,0:0|0:0|0:0|0:0,0:0:0:0:
487,189,23354,6,0,B|454:240|454:240|472:338,2,144,2|0|2,0:0|0:0|0:0,0:0:0:0:
433,118,25290,1,2,0:0:0:0:
433,118,27225,6,0,L|436:61,3,48,2|0|2|0,0:0|0:0|0:0|0:0,0:0:0:0:
342,115,28193,2,0,L|345:58,3,48,2|0|2|0,0:0|0:0|0:0|0:0,0:0:0:0:
251,112,29161,2,0,L|254:55,3,48,2|0|2|0,0:0|0:0|0:0|0:0,0:0:0:0:
160,109,30129,2,0,L|163:52,2,48,2|0|10,0:0|0:0|0:0,0:0:0:0:
38,359,31096,5,2,0:0:0:0:
134,334,31822,1,2,0:0:0:0:
134,334,32064,1,2,0:0:0:0:
199,179,32548,1,2,0:0:0:0:
290,145,33032,1,2,0:0:0:0:
376,103,33758,1,2,0:0:0:0:
416,268,33999,1,2,0:0:0:0:
440,22,34483,1,2,0:0:0:0:
482,335,34967,5,2,0:0:0:0:
322,371,35693,1,2,0:0:0:0:
322,371,35935,1,2,0:0:0:0:
304,70,36419,1,2,0:0:0:0:
216,183,36903,1,2,0:0:0:0:
220,187,38596,5,8,0:0:0:0:
220,187,38717,1,8,0:0:0:0:
161,258,38838,6,0,B|2:243|2:243|79:212,1,240,6|0,1:2|0:0,0:0:0:0:
220,187,39564,1,2,0:0:0:0:
220,187,40290,1,2,0:0:0:0:
141,155,40532,1,2,0:0:0:0:
141,155,41983,5,0,0:0:0:0:
243,156,42225,1,2,0:0:0:0:
342,137,42467,1,0,0:0:0:0:
431,89,42709,6,0,B|491:122|491:122|467:325,1,240,6|0,1:2|0:0,0:0:0:0:
508,371,43435,1,2,0:0:0:0:
181,276,44161,1,2,0:0:0:0:
181,276,44645,1,2,0:0:0:0:
185,280,46338,1,8,0:0:0:0:
185,280,46459,1,8,0:0:0:0:
261,318,46580,6,0,P|283:193|225:92,1,240,6|0,1:2|0:0,0:0:0:0:
252,20,47306,1,2,0:0:0:0:
252,20,48032,1,2,0:0:0:0:
151,109,48274,1,2,0:0:0:0:
151,109,49725,5,0,0:0:0:0:
151,109,49967,1,2,0:0:0:0:
151,109,50209,1,0,0:0:0:0:
199,189,50451,5,2,0:0:0:0:
252,93,51177,1,2,0:0:0:0:
314,230,51903,1,2,0:0:0:0:
383,67,52387,5,2,0:0:0:0:
387,68,53354,1,0,1:0:0:0:
387,68,53717,1,8,1:3:0:0:
303,113,53838,2,0,L|313:192,2,60,8|4|4,0:0|0:3|0:3,0:0:0:0:
396,267,54322,6,0,L|193:248,1,167.999994873047,6|0,1:2|1:0,0:0:0:0:
376,286,55290,2,0,L|173:267,1,167.999994873047,2|0,1:2|1:0,0:0:0:0:
138,316,56016,1,0,0:0:0:0:
78,250,56258,2,0,L|96:151,2,83.9999974365235,2|0|0,1:2|0:0|1:0,0:0:0:0:
15,98,57225,2,0,L|-3:197,2,83.9999974365235,2|0|0,1:2|0:0|1:0,0:0:0:0:
396,267,58193,6,0,L|193:248,1,167.999994873047,2|0,1:2|1:0,0:0:0:0:
376,286,59161,2,0,L|173:267,1,167.999994873047,2|0,1:2|1:0,0:0:0:0:
145,318,59887,1,0,0:0:0:0:
233,190,60128,2,0,P|233:135|225:91,1,83.9999974365235,2|0,1:2|0:0,0:0:0:0:
358,153,60612,2,0,P|330:105|301:71,1,83.9999974365235,2|0,1:2|0:0,0:0:0:0:
447,58,61096,2,0,P|399:30|357:15,1,83.9999974365235,2|0,1:2|0:0,0:0:0:0:
296,0,61459,1,8,0:0:0:0:
296,0,61580,1,2,1:2:0:0:
452,171,61822,1,8,0:0:0:0:
452,171,61943,1,8,0:0:0:0:
358,153,62064,6,0,L|378:334,1,153.000002918243,8|0,1:2|0:0,0:0:0:0:
310,359,62548,2,0,L|157:375,1,153.000002918243,8|0,1:2|0:0,0:0:0:0:
104,311,63032,6,0,L|87:158,1,153.000002918243,8|0,1:2|0:0,0:0:0:0:
152,105,63516,2,0,L|304:88,1,153.000002918243,8|0,1:2|0:0,0:0:0:0:
380,130,63999,6,0,P|384:193|348:286,1,153.000002918243,8|0,1:2|0:0,0:0:0:0:
263,247,64483,2,0,P|261:171|289:101,1,153.000002918243,8|0,1:2|0:0,0:0:0:0:
175,67,64967,6,0,P|179:130|143:223,1,153.000002918243,8|0,1:2|0:0,0:0:0:0:
58,184,65451,2,0,P|54:121|90:28,1,153.000002918243,8|0,1:2|0:0,0:0:0:0:
182,27,65935,5,10,1:2:0:0:
182,27,66177,1,0,3:0:0:0:
135,225,66419,1,10,1:2:0:0:
135,225,66661,1,0,3:0:0:0:
333,272,66903,1,10,1:2:0:0:
333,272,67145,1,0,3:0:0:0:
380,74,67387,1,10,1:2:0:0:
380,74,67629,1,0,3:0:0:0:
217,75,67870,5,2,1:2:0:0:
210,108,67990,1,0,3:0:0:0:
206,143,68111,1,0,3:0:0:0:
206,177,68232,1,0,3:0:0:0:
209,211,68353,1,2,1:2:0:0:
216,245,68474,1,0,3:0:0:0:
226,278,68595,1,0,3:0:0:0:
239,310,68716,1,0,3:0:0:0:
256,340,68837,5,2,1:2:0:0:
211,315,68958,1,0,3:0:0:0:
161,302,69079,1,0,3:0:0:0:
109,302,69200,1,0,3:0:0:0:
60,316,69321,1,10,1:2:0:0:
443,353,69806,6,2,B|462:251|462:251|373:238|373:238|355:329,1,270.000010299683,6|0,1:2|0:0,0:1:0:0:
272,301,70290,2,0,L|298:183,1,90.0000034332277,8|0,1:2|0:0,0:0:0:0:
121,159,70774,6,2,B|102:261|102:261|191:274|191:274|209:183,1,270.000010299683,2|0,1:2|0:0,0:1:0:0:
300,188,71258,2,0,L|314:120,4,45.0000017166138,8|0|0|0|0,1:2|0:0|0:0|0:0|0:0,0:0:0:0:
224,372,71741,5,2,1:3:0:0:
226,98,71983,1,4,0:3:0:0:
484,261,72225,2,0,P|428:294|245:290,1,225,10|0,1:2|0:0,0:0:0:0:
271,300,72709,1,4,1:3:0:0:
329,69,72951,1,2,0:3:0:0:
109,157,73193,1,12,1:2:0:0:
242,176,73435,1,2,0:0:0:0:
81,152,73677,6,0,L|104:339,1,180.000006866455,2|0,1:0|0:0,0:0:0:0:
184,369,74040,1,0,0:0:0:0:
257,319,74161,2,0,L|346:331,1,90.0000034332277,8|0,1:2|0:0,0:0:0:0:
361,238,74403,2,0,L|271:225,1,90.0000034332277,2|0,0:3|0:0,0:0:0:0:
195,257,74645,6,0,B|177:197|177:197|214:48,1,180.000006866455,0|0,1:0|0:0,0:0:0:0:
184,8,75008,1,0,0:0:0:0:
95,89,75128,2,0,L|101:0,1,90.0000034332277,10|0,1:2|0:0,0:0:0:0:
12,92,75370,2,0,L|18:2,1,90.0000034332277
270,197,75612,6,0,P|340:209|475:155,2,180.000006866455,4|0|8,1:0|0:0|1:2,0:0:0:0:
270,197,76338,2,0,L|280:302,1,90.0000034332277
134,341,76580,6,0,P|145:301|151:235,1,90.0000034332277,4|0,1:1|0:0,0:0:0:0:
86,202,76822,1,0,0:0:0:0:
86,202,76943,1,0,0:0:0:0:
150,142,77064,2,0,L|133:36,1,90.0000034332277,8|0,1:2|0:0,0:0:0:0:
241,120,77306,2,0,L|224:14,1,90.0000034332277
330,120,77548,6,2,B|376:273|376:273|425:169,1,270.000010299683,6|0,1:2|0:0,0:1:0:0:
470,112,78032,2,0,L|463:68,4,45.0000017166138,8|0|0|0|0,1:2|0:0|0:0|0:0|0:0,0:0:0:0:
276,362,78516,6,2,B|259:229|259:229|162:341,1,270.000010299683,2|0,1:2|0:0,0:1:0:0:
89,344,78999,2,0,L|98:248,1,90.0000034332277,8|0,1:2|0:0,0:0:0:0:
150,126,79483,5,2,1:2:0:0:
193,142,79603,1,0,0:0:0:0:
239,151,79724,1,0,0:0:0:0:
286,151,79845,1,0,0:0:0:0:
332,143,79967,2,0,P|349:90|355:50,1,75,8|0,1:2|0:0,0:0:0:0:
401,197,80209,2,0,P|442:159|467:127,1,75,2|0,0:3|0:0,0:0:0:0:
446,285,80451,5,2,1:1:0:0:
446,285,80572,2,0,P|371:294|307:368,1,150
230,368,80935,6,0,L|241:167,1,180,8|0,1:2|0:0,0:0:0:0:
169,118,81419,6,0,B|208:83|208:83|374:110,1,180.000006866455,2|0,1:1|0:0,0:0:0:0:
364,181,81782,1,0,0:0:0:0:
420,116,81903,2,0,L|412:16,1,90.0000034332277,8|0,1:2|0:0,0:0:0:0:
449,224,82145,6,0,P|437:283|321:363,1,180.000006866455,2|0,0:3|1:2,0:0:0:0:
349,358,82508,1,0,0:0:0:0:
349,358,82628,2,0,L|254:343,1,90.0000034332277
118,282,82870,2,0,L|212:267,1,90.0000034332277,10|0,1:2|0:0,0:0:0:0:
32,370,83112,2,0,L|18:274,1,90.0000034332277
69,126,83354,6,0,P|122:140|251:131,1,180.000006866455,8|0,1:1|0:0,0:0:0:0:
288,62,83717,1,0,0:0:0:0:
342,149,83838,2,0,P|330:202|311:252,1,90.0000034332277,8|0,1:2|0:0,0:0:0:0:
438,131,84080,2,0,P|426:78|407:28,1,90.0000034332277
216,157,84322,5,4,1:1:0:0:
219,201,84442,1,0,3:0:0:0:
223,246,84563,1,0,3:0:0:0:
227,291,84684,1,0,3:0:0:0:
171,363,84806,5,8,1:2:0:0:
171,363,84927,2,0,P|90:325|0:324,1,180.000006866455
253,307,85290,6,2,P|334:345|521:313,1,270.000010299683,6|0,1:2|0:0,0:1:0:0:
512,338,85774,2,0,L|500:241,1,90.0000034332277,8|0,1:2|0:0,0:0:0:0:
423,1,86258,6,2,B|415:47|415:47|430:73|430:73|384:280,1,270.000010299683,2|0,1:2|0:0,0:1:0:0:
307,239,86741,2,0,L|330:139,1,90.0000034332277,8|0,1:2|0:0,0:0:0:0:
245,129,86983,2,0,L|224:216,1,90.0000034332277
205,350,87225,5,4,1:2:0:0:
156,134,87467,1,0,0:0:0:0:
307,350,87709,5,10,1:2:0:0:
356,134,87951,1,0,0:0:0:0:
13,328,88193,5,2,1:3:0:0:
108,247,88435,1,2,0:3:0:0:
269,220,88677,1,12,1:2:0:0:
435,317,88919,1,10,0:1:0:0:
219,362,89161,6,0,B|234:233|171:303|196:174,1,180.000006866455,2|0,1:1|0:0,0:0:0:0:
121,133,89524,1,0,0:0:0:0:
175,61,89645,2,0,L|267:78,1,90.0000034332277,8|0,1:2|0:0,0:0:0:0:
357,203,89887,2,0,L|269:220,1,90.0000034332277,2|0,0:3|0:0,0:0:0:0:
117,285,90128,6,0,P|94:225|105:106,1,180.000006866455,0|0,1:2|0:0,0:0:0:0:
83,84,90491,1,0,0:0:0:0:
175,61,90612,2,0,L|267:78,1,90.0000034332277,10|0,1:2|0:0,0:0:0:0:
321,18,90854,2,0,L|413:35,1,90.0000034332277
512,135,91096,6,0,B|444:156|444:156|429:185|429:185|356:209,1,180.000006866455,4|0,1:0|0:0,0:0:0:0:
303,270,91459,1,0,0:0:0:0:
235,222,91580,2,0,L|116:212,1,90.0000034332277,8|0,1:2|0:0,0:0:0:0:
239,55,91822,2,0,L|358:45,1,90.0000034332277
124,238,92064,6,0,P|71:209|51:152,1,90.0000034332277,4|0,1:1|0:0,0:0:0:0:
0,132,92306,1,0,0:0:0:0:
0,132,92427,1,0,0:0:0:0:
140,156,92548,2,0,L|154:58,1,90.0000034332277,8|0,1:2|0:0,0:0:0:0:
225,168,92790,2,0,L|239:70,1,90.0000034332277
203,312,93032,6,2,B|491:284,1,270.000010299683,2|0,1:2|0:0,0:1:0:0:
426,208,93516,2,0,L|420:118,1,90.0000034332277,8|0,1:2|0:0,0:0:0:0:
501,113,93758,2,0,L|506:202,1,90.0000034332277
309,72,93999,6,2,B|21:100,1,270.000010299683,2|0,1:2|0:0,0:1:0:0:
40,98,94483,2,0,L|54:192,1,90.0000034332277,8|0,1:2|0:0,0:0:0:0:
40,349,94967,5,2,1:2:0:0:
249,264,95209,1,0,0:0:0:0:
455,349,95451,5,8,1:2:0:0:
386,117,95693,1,0,0:0:0:0:
241,358,95935,5,4,1:3:0:0:
235,51,96177,1,2,0:3:0:0:
368,252,96419,1,12,1:2:0:0:
174,218,96661,1,0,0:0:0:0:
398,264,96903,6,0,B|405:132|405:132|367:174,1,180.000006866455,2|0,1:1|0:0,0:0:0:0:
304,121,97266,1,0,0:0:0:0:
277,199,97387,2,0,L|290:298,1,90.0000034332277,8|0,1:2|0:0,0:0:0:0:
240,351,97628,1,2,0:3:0:0:
240,351,97749,1,0,0:0:0:0:
198,270,97870,6,0,P|122:272|13:330,1,180.000006866455,0|0,1:2|0:0,0:0:0:0:
314,304,98354,2,0,P|393:344|482:349,1,180.000006866455,10|0,1:2|0:0,0:0:0:0:
498,336,98717,1,0,0:0:0:0:
443,261,98838,6,0,L|464:74,1,180.000006866455,10|0,1:1|0:0,0:0:0:0:
69,261,99322,2,0,L|48:74,1,180.000006866455,8|0,1:2|0:0,0:0:0:0:
256,24,99806,5,6,1:1:0:0:
245,61,99926,1,8,0:3:0:0:
240,100,100047,1,8,0:3:0:0:
246,139,100168,1,8,0:3:0:0:
261,175,100289,1,8,1:2:0:0:
273,213,100410,1,4,0:3:0:0:
274,252,100531,1,4,0:3:0:0:
267,291,100652,1,4,0:3:0:0:
257,377,100774,5,2,1:3:0:0:
213,362,100894,1,0,0:0:0:0:
166,355,101015,1,2,0:0:0:0:
120,357,101136,1,0,0:0:0:0:
34,371,101258,2,0,L|42:268,1,75,12|0,1:2|0:0,0:0:0:0:
109,246,101499,1,2,0:3:0:0:
109,246,101620,1,0,0:0:0:0:
28,183,101741,2,0,L|36:80,1,75,2|0,1:2|0:0,0:0:0:0:
12,32,101983,1,4,0:0:0:0:
141,76,102225,1,8,1:2:0:0:
268,26,102467,1,0,0:0:0:0:
393,80,102709,5,2,1:3:0:0:
390,129,102829,1,0,0:0:0:0:
388,179,102950,1,2,0:2:0:0:
385,229,103071,1,0,0:0:0:0:
419,319,103193,2,0,L|322:306,1,75,12|0,1:2|0:0,0:0:0:0:
285,363,103435,1,2,0:3:0:0:
285,363,103556,1,0,0:0:0:0:
227,294,103677,2,0,L|242:207,1,75,2|0,1:2|0:0,0:0:0:0:
211,137,103919,1,4,0:0:0:0:
360,200,104161,1,8,1:2:0:0:
406,43,104403,1,0,0:0:0:0:
141,26,104645,5,4,1:3:0:0:
119,70,104765,1,0,0:0:0:0:
111,120,104886,1,2,0:0:0:0:
118,169,105007,1,0,0:0:0:0:
58,235,105128,2,0,L|71:320,1,75,12|0,1:2|0:0,0:0:0:0:
217,272,105370,2,0,L|205:197,1,75,4|0,0:3|0:0,0:0:0:0:
142,382,105612,2,0,L|230:371,1,75,2|0,1:2|0:0,0:0:0:0:
288,329,105854,1,4,0:0:0:0:
451,379,106096,1,8,1:2:0:0:
510,218,106338,1,0,0:0:0:0:
393,54,106580,5,4,1:3:0:0:
369,97,106700,1,0,0:0:0:0:
360,146,106821,1,2,0:0:0:0:
366,195,106942,1,0,0:0:0:0:
433,257,107064,2,0,L|517:237,1,75,12|0,1:2|0:0,0:0:0:0:
335,327,107306,2,0,L|419:347,1,75,4|0,0:3|0:0,0:0:0:0:
266,244,107548,2,0,L|273:152,1,75,2|0,1:2|0:0,0:0:0:0:
92,190,107790,2,0,L|166:195,1,75,4|0,3:2|3:0,0:0:0:0:
202,30,108032,2,0,L|195:122,1,75,8|0,1:2|0:0,0:0:0:0:
185,298,108274,1,0,3:0:0:0:
185,298,108395,1,0,3:0:0:0:
266,244,108516,5,2,1:3:0:0:
310,266,108636,1,0,0:0:0:0:
359,274,108757,1,2,0:0:0:0:
409,266,108878,1,0,0:0:0:0:
490,308,108999,2,0,L|493:217,1,75,12|0,1:2|0:0,0:0:0:0:
444,167,109241,1,2,0:3:0:0:
444,167,109362,1,0,0:0:0:0:
438,78,109483,2,0,L|512:82,1,75,2|0,1:2|0:0,0:0:0:0:
376,7,109725,1,4,0:0:0:0:
329,172,109967,1,8,1:2:0:0:
282,337,110209,1,0,0:0:0:0:
173,268,110451,5,2,1:3:0:0:
124,260,110571,1,0,0:0:0:0:
76,274,110692,1,2,0:0:0:0:
40,308,110813,1,0,0:0:0:0:
6,215,110935,2,0,L|15:132,1,75,12|0,1:2|0:0,0:0:0:0:
9,52,111177,1,2,0:3:0:0:
9,52,111298,1,0,0:0:0:0:
96,29,111419,2,0,L|175:37,1,75,2|0,1:2|0:0,0:0:0:0:
258,11,111661,1,4,0:0:0:0:
185,129,111903,1,8,1:2:0:0:
311,177,112145,1,0,0:0:0:0:
204,299,112387,5,4,1:3:0:0:
249,318,112507,1,0,0:0:0:0:
298,327,112628,1,2,0:2:0:0:
348,325,112749,1,0,0:0:0:0:
397,254,112870,2,0,L|473:265,1,75,12|0,1:2|0:0,0:0:0:0:
311,177,113112,2,0,L|236:166,1,75,4|0,0:3|0:0,0:0:0:0:
397,104,113354,2,0,L|473:115,1,75,2|0,1:2|0:0,0:0:0:0:
356,23,113596,1,4,0:0:0:0:
256,192,113838,1,8,1:2:0:0:
156,23,114080,1,0,0:0:0:0:
115,104,114322,5,4,1:3:0:0:
110,153,114442,1,0,0:0:0:0:
112,203,114563,1,2,0:0:0:0:
122,252,114684,1,0,0:0:0:0:
186,308,114806,2,0,L|179:382,1,75,12|0,1:2|0:0,0:0:0:0:
248,241,115048,2,0,L|255:167,1,75,4|0,0:3|0:0,0:0:0:0:
313,306,115290,2,0,L|306:380,1,75,2|0,1:2|0:0,0:0:0:0:
396,255,115532,2,0,L|470:261,1,75,4|0,0:0|0:0,0:0:0:0:
333,201,115774,2,0,L|339:126,1,75,8|0,1:2|0:0,0:0:0:0:
274,46,116016,1,0,0:0:0:0:
168,320,116258,5,8,1:3:0:0:
227,373,116378,1,0,0:0:0:0:
306,380,116499,1,2,0:2:0:0:
378,344,116620,1,0,0:0:0:0:
426,280,116741,2,0,L|424:196,1,75,12|0,1:2|0:0,0:0:0:0:
250,157,116983,5,8,0:3:0:0:
182,200,117104,1,0,0:0:0:0:
102,204,117225,1,2,1:2:0:0:
31,167,117346,1,0,0:0:0:0:
1,93,117467,2,0,L|8:14,1,75,4|0,0:0|0:0,0:0:0:0:
86,0,117709,1,8,1:2:0:0:
237,41,117951,1,0,0:0:0:0:
388,82,118193,5,8,1:3:0:0:
407,161,118313,1,0,0:0:0:0:
396,243,118434,1,2,0:0:0:0:
356,315,118555,1,0,0:0:0:0:
294,368,118677,2,0,L|210:354,1,75,12|0,1:2|0:0,0:0:0:0:
15,229,118919,5,8,0:3:0:0:
78,282,119040,1,0,0:0:0:0:
160,294,119161,1,2,1:2:0:0:
234,258,119282,1,0,0:0:0:0:
279,189,119403,2,0,L|287:111,1,75,4|0,0:0|0:0,0:0:0:0:
363,91,119645,1,8,1:2:0:0:
55,33,119887,1,0,0:0:0:0:
363,91,120128,5,4,1:3:0:0:
288,56,120248,1,0,0:0:0:0:
206,56,120369,1,2,0:0:0:0:
131,89,120490,1,0,0:0:0:0:
77,150,120612,2,0,P|75:196|75:233,1,75,12|0,1:2|0:0,0:0:0:0:
51,368,120854,5,4,0:3:0:0:
131,381,120974,1,0,0:0:0:0:
210,359,121095,1,2,1:2:0:0:
272,306,121216,1,0,0:0:0:0:
306,231,121338,2,0,L|304:146,1,75,4|0,0:0|0:0,0:0:0:0:
266,79,121580,1,8,1:2:0:0:
476,193,121822,1,0,0:0:0:0:
191,281,122064,5,4,1:3:0:0:
109,274,122184,1,0,0:0:0:0:
42,228,122305,1,2,0:0:0:0:
5,155,122426,1,0,0:0:0:0:
9,74,122548,2,0,L|92:64,1,75,12|0,1:2|0:0,0:0:0:0:
321,281,122790,5,4,0:3:0:0:
403,274,122910,1,0,0:0:0:0:
470,228,123031,1,2,1:2:0:0:
507,155,123152,1,0,0:0:0:0:
503,74,123274,2,0,L|420:64,1,75,4|0,3:2|3:0,0:0:0:0:
256,24,123516,2,0,L|256:112,1,75,8|0,1:2|0:0,0:0:0:0:
260,196,123758,1,8,3:2:0:0:
260,196,123878,1,0,3:0:0:0:
189,257,123999,6,0,L|102:248,1,75,8|0,1:3|0:0,0:0:0:0:
54,154,124241,2,0,L|128:146,1,75,2|0,0:0|0:0,0:0:0:0:
19,255,124483,2,0,L|29:337,1,75,12|0,1:2|0:0,0:0:0:0:
323,127,124725,6,0,L|410:136,1,75,8|0,0:3|0:0,0:0:0:0:
458,230,124967,2,0,L|383:237,1,75,2|0,1:2|0:0,0:0:0:0:
493,129,125209,2,0,L|483:47,1,75,4|0,0:0|0:0,0:0:0:0:
257,24,125451,1,8,1:2:0:0:
236,105,125571,1,0,0:0:0:0:
234,189,125692,1,0,0:0:0:0:
249,272,125813,1,0,0:0:0:0:
281,350,125935,6,0,L|368:357,1,75,8|0,1:3|0:0,0:0:0:0:
389,206,126177,2,0,L|302:199,1,75,2|0,0:0|0:0,0:0:0:0:
450,345,126419,2,0,L|463:261,1,75,12|0,1:2|0:0,0:0:0:0:
203,177,126661,6,0,L|116:170,1,75,8|0,0:3|0:0,0:0:0:0:
57,233,126903,1,2,1:2:0:0:
25,158,127023,1,0,0:0:0:0:
39,78,127144,1,4,0:0:0:0:
95,19,127265,1,0,0:0:0:0:
174,0,127386,1,8,1:2:0:0:
251,28,127507,1,0,0:0:0:0:
300,93,127628,1,0,0:0:0:0:
305,174,127749,1,0,0:0:0:0:
264,245,127870,5,4,1:3:0:0:
236,168,127990,1,0,0:0:0:0:
257,90,128111,1,2,0:0:0:0:
319,38,128232,1,0,0:0:0:0:
400,31,128354,2,0,L|412:107,1,75,12|0,1:2|0:0,0:0:0:0:
512,130,128596,2,0,L|500:55,1,75,4|0,0:3|0:0,0:0:0:0:
512,357,128838,5,2,1:2:0:0:
512,357,128959,2,0,P|434:341|361:359,1,150
289,383,129322,2,0,L|277:300,1,75,8|0,1:2|0:0,0:0:0:0:
206,267,129564,1,0,0:0:0:0:
315,134,129806,5,2,1:2:0:0:
179,117,130290,1,2,1:2:0:0:
315,134,130774,1,2,1:2:0:0:
179,117,131258,1,8,1:2:0:0:
289,383,131741,5,6,1:2:0:0:
106,62,147225,6,0,L|204:44,2,88.000002685547,2|0|0,0:0|0:0|0:0,0:0:0:0:
0,132,148193,2,0,L|86:147,2,88.000002685547,0|0|0,3:0|0:0|0:0,0:0:0:0:
200,120,149161,6,0,L|204:225,2,88.000002685547,2|0|0,0:0|0:0|0:0,0:0:0:0:
92,179,150128,2,0,L|88:284,2,88.000002685547,0|0|0,3:0|0:0|0:0,0:0:0:0:
196,79,151096,5,2,0:0:0:0:
287,127,151419,1,0,0:0:0:0:
371,68,151741,1,0,0:0:0:0:
281,35,152064,5,0,3:0:0:0:
368,166,152387,1,0,0:0:0:0:
273,290,152709,1,0,0:0:0:0:
423,365,153032,6,0,L|510:352,2,88.000002685547,2|0|0,0:0|0:0|0:0,0:0:0:0:
166,361,153999,2,0,L|78:373,2,88.000002685547,0|0|0,3:0|0:0|0:0,0:0:0:0:
216,250,154967,5,2,0:0:0:0:
216,250,155290,1,0,0:0:0:0:
216,250,155612,1,0,0:0:0:0:
353,378,155935,5,0,3:0:0:0:
353,378,156258,1,0,0:0:0:0:
353,378,156580,1,0,0:0:0:0:
422,210,156903,5,2,0:0:0:0:
422,210,157226,1,0,0:0:0:0:
422,210,157548,1,0,0:0:0:0:
226,117,157870,5,0,3:0:0:0:
226,117,158193,1,0,0:0:0:0:
226,117,158515,1,0,0:0:0:0:
294,286,158838,5,2,0:0:0:0:
318,111,159161,1,0,0:0:0:0:
155,177,159483,1,0,0:0:0:0:
350,153,159806,5,0,3:0:0:0:
175,129,160129,1,0,0:0:0:0:
241,292,160451,1,0,0:0:0:0:
217,97,160774,5,2,0:0:0:0:
193,272,161097,1,0,0:0:0:0:
356,206,161419,1,0,0:0:0:0:
256,192,161741,5,2,1:2:0:0:
256,192,162709,5,2,1:1:0:0:
341,242,162870,1,0,0:0:0:0:
251,285,163032,1,0,0:0:0:0:
167,232,163193,2,0,L|83:248,2,51.999997619629,10|0|0,1:2|0:0|0:0,0:0:0:0:
261,99,163677,5,2,1:1:0:0:
346,149,163838,1,0,0:0:0:0:
256,192,164000,1,0,0:0:0:0:
172,139,164161,2,0,L|88:155,2,51.999997619629,12|0|0,1:2|0:0|0:0,0:0:0:0:
266,6,164645,5,2,1:1:0:0:
351,56,164806,1,0,0:0:0:0:
261,99,164968,1,0,0:0:0:0:
177,46,165129,2,0,L|93:62,2,51.999997619629,10|0|0,1:2|0:0|0:0,0:0:0:0:
351,56,165612,6,0,L|435:72,2,51.999997619629,2|0|0,1:1|0:0|0:0,0:0:0:0:
346,149,166096,2,0,L|430:165,2,51.999997619629,12|0|0,1:2|0:0|0:0,0:0:0:0:
85,204,166580,5,4,1:1:0:0:
123,295,166741,1,0,0:0:0:0:
209,344,166903,1,0,0:0:0:0:
308,350,167064,2,0,L|370:338,2,51.999997619629,10|0|0,1:2|0:0|0:0,0:0:0:0:
123,295,167548,5,4,1:1:0:0:
161,204,167709,1,0,0:0:0:0:
247,155,167871,1,0,0:0:0:0:
346,149,168032,2,0,L|408:161,2,51.999997619629,12|0|0,1:2|0:0|0:0,0:0:0:0:
161,204,168516,5,4,1:1:0:0:
199,295,168677,1,0,0:0:0:0:
285,344,168839,1,0,0:0:0:0:
384,350,169000,2,0,L|446:338,2,51.999997619629,10|0|0,1:2|0:0|0:0,0:0:0:0:
199,295,169483,6,0,L|191:372,2,51.999997619629,4|0|0,1:1|0:0|0:0,0:0:0:0:
141,235,169967,1,4,1:2:0:0:
320,94,170209,1,8,0:0:0:0:
320,94,170330,1,0,0:0:0:0:
248,141,170451,6,0,L|260:223,2,51.999997619629,2|0|0,1:3|0:0|0:0,0:0:0:0:
160,149,170935,2,0,L|172:231,2,51.999997619629,10|0|0,1:2|0:0|0:0,0:0:0:0:
146,59,171419,2,0,L|134:-23,2,51.999997619629,2|0|0,1:3|0:0|0:0,0:0:0:0:
234,51,171903,2,0,L|222:-31,2,51.999997619629,12|0|0,1:2|0:0|0:0,0:0:0:0:
33,148,172387,6,0,L|21:66,2,51.999997619629,2|0|0,1:3|0:0|0:0,0:0:0:0:
121,140,172871,2,0,L|109:58,2,51.999997619629,10|0|0,1:2|0:0|0:0,0:0:0:0:
135,230,173355,2,0,L|147:312,2,51.999997619629,2|0|0,1:3|0:0|0:0,0:0:0:0:
47,238,173839,2,0,L|59:320,2,51.999997619629,12|0|0,1:2|0:0|0:0,0:0:0:0:
205,172,174322,5,4,1:3:0:0:
292,216,174483,1,0,0:0:0:0:
374,161,174645,1,0,0:0:0:0:
369,259,174806,5,10,1:2:0:0:
293,195,174967,1,0,0:0:0:0:
299,96,175128,1,0,0:0:0:0:
368,25,175290,5,4,1:3:0:0:
270,11,175451,1,0,0:0:0:0:
216,94,175612,1,0,0:0:0:0:
147,21,175774,5,12,1:2:0:0:
122,116,175935,1,0,0:0:0:0:
52,46,176096,1,0,0:0:0:0:
35,143,176258,5,4,1:3:0:0:
39,241,176419,1,0,0:0:0:0:
43,339,176580,1,0,0:0:0:0:
141,328,176741,5,10,1:2:0:0:
137,230,176902,1,0,0:0:0:0:
133,132,177063,1,0,0:0:0:0:
231,121,177225,5,4,1:3:0:0:
235,219,177386,1,0,0:0:0:0:
239,317,177547,1,0,0:0:0:0:
337,306,177709,5,12,1:2:0:0:
333,208,177870,1,0,0:0:0:0:
329,110,178031,1,0,0:0:0:0:
260,38,178193,5,2,1:1:0:0:
183,100,178354,1,0,0:0:0:0:
100,44,178516,1,0,0:0:0:0:
23,106,178677,2,0,L|28:193,2,51.999997619629,10|0|0,1:2|0:0|0:0,0:0:0:0:
183,100,179161,5,2,1:1:0:0:
260,162,179322,1,0,0:0:0:0:
343,106,179484,1,0,0:0:0:0:
420,168,179645,2,0,L|415:255,2,51.999997619629,12|0|0,1:2|0:0|0:0,0:0:0:0:
260,162,180128,5,2,1:1:0:0:
183,224,180289,1,0,0:0:0:0:
100,168,180451,1,0,0:0:0:0:
23,230,180612,2,0,L|28:317,2,51.999997619629,10|0|0,1:2|0:0|0:0,0:0:0:0:
257,73,181096,6,0,L|266:2,2,51.999997619629,2|0|0,1:1|0:0|0:0,0:0:0:0:
353,83,181580,2,0,L|362:12,2,51.999997619629,12|0|0,1:2|0:0|0:0,0:0:0:0:
466,352,182064,5,4,1:1:0:0:
372,321,182225,1,0,0:0:0:0:
451,261,182387,1,0,0:0:0:0:
357,228,182548,2,0,L|277:232,2,51.999997619629,10|0|0,1:2|0:0|0:0,0:0:0:0:
468,17,183032,5,4,1:1:0:0:
374,48,183193,1,0,0:0:0:0:
453,108,183355,1,0,0:0:0:0:
359,141,183516,2,0,L|279:137,2,51.999997619629,12|0|0,1:2|0:0|0:0,0:0:0:0:
236,294,183999,5,4,1:1:0:0:
142,263,184160,1,0,0:0:0:0:
221,203,184322,1,0,0:0:0:0:
127,170,184483,2,0,L|47:174,2,51.999997619629,10|0|0,1:2|0:0|0:0,0:0:0:0:
414,147,184967,6,0,L|425:70,2,51.999997619629,4|0|0,1:1|0:0|0:0,0:0:0:0:
465,216,185451,1,4,1:2:0:0:
301,348,185693,1,8,0:0:0:0:
301,348,185814,1,0,0:0:0:0:
367,286,185935,5,2,1:3:0:0:
274,252,186096,1,0,0:0:0:0:
207,325,186258,1,0,0:0:0:0:
171,233,186419,5,10,1:2:0:0:
118,316,186580,1,0,0:0:0:0:
70,229,186741,1,0,0:0:0:0:
122,144,186903,5,2,1:3:0:0:
76,56,187064,1,0,0:0:0:0:
168,21,187225,1,0,0:0:0:0:
210,110,187387,5,12,1:2:0:0:
256,198,187548,1,0,0:0:0:0:
164,233,187709,1,0,0:0:0:0:
214,317,187870,5,2,1:3:0:0:
308,287,188032,1,0,0:0:0:0:
399,323,188193,1,0,0:0:0:0:
388,224,188354,5,10,1:2:0:0:
294,194,188516,1,0,0:0:0:0:
203,230,188677,1,0,0:0:0:0:
114,185,188838,5,2,1:3:0:0:
112,283,188999,1,0,0:0:0:0:
25,234,189161,1,0,0:0:0:0:
32,135,189322,5,12,1:2:0:0:
118,87,189483,1,0,0:0:0:0:
204,135,189645,1,0,0:0:0:0:
288,83,189806,6,0,L|295:12,2,51.999997619629,4|0|0,1:3|0:0|0:0,0:0:0:0:
114,185,190290,2,0,L|107:256,2,51.999997619629,10|0|0,1:2|0:0|0:0,0:0:0:0:
378,237,190774,6,0,L|385:308,2,51.999997619629,4|0|0,1:3|0:0|0:0,0:0:0:0:
204,135,191258,2,0,L|197:64,2,51.999997619629,12|0|0,1:2|0:0|0:0,0:0:0:0:
129,312,191741,6,0,P|193:338|266:341,1,103.999995239258,4|0,1:3|0:0,0:0:0:0:
132,216,192225,2,0,P|80:225|33:246,1,103.999995239258,2|0,1:2|0:0,0:0:0:0:
178,127,192709,2,0,P|242:153|315:156,1,103.999995239258,4|0,1:3|0:0,0:0:0:0:
181,31,193193,1,12,1:2:0:0:
43,352,193677,6,0,P|40:303|39:251,2,80.9999975280763,2|0|0,0:0|0:0|0:0,0:0:0:0:
388,91,196822,5,0,0:0:0:0:
445,22,197064,1,2,0:0:0:0:
356,11,197306,1,0,0:0:0:0:
469,32,197548,6,0,P|472:81|473:133,2,80.9999975280763,2|0|0,0:0|0:0|0:0,0:0:0:0:
43,352,201419,6,0,P|40:303|39:251,2,80.9999975280763,2|0|0,0:0|0:0|0:0,0:0:0:0:
46,78,204080,5,2,0:0:0:0:
155,110,204564,1,2,0:0:0:0:
244,40,205048,1,2,0:0:0:0:
244,40,205290,6,0,P|247:89|248:141,2,80.9999975280763,2|0|0,0:0|0:0|0:0,0:0:0:0:
465,130,209161,6,0,P|468:179|469:231,2,80.9999975280763,2|0|0,0:0|0:0|0:0,0:0:0:0:
124,293,215693,5,2,0:0:0:0:
67,362,216177,1,2,0:0:0:0:
156,373,216661,1,2,0:0:0:0:
43,352,216903,6,0,P|40:303|39:251,2,80.9999975280763,2|0|0,0:0|0:0|0:0,0:0:0:0:
256,192,220774,12,8,224161,0:0:0:0:
112,34,224645,6,0,L|280:25,1,155.999992858887,4|0,1:2|3:0,0:0:0:0:
267,25,225370,1,0,0:0:0:0:
103,130,225612,2,0,L|271:121,1,155.999992858887,0|0,0:0|3:0,0:0:0:0:
258,121,226337,1,0,0:0:0:0:
94,226,226580,2,0,L|262:217,1,155.999992858887,0|0,0:0|3:0,0:0:0:0:
249,217,227305,1,0,0:0:0:0:
85,322,227548,2,0,L|253:313,1,155.999992858887,0|0,0:0|3:0,0:0:0:0:
240,313,228273,1,0,0:0:0:0:
432,295,228516,6,0,L|441:127,1,155.999992858887,2|0,1:2|3:0,0:0:0:0:
440,139,229241,1,0,0:0:0:0:
336,304,229483,2,0,L|345:136,1,155.999992858887,0|0,0:0|3:0,0:0:0:0:
344,148,230208,1,0,0:0:0:0:
240,313,230451,2,0,L|249:145,1,155.999992858887,0|0,0:0|3:0,0:0:0:0:
248,157,231176,1,0,0:0:0:0:
144,322,231419,2,0,L|149:227,1,77.9999964294435
153,167,231782,1,8,0:0:0:0:
153,167,231903,1,0,3:0:0:0:
377,235,232145,1,8,0:0:0:0:
377,235,232266,1,8,0:0:0:0:
450,182,232387,6,0,P|465:113|440:19,1,144,2|0,1:2|0:0,0:0:0:0:
302,41,232870,2,0,P|288:112|304:182,1,144,0|0,3:0|0:0,0:0:0:0:
375,375,233354,6,0,P|390:306|365:212,1,144,2|0,1:2|0:0,0:0:0:0:
227,234,233838,2,0,P|213:304|228:374,1,144,0|0,3:0|0:0,0:0:0:0:
162,171,234322,6,0,P|93:186|-1:161,1,144,2|0,1:2|0:0,0:0:0:0:
21,23,234806,2,0,P|91:9|161:24,1,144,0|0,3:0|0:0,0:0:0:0:
350,171,235290,6,0,P|419:186|513:161,1,144,2|0,1:2|0:0,0:0:0:0:
491,23,235774,2,0,P|420:9|350:24,1,144,0|0,3:0|0:0,0:0:0:0:
172,42,236258,6,0,L|177:150,1,96,2|0,1:2|0:0,0:0:0:0:
340,342,236741,2,0,L|335:234,1,96,2|0,1:2|0:0,0:0:0:0:
106,276,237225,2,0,L|214:271,1,96,2|0,1:2|0:0,0:0:0:0:
406,108,237709,2,0,L|298:113,1,96,2|0,1:2|0:0,0:0:0:0:
225,288,238193,5,2,1:2:0:0:
257,303,238313,1,0,3:0:0:0:
292,312,238434,1,0,3:0:0:0:
328,314,238555,1,0,3:0:0:0:
363,311,238677,5,2,1:2:0:0:
364,299,238797,1,0,3:0:0:0:
364,287,238918,1,0,3:0:0:0:
364,275,239039,1,0,3:0:0:0:
364,275,239524,5,8,0:0:0:0:
448,230,239645,2,0,L|438:151,2,60,0|8|4,1:0|0:3|0:3,0:0:0:0:
106,305,240128,6,2,B|90:216|90:216|176:239|176:239|262:213,1,270.000010299683,6|0,1:2|0:0,0:1:0:0:
351,160,240612,2,0,B|366:202|366:202|359:246,1,90.0000034332277,8|0,1:2|0:0,0:0:0:0:
172,155,241096,6,2,B|159:64|159:64|342:71,1,270.000010299683,2|0,1:2|0:0,0:1:0:0:
418,44,241580,2,0,L|427:120,4,45.0000017166138,8|0|0|0|0,1:2|0:0|0:0|0:0|0:0,0:0:0:0:
475,235,242064,5,2,1:3:0:0:
172,155,242306,1,4,0:3:0:0:
220,343,242548,2,0,P|249:275|257:118,1,225,10|0,1:2|0:0,0:0:0:0:
258,125,243032,1,4,1:3:0:0:
68,254,243274,1,2,0:3:0:0:
20,27,243516,1,12,1:2:0:0:
105,156,243758,1,2,0:0:0:0:
11,0,243999,6,0,P|82:20|212:21,1,180.000006866455,2|0,1:1|0:0,0:0:0:0:
250,78,244362,1,0,0:0:0:0:
305,17,244483,2,0,L|428:26,1,90.0000034332277,8|0,1:2|0:0,0:0:0:0:
461,110,244725,2,0,L|371:103,1,90.0000034332277,2|0,0:3|0:0,0:0:0:0:
232,100,244967,6,0,B|210:187|210:187|247:292,1,180.000006866455,0|0,1:2|0:0,0:0:0:0:
225,355,245330,1,0,0:0:0:0:
330,365,245451,2,0,L|324:275,1,90.0000034332277,10|0,1:2|0:0,0:0:0:0:
418,361,245693,2,0,L|412:271,1,90.0000034332277
251,365,245935,6,0,L|61:351,1,180.000006866455,4|0,1:1|0:0,0:0:0:0:
0,384,246298,1,0,0:0:0:0:
40,283,246419,2,0,P|48:229|45:181,1,90.0000034332277,8|0,1:2|0:0,0:0:0:0:
160,195,246661,2,0,P|152:249|155:297,1,90.0000034332277
263,285,246903,6,0,B|269:215|269:215|253:183|253:183|260:104,1,180.000006866455,4|0,1:1|0:0,0:0:0:0:
308,45,247266,1,0,0:0:0:0:
172,6,247387,2,0,L|79:11,1,90.0000034332277,8|0,1:2|0:0,0:0:0:0:
172,96,247628,2,0,L|82:100,1,90.0000034332277
286,21,247870,6,2,P|302:79|480:153,1,270.000010299683,6|0,1:2|0:0,0:1:0:0:
492,240,248354,2,0,L|421:243,4,45.0000017166138,8|0|0|0|0,1:2|0:0|0:0|0:0|0:0,0:0:0:0:
361,333,248838,6,2,B|202:364|278:274|90:322,1,270.000010299683,2|0,1:2|0:0,0:1:0:0:
12,271,249322,2,0,P|27:228|29:184,1,90.0000034332277,8|0,1:2|0:0,0:0:0:0:
176,0,249806,5,2,1:2:0:0:
165,58,249926,1,0,0:0:0:0:
168,117,250047,1,0,0:0:0:0:
184,174,250168,1,0,0:0:0:0:
112,231,250290,2,0,L|123:329,1,90.0000034332277,8|0,1:2|0:0,0:0:0:0:
285,296,250532,2,0,L|274:206,1,90.0000034332277,2|0,0:3|0:0,0:0:0:0:
216,359,250774,5,2,1:1:0:0:
216,359,250895,2,0,P|262:336|417:336,1,180.000006866455
456,271,251258,6,0,L|467:70,1,180,8|0,1:2|0:0,0:0:0:0:
377,0,251741,6,0,B|344:82|344:82|367:179,1,180.000006866455,2|0,1:1|0:0,0:0:0:0:
321,244,252104,1,0,0:0:0:0:
245,197,252225,2,0,L|138:208,1,90.0000034332277,8|0,1:2|0:0,0:0:0:0:
79,289,252467,2,0,L|186:300,1,90.0000034332277,2|0,0:3|0:0,0:0:0:0:
359,384,252709,6,0,P|398:357|419:319,1,90.0000034332277,0|0,1:2|0:0,0:0:0:0:
343,168,252951,2,0,P|339:212|349:274,1,90.0000034332277
246,384,253193,2,0,P|252:330|201:181,1,180.000006866455,10|0,1:2|0:0,0:0:0:0:
143,177,253556,1,0,0:0:0:0:
58,179,253677,6,0,L|43:58,1,90.0000034332277,8|0,1:1|0:0,0:0:0:0:
201,30,253919,2,0,L|212:119,1,90.0000034332277
333,165,254161,2,0,L|436:162,1,90.0000034332277,8|0,1:2|0:0,0:0:0:0:
432,20,254403,2,0,L|342:22,1,90.0000034332277
209,275,254645,5,4,1:1:0:0:
252,285,254765,1,0,3:0:0:0:
297,289,254886,1,0,3:0:0:0:
342,287,255007,1,0,3:0:0:0:
400,356,255128,5,8,1:2:0:0:
400,356,255249,2,0,P|387:318|415:175,1,180.000006866455
362,101,255612,6,0,B|321:154|321:154|169:159|169:159|214:128,1,270.000010299683,6|0,1:2|0:0,0:0:0:0:
139,68,256096,2,0,L|42:57,1,90.0000034332277,8|0,1:2|0:0,0:0:0:0:
44,256,256580,6,0,P|119:248|295:331,1,270.000010299683,2|0,1:2|0:0,0:0:0:0:
340,263,257064,2,0,P|376:296|416:315,1,90.0000034332277,8|0,1:2|0:0,0:0:0:0:
392,188,257306,2,0,P|432:208|464:238,1,90.0000034332277
494,324,257548,5,4,1:2:0:0:
196,233,257790,1,0,0:0:0:0:
18,324,258032,5,10,1:2:0:0:
316,233,258274,1,0,0:0:0:0:
120,71,258516,5,2,1:3:0:0:
94,203,258758,1,2,0:3:0:0:
275,344,258999,5,12,1:2:0:0:
257,113,259241,1,10,0:1:0:0:
43,332,259483,6,0,P|110:344|211:287,1,180.000006866455,2|0,1:1|0:0,0:0:0:0:
293,294,259846,1,0,0:0:0:0:
251,218,259967,2,0,L|150:192,1,90.0000034332277,8|0,1:2|0:0,0:0:0:0:
119,86,260209,2,0,L|18:112,1,90.0000034332277,2|0,0:3|0:0,0:0:0:0:
257,113,260451,6,0,B|342:142|342:142|431:120,1,180.000006866455,0|0,1:0|0:0,0:0:0:0:
512,164,260814,1,0,0:0:0:0:
446,228,260935,2,0,L|439:331,1,90.0000034332277,10|0,1:2|0:0,0:0:0:0:
364,221,261177,2,0,L|357:324,1,90.0000034332277
249,356,261419,6,0,B|117:342|117:342|166:329,1,180.000006866455,4|0,1:1|0:0,0:0:0:0:
216,259,261782,1,0,0:0:0:0:
145,206,261903,2,0,L|159:104,1,90.0000034332277,8|0,1:2|0:0,0:0:0:0:
47,187,262145,2,0,L|59:276,1,90.0000034332277
234,72,262387,6,0,L|424:107,1,180.000006866455,4|0,1:1|0:0,0:0:0:0:
468,175,262749,1,0,0:0:0:0:
404,242,262870,2,0,L|416:332,1,90.0000034332277,8|0,1:2|0:0,0:0:0:0:
319,254,263112,2,0,L|331:344,1,90.0000034332277
351,170,263354,6,2,B|283:161|283:161|204:269|204:269|124:254,1,270.000010299683,6|0,1:2|0:0,0:1:0:0:
58,237,263838,2,0,L|76:147,1,90.0000034332277,8|0,1:2|0:0,0:0:0:0:
144,343,264080,2,0,L|56:326,1,90.0000034332277
165,184,264322,6,2,B|245:77|245:77|395:96,1,270.000010299683,2|0,1:2|0:0,0:1:0:0:
465,88,264806,2,0,L|481:0,1,90.0000034332277,8|0,1:2|0:0,0:0:0:0:
488,222,265290,5,2,1:2:0:0:
380,186,265532,1,0,0:0:0:0:
283,246,265774,1,8,1:2:0:0:
270,360,266016,1,0,0:0:0:0:
436,114,266258,5,4,1:3:0:0:
228,131,266499,1,2,0:3:0:0:
138,320,266741,1,12,1:2:0:0:
251,271,266983,1,0,0:0:0:0:
117,337,267225,6,0,P|75:236|92:157,1,180.000006866455,2|0,1:1|0:0,0:0:0:0:
49,87,267588,1,0,0:0:0:0:
127,40,267709,2,0,L|226:54,1,90.0000034332277,8|0,1:2|0:2,0:0:0:0:
380,13,267951,1,2,0:3:0:0:
380,13,268072,1,0,0:0:0:0:
309,70,268193,2,0,L|321:169,1,90.0000034332277,0|0,1:2|0:0,0:0:0:0:
467,143,268435,2,0,L|456:53,1,90.0000034332277
302,182,268677,2,0,P|235:203|29:165,1,270.000010299683,10|0,1:2|0:0,0:0:0:0:
42,75,269161,6,0,P|109:54|237:61,1,180.000006866455,10|0,1:1|0:0,0:0:0:0:
423,231,269645,1,8,1:2:0:0:
442,190,269765,1,0,0:0:0:0:
450,146,269886,1,0,0:0:0:0:
447,101,270007,1,0,0:0:0:0:
433,58,270128,5,6,1:1:0:0:
400,31,270248,1,8,0:3:0:0:
360,19,270369,1,8,0:3:0:0:
318,22,270490,1,8,0:3:0:0:
280,41,270611,1,8,1:2:0:0:
252,72,270732,1,4,0:3:0:0:
238,111,270853,1,4,0:3:0:0:
239,153,270974,1,4,0:3:0:0:
263,240,271096,5,2,1:3:0:0:
267,289,271216,1,0,0:0:0:0:
258,339,271337,1,2,0:0:0:0:
238,384,271458,1,0,0:0:0:0:
140,373,271580,2,0,L|52:358,1,75,12|0,1:2|0:0,0:0:0:0:
42,167,271822,1,2,0:3:0:0:
42,167,271943,1,0,0:0:0:0:
84,255,272064,2,0,L|157:267,1,75,2|0,1:2|0:0,0:0:0:0:
231,336,272306,1,4,0:0:0:0:
391,172,272548,1,8,1:2:0:0:
478,384,272790,1,0,0:0:0:0:
341,289,273032,5,2,1:3:0:0:
295,267,273152,1,0,0:0:0:0:
246,261,273273,1,2,0:0:0:0:
197,270,273394,1,0,0:0:0:0:
114,226,273516,2,0,L|128:147,1,75,12|0,1:2|0:0,0:0:0:0:
59,0,273758,1,2,0:3:0:0:
59,0,273878,1,0,0:0:0:0:
105,67,273999,2,0,L|178:80,1,75,2|0,1:2|0:0,0:0:0:0:
254,26,274241,1,4,0:0:0:0:
346,261,274483,1,8,1:2:0:0:
94,250,274725,1,0,0:0:0:0:
405,368,274967,5,4,1:3:0:0:
427,324,275087,1,0,0:0:0:0:
435,274,275208,1,2,0:0:0:0:
428,225,275329,1,0,0:0:0:0:
355,166,275451,2,0,L|342:81,1,75,12|0,1:2|0:0,0:0:0:0:
449,60,275693,2,0,L|460:134,1,75,4|0,0:3|0:0,0:0:0:0:
255,201,275935,2,0,L|167:212,1,75,2|0,1:2|0:0,0:0:0:0:
123,271,276176,1,4,0:0:0:0:
78,114,276419,1,8,1:2:0:0:
68,377,276661,1,0,0:0:0:0:
169,45,276903,5,4,1:3:0:0:
193,88,277023,1,0,0:0:0:0:
202,137,277144,1,2,0:0:0:0:
196,186,277265,1,0,0:0:0:0:
129,248,277387,2,0,L|45:228,1,75,12|0,1:2|0:0,0:0:0:0:
109,338,277628,2,0,L|25:318,1,75,4|0,0:3|0:0,0:0:0:0:
290,256,277871,2,0,L|284:181,1,75,2|0,1:2|0:0,0:0:0:0:
193,88,278113,2,0,L|119:93,1,75,4|0,0:0|3:0,0:0:0:0:
298,18,278355,2,0,L|390:11,1,75,8|0,1:2|0:0,0:0:0:0:
462,68,278597,1,0,3:0:0:0:
462,68,278718,1,0,3:0:0:0:
512,149,278838,5,2,1:3:0:0:
463,157,278958,1,0,0:0:0:0:
415,143,279079,1,2,0:0:0:0:
379,109,279200,1,0,0:0:0:0:
302,146,279322,2,0,L|311:229,1,75,12|0,1:2|0:0,0:0:0:0:
238,288,279564,1,2,0:3:0:0:
238,288,279685,1,0,0:0:0:0:
297,360,279806,2,0,L|376:352,1,75,2|0,1:2|0:0,0:0:0:0:
459,378,280048,1,4,0:0:0:0:
386,260,280290,1,8,1:2:0:0:
512,212,280532,1,0,0:0:0:0:
285,238,280774,5,2,1:3:0:0:
241,260,280894,1,0,0:0:0:0:
192,268,281015,1,2,0:0:0:0:
142,260,281136,1,0,0:0:0:0:
61,302,281257,2,0,L|58:211,1,75,12|0,1:2|0:0,0:0:0:0:
0,148,281499,1,2,0:3:0:0:
0,148,281620,1,0,0:0:0:0:
78,112,281741,2,0,L|152:108,1,75,2|0,1:2|0:0,0:0:0:0:
175,1,281983,1,4,0:0:0:0:
276,181,282225,1,8,1:2:0:0:
78,112,282467,1,0,0:0:0:0:
372,84,282709,5,4,1:3:0:0:
394,128,282829,1,0,0:0:0:0:
402,178,282950,1,2,0:0:0:0:
395,227,283071,1,0,0:0:0:0:
462,293,283193,2,0,L|449:378,1,75,12|0,1:2|0:0,0:0:0:0:
310,317,283435,2,0,L|321:242,1,75,4|0,0:3|0:0,0:0:0:0:
216,382,283677,2,0,L|141:372,1,75,2|0,1:2|0:0,0:0:0:0:
98,303,283918,1,4,0:0:0:0:
295,221,284161,1,8,1:2:0:0:
128,89,284403,1,0,0:0:0:0:
321,0,284645,5,4,1:3:0:0:
343,44,284765,1,0,0:0:0:0:
351,94,284886,1,2,0:0:0:0:
344,143,285007,1,0,0:0:0:0:
406,204,285128,2,0,L|491:191,1,75,12|0,1:2|0:0,0:0:0:0:
354,278,285370,2,0,L|248:270,1,75,4|0,0:3|0:0,0:0:0:0:
410,346,285612,2,0,L|498:357,1,75,2|0,1:2|0:0,0:0:0:0:
512,274,285854,1,4,0:0:0:0:
247,309,286097,1,8,1:2:0:0:
201,49,286339,1,0,0:0:0:0:
258,341,286580,5,8,1:3:0:0:
178,359,286700,1,0,0:0:0:0:
101,334,286821,1,2,0:0:0:0:
48,272,286942,1,0,0:0:0:0:
34,192,287064,2,0,L|43:110,1,75,12|0,1:2|0:0,0:0:0:0:
170,26,287306,5,8,0:3:0:0:
250,8,287426,1,0,0:0:0:0:
327,33,287547,1,2,1:2:0:0:
380,95,287668,1,0,0:0:0:0:
394,175,287790,2,0,L|385:257,1,75,4|0,0:0|0:0,0:0:0:0:
319,302,288032,1,8,1:2:0:0:
512,225,288274,1,0,0:0:0:0:
254,31,288516,5,8,1:3:0:0:
170,26,288636,1,0,0:0:0:0:
95,62,288757,1,2,0:0:0:0:
47,130,288878,1,0,0:0:0:0:
38,213,288999,2,0,L|46:299,1,75,12|0,1:2|0:0,0:0:0:0:
147,128,289241,5,8,0:3:0:0:
231,123,289361,1,0,0:0:0:0:
306,159,289482,1,2,1:2:0:0:
354,227,289603,1,0,0:0:0:0:
363,310,289725,2,0,L|355:396,1,75,4|0,0:0|0:0,0:0:0:0:
454,367,289967,1,8,1:2:0:0:
233,359,290209,1,0,0:0:0:0:
491,350,290451,5,4,1:3:0:0:
506,267,290571,1,0,0:0:0:0:
499,183,290692,1,2,0:0:0:0:
469,105,290813,1,0,0:0:0:0:
418,37,290935,2,0,P|366:24|332:21,1,75,12|0,1:2|0:0,0:0:0:0:
160,46,291177,5,4,0:3:0:0:
145,129,291297,1,0,0:0:0:0:
152,213,291418,1,2,1:2:0:0:
182,291,291539,1,0,0:0:0:0:
233,359,291661,2,0,P|285:372|319:375,1,75,4|0,0:0|0:0,0:0:0:0:
331,257,291903,2,0,P|294:246|257:241,2,75,8|0|0,1:2|0:0|0:0,0:0:0:0:
29,214,292387,5,4,1:3:0:0:
67,141,292507,1,0,0:0:0:0:
136,99,292628,2,0,P|198:118|297:123,2,150,2|12|4,0:0|1:2|0:3,0:0:0:0:
67,141,293233,1,0,0:0:0:0:
29,214,293354,2,0,L|37:299,1,75,2|0,1:2|0:0,0:0:0:0:
240,312,293596,2,0,L|232:237,1,75,4|0,0:0|3:0,0:0:0:0:
132,227,293838,2,0,L|140:312,1,75,8|0,1:2|0:0,0:0:0:0:
343,325,294080,2,0,L|335:250,1,75,0|0,3:0|3:0,0:0:0:0:
234,29,294322,5,8,1:3:0:0:
151,23,294442,1,0,0:0:0:0:
77,60,294563,1,2,0:0:0:0:
32,130,294684,1,0,0:0:0:0:
29,214,294806,2,0,L|37:299,1,75,12|0,1:2|0:0,0:0:0:0:
143,314,295048,5,8,0:3:0:0:
137,231,295168,1,0,0:0:0:0:
174,157,295289,1,2,1:2:0:0:
244,112,295410,1,0,0:0:0:0:
328,109,295532,2,0,L|413:117,1,75,4|0,0:0|0:0,0:0:0:0:
454,229,295774,2,0,L|379:221,2,75,8|0|0,1:2|0:0|0:0,0:0:0:0:
26,307,296258,5,8,1:3:0:0:
98,265,296378,1,0,0:0:0:0:
181,251,296499,1,2,0:0:0:0:
264,267,296620,1,0,0:0:0:0:
335,311,296741,2,0,P|381:325|411:333,1,75,12|0,1:2|0:0,0:0:0:0:
487,289,296983,2,0,P|497:253|507:216,1,75,8|0,0:3|0:0,0:0:0:0:
221,0,297225,6,0,L|235:80,1,75,2|0,1:2|0:0,0:0:0:0:
322,92,297467,1,4,0:0:0:0:
369,158,297587,1,0,0:0:0:0:
374,239,297708,1,8,1:2:0:0:
336,311,297829,1,0,0:0:0:0:
266,352,297950,1,0,0:0:0:0:
184,350,298071,1,0,0:0:0:0:
116,306,298193,5,4,1:3:0:0:
151,232,298313,1,0,0:0:0:0:
145,150,298434,1,2,0:0:0:0:
101,82,298555,1,0,0:0:0:0:
28,44,298677,2,0,L|19:128,1,75,12|0,1:2|0:0,0:0:0:0:
289,298,298919,5,4,0:3:0:0:
253,224,299039,1,0,0:0:0:0:
259,142,299160,1,2,1:2:0:0:
303,74,299281,1,0,0:0:0:0:
376,36,299403,2,0,L|385:119,1,75,4|0,0:0|0:0,0:0:0:0:
441,184,299645,2,0,L|521:173,2,75,8|0|0,1:2|0:0|0:0,0:0:0:0:
197,250,300128,5,2,1:2:0:0:
333,267,300612,1,2,1:2:0:0:
197,250,301096,1,2,1:2:0:0:
333,267,301580,1,8,1:2:0:0:
247,41,302063,5,6,1:2:0:0:
