osu file format v14

[General]
AudioFilename: audio.ogg
AudioLeadIn: 0
PreviewTime: 82022
Countdown: 0
SampleSet: Soft
StackLeniency: 0.7
Mode: 3
LetterboxInBreaks: 0
SpecialStyle: 0
WidescreenStoryboard: 1

[Editor]
Bookmarks: 8906,26766,44627,62487,82580,87045,95976,100441,104906,109371,127231,145092,162952,171882,180813,189743,198673,208162,243324,261185,279090
DistanceSpacing: 0.8
BeatDivisor: 4
GridSize: 32
TimelineZoom: 1.4

[Metadata]
Title:Lightmare
TitleUnicode:Lightmare
Artist:Creo
ArtistUnicode:Creo
Creator:AverageBoi
Version:Dim
Source:
Tags:creomusic Clemens Michael Höberth Hoberth Hoeberth electronic instrumental chiptune electrohouse experimental melodic saxophone beat jazz midtempo
BeatmapID:4027045
BeatmapSetID:1946467

[Difficulty]
HPDrainRate:8
CircleSize:4
OverallDifficulty:7.5
ApproachRate:5
SliderMultiplier:1.4
SliderTickRate:1

[Events]
//Background and Video events
0,0,"lightmare.jpg",0,0
//Break Periods
//Storyboard Layer 0 (Background)
//Storyboard Layer 1 (Fail)
//Storyboard Layer 2 (Pass)
//Storyboard Layer 3 (Foreground)
//Storyboard Layer 4 (Overlay)
//Storyboard Sound Samples
Sample,128348,0,"soft-hitnormal.wav",60
Sample,137278,0,"soft-hitnormal.wav",60
Sample,146208,0,"soft-hitnormal.wav",60
Sample,153464,0,"soft-hitnormal.wav",60
Sample,155138,0,"soft-hitnormal.wav",60
Sample,180255,0,"soft-hitnormal.wav",40
Sample,181371,0,"soft-hitnormal.wav",15
Sample,181929,0,"soft-hitnormal.wav",20
Sample,182487,0,"soft-hitnormal.wav",20
Sample,183603,0,"soft-hitnormal.wav",25
Sample,184162,0,"soft-hitnormal.wav",30
Sample,184720,0,"soft-hitnormal.wav",30
Sample,185836,0,"soft-hitnormal.wav",35
Sample,186394,0,"soft-hitnormal.wav",40
Sample,186952,0,"soft-hitnormal.wav",40
Sample,188069,0,"soft-hitnormal.wav",45
Sample,188627,0,"soft-hitnormal.wav",50
Sample,194906,0,"soft-hitnormal.wav",80
Sample,196022,0,"soft-hitnormal.wav",90

[TimingPoints]
-24,558.139534883721,4,2,1,35,1,0
26766,-100,4,2,1,15,0,0
62487,-100,4,2,1,18,0,0
71417,-100,4,2,1,15,0,0
82580,-100,4,2,1,35,0,0
87045,-100,4,2,1,35,0,1
108813,-100,4,2,1,35,0,0
127231,-100,4,2,1,20,0,0
162952,-100,4,2,1,15,0,0
198673,-100,4,2,1,35,0,1
206766,-100,4,2,1,35,0,0
261185,-100,4,2,1,20,0,0
279090,558.139534883721,4,2,1,5,1,8
281322,-100,4,2,1,12,0,0
283555,-100,4,2,1,5,0,0
286903,-100,4,2,1,12,0,0
288020,-100,4,2,1,5,0,0
290252,-100,4,2,1,12,0,0
292485,-100,4,2,1,5,0,0
292659,558.139534883721,4,2,1,12,1,0
292756,558.139534883721,4,2,1,12,1,0
292915,558.139534883721,4,2,1,12,1,0
293120,558.139534883721,4,2,1,12,1,0
293363,558.139534883721,4,2,1,12,1,0
293638,558.139534883721,4,2,1,12,1,0
294010,558.139534883721,4,2,1,12,1,0
294264,558.139534883721,4,2,1,12,1,0
294704,558.139534883721,4,2,1,12,1,0

[HitObjects]
192,192,8906,128,0,9045:0:0:0:70:kick-soft+hihat-open.ogg
448,192,8906,1,0,0:0:0:0:
64,192,9045,1,0,0:0:0:0:
320,192,9185,128,0,9324:0:0:0:0:
192,192,9324,128,0,9464:0:0:0:0:
64,192,9464,1,0,0:0:0:70:kick-soft+hihat-open.ogg
320,192,9464,1,0,0:0:0:0:
448,192,9603,128,0,9743:0:0:0:0:
192,192,9743,128,0,9882:0:0:0:0:
320,192,9882,1,0,0:0:0:0:
64,192,10022,1,0,0:0:0:70:kick-soft+hihat-open.ogg
192,192,10022,1,0,0:0:0:0:
448,192,10162,128,0,10301:0:0:0:0:
320,192,10301,1,0,0:0:0:0:
64,192,10441,128,0,10580:0:0:0:0:
192,192,10580,1,0,0:0:0:70:kick-soft+hihat-open.ogg
448,192,10580,128,0,10720:0:0:0:0:
320,192,10720,1,0,0:0:0:0:
192,192,10859,128,0,10929:0:0:0:0:
192,192,10999,128,0,11069:0:0:0:0:
64,192,11138,1,0,0:0:0:70:kick-soft+hihat-open.ogg
320,192,11138,128,0,11278:0:0:0:0:
448,192,11278,1,0,0:0:0:0:
192,192,11417,128,0,11557:0:0:0:0:
320,192,11557,128,0,11696:0:0:0:0:
192,192,11696,1,0,0:0:0:70:kick-soft+hihat-open.ogg
448,192,11696,1,0,0:0:0:0:
64,192,11836,128,0,11976:0:0:0:0:
320,192,11976,128,0,12115:0:0:0:0:
192,192,12115,1,0,0:0:0:0:
320,192,12255,1,0,0:0:0:70:kick-soft+hihat-open.ogg
448,192,12255,1,0,0:0:0:0:
64,192,12394,128,0,12534:0:0:0:0:
192,192,12534,1,0,0:0:0:0:
448,192,12673,128,0,12813:0:0:0:0:
64,192,12813,128,0,12952:0:0:0:70:kick-soft+hihat-open.ogg
320,192,12813,1,0,0:0:0:0:
192,192,12952,1,0,0:0:0:0:
320,192,13092,128,0,13162:0:0:0:0:
320,192,13231,128,0,13301:0:0:0:0:
64,192,13371,128,0,13510:0:0:0:70:kick-soft+hihat-open.ogg
448,192,13371,1,0,0:0:0:0:
192,192,13510,1,0,0:0:0:0:
320,192,13650,128,0,13789:0:0:0:0:
64,192,13789,128,0,13929:0:0:0:0:
192,192,13929,1,0,0:0:0:70:kick-soft+hihat-open.ogg
320,192,13929,1,0,0:0:0:0:
448,192,14069,128,0,14208:0:0:0:0:
64,192,14208,128,0,14348:0:0:0:0:
192,192,14348,1,0,0:0:0:0:
64,192,14487,1,0,0:0:0:70:kick-soft+hihat-open.ogg
448,192,14487,1,0,0:0:0:0:
320,192,14627,128,0,14766:0:0:0:0:
192,192,14766,1,0,0:0:0:0:
64,192,14906,128,0,15045:0:0:0:0:
192,192,15045,1,0,0:0:0:70:kick-soft+hihat-open.ogg
320,192,15045,128,0,15185:0:0:0:0:
448,192,15185,1,0,0:0:0:0:
192,192,15324,128,0,15394:0:0:0:0:
192,192,15464,128,0,15534:0:0:0:0:
64,192,15603,1,0,0:0:0:70:kick-soft+hihat-open.ogg
448,192,15603,128,0,15743:0:0:0:0:
320,192,15743,1,0,0:0:0:0:
192,192,15882,128,0,16022:0:0:0:0:
448,192,16022,128,0,16162:0:0:0:0:
192,192,16162,1,0,0:0:0:70:kick-soft+hihat-open.ogg
320,192,16162,1,0,0:0:0:0:
64,192,16301,128,0,16441:0:0:0:0:
448,192,16441,128,0,16580:0:0:0:0:
320,192,16580,1,0,0:0:0:0:
64,192,16720,1,0,0:0:0:70:kick-soft+hihat-open.ogg
448,192,16720,1,0,0:0:0:0:
192,192,16859,128,0,16999:0:0:0:0:
320,192,16999,1,0,0:0:0:0:
448,192,17138,128,0,17278:0:0:0:0:
192,192,17278,128,0,17417:0:0:0:70:kick-soft+hihat-open.ogg
320,192,17278,1,0,0:0:0:40:reverse.ogg
64,192,17417,1,0,0:0:0:0:
320,192,17557,128,0,17627:0:0:0:0:
320,192,17696,128,0,17766:0:0:0:0:
192,192,17836,128,0,17976:0:0:0:70:kick-soft+hihat-open.ogg
448,192,17836,1,0,0:0:0:0:
64,192,17976,1,0,0:0:0:0:
448,192,18115,128,0,18255:0:0:0:0:
192,192,18255,128,0,18394:0:0:0:0:
64,192,18394,1,0,0:0:0:70:kick-soft+hihat-open.ogg
448,192,18394,1,0,0:0:0:0:
320,192,18534,128,0,18673:0:0:0:0:
192,192,18673,128,0,18813:0:0:0:0:
64,192,18813,1,0,0:0:0:0:
192,192,18952,1,0,0:0:0:70:kick-soft+hihat-open.ogg
320,192,18952,1,0,0:0:0:0:
448,192,19092,128,0,19231:0:0:0:0:
320,192,19231,1,0,0:0:0:0:
64,192,19371,128,0,19510:0:0:0:0:
192,192,19510,1,0,0:0:0:70:kick-soft+hihat-open.ogg
448,192,19510,128,0,19650:0:0:0:0:
320,192,19650,1,0,0:0:0:0:
192,192,19789,128,0,19859:0:0:0:0:
192,192,19929,128,0,19999:0:0:0:0:
64,192,20069,1,0,0:0:0:70:kick-soft+hihat-open.ogg
320,192,20069,128,0,20208:0:0:0:0:
448,192,20208,1,0,0:0:0:0:
64,192,20348,128,0,20487:0:0:0:0:
320,192,20487,128,0,20627:0:0:0:0:
64,192,20627,1,0,0:0:0:70:kick-soft+hihat-open.ogg
448,192,20627,1,0,0:0:0:0:
192,192,20766,128,0,20906:0:0:0:0:
320,192,20906,128,0,21045:0:0:0:0:
448,192,21045,1,0,0:0:0:0:
192,192,21185,1,0,0:0:0:70:kick-soft+hihat-open.ogg
320,192,21185,1,0,0:0:0:0:
64,192,21324,128,0,21464:0:0:0:0:
192,192,21464,1,0,0:0:0:0:
448,192,21603,128,0,21743:0:0:0:0:
64,192,21743,128,0,21882:0:0:0:70:kick-soft+hihat-open.ogg
320,192,21743,1,0,0:0:0:0:
192,192,21882,1,0,0:0:0:0:
320,192,22022,128,0,22092:0:0:0:0:
320,192,22162,128,0,22231:0:0:0:0:
64,192,22301,128,0,22441:0:0:0:70:kick-soft+hihat-open.ogg
448,192,22301,1,0,0:0:0:0:
192,192,22441,1,0,0:0:0:0:
448,192,22580,128,0,22720:0:0:0:0:
64,192,22720,128,0,22859:0:0:0:0:
192,192,22859,1,0,0:0:0:70:kick-soft+hihat-open.ogg
448,192,22859,1,0,0:0:0:0:
320,192,22999,128,0,23138:0:0:0:0:
64,192,23138,128,0,23278:0:0:0:0:
192,192,23278,1,0,0:0:0:0:
64,192,23417,1,0,0:0:0:70:kick-soft+hihat-open.ogg
448,192,23417,1,0,0:0:0:0:
320,192,23557,128,0,23696:0:0:0:0:
448,192,23696,1,0,0:0:0:0:
64,192,23836,128,0,23976:0:0:0:0:
192,192,23976,1,0,0:0:0:70:kick-soft+hihat-open.ogg
320,192,23976,128,0,24115:0:0:0:0:
448,192,24115,1,0,0:0:0:0:
192,192,24255,128,0,24324:0:0:0:0:
192,192,24394,128,0,24464:0:0:0:0:
64,192,24534,1,0,0:0:0:70:kick-soft+hihat-open.ogg
448,192,24534,128,0,24673:0:0:0:0:
320,192,24673,1,0,0:0:0:0:
64,192,24813,128,0,24952:0:0:0:0:
448,192,24952,128,0,25092:0:0:0:0:
64,192,25092,1,0,0:0:0:70:kick-soft+hihat-open.ogg
320,192,25092,1,0,0:0:0:0:
192,192,25231,128,0,25371:0:0:0:0:
448,192,25371,128,0,25510:0:0:0:0:
320,192,25510,1,0,0:0:0:0:
64,192,25650,1,0,0:0:0:70:kick-soft+hihat-open.ogg
448,192,25650,1,0,0:0:0:0:
192,192,25789,128,0,25929:0:0:0:0:
64,192,25929,1,0,0:0:0:0:
448,192,26069,128,0,26208:0:0:0:0:
192,192,26208,128,0,26348:0:0:0:70:kick-soft+hihat-open.ogg
320,192,26208,1,0,0:0:0:0:
64,192,26348,1,0,0:0:0:0:
320,192,26487,128,0,26557:0:0:0:0:
320,192,26627,128,0,26696:0:0:0:0:
64,192,26766,1,0,0:0:0:90:BassDrum.ogg
192,192,26766,1,0,0:0:0:90:basskick-effect.ogg
448,192,26766,1,0,0:0:0:90:BassKickH.ogg
320,192,27324,128,0,27603:0:0:0:0:
448,192,27464,128,0,27603:0:0:0:0:
192,192,27882,128,0,28301:0:0:0:0:
320,192,28162,128,0,28301:0:0:0:0:
192,192,28441,128,0,28859:0:0:0:0:
64,192,28720,128,0,28859:0:0:0:0:
320,192,28859,128,0,29836:0:0:0:0:
192,192,29417,128,0,29836:0:0:0:0:
64,192,29836,128,0,30115:0:0:0:0:
448,192,30115,128,0,30952:0:0:0:0:
320,192,31092,1,0,0:0:0:0:
192,192,31162,1,0,0:0:0:0:
320,192,31231,1,0,0:0:0:90:cymbal_crash-light.ogg
320,192,31789,128,0,32069:0:0:0:0:
448,192,31929,128,0,32069:0:0:0:0:
192,192,32348,128,0,32766:0:0:0:0:
64,192,32627,128,0,32766:0:0:0:0:
320,192,32906,128,0,33185:0:0:0:0:
448,192,32976,128,0,33185:0:0:0:0:
64,192,33185,128,0,34301:0:0:0:0:
320,192,33464,128,0,34301:0:0:0:0:
192,192,34301,128,0,35138:0:0:0:0:
320,192,34580,128,0,35417:0:0:0:0:
448,192,34859,128,0,35696:0:0:0:0:
64,192,35696,1,0,0:0:0:90:BassDrum.ogg
192,192,35696,1,0,0:0:0:80:hihat-closed.ogg
320,192,35696,1,0,0:0:0:90:basskick-effect.ogg
64,192,36255,128,0,36673:0:0:0:80:hihat-closed.ogg
192,192,36534,128,0,36673:0:0:0:0:
192,192,36813,128,0,37231:0:0:0:80:hihat-closed.ogg
320,192,37092,128,0,37231:0:0:0:0:
448,192,37371,128,0,37789:0:0:0:80:hihat-closed.ogg
64,192,37650,128,0,37789:0:0:0:0:
320,192,37789,128,0,38766:0:0:0:0:
192,192,37929,1,0,0:0:0:80:hihat-closed.ogg
192,192,38348,128,0,38766:0:0:0:0:
448,192,38487,1,0,0:0:0:80:hihat-closed.ogg
64,192,38766,128,0,39045:0:0:0:0:
448,192,39045,128,0,39882:0:0:0:80:hihat-closed.ogg
320,192,39603,1,0,0:0:0:80:hihat-closed.ogg
192,192,40022,1,0,0:0:0:0:
320,192,40092,1,0,0:0:0:0:
192,192,40162,1,0,0:0:0:90:cymbal_crash-light.ogg
64,192,40720,128,0,41138:0:0:0:80:hihat-closed.ogg
192,192,40999,128,0,41138:0:0:0:0:
192,192,41278,128,0,41696:0:0:0:80:hihat-closed.ogg
320,192,41557,128,0,41696:0:0:0:0:
320,192,41836,128,0,42115:0:0:0:80:hihat-closed.ogg
448,192,41906,128,0,42115:0:0:0:0:
64,192,42115,128,0,43231:0:0:0:0:
320,192,42394,128,0,43231:0:0:0:80:hihat-closed.ogg
448,192,42952,1,0,0:0:0:80:hihat-closed.ogg
192,192,43231,128,0,44069:0:0:0:0:
320,192,43510,128,0,44348:0:0:0:80:hihat-closed.ogg
448,192,43789,128,0,44627:0:0:0:0:
64,192,44069,1,0,0:0:0:80:hihat-closed.ogg
64,192,44627,1,0,0:0:0:90:BassDrum.ogg
192,192,44627,1,0,0:0:0:80:hihat-closed.ogg
320,192,44627,1,0,0:0:0:90:basskick-effect.ogg
320,192,45185,128,0,45464:0:0:0:0:
448,192,45324,128,0,45464:0:0:0:0:
192,192,45743,128,0,53278:0:0:0:0:
448,192,46301,128,0,46441:0:0:0:0:
320,192,47417,128,0,47557:0:0:0:0:
448,192,48534,128,0,48673:0:0:0:0:
64,192,49092,128,0,49371:0:0:0:0:
64,192,49510,128,0,49789:0:0:0:0:
320,192,49650,128,0,49789:0:0:0:0:
448,192,50766,128,0,50906:0:0:0:0:
64,192,51603,128,0,51882:0:0:0:0:
320,192,51882,128,0,52022:0:0:0:0:
64,192,52022,128,0,52301:0:0:0:0:
64,192,52441,128,0,52720:0:0:0:0:
448,192,52999,128,0,53138:0:0:0:0:
64,192,53557,128,0,53836:0:0:0:80:BassDrum.ogg
320,192,53557,1,0,0:0:0:80:basskick-effect.ogg
448,192,53557,1,0,0:0:0:0:
64,192,53976,128,0,54255:0:0:0:0:
320,192,54115,128,0,54394:0:0:0:0:
448,192,54255,128,0,54394:0:0:0:0:
192,192,54673,128,0,62208:0:0:0:0:
448,192,55231,128,0,55371:0:0:0:0:
64,192,56069,128,0,56348:0:0:0:0:
320,192,56348,128,0,56487:0:0:0:0:
64,192,56487,128,0,56766:0:0:0:0:
64,192,56906,128,0,57185:0:0:0:0:
448,192,57464,128,0,57603:0:0:0:0:
64,192,58022,128,0,58301:0:0:0:0:
64,192,58441,128,0,58720:0:0:0:0:
320,192,58580,128,0,58720:0:0:0:0:
448,192,59138,128,0,59278:0:0:0:0:
320,192,59696,128,0,59836:0:0:0:0:
448,192,60255,128,0,60394:0:0:0:0:
64,192,60534,128,0,60813:0:0:0:0:
320,192,60813,128,0,60952:0:0:0:0:
64,192,60952,128,0,61231:0:0:0:0:
64,192,61371,128,0,61650:0:0:0:0:
448,192,61371,128,0,62487:0:0:0:0:
320,192,61929,128,0,62487:0:0:0:0:
64,192,62487,128,0,62906:0:0:0:45:kick-soft.ogg
192,192,62487,128,0,62627:0:0:0:80:BassDrum.ogg
448,192,62627,128,0,62766:0:0:0:0:
192,192,62766,128,0,63045:0:0:0:0:
320,192,62766,128,0,62906:0:0:0:0:
320,192,63045,1,0,0:0:0:45:kick-soft.ogg
448,192,63045,1,0,0:0:0:0:
192,192,63185,128,0,63464:0:0:0:0:
320,192,63603,1,0,0:0:0:45:kick-soft.ogg
448,192,63603,1,0,0:0:0:0:
192,192,63882,128,0,64162:0:0:0:0:
320,192,64162,1,0,0:0:0:45:kick-soft.ogg
448,192,64162,1,0,0:0:0:0:
192,192,64301,128,0,64580:0:0:0:0:
64,192,64441,128,0,64720:0:0:0:0:
320,192,64720,1,0,0:0:0:45:kick-soft.ogg
448,192,64720,1,0,0:0:0:0:
192,192,64999,128,0,65278:0:0:0:0:
320,192,65278,1,0,0:0:0:45:kick-soft.ogg
448,192,65278,1,0,0:0:0:0:
192,192,65417,128,0,65696:0:0:0:0:
320,192,65836,1,0,0:0:0:45:kick-soft.ogg
448,192,65836,1,0,0:0:0:0:
192,192,66115,128,0,66394:0:0:0:0:
64,192,66255,128,0,66394:0:0:0:0:
320,192,66394,1,0,0:0:0:45:kick-soft.ogg
448,192,66394,1,0,0:0:0:0:
64,192,66534,128,0,66673:0:0:0:0:
192,192,66534,128,0,66813:0:0:0:0:
320,192,66673,128,0,66813:0:0:0:0:
64,192,66952,128,0,67371:0:0:0:45:kick-soft.ogg
448,192,66952,128,0,67092:0:0:0:0:
320,192,67092,128,0,67231:0:0:0:0:
192,192,67231,128,0,67510:0:0:0:0:
448,192,67231,128,0,67371:0:0:0:0:
320,192,67510,1,0,0:0:0:45:kick-soft.ogg
448,192,67510,1,0,0:0:0:0:
192,192,67650,128,0,67929:0:0:0:0:
320,192,68069,1,0,0:0:0:45:kick-soft.ogg
448,192,68069,1,0,0:0:0:0:
192,192,68348,128,0,68627:0:0:0:0:
320,192,68627,1,0,0:0:0:45:kick-soft.ogg
448,192,68627,1,0,0:0:0:0:
192,192,68766,128,0,69045:0:0:0:0:
64,192,68906,128,0,69185:0:0:0:0:
320,192,69185,1,0,0:0:0:45:kick-soft.ogg
448,192,69185,1,0,0:0:0:0:
192,192,69464,128,0,69743:0:0:0:0:
320,192,69743,1,0,0:0:0:45:kick-soft.ogg
448,192,69743,1,0,0:0:0:0:
192,192,69882,128,0,70162:0:0:0:0:
320,192,70301,1,0,0:0:0:45:kick-soft.ogg
448,192,70301,1,0,0:0:0:0:
192,192,70580,128,0,70859:0:0:0:0:
320,192,70859,1,0,0:0:0:45:kick-soft.ogg
448,192,70859,1,0,0:0:0:0:
192,192,70999,128,0,71278:0:0:0:0:
320,192,71417,128,0,71557:0:0:0:45:kick-soft.ogg
448,192,71417,128,0,71836:0:0:0:0:
192,192,71557,128,0,71696:0:0:0:0:
64,192,71696,128,0,71836:0:0:0:0:
320,192,71696,128,0,71976:0:0:0:0:
64,192,71976,1,0,0:0:0:45:kick-soft.ogg
192,192,71976,1,0,0:0:0:0:
320,192,72115,128,0,72394:0:0:0:0:
64,192,72534,1,0,0:0:0:45:kick-soft.ogg
192,192,72534,1,0,0:0:0:0:
320,192,72813,128,0,73092:0:0:0:0:
64,192,73092,1,0,0:0:0:45:kick-soft.ogg
192,192,73092,1,0,0:0:0:0:
320,192,73231,128,0,73510:0:0:0:0:
448,192,73371,128,0,73650:0:0:0:0:
64,192,73650,1,0,0:0:0:45:kick-soft.ogg
192,192,73650,1,0,0:0:0:0:
320,192,73929,128,0,74208:0:0:0:0:
64,192,74208,1,0,0:0:0:45:kick-soft.ogg
192,192,74208,1,0,0:0:0:0:
320,192,74348,128,0,74627:0:0:0:0:
64,192,74766,1,0,0:0:0:45:kick-soft.ogg
192,192,74766,1,0,0:0:0:0:
320,192,75045,128,0,75324:0:0:0:0:
64,192,75324,1,0,0:0:0:45:kick-soft.ogg
192,192,75324,1,0,0:0:0:0:
320,192,75464,128,0,75743:0:0:0:0:
448,192,75603,128,0,75743:0:0:0:0:
64,192,75882,128,0,76022:0:0:0:45:kick-soft.ogg
448,192,75882,128,0,76301:0:0:0:0:
192,192,76022,128,0,76162:0:0:0:0:
320,192,76162,128,0,76441:0:0:0:0:
64,192,76441,1,0,0:0:0:45:kick-soft.ogg
448,192,76441,1,0,0:0:0:0:
320,192,76580,128,0,76859:0:0:0:0:
64,192,76999,1,0,0:0:0:45:kick-soft.ogg
448,192,76999,1,0,0:0:0:0:
320,192,77278,128,0,77557:0:0:0:0:
64,192,77557,1,0,0:0:0:40:kick-soft.ogg
448,192,77557,1,0,0:0:0:0:
320,192,77696,128,0,77976:0:0:0:0:
448,192,77836,128,0,78115:0:0:0:0:
64,192,78115,128,0,78534:0:0:0:35:kick-soft.ogg
192,192,78115,128,0,78255:0:0:0:0:
320,192,78255,128,0,78394:0:0:0:0:
192,192,78394,128,0,78534:0:0:0:0:
448,192,78394,128,0,78673:0:0:0:0:
64,192,78673,1,0,0:0:0:30:kick-soft.ogg
448,192,78813,128,0,79092:0:0:0:0:
64,192,79231,1,0,0:0:0:25:kick-soft.ogg
448,192,79510,128,0,79789:0:0:0:0:
64,192,79789,1,0,0:0:0:20:kick-soft.ogg
448,192,79929,128,0,80208:0:0:0:0:
448,192,80348,128,0,80580:0:0:0:0:
448,192,80766,128,0,80999:0:0:0:0:
448,192,81185,128,0,81324:0:0:0:0:
448,192,81603,128,0,81696:0:0:0:0:
448,192,82022,1,0,0:0:0:40:reverse.ogg
64,192,82580,1,0,0:0:0:80:kick.ogg
448,192,82580,128,0,82720:0:0:0:0:
192,192,82720,128,0,82859:0:0:0:0:
64,192,82859,128,0,82999:0:0:0:0:
320,192,82859,128,0,83138:0:0:0:0:
64,192,83138,1,0,0:0:0:80:snare.ogg
448,192,83138,1,0,0:0:0:0:
192,192,83278,128,0,83417:0:0:0:0:
320,192,83278,128,0,83557:0:0:0:0:
448,192,83696,128,0,83836:0:0:0:0:
64,192,83976,128,0,84115:0:0:0:0:
320,192,83976,128,0,84255:0:0:0:0:
192,192,84115,128,0,84255:0:0:0:0:
64,192,84255,1,0,0:0:0:80:snare.ogg
448,192,84255,1,0,0:0:0:0:
320,192,84394,128,0,84673:0:0:0:0:
448,192,84394,128,0,84534:0:0:0:0:
64,192,84813,1,0,0:0:0:80:kick.ogg
448,192,84813,128,0,85231:0:0:0:0:
192,192,85092,128,0,85371:0:0:0:0:
320,192,85092,128,0,85231:0:0:0:0:
64,192,85231,128,0,85371:0:0:0:0:
320,192,85371,128,0,85510:0:0:0:80:snare.ogg
448,192,85371,1,0,0:0:0:0:
192,192,85510,128,0,85789:0:0:0:0:
448,192,85650,128,0,85789:0:0:0:0:
64,192,85929,128,0,86115:0:0:0:80:kick.ogg
192,192,85929,128,0,86208:0:0:0:0:
448,192,85929,128,0,86069:0:0:0:0:
320,192,86348,128,0,86487:0:0:0:0:
64,192,86487,128,0,86906:0:0:0:80:snare.ogg
192,192,86487,128,0,86627:0:0:0:100:snare-effect.ogg
448,192,86487,128,0,86906:0:0:0:80:reverse.ogg
192,192,86766,128,0,86906:0:0:0:0:
64,192,87045,128,0,87185:0:0:0:80:kick.ogg
320,192,87045,128,0,87324:0:0:0:100:hihat-open.ogg
448,192,87045,128,0,87185:0:0:0:70:cymbal12.ogg
192,192,87185,128,0,87464:0:0:0:0:
64,192,87324,128,0,87464:0:0:0:0:
448,192,87324,128,0,87603:0:0:0:0:
192,192,87603,1,0,0:0:0:80:snare.ogg
320,192,87603,1,0,0:0:0:100:hihat-open.ogg
64,192,87743,128,0,87882:0:0:0:0:
192,192,87743,128,0,87882:0:0:0:0:
448,192,87743,128,0,88022:0:0:0:0:
64,192,88022,1,0,0:0:0:0:
192,192,88162,128,0,88301:0:0:0:80:kick.ogg
320,192,88162,128,0,88301:0:0:0:100:hihat-open.ogg
64,192,88441,128,0,88580:0:0:0:0:
448,192,88441,128,0,88720:0:0:0:0:
320,192,88580,128,0,88720:0:0:0:0:
64,192,88720,1,0,0:0:0:80:snare.ogg
192,192,88720,1,0,0:0:0:100:hihat-open.ogg
64,192,88859,128,0,88999:0:0:0:0:
320,192,88859,128,0,88999:0:0:0:0:
448,192,88859,128,0,89138:0:0:0:0:
192,192,89278,128,0,89696:0:0:0:80:kick.ogg
320,192,89278,128,0,89557:0:0:0:100:hihat-open.ogg
64,192,89348,128,0,89696:0:0:0:0:
448,192,89557,128,0,89836:0:0:0:0:
320,192,89696,128,0,89976:0:0:0:0:
64,192,89836,1,0,0:0:0:80:snare.ogg
192,192,89836,128,0,90115:0:0:0:100:hihat-open.ogg
64,192,89976,128,0,90255:0:0:0:0:
448,192,89976,128,0,90255:0:0:0:0:
320,192,90115,128,0,90255:0:0:0:0:
192,192,90394,128,0,90534:0:0:0:80:kick.ogg
320,192,90394,128,0,90534:0:0:0:100:hihat-open.ogg
64,192,90673,128,0,90813:0:0:0:0:
448,192,90673,128,0,90952:0:0:0:0:
320,192,90813,128,0,90952:0:0:0:0:
64,192,90952,1,0,0:0:0:80:snare.ogg
192,192,90952,1,0,0:0:0:100:hihat-open.ogg
192,192,91092,128,0,91231:0:0:0:0:
448,192,91092,128,0,91371:0:0:0:0:
64,192,91231,128,0,91371:0:0:0:0:
64,192,91510,128,0,91650:0:0:0:80:kick.ogg
320,192,91510,128,0,91789:0:0:0:100:hihat-open.ogg
448,192,91510,128,0,91650:0:0:0:0:
192,192,91650,128,0,91929:0:0:0:0:
64,192,91789,128,0,92069:0:0:0:0:
448,192,91789,128,0,91929:0:0:0:0:
192,192,92069,1,0,0:0:0:80:snare.ogg
320,192,92069,1,0,0:0:0:100:hihat-open.ogg
64,192,92208,128,0,92487:0:0:0:0:
320,192,92208,128,0,92348:0:0:0:0:
448,192,92208,128,0,92348:0:0:0:0:
448,192,92487,1,0,0:0:0:0:
192,192,92627,128,0,92766:0:0:0:80:kick.ogg
320,192,92627,128,0,92766:0:0:0:100:hihat-open.ogg
64,192,92906,128,0,93185:0:0:0:0:
192,192,92906,128,0,93045:0:0:0:0:
448,192,93045,128,0,93185:0:0:0:0:
192,192,93185,1,0,0:0:0:80:snare.ogg
320,192,93185,1,0,0:0:0:100:hihat-open.ogg
64,192,93324,128,0,93603:0:0:0:0:
192,192,93324,128,0,93464:0:0:0:0:
448,192,93324,128,0,93464:0:0:0:0:
192,192,93743,128,0,94022:0:0:0:80:kick.ogg
320,192,93743,128,0,94162:0:0:0:100:hihat-open.ogg
448,192,93813,128,0,94162:0:0:0:0:
64,192,93882,1,0,0:0:0:80:kick.ogg
64,192,94022,128,0,94301:0:0:0:80:kick.ogg
192,192,94162,128,0,94441:0:0:0:0:
320,192,94301,128,0,94580:0:0:0:80:snare.ogg
448,192,94301,1,0,0:0:0:100:hihat-open.ogg
64,192,94441,128,0,94720:0:0:0:0:
448,192,94441,128,0,94720:0:0:0:0:
192,192,94580,128,0,94720:0:0:0:0:
320,192,94859,128,0,94999:0:0:0:80:kick.ogg
448,192,94859,128,0,94999:0:0:0:100:hihat-open.ogg
64,192,94999,1,0,0:0:0:80:snare.ogg
192,192,94999,1,0,0:0:0:0:
64,192,95138,128,0,95417:0:0:0:0:
448,192,95138,128,0,95278:0:0:0:0:
320,192,95278,128,0,95417:0:0:0:0:
192,192,95417,1,0,0:0:0:80:snare.ogg
448,192,95417,1,0,0:0:0:100:hihat-open.ogg
64,192,95557,128,0,95836:0:0:0:0:
192,192,95696,1,0,0:0:0:80:snare.ogg
448,192,95696,128,0,95836:0:0:0:0:
192,192,95836,1,0,0:0:0:80:snare.ogg
320,192,95836,1,0,0:0:0:0:
64,192,95976,128,0,96115:0:0:0:80:kick.ogg
320,192,95976,128,0,96255:0:0:0:100:hihat-open.ogg
448,192,95976,128,0,96115:0:0:0:0:
192,192,96115,128,0,96394:0:0:0:0:
64,192,96255,128,0,96534:0:0:0:0:
448,192,96255,128,0,96394:0:0:0:0:
320,192,96534,128,0,96813:0:0:0:80:snare.ogg
448,192,96534,128,0,96673:0:0:0:100:hihat-open.ogg
64,192,96673,128,0,96952:0:0:0:0:
192,192,96673,128,0,96952:0:0:0:0:
64,192,97092,128,0,97231:0:0:0:80:kick.ogg
192,192,97092,128,0,97371:0:0:0:100:hihat-open.ogg
448,192,97092,128,0,97231:0:0:0:0:
320,192,97231,128,0,97510:0:0:0:0:
64,192,97371,128,0,97510:0:0:0:0:
448,192,97371,128,0,97650:0:0:0:0:
64,192,97650,128,0,97789:0:0:0:80:snare.ogg
192,192,97650,128,0,97929:0:0:0:100:hihat-open.ogg
320,192,97789,128,0,98069:0:0:0:0:
448,192,97789,128,0,98069:0:0:0:0:
64,192,98208,128,0,98487:0:0:0:80:kick.ogg
448,192,98208,128,0,98348:0:0:0:100:hihat-open.ogg
192,192,98278,128,0,98487:0:0:0:0:
320,192,98487,128,0,98627:0:0:0:0:
448,192,98487,128,0,98766:0:0:0:0:
64,192,98627,128,0,98906:0:0:0:0:
192,192,98766,128,0,99045:0:0:0:80:snare.ogg
320,192,98766,1,0,0:0:0:100:hihat-open.ogg
448,192,98906,128,0,99185:0:0:0:0:
64,192,99045,128,0,99185:0:0:0:0:
320,192,99045,128,0,99185:0:0:0:0:
64,192,99324,128,0,99603:0:0:0:80:kick.ogg
448,192,99324,128,0,99464:0:0:0:100:hihat-open.ogg
192,192,99464,128,0,99882:0:0:0:0:
320,192,99464,128,0,99743:0:0:0:0:
448,192,99603,128,0,99743:0:0:0:0:
64,192,99743,128,0,99882:0:0:0:0:
320,192,99882,128,0,100301:0:0:0:80:snare.ogg
448,192,99882,128,0,100022:0:0:0:100:hihat-open.ogg
192,192,100022,128,0,100441:0:0:0:0:
64,192,100162,128,0,100301:0:0:0:0:
64,192,100441,128,0,100580:0:0:0:80:kick.ogg
320,192,100441,128,0,100580:0:0:0:100:hihat-open.ogg
448,192,100441,128,0,100859:0:0:0:0:
192,192,100580,128,0,100720:0:0:0:0:
64,192,100720,128,0,100999:0:0:0:0:
320,192,100720,128,0,100859:0:0:0:0:
320,192,100999,128,0,101138:0:0:0:80:snare.ogg
448,192,100999,128,0,101278:0:0:0:100:hihat-open.ogg
64,192,101138,128,0,101417:0:0:0:0:
192,192,101278,128,0,101417:0:0:0:0:
320,192,101557,1,0,0:0:0:80:kick.ogg
448,192,101557,1,0,0:0:0:100:hihat-open.ogg
64,192,101696,128,0,101836:0:0:0:0:
192,192,101696,128,0,101836:0:0:0:0:
448,192,101836,128,0,102115:0:0:0:0:
64,192,101976,128,0,102115:0:0:0:0:
192,192,102115,1,0,0:0:0:80:snare.ogg
320,192,102115,128,0,102255:0:0:0:100:hihat-open.ogg
64,192,102255,128,0,102394:0:0:0:0:
448,192,102255,128,0,102534:0:0:0:0:
192,192,102394,128,0,102534:0:0:0:0:
320,192,102394,128,0,102534:0:0:0:0:
64,192,102673,128,0,102952:0:0:0:80:kick.ogg
448,192,102673,128,0,102813:0:0:0:100:hihat-open.ogg
192,192,102743,128,0,102952:0:0:0:0:
320,192,102952,128,0,103092:0:0:0:0:
448,192,102952,128,0,103231:0:0:0:0:
64,192,103092,128,0,103371:0:0:0:0:
192,192,103231,128,0,103510:0:0:0:80:snare.ogg
320,192,103231,1,0,0:0:0:100:hihat-open.ogg
448,192,103371,128,0,103650:0:0:0:0:
64,192,103510,128,0,103650:0:0:0:0:
320,192,103510,128,0,103650:0:0:0:0:
320,192,103789,128,0,104069:0:0:0:80:kick.ogg
448,192,103789,128,0,103929:0:0:0:100:hihat-open.ogg
192,192,103929,128,0,104348:0:0:0:0:
64,192,104069,128,0,104348:0:0:0:0:
320,192,104348,128,0,104906:0:0:0:80:snare.ogg
448,192,104348,128,0,104627:0:0:0:100:hihat-open.ogg
64,192,104487,128,0,104766:0:0:0:0:
192,192,104487,128,0,104766:0:0:0:0:
64,192,104906,128,0,105045:0:0:0:80:kick.ogg
192,192,104906,128,0,105185:0:0:0:100:hihat-open.ogg
448,192,104906,128,0,105045:0:0:0:0:
320,192,105045,128,0,105324:0:0:0:0:
64,192,105185,128,0,105324:0:0:0:0:
448,192,105185,128,0,105464:0:0:0:0:
192,192,105464,1,0,0:0:0:80:snare.ogg
320,192,105464,1,0,0:0:0:100:hihat-open.ogg
64,192,105603,128,0,105743:0:0:0:0:
192,192,105603,128,0,105743:0:0:0:0:
448,192,105603,128,0,105882:0:0:0:0:
64,192,105882,1,0,0:0:0:0:
192,192,106022,128,0,106162:0:0:0:80:kick.ogg
320,192,106022,128,0,106162:0:0:0:100:hihat-open.ogg
320,192,106301,128,0,106441:0:0:0:0:
448,192,106301,128,0,106580:0:0:0:0:
64,192,106441,128,0,106580:0:0:0:0:
192,192,106580,1,0,0:0:0:80:snare.ogg
320,192,106580,1,0,0:0:0:100:hihat-open.ogg
64,192,106720,128,0,106859:0:0:0:0:
320,192,106720,128,0,106859:0:0:0:0:
448,192,106720,128,0,106999:0:0:0:0:
192,192,107138,128,0,107417:0:0:0:80:kick.ogg
320,192,107138,128,0,107557:0:0:0:100:hihat-open.ogg
448,192,107208,128,0,107557:0:0:0:0:
64,192,107417,128,0,107696:0:0:0:0:
192,192,107557,128,0,107836:0:0:0:0:
320,192,107696,128,0,107976:0:0:0:80:snare.ogg
448,192,107696,1,0,0:0:0:100:hihat-open.ogg
64,192,107836,128,0,108115:0:0:0:0:
448,192,107836,128,0,108115:0:0:0:0:
192,192,107976,128,0,108115:0:0:0:0:
64,192,108255,128,0,108813:0:0:0:80:kick.ogg
192,192,108255,128,0,108534:0:0:0:100:hihat-open.ogg
320,192,108394,128,0,108534:0:0:0:80:snare.ogg
448,192,108394,128,0,108813:0:0:0:0:
192,192,108813,1,0,0:0:0:80:snare.ogg
320,192,108813,1,0,0:0:0:0:
192,192,109092,1,0,0:0:0:80:snare.ogg
320,192,109092,1,0,0:0:0:0:
192,192,109231,1,0,0:0:0:80:snare.ogg
320,192,109231,1,0,0:0:0:0:
64,192,109371,1,0,0:0:0:80:kick.ogg
448,192,109371,128,0,109510:0:0:0:100:hihat-open.ogg
192,192,109650,128,0,109789:0:0:0:0:
320,192,109789,128,0,109929:0:0:0:0:
64,192,109929,1,0,0:0:0:80:snare.ogg
448,192,109929,1,0,0:0:0:100:hihat-open.ogg
64,192,110069,128,0,110348:0:0:0:0:
320,192,110069,128,0,110348:0:0:0:0:
448,192,110208,128,0,110348:0:0:0:0:
192,192,110348,1,0,0:0:0:0:
192,192,110487,1,0,0:0:0:80:kick.ogg
448,192,110487,1,0,0:0:0:100:hihat-open.ogg
448,192,110627,128,0,110766:0:0:0:0:
64,192,110766,128,0,110906:0:0:0:0:
192,192,110766,128,0,111045:0:0:0:0:
320,192,110906,128,0,111045:0:0:0:0:
64,192,111045,1,0,0:0:0:80:snare.ogg
448,192,111045,128,0,111185:0:0:0:100:hihat-open.ogg
64,192,111185,128,0,111394:0:0:0:0:
192,192,111185,128,0,111534:0:0:0:0:
320,192,111324,128,0,111394:0:0:0:0:
320,192,111464,128,0,111534:0:0:0:0:
64,192,111603,128,0,111743:0:0:0:80:kick.ogg
320,192,111603,128,0,111882:0:0:0:100:hihat-open.ogg
448,192,111603,128,0,112022:0:0:0:0:
192,192,111743,1,0,0:0:0:0:
64,192,111882,128,0,112162:0:0:0:0:
192,192,112022,128,0,112162:0:0:0:0:
320,192,112162,1,0,0:0:0:80:snare.ogg
448,192,112162,1,0,0:0:0:100:hihat-open.ogg
64,192,112301,128,0,112580:0:0:0:0:
448,192,112301,128,0,112580:0:0:0:0:
320,192,112441,128,0,112580:0:0:0:0:
192,192,112580,1,0,0:0:0:0:
64,192,112720,1,0,0:0:0:80:kick.ogg
448,192,112720,1,0,0:0:0:100:hihat-open.ogg
192,192,112859,128,0,112999:0:0:0:0:
320,192,112999,128,0,113138:0:0:0:0:
448,192,112999,128,0,113278:0:0:0:0:
64,192,113138,128,0,113278:0:0:0:0:
192,192,113278,128,0,113417:0:0:0:80:snare.ogg
320,192,113278,1,0,0:0:0:100:hihat-open.ogg
320,192,113417,128,0,113766:0:0:0:0:
448,192,113417,128,0,113627:0:0:0:0:
192,192,113557,128,0,113627:0:0:0:0:
192,192,113696,128,0,113766:0:0:0:0:
64,192,113836,128,0,114255:0:0:0:80:kick.ogg
192,192,113836,128,0,113976:0:0:0:100:hihat-open.ogg
448,192,113836,128,0,114115:0:0:0:0:
320,192,113976,1,0,0:0:0:0:
192,192,114115,128,0,114394:0:0:0:0:
320,192,114255,128,0,114394:0:0:0:0:
64,192,114394,1,0,0:0:0:80:snare.ogg
448,192,114394,1,0,0:0:0:100:hihat-open.ogg
320,192,114534,128,0,114813:0:0:0:0:
448,192,114534,128,0,114813:0:0:0:0:
64,192,114673,128,0,114813:0:0:0:0:
192,192,114813,1,0,0:0:0:0:
192,192,114952,1,0,0:0:0:80:kick.ogg
448,192,114952,1,0,0:0:0:100:hihat-open.ogg
320,192,115092,128,0,115231:0:0:0:0:
64,192,115231,128,0,115371:0:0:0:0:
448,192,115231,128,0,115510:0:0:0:0:
192,192,115371,128,0,115510:0:0:0:0:
64,192,115510,128,0,115650:0:0:0:80:snare.ogg
320,192,115510,1,0,0:0:0:100:hihat-open.ogg
320,192,115650,128,0,115999:0:0:0:0:
448,192,115650,128,0,115859:0:0:0:0:
192,192,115789,128,0,115859:0:0:0:0:
192,192,115929,128,0,115999:0:0:0:0:
64,192,116069,128,0,116487:0:0:0:80:kick.ogg
192,192,116069,128,0,116348:0:0:0:100:hihat-open.ogg
448,192,116069,128,0,116208:0:0:0:0:
320,192,116208,1,0,0:0:0:0:
448,192,116348,128,0,116627:0:0:0:0:
320,192,116487,128,0,116627:0:0:0:0:
64,192,116627,1,0,0:0:0:80:snare.ogg
192,192,116627,1,0,0:0:0:100:hihat-open.ogg
64,192,116766,128,0,117045:0:0:0:0:
448,192,116766,128,0,117045:0:0:0:0:
192,192,116906,128,0,117045:0:0:0:0:
320,192,117045,1,0,0:0:0:0:
64,192,117185,1,0,0:0:0:80:kick.ogg
192,192,117185,1,0,0:0:0:100:hihat-open.ogg
448,192,117324,128,0,117464:0:0:0:0:
64,192,117464,128,0,117743:0:0:0:0:
320,192,117464,128,0,117603:0:0:0:0:
192,192,117603,1,0,0:0:0:0:
320,192,117743,1,0,0:0:0:80:snare.ogg
448,192,117743,128,0,117882:0:0:0:100:hihat-open.ogg
64,192,117882,128,0,118092:0:0:0:0:
192,192,117882,128,0,118231:0:0:0:0:
320,192,118022,128,0,118092:0:0:0:0:
320,192,118162,128,0,118231:0:0:0:0:
64,192,118301,128,0,118720:0:0:0:80:kick.ogg
192,192,118301,128,0,118441:0:0:0:100:hihat-open.ogg
448,192,118301,128,0,118580:0:0:0:0:
320,192,118441,1,0,0:0:0:0:
192,192,118580,128,0,118859:0:0:0:0:
320,192,118720,128,0,118859:0:0:0:0:
64,192,118859,1,0,0:0:0:80:snare.ogg
448,192,118859,1,0,0:0:0:100:hihat-open.ogg
320,192,118999,128,0,119278:0:0:0:0:
448,192,118999,128,0,119278:0:0:0:0:
64,192,119138,128,0,119278:0:0:0:0:
192,192,119278,1,0,0:0:0:0:
192,192,119417,1,0,0:0:0:80:kick.ogg
448,192,119417,1,0,0:0:0:100:hihat-open.ogg
320,192,119557,128,0,119696:0:0:0:0:
64,192,119696,128,0,119836:0:0:0:0:
448,192,119696,128,0,119976:0:0:0:0:
192,192,119836,128,0,119976:0:0:0:0:
64,192,119976,128,0,120115:0:0:0:80:snare.ogg
320,192,119976,1,0,0:0:0:100:hihat-open.ogg
320,192,120115,128,0,120464:0:0:0:0:
448,192,120115,128,0,120324:0:0:0:0:
192,192,120255,128,0,120324:0:0:0:0:
192,192,120394,128,0,120464:0:0:0:0:
64,192,120534,128,0,120952:0:0:0:80:kick.ogg
192,192,120534,128,0,120813:0:0:0:100:hihat-open.ogg
448,192,120534,128,0,120673:0:0:0:0:
320,192,120673,1,0,0:0:0:0:
448,192,120813,128,0,121092:0:0:0:0:
320,192,120952,128,0,121092:0:0:0:0:
64,192,121092,1,0,0:0:0:80:snare.ogg
192,192,121092,1,0,0:0:0:100:hihat-open.ogg
64,192,121231,128,0,121510:0:0:0:0:
448,192,121231,128,0,121510:0:0:0:0:
192,192,121371,128,0,121510:0:0:0:0:
320,192,121510,1,0,0:0:0:0:
64,192,121650,1,0,0:0:0:80:kick.ogg
192,192,121650,1,0,0:0:0:100:hihat-open.ogg
448,192,121789,128,0,121929:0:0:0:0:
64,192,121929,128,0,122208:0:0:0:0:
320,192,121929,128,0,122069:0:0:0:0:
192,192,122069,1,0,0:0:0:0:
320,192,122208,1,0,0:0:0:80:snare.ogg
448,192,122208,128,0,122348:0:0:0:100:hihat-open.ogg
64,192,122348,128,0,122557:0:0:0:0:
192,192,122348,128,0,122696:0:0:0:0:
320,192,122487,128,0,122557:0:0:0:0:
320,192,122627,128,0,122696:0:0:0:0:
64,192,122766,128,0,123185:0:0:0:80:kick.ogg
192,192,122766,128,0,123045:0:0:0:100:hihat-open.ogg
448,192,122766,128,0,122906:0:0:0:0:
320,192,122906,1,0,0:0:0:0:
448,192,123045,128,0,123324:0:0:0:0:
320,192,123185,128,0,123324:0:0:0:0:
64,192,123324,1,0,0:0:0:80:snare.ogg
192,192,123324,1,0,0:0:0:100:hihat-open.ogg
64,192,123464,128,0,123743:0:0:0:0:
448,192,123464,128,0,123743:0:0:0:0:
192,192,123603,128,0,123743:0:0:0:0:
320,192,123743,1,0,0:0:0:0:
64,192,123882,1,0,0:0:0:80:kick.ogg
448,192,123882,1,0,0:0:0:100:hihat-open.ogg
320,192,124022,128,0,124162:0:0:0:0:
64,192,124162,128,0,124441:0:0:0:0:
192,192,124162,128,0,124301:0:0:0:0:
448,192,124301,128,0,124441:0:0:0:0:
192,192,124441,1,0,0:0:0:80:snare.ogg
320,192,124441,128,0,124580:0:0:0:100:hihat-open.ogg
64,192,124580,128,0,124789:0:0:0:0:
192,192,124580,128,0,124929:0:0:0:0:
320,192,124720,128,0,124789:0:0:0:0:
320,192,124859,128,0,124929:0:0:0:0:
64,192,124999,128,0,125138:0:0:0:80:kick.ogg
192,192,124999,128,0,125278:0:0:0:100:hihat-open.ogg
448,192,124999,1,0,0:0:0:0:
320,192,125138,1,0,0:0:0:0:
64,192,125278,1,0,0:0:0:100:snare-enddrop1.ogg
320,192,125278,128,0,125557:0:0:0:0:
448,192,125278,128,0,125417:0:0:0:0:
192,192,125417,128,0,125557:0:0:0:0:
64,192,125557,1,0,0:0:0:0:
64,192,125696,128,0,125836:0:0:0:100:snare-enddrop1.ogg
192,192,125696,128,0,125976:0:0:0:0:
448,192,125696,1,0,0:0:0:0:
320,192,125836,128,0,125976:0:0:0:0:
448,192,125976,1,0,0:0:0:0:
64,192,126115,1,0,0:0:0:100:snare-enddrop1.ogg
320,192,126115,128,0,126394:0:0:0:0:
448,192,126115,128,0,126255:0:0:0:0:
192,192,126255,128,0,126394:0:0:0:0:
64,192,126394,1,0,0:0:0:0:
320,192,126534,128,0,126673:0:0:0:0:
192,192,126673,1,0,0:0:0:70:snare-enddrop2.ogg
448,192,126673,1,0,0:0:0:0:
192,192,126952,1,0,0:0:0:70:snare-enddrop2.ogg
320,192,126952,1,0,0:0:0:0:
192,192,127092,1,0,0:0:0:70:snare-enddrop2.ogg
320,192,127092,1,0,0:0:0:0:
64,192,127231,128,0,127510:0:0:0:70:kick-soft.ogg
448,192,127231,128,0,127696:0:0:0:55:cymbal12.ogg
192,192,127510,1,0,0:0:0:70:kick-soft.ogg
320,192,127510,1,0,0:0:0:0:
64,192,127696,128,0,127789:0:0:0:0:
320,192,127789,1,0,0:0:0:70:snare-enddrop3.ogg
448,192,127789,128,0,128069:0:0:0:85:ride_cymbal.ogg
64,192,127976,128,0,128069:0:0:0:0:
192,192,127976,128,0,128069:0:0:0:0:
320,192,128069,128,0,128255:0:0:0:0:
192,192,128255,1,0,0:0:0:70:snare-enddrop3.ogg
448,192,128255,1,0,0:0:0:60:tom01.ogg
64,192,128348,1,0,0:0:0:15:snare-enddrop3.ogg
320,192,128534,128,0,128627:0:0:0:0:
448,192,128534,128,0,128720:0:0:0:0:
64,192,128627,128,0,128720:0:0:0:70:kick-soft.ogg
192,192,128627,128,0,128720:0:0:0:0:
320,192,128813,1,0,0:0:0:0:
192,192,128906,128,0,128999:0:0:0:70:snare-enddrop3.ogg
448,192,128906,128,0,129185:0:0:0:85:ride_cymbal.ogg
64,192,129092,128,0,129185:0:0:0:0:
320,192,129092,128,0,129185:0:0:0:0:
192,192,129185,1,0,0:0:0:0:
448,192,129371,1,0,0:0:0:0:
64,192,129464,1,0,0:0:0:70:kick-soft.ogg
192,192,129464,128,0,129557:0:0:0:0:
192,192,129743,128,0,130022:0:0:0:0:
320,192,129743,128,0,129836:0:0:0:0:
64,192,129929,128,0,130022:0:0:0:0:
320,192,130022,1,0,0:0:0:70:snare-enddrop3.ogg
448,192,130022,128,0,130301:0:0:0:85:ride_cymbal.ogg
64,192,130208,128,0,130301:0:0:0:0:
192,192,130208,128,0,130394:0:0:0:0:
320,192,130301,128,0,130394:0:0:0:0:
192,192,130487,1,0,0:0:0:70:snare-enddrop3.ogg
448,192,130487,1,0,0:0:0:0:
64,192,130580,128,0,130673:0:0:0:15:snare-enddrop3.ogg
320,192,130580,128,0,130673:0:0:0:0:
448,192,130766,128,0,130859:0:0:0:0:
64,192,130859,1,0,0:0:0:70:kick-soft.ogg
192,192,130859,1,0,0:0:0:0:
192,192,131045,128,0,131138:0:0:0:0:
320,192,131045,128,0,131138:0:0:0:0:
64,192,131138,128,0,131417:0:0:0:70:snare-enddrop3.ogg
448,192,131138,128,0,131231:0:0:0:85:ride_cymbal.ogg
192,192,131324,128,0,131417:0:0:0:0:
320,192,131417,128,0,131510:0:0:0:0:
448,192,131417,128,0,131510:0:0:0:0:
192,192,131603,1,0,0:0:0:0:
64,192,131696,128,0,131789:0:0:0:80:kick.ogg
320,192,131696,1,0,0:0:0:0:
448,192,131696,128,0,131789:0:0:0:0:
64,192,131976,128,0,132069:0:0:0:0:
320,192,131976,128,0,132255:0:0:0:0:
192,192,132162,128,0,132255:0:0:0:0:
64,192,132255,1,0,0:0:0:70:snare-enddrop3.ogg
448,192,132255,1,0,0:0:0:0:
64,192,132441,128,0,132534:0:0:0:0:
320,192,132441,128,0,132534:0:0:0:0:
192,192,132534,128,0,132627:0:0:0:0:
64,192,132720,1,0,0:0:0:70:snare-enddrop3.ogg
448,192,132720,1,0,0:0:0:0:
192,192,132813,1,0,0:0:0:15:snare-enddrop3.ogg
448,192,132999,128,0,133092:0:0:0:0:
320,192,133092,128,0,133371:0:0:0:0:
64,192,133278,128,0,133371:0:0:0:0:
192,192,133371,128,0,133464:0:0:0:70:snare-enddrop3.ogg
448,192,133371,1,0,0:0:0:0:
320,192,133557,128,0,133650:0:0:0:0:
192,192,133650,1,0,0:0:0:0:
64,192,133836,1,0,0:0:0:0:
320,192,133929,128,0,136162:0:0:0:0:
448,192,133929,128,0,134487:0:0:0:0:
192,192,134208,1,0,0:0:0:0:
64,192,134487,1,0,0:0:0:55:snare-enddrop3.ogg
192,192,134487,1,0,0:0:0:0:
64,192,134766,1,0,0:0:0:0:
192,192,134952,1,0,0:0:0:40:snare-enddrop3.ogg
448,192,134952,1,0,0:0:0:0:
192,192,135371,1,0,0:0:0:25:snare-enddrop3.ogg
448,192,135603,128,0,136162:0:0:0:70:reverse.ogg
64,192,135789,1,0,0:0:0:10:snare-enddrop3.ogg
64,192,136162,128,0,136441:0:0:0:70:kick-soft.ogg
192,192,136162,128,0,136627:0:0:0:55:cymbal12.ogg
320,192,136441,1,0,0:0:0:70:kick-soft.ogg
448,192,136441,1,0,0:0:0:0:
64,192,136627,128,0,136720:0:0:0:0:
320,192,136720,1,0,0:0:0:70:snare-enddrop3.ogg
448,192,136720,128,0,136999:0:0:0:85:ride_cymbal.ogg
64,192,136906,128,0,136999:0:0:0:0:
192,192,136906,128,0,136999:0:0:0:0:
320,192,136999,128,0,137185:0:0:0:0:
192,192,137185,1,0,0:0:0:70:snare-enddrop3.ogg
448,192,137185,1,0,0:0:0:60:tom01.ogg
64,192,137278,1,0,0:0:0:15:snare-enddrop3.ogg
320,192,137464,128,0,137557:0:0:0:0:
448,192,137464,128,0,137650:0:0:0:0:
64,192,137557,128,0,137650:0:0:0:70:kick-soft.ogg
192,192,137557,128,0,137650:0:0:0:0:
320,192,137743,1,0,0:0:0:0:
192,192,137836,128,0,137929:0:0:0:70:snare-enddrop3.ogg
448,192,137836,128,0,138115:0:0:0:85:ride_cymbal.ogg
64,192,138022,128,0,138115:0:0:0:0:
320,192,138022,128,0,138115:0:0:0:0:
192,192,138115,1,0,0:0:0:0:
320,192,138301,1,0,0:0:0:0:
64,192,138394,1,0,0:0:0:70:kick-soft.ogg
192,192,138394,128,0,138487:0:0:0:0:
192,192,138673,128,0,138952:0:0:0:0:
320,192,138673,128,0,138766:0:0:0:0:
64,192,138859,128,0,138952:0:0:0:0:
320,192,138952,1,0,0:0:0:70:snare-enddrop3.ogg
448,192,138952,128,0,139231:0:0:0:85:ride_cymbal.ogg
64,192,139138,128,0,139231:0:0:0:0:
192,192,139138,128,0,139324:0:0:0:0:
320,192,139231,128,0,139324:0:0:0:0:
192,192,139417,1,0,0:0:0:70:snare-enddrop3.ogg
448,192,139417,1,0,0:0:0:60:tom01.ogg
64,192,139510,128,0,139603:0:0:0:15:snare-enddrop3.ogg
320,192,139510,128,0,139603:0:0:0:60:tom01.ogg
448,192,139696,128,0,139789:0:0:0:0:
64,192,139789,1,0,0:0:0:70:kick-soft.ogg
192,192,139789,1,0,0:0:0:0:
64,192,139976,128,0,140069:0:0:0:0:
320,192,139976,128,0,140069:0:0:0:0:
192,192,140069,128,0,140348:0:0:0:70:snare-enddrop3.ogg
448,192,140069,128,0,140162:0:0:0:85:ride_cymbal.ogg
64,192,140255,128,0,140348:0:0:0:0:
320,192,140348,128,0,140441:0:0:0:0:
448,192,140348,128,0,140441:0:0:0:0:
192,192,140534,1,0,0:0:0:0:
64,192,140627,128,0,140720:0:0:0:80:kick.ogg
320,192,140627,1,0,0:0:0:0:
448,192,140627,128,0,140720:0:0:0:0:
64,192,140906,128,0,140999:0:0:0:0:
320,192,140906,128,0,141185:0:0:0:0:
192,192,141092,128,0,141185:0:0:0:0:
64,192,141185,1,0,0:0:0:70:snare-enddrop3.ogg
448,192,141185,1,0,0:0:0:0:
64,192,141371,128,0,141464:0:0:0:0:
320,192,141371,128,0,141464:0:0:0:0:
192,192,141464,128,0,141557:0:0:0:0:
64,192,141650,1,0,0:0:0:70:snare-enddrop3.ogg
448,192,141650,1,0,0:0:0:0:
192,192,141743,1,0,0:0:0:15:snare-enddrop3.ogg
448,192,141929,128,0,142022:0:0:0:0:
320,192,142022,128,0,142301:0:0:0:0:
64,192,142208,128,0,142301:0:0:0:0:
192,192,142301,128,0,142394:0:0:0:70:snare-enddrop3.ogg
448,192,142301,1,0,0:0:0:0:
320,192,142487,128,0,142580:0:0:0:0:
192,192,142580,1,0,0:0:0:0:
320,192,142766,1,0,0:0:0:0:
448,192,142766,1,0,0:0:0:0:
64,192,142859,128,0,143417:0:0:0:0:
192,192,142859,128,0,144534:0:0:0:0:
320,192,143138,1,0,0:0:0:0:
448,192,143324,1,0,0:0:0:0:
320,192,143417,1,0,0:0:0:0:
64,192,143696,1,0,0:0:0:0:
320,192,143882,1,0,0:0:0:0:
64,192,143976,1,0,0:0:0:0:
64,192,145092,128,0,145185:0:0:0:70:kick-soft.ogg
320,192,145092,1,0,0:0:0:55:cymbal12.ogg
448,192,145092,128,0,145185:0:0:0:0:
192,192,145371,128,0,145650:0:0:0:70:kick-soft.ogg
320,192,145371,128,0,145464:0:0:0:0:
448,192,145557,128,0,145650:0:0:0:0:
64,192,145650,1,0,0:0:0:70:snare-enddrop3.ogg
320,192,145650,128,0,145929:0:0:0:85:ride_cymbal.ogg
64,192,145836,128,0,145929:0:0:0:0:
192,192,145836,128,0,146115:0:0:0:0:
448,192,145929,128,0,146022:0:0:0:0:
64,192,146115,1,0,0:0:0:70:snare-enddrop3.ogg
320,192,146115,1,0,0:0:0:60:tom01.ogg
448,192,146208,128,0,146487:0:0:0:15:snare-enddrop3.ogg
320,192,146394,128,0,146487:0:0:0:0:
64,192,146487,128,0,146766:0:0:0:70:kick-soft.ogg
192,192,146487,128,0,146580:0:0:0:0:
192,192,146673,128,0,146766:0:0:0:0:
320,192,146766,128,0,147045:0:0:0:70:snare-enddrop3.ogg
448,192,146766,128,0,146859:0:0:0:85:ride_cymbal.ogg
64,192,146952,128,0,147231:0:0:0:0:
192,192,146952,128,0,147045:0:0:0:0:
448,192,147045,128,0,147138:0:0:0:0:
448,192,147231,128,0,147324:0:0:0:0:
192,192,147324,128,0,147417:0:0:0:70:kick-soft.ogg
320,192,147324,128,0,147417:0:0:0:0:
64,192,147603,128,0,147882:0:0:0:70:kick-soft.ogg
320,192,147603,128,0,147696:0:0:0:0:
448,192,147789,128,0,147882:0:0:0:0:
192,192,147882,1,0,0:0:0:70:snare-enddrop3.ogg
320,192,147882,128,0,148162:0:0:0:85:ride_cymbal.ogg
64,192,148069,128,0,148162:0:0:0:0:
448,192,148069,128,0,148348:0:0:0:0:
192,192,148162,128,0,148255:0:0:0:0:
64,192,148348,1,0,0:0:0:70:snare-enddrop3.ogg
320,192,148348,1,0,0:0:0:0:
192,192,148441,128,0,148720:0:0:0:15:snare-enddrop3.ogg
64,192,148627,128,0,148720:0:0:0:0:
320,192,148720,128,0,148813:0:0:0:70:kick-soft.ogg
448,192,148720,128,0,148999:0:0:0:0:
64,192,148906,128,0,148999:0:0:0:0:
192,192,148999,128,0,149278:0:0:0:70:snare-enddrop3.ogg
320,192,148999,128,0,149092:0:0:0:85:ride_cymbal.ogg
64,192,149185,128,0,149278:0:0:0:0:
448,192,149185,128,0,149464:0:0:0:0:
320,192,149278,128,0,149371:0:0:0:0:
64,192,149464,128,0,149557:0:0:0:0:
192,192,149557,128,0,149650:0:0:0:70:kick-soft.ogg
320,192,149557,128,0,149650:0:0:0:0:
64,192,149836,128,0,150115:0:0:0:70:kick-soft.ogg
320,192,149836,128,0,149929:0:0:0:0:
448,192,150022,128,0,150115:0:0:0:0:
192,192,150115,1,0,0:0:0:70:snare-enddrop3.ogg
320,192,150115,128,0,150394:0:0:0:85:ride_cymbal.ogg
192,192,150301,128,0,150580:0:0:0:0:
448,192,150301,128,0,150394:0:0:0:0:
64,192,150394,128,0,150487:0:0:0:0:
320,192,150580,1,0,0:0:0:70:snare-enddrop3.ogg
448,192,150580,1,0,0:0:0:0:
64,192,150673,128,0,150952:0:0:0:15:snare-enddrop3.ogg
320,192,150859,128,0,150952:0:0:0:0:
192,192,150952,128,0,151231:0:0:0:70:kick-soft.ogg
448,192,150952,128,0,151045:0:0:0:0:
64,192,151138,128,0,151231:0:0:0:0:
320,192,151231,128,0,151510:0:0:0:70:snare-enddrop3.ogg
448,192,151231,128,0,151324:0:0:0:85:ride_cymbal.ogg
64,192,151417,128,0,151510:0:0:0:0:
192,192,151417,128,0,151696:0:0:0:0:
448,192,151510,128,0,151603:0:0:0:0:
64,192,151696,128,0,151789:0:0:0:0:
320,192,151789,128,0,151882:0:0:0:70:kick-soft.ogg
448,192,151789,128,0,151882:0:0:0:0:
64,192,152069,128,0,152348:0:0:0:70:kick-soft.ogg
192,192,152069,128,0,152162:0:0:0:0:
320,192,152255,128,0,152348:0:0:0:0:
192,192,152348,1,0,0:0:0:70:snare-enddrop3.ogg
448,192,152348,128,0,152627:0:0:0:85:ride_cymbal.ogg
64,192,152534,128,0,152627:0:0:0:0:
320,192,152534,128,0,152813:0:0:0:0:
192,192,152627,128,0,152720:0:0:0:0:
64,192,152813,1,0,0:0:0:70:snare-enddrop3.ogg
448,192,152813,1,0,0:0:0:60:tom03.ogg
192,192,152906,128,0,153185:0:0:0:15:snare-enddrop3.ogg
320,192,153092,128,0,153185:0:0:0:60:tom01.ogg
64,192,153185,128,0,153278:0:0:0:70:kick-soft.ogg
448,192,153185,128,0,153464:0:0:0:0:
64,192,153371,128,0,153464:0:0:0:0:
192,192,153464,128,0,153557:0:0:0:70:snare-enddrop3.ogg
320,192,153464,128,0,153743:0:0:0:85:ride_cymbal.ogg
448,192,153557,1,0,0:0:0:60:tom01.ogg
64,192,153650,128,0,153929:0:0:0:60:tom01.ogg
192,192,153650,128,0,153743:0:0:0:0:
448,192,153743,128,0,153836:0:0:0:60:tom02.ogg
320,192,153929,128,0,154022:0:0:0:0:
64,192,154022,128,0,154115:0:0:0:70:kick-soft.ogg
192,192,154022,1,0,0:0:0:55:cymbal12.ogg
448,192,154022,128,0,154115:0:0:0:0:
192,192,154301,128,0,154394:0:0:0:70:kick-soft.ogg
320,192,154301,128,0,154580:0:0:0:0:
64,192,154487,128,0,154580:0:0:0:0:
192,192,154580,128,0,154859:0:0:0:70:snare-enddrop3.ogg
448,192,154580,1,0,0:0:0:85:ride_cymbal.ogg
320,192,154766,128,0,155045:0:0:0:0:
448,192,154766,128,0,154859:0:0:0:0:
64,192,154859,128,0,154952:0:0:0:0:
192,192,155045,1,0,0:0:0:70:snare-enddrop3.ogg
448,192,155045,1,0,0:0:0:60:tom01.ogg
64,192,155138,128,0,155417:0:0:0:15:snare-enddrop3.ogg
192,192,155324,128,0,155417:0:0:0:0:
320,192,155417,128,0,155510:0:0:0:70:kick-soft.ogg
448,192,155417,128,0,155696:0:0:0:0:
320,192,155603,128,0,155696:0:0:0:0:
64,192,155696,128,0,155789:0:0:0:70:snare-enddrop3.ogg
192,192,155696,128,0,155976:0:0:0:85:ride_cymbal.ogg
320,192,155882,128,0,155976:0:0:0:0:
448,192,155882,128,0,156162:0:0:0:0:
64,192,155976,128,0,156069:0:0:0:0:
64,192,156162,128,0,156255:0:0:0:0:
192,192,156255,128,0,156348:0:0:0:70:kick-soft.ogg
320,192,156255,128,0,156348:0:0:0:0:
192,192,156534,128,0,156627:0:0:0:70:kick-soft.ogg
448,192,156534,128,0,156813:0:0:0:0:
64,192,156720,128,0,156813:0:0:0:0:
192,192,156813,128,0,157092:0:0:0:70:snare-enddrop3.ogg
320,192,156813,1,0,0:0:0:85:ride_cymbal.ogg
64,192,156999,128,0,157278:0:0:0:0:
448,192,156999,128,0,157092:0:0:0:0:
320,192,157092,128,0,157185:0:0:0:0:
192,192,157278,1,0,0:0:0:70:snare-enddrop3.ogg
448,192,157278,1,0,0:0:0:0:
320,192,157371,128,0,157650:0:0:0:15:snare-enddrop3.ogg
448,192,157557,128,0,157650:0:0:0:0:
64,192,157650,128,0,157929:0:0:0:70:kick-soft.ogg
192,192,157650,128,0,157743:0:0:0:0:
448,192,157836,128,0,157929:0:0:0:0:
192,192,157929,128,0,158022:0:0:0:70:snare-enddrop3.ogg
320,192,157929,128,0,158208:0:0:0:85:ride_cymbal.ogg
64,192,158115,128,0,158394:0:0:0:0:
448,192,158115,128,0,158208:0:0:0:0:
192,192,158208,128,0,158301:0:0:0:0:
448,192,158394,128,0,158487:0:0:0:0:
192,192,158487,128,0,158580:0:0:0:70:kick-soft.ogg
320,192,158487,128,0,158580:0:0:0:0:
192,192,158766,128,0,158859:0:0:0:70:kick-soft.ogg
448,192,158766,128,0,159045:0:0:0:0:
64,192,158952,128,0,159045:0:0:0:0:
192,192,159045,128,0,159324:0:0:0:85:ride_cymbal.ogg
64,192,159231,128,0,159324:0:0:0:0:
320,192,159231,128,0,159510:0:0:0:0:
448,192,159324,128,0,159417:0:0:0:0:
64,192,159510,128,0,159603:0:0:0:0:
192,192,159603,128,0,159882:0:0:0:0:
448,192,159789,128,0,159882:0:0:0:0:
64,192,159882,128,0,159976:0:0:0:70:kick-soft.ogg
320,192,159882,128,0,160162:0:0:0:0:
448,192,160069,128,0,160162:0:0:0:0:
64,192,160162,128,0,160348:0:0:0:85:ride_cymbal.ogg
192,192,160162,128,0,160255:0:0:0:0:
320,192,160348,128,0,160441:0:0:0:0:
448,192,160348,128,0,160534:0:0:0:0:
64,192,160441,128,0,160534:0:0:0:0:
192,192,160441,128,0,160534:0:0:0:0:
320,192,160627,1,0,0:0:0:0:
64,192,160720,128,0,162673:0:0:0:80:kick-soft.ogg
192,192,160720,128,0,161278:0:0:0:80:cymbal_crash-light.ogg
448,192,160720,1,0,0:0:0:0:
192,192,162952,1,0,0:0:0:70:kick-soft.ogg
448,192,162952,1,0,0:0:0:70:cymbal_crash-light.ogg
448,192,163231,1,0,0:0:0:0:
64,192,163510,1,0,0:0:0:50:snare-enddrop1.ogg
192,192,163510,128,0,163789:0:0:0:75:ride_cymbal.ogg
320,192,163650,128,0,163789:0:0:0:0:
448,192,163650,1,0,0:0:0:0:
320,192,164069,128,0,164487:0:0:0:0:
448,192,164069,1,0,0:0:0:0:
192,192,164348,128,0,164487:0:0:0:0:
448,192,164348,1,0,0:0:0:0:
64,192,164627,1,0,0:0:0:50:snare-enddrop1.ogg
192,192,164627,128,0,165045:0:0:0:75:ride_cymbal.ogg
448,192,164766,1,0,0:0:0:0:
64,192,164906,128,0,165045:0:0:0:0:
320,192,165045,128,0,166022:0:0:0:0:
448,192,165185,1,0,0:0:0:0:
448,192,165464,1,0,0:0:0:0:
64,192,165743,1,0,0:0:0:50:snare-enddrop1.ogg
192,192,165743,1,0,0:0:0:75:ride_cymbal.ogg
448,192,165882,1,0,0:0:0:0:
192,192,166022,128,0,166301:0:0:0:0:
64,192,166301,128,0,167138:0:0:0:0:
448,192,166301,1,0,0:0:0:0:
448,192,166580,1,0,0:0:0:0:
192,192,166859,1,0,0:0:0:50:snare-enddrop1.ogg
320,192,166859,1,0,0:0:0:75:ride_cymbal.ogg
320,192,166999,1,0,0:0:0:70:kick-soft.ogg
448,192,166999,1,0,0:0:0:0:
192,192,167278,1,0,0:0:0:50:snare-enddrop1.ogg
320,192,167278,1,0,0:0:0:0:
64,192,167417,1,0,0:0:0:70:kick-soft.ogg
448,192,167417,1,0,0:0:0:0:
448,192,167696,1,0,0:0:0:0:
64,192,167976,1,0,0:0:0:50:snare-enddrop1.ogg
192,192,167976,128,0,168255:0:0:0:75:ride_cymbal.ogg
320,192,168115,128,0,168255:0:0:0:0:
448,192,168115,1,0,0:0:0:0:
192,192,168534,128,0,168952:0:0:0:0:
448,192,168534,1,0,0:0:0:0:
64,192,168813,128,0,168952:0:0:0:0:
448,192,168813,1,0,0:0:0:0:
64,192,169092,1,0,0:0:0:50:snare-enddrop1.ogg
320,192,169092,128,0,169371:0:0:0:75:ride_cymbal.ogg
192,192,169162,128,0,169371:0:0:0:0:
448,192,169231,1,0,0:0:0:0:
64,192,169371,128,0,170208:0:0:0:0:
448,192,169650,1,0,0:0:0:0:
448,192,169929,1,0,0:0:0:0:
192,192,170208,1,0,0:0:0:50:snare-enddrop1.ogg
320,192,170208,1,0,0:0:0:75:ride_cymbal.ogg
448,192,170348,1,0,0:0:0:0:
448,192,170766,1,0,0:0:0:0:
448,192,171045,1,0,0:0:0:0:
64,192,171324,1,0,0:0:0:50:snare-enddrop1.ogg
192,192,171324,1,0,0:0:0:75:ride_cymbal.ogg
320,192,171464,1,0,0:0:0:70:kick-soft.ogg
448,192,171464,1,0,0:0:0:0:
64,192,171882,1,0,0:0:0:70:kick-soft.ogg
192,192,171882,1,0,0:0:0:70:cymbal_crash-light.ogg
448,192,171882,1,0,0:0:0:0:
448,192,172162,1,0,0:0:0:60:kick-soft.ogg
64,192,172441,128,0,172906:0:0:0:60:snare-enddrop1.ogg
192,192,172441,1,0,0:0:0:75:ride_cymbal.ogg
448,192,172580,1,0,0:0:0:0:
192,192,172720,128,0,172906:0:0:0:0:
320,192,172906,1,0,0:0:0:60:snare-enddrop1.ogg
448,192,172906,1,0,0:0:0:0:
64,192,172999,1,0,0:0:0:15:snare-enddrop1.ogg
192,192,172999,128,0,173417:0:0:0:0:
320,192,173278,128,0,173417:0:0:0:60:kick-soft.ogg
448,192,173278,1,0,0:0:0:0:
192,192,173557,1,0,0:0:0:60:snare-enddrop1.ogg
448,192,173557,128,0,173976:0:0:0:75:ride_cymbal.ogg
64,192,173696,1,0,0:0:0:0:
192,192,173836,128,0,173976:0:0:0:0:
320,192,173976,128,0,174952:0:0:0:0:
64,192,174115,1,0,0:0:0:60:kick-soft.ogg
448,192,174115,1,0,0:0:0:0:
64,192,174394,1,0,0:0:0:0:
192,192,174673,1,0,0:0:0:60:snare-enddrop1.ogg
448,192,174673,1,0,0:0:0:75:ride_cymbal.ogg
64,192,174813,1,0,0:0:0:0:
448,192,174952,1,0,0:0:0:0:
192,192,175138,1,0,0:0:0:60:snare-enddrop1.ogg
320,192,175138,1,0,0:0:0:0:
64,192,175231,1,0,0:0:0:15:snare-enddrop1.ogg
448,192,175231,128,0,176069:0:0:0:0:
64,192,175510,1,0,0:0:0:60:kick-soft.ogg
192,192,175510,1,0,0:0:0:0:
192,192,175789,1,0,0:0:0:60:snare-enddrop1.ogg
320,192,175789,1,0,0:0:0:75:ride_cymbal.ogg
64,192,175929,1,0,0:0:0:0:
320,192,176069,1,0,0:0:0:0:
192,192,176208,1,0,0:0:0:0:
64,192,176348,1,0,0:0:0:70:kick-soft.ogg
448,192,176348,1,0,0:0:0:0:
320,192,176627,1,0,0:0:0:60:kick-soft.ogg
448,192,176627,1,0,0:0:0:0:
64,192,176906,128,0,177371:0:0:0:60:snare-enddrop1.ogg
192,192,176906,1,0,0:0:0:75:ride_cymbal.ogg
448,192,177045,1,0,0:0:0:0:
192,192,177185,128,0,177371:0:0:0:0:
320,192,177371,1,0,0:0:0:60:snare-enddrop1.ogg
448,192,177371,1,0,0:0:0:0:
64,192,177464,1,0,0:0:0:15:snare-enddrop1.ogg
192,192,177464,128,0,177882:0:0:0:0:
320,192,177743,128,0,177882:0:0:0:60:kick-soft.ogg
448,192,177743,1,0,0:0:0:0:
64,192,178022,1,0,0:0:0:60:snare-enddrop1.ogg
320,192,178022,128,0,178301:0:0:0:75:ride_cymbal.ogg
192,192,178092,128,0,178301:0:0:0:0:
448,192,178162,1,0,0:0:0:0:
64,192,178301,128,0,179417:0:0:0:0:
192,192,178580,1,0,0:0:0:60:kick-soft.ogg
448,192,178580,1,0,0:0:0:0:
192,192,178859,1,0,0:0:0:0:
320,192,179138,1,0,0:0:0:60:snare-enddrop1.ogg
448,192,179138,1,0,0:0:0:75:ride_cymbal.ogg
192,192,179278,1,0,0:0:0:0:
448,192,179417,1,0,0:0:0:0:
192,192,179603,1,0,0:0:0:60:snare-enddrop1.ogg
320,192,179603,1,0,0:0:0:40:tom03.ogg
64,192,179696,1,0,0:0:0:15:snare-enddrop1.ogg
448,192,179696,1,0,0:0:0:0:
192,192,179882,1,0,0:0:0:40:tom01.ogg
64,192,179976,1,0,0:0:0:60:kick-soft.ogg
320,192,179976,1,0,0:0:0:0:
192,192,180255,1,0,0:0:0:60:snare-enddrop1.ogg
448,192,180255,1,0,0:0:0:75:ride_cymbal.ogg
320,192,180348,1,0,0:0:0:40:tom01.ogg
448,192,180441,1,0,0:0:0:40:tom01.ogg
64,192,180534,1,0,0:0:0:40:tom02.ogg
192,192,180673,1,0,0:0:0:0:
64,192,180813,1,0,0:0:0:70:kick-soft.ogg
320,192,180813,1,0,0:0:0:15:titan_snare.ogg
448,192,180813,1,0,0:0:0:0:
192,192,181092,1,0,0:0:0:0:
320,192,181371,128,0,181650:0:0:0:35:snare-enddrop3.ogg
448,192,181510,128,0,181650:0:0:0:0:
64,192,181836,1,0,0:0:0:35:snare-enddrop3.ogg
192,192,181929,128,0,187510:0:0:0:15:snare-enddrop3.ogg
320,192,182208,1,0,0:0:0:0:
448,192,182487,128,0,182627:0:0:0:35:snare-enddrop3.ogg
64,192,183045,1,0,0:0:0:25:titan_snare.ogg
64,192,183324,128,0,183603:0:0:0:0:
320,192,183603,128,0,183743:0:0:0:35:snare-enddrop3.ogg
64,192,183743,128,0,183882:0:0:0:0:
448,192,184069,1,0,0:0:0:35:snare-enddrop3.ogg
320,192,184162,1,0,0:0:0:15:snare-enddrop3.ogg
64,192,184441,128,0,184720:0:0:0:15:basskick-effect.ogg
448,192,184720,128,0,184859:0:0:0:35:snare-enddrop3.ogg
64,192,184859,128,0,184999:0:0:0:15:basskick-effect.ogg
320,192,185278,1,0,0:0:0:35:titan_snare.ogg
64,192,185557,128,0,185836:0:0:0:20:basskick-effect.ogg
320,192,185836,128,0,185976:0:0:0:35:snare-enddrop3.ogg
64,192,185976,128,0,186115:0:0:0:20:basskick-effect.ogg
448,192,186301,1,0,0:0:0:35:snare-enddrop3.ogg
320,192,186394,1,0,0:0:0:15:snare-enddrop3.ogg
64,192,186673,128,0,186952:0:0:0:25:basskick-effect.ogg
448,192,186952,128,0,187092:0:0:0:35:snare-enddrop3.ogg
64,192,187092,128,0,187231:0:0:0:25:basskick-effect.ogg
320,192,187510,1,0,0:0:0:45:titan_snare.ogg
64,192,187789,128,0,188069:0:0:0:30:basskick-effect.ogg
448,192,187789,128,0,187929:0:0:0:0:
320,192,187929,128,0,188069:0:0:0:0:
192,192,188069,128,0,188208:0:0:0:35:snare-enddrop3.ogg
64,192,188208,128,0,188348:0:0:0:30:basskick-effect.ogg
320,192,188348,128,0,188534:0:0:0:0:
448,192,188394,128,0,188534:0:0:0:0:
64,192,188534,1,0,0:0:0:35:snare-enddrop3.ogg
192,192,188627,128,0,189185:0:0:0:15:snare-enddrop3.ogg
64,192,188766,128,0,189185:0:0:0:0:
448,192,188906,128,0,189185:0:0:0:35:basskick-effect.ogg
448,192,189324,128,0,189464:0:0:0:35:basskick-effect.ogg
64,192,189743,1,0,0:0:0:60:titan_snare.ogg
320,192,189743,128,0,189882:0:0:0:0:
192,192,189882,128,0,190022:0:0:0:0:
64,192,190022,128,0,190162:0:0:0:15:titan_snare.ogg
448,192,190022,128,0,190301:0:0:0:40:basskick-effect.ogg
64,192,190301,128,0,190720:0:0:0:60:titan_snare.ogg
192,192,190301,1,0,0:0:0:0:
448,192,190441,128,0,190580:0:0:0:40:basskick-effect.ogg
192,192,190580,128,0,190720:0:0:0:15:titan_snare.ogg
320,192,190580,1,0,0:0:0:0:
192,192,190859,128,0,190999:0:0:0:60:titan_snare.ogg
448,192,190859,1,0,0:0:0:0:
320,192,190999,128,0,191138:0:0:0:0:
64,192,191138,128,0,191417:0:0:0:15:titan_snare.ogg
448,192,191138,128,0,191278:0:0:0:50:basskick-effect.ogg
320,192,191417,1,0,0:0:0:60:titan_snare.ogg
448,192,191417,128,0,191836:0:0:0:0:
64,192,191557,128,0,191696:0:0:0:50:basskick-effect.ogg
192,192,191696,1,0,0:0:0:15:titan_snare.ogg
320,192,191696,128,0,191836:0:0:0:0:
64,192,191976,1,0,0:0:0:60:titan_snare.ogg
320,192,191976,128,0,192115:0:0:0:0:
192,192,192115,128,0,192255:0:0:0:0:
64,192,192255,128,0,192394:0:0:0:15:titan_snare.ogg
448,192,192255,128,0,192534:0:0:0:60:basskick-effect.ogg
64,192,192534,128,0,192952:0:0:0:60:titan_snare.ogg
192,192,192534,1,0,0:0:0:0:
448,192,192673,128,0,192813:0:0:0:60:basskick-effect.ogg
192,192,192813,128,0,192952:0:0:0:15:titan_snare.ogg
320,192,192813,1,0,0:0:0:0:
192,192,193092,128,0,193231:0:0:0:60:titan_snare.ogg
448,192,193092,1,0,0:0:0:0:
320,192,193231,128,0,193371:0:0:0:0:
64,192,193371,128,0,193650:0:0:0:15:titan_snare.ogg
448,192,193371,128,0,193510:0:0:0:70:basskick-effect.ogg
320,192,193650,1,0,0:0:0:60:titan_snare.ogg
448,192,193650,128,0,194069:0:0:0:0:
64,192,193789,128,0,193929:0:0:0:70:basskick-effect.ogg
192,192,193929,1,0,0:0:0:15:titan_snare.ogg
320,192,193929,128,0,194069:0:0:0:0:
64,192,194208,128,0,194487:0:0:0:60:titan_snare.ogg
192,192,194208,128,0,194348:0:0:0:0:
448,192,194348,128,0,194487:0:0:0:15:titan_snare.ogg
192,192,194487,128,0,194766:0:0:0:60:titan_snare.ogg
320,192,194487,128,0,194627:0:0:0:80:basskick-effect.ogg
64,192,194627,128,0,194766:0:0:0:15:titan_snare.ogg
320,192,194766,128,0,194906:0:0:0:60:titan_snare.ogg
448,192,194766,128,0,195045:0:0:0:0:
64,192,194906,128,0,195185:0:0:0:15:titan_snare.ogg
192,192,195045,1,0,0:0:0:60:titan_snare.ogg
320,192,195045,128,0,195185:0:0:0:0:
448,192,195185,128,0,195324:0:0:0:15:titan_snare.ogg
64,192,195324,128,0,195603:0:0:0:60:titan_snare.ogg
192,192,195324,128,0,195464:0:0:0:0:
448,192,195464,128,0,195603:0:0:0:15:titan_snare.ogg
192,192,195603,128,0,195882:0:0:0:60:titan_snare.ogg
320,192,195603,128,0,195743:0:0:0:90:basskick-effect.ogg
64,192,195743,128,0,195882:0:0:0:15:titan_snare.ogg
320,192,195882,128,0,196022:0:0:0:60:titan_snare.ogg
448,192,195882,128,0,196162:0:0:0:0:
64,192,196022,128,0,196301:0:0:0:15:titan_snare.ogg
192,192,196162,128,0,196301:0:0:0:60:titan_snare.ogg
320,192,196162,1,0,0:0:0:0:
448,192,196301,128,0,196441:0:0:0:15:titan_snare.ogg
64,192,196441,128,0,196859:0:0:0:70:kick-soft.ogg
192,192,196441,128,0,196720:0:0:0:90:wood_block-low_pitch.ogg
320,192,196441,128,0,196580:0:0:0:0:
448,192,196580,128,0,196720:0:0:0:0:
320,192,196720,128,0,196859:0:0:0:0:
192,192,196999,128,0,197138:0:0:0:90:wood_block-low_pitch.ogg
320,192,196999,128,0,197278:0:0:0:0:
448,192,196999,128,0,197417:0:0:0:0:
64,192,197138,128,0,197417:0:0:0:0:
192,192,197278,128,0,197417:0:0:0:0:
64,192,197557,128,0,197976:0:0:0:90:wood_block-low_pitch.ogg
192,192,197557,128,0,197696:0:0:0:0:
320,192,197557,128,0,197696:0:0:0:0:
448,192,197696,128,0,197976:0:0:0:0:
64,192,198115,1,0,0:0:0:80:snare.ogg
192,192,198115,1,0,0:0:0:100:snare-effect.ogg
320,192,198115,1,0,0:0:0:80:reverse.ogg
448,192,198115,1,0,0:0:0:0:
64,192,198673,128,0,199092:0:0:0:80:kick.ogg
192,192,198673,128,0,198813:0:0:0:100:hihat-open.ogg
320,192,198673,1,0,0:0:0:0:
448,192,198673,1,0,0:0:0:0:
192,192,198952,128,0,199092:0:0:0:0:
320,192,198952,128,0,199231:0:0:0:0:
448,192,198952,128,0,199092:0:0:0:0:
64,192,199231,1,0,0:0:0:80:snare.ogg
448,192,199231,1,0,0:0:0:100:hihat-open.ogg
64,192,199371,128,0,199650:0:0:0:0:
320,192,199371,128,0,199650:0:0:0:0:
448,192,199371,128,0,199650:0:0:0:0:
192,192,199789,1,0,0:0:0:80:kick.ogg
320,192,199789,1,0,0:0:0:100:hihat-open.ogg
448,192,199789,128,0,200208:0:0:0:0:
64,192,200069,128,0,200208:0:0:0:0:
192,192,200069,128,0,200348:0:0:0:0:
320,192,200069,128,0,200208:0:0:0:0:
64,192,200348,1,0,0:0:0:80:snare.ogg
448,192,200348,1,0,0:0:0:100:hihat-open.ogg
64,192,200487,128,0,200766:0:0:0:0:
192,192,200487,128,0,200766:0:0:0:0:
448,192,200487,128,0,200766:0:0:0:0:
64,192,200906,128,0,201324:0:0:0:80:kick.ogg
192,192,200906,1,0,0:0:0:100:hihat-open.ogg
320,192,200906,1,0,0:0:0:0:
192,192,201185,128,0,201324:0:0:0:0:
320,192,201185,128,0,201464:0:0:0:0:
448,192,201185,128,0,201324:0:0:0:0:
64,192,201464,1,0,0:0:0:80:snare.ogg
448,192,201464,1,0,0:0:0:100:hihat-open.ogg
64,192,201603,128,0,201882:0:0:0:0:
320,192,201603,128,0,201882:0:0:0:0:
448,192,201603,128,0,201882:0:0:0:0:
192,192,202022,128,0,202162:0:0:0:80:kick.ogg
320,192,202022,128,0,202162:0:0:0:100:hihat-open.ogg
448,192,202022,128,0,202371:0:0:0:0:
64,192,202301,128,0,202580:0:0:0:0:
192,192,202301,128,0,202580:0:0:0:0:
320,192,202301,128,0,202371:0:0:0:0:
320,192,202441,128,0,202510:0:0:0:0:
320,192,202580,1,0,0:0:0:80:snare.ogg
448,192,202580,1,0,0:0:0:100:hihat-open.ogg
64,192,202720,128,0,202999:0:0:0:0:
192,192,202720,128,0,202859:0:0:0:0:
448,192,202720,128,0,202999:0:0:0:0:
320,192,202859,128,0,202999:0:0:0:0:
64,192,203138,128,0,203557:0:0:0:80:kick.ogg
192,192,203138,1,0,0:0:0:100:hihat-open.ogg
320,192,203138,1,0,0:0:0:0:
192,192,203417,128,0,203557:0:0:0:0:
320,192,203417,128,0,203696:0:0:0:0:
448,192,203417,128,0,203557:0:0:0:0:
64,192,203696,1,0,0:0:0:80:snare.ogg
448,192,203696,1,0,0:0:0:100:hihat-open.ogg
64,192,203836,128,0,204115:0:0:0:0:
320,192,203836,128,0,204115:0:0:0:0:
448,192,203836,128,0,204115:0:0:0:0:
192,192,204255,1,0,0:0:0:80:kick.ogg
320,192,204255,1,0,0:0:0:100:hihat-open.ogg
448,192,204255,128,0,204673:0:0:0:0:
64,192,204534,128,0,204673:0:0:0:0:
192,192,204534,128,0,204813:0:0:0:0:
320,192,204534,128,0,204673:0:0:0:0:
64,192,204813,1,0,0:0:0:80:snare.ogg
448,192,204813,1,0,0:0:0:100:hihat-open.ogg
64,192,204952,128,0,205231:0:0:0:0:
192,192,204952,128,0,205231:0:0:0:0:
448,192,204952,128,0,205231:0:0:0:0:
64,192,205371,128,0,205789:0:0:0:80:kick.ogg
192,192,205371,1,0,0:0:0:100:hihat-open.ogg
320,192,205371,1,0,0:0:0:0:
192,192,205650,128,0,205789:0:0:0:0:
320,192,205650,128,0,205929:0:0:0:0:
448,192,205650,128,0,205789:0:0:0:0:
64,192,205929,1,0,0:0:0:80:snare.ogg
448,192,205929,1,0,0:0:0:100:hihat-open.ogg
64,192,206069,128,0,206348:0:0:0:0:
320,192,206069,128,0,206348:0:0:0:0:
448,192,206069,128,0,206348:0:0:0:0:
64,192,206487,128,0,206766:0:0:0:80:kick.ogg
192,192,206487,128,0,206627:0:0:0:100:hihat-open.ogg
448,192,206487,128,0,206766:0:0:0:0:
192,192,206766,1,0,0:0:0:60:tom01.ogg
320,192,206766,1,0,0:0:0:0:
192,192,206906,1,0,0:0:0:60:tom01.ogg
320,192,206906,1,0,0:0:0:0:
64,192,207045,1,0,0:0:0:60:tom02.ogg
448,192,207045,1,0,0:0:0:0:
64,192,207185,1,0,0:0:0:60:tom02.ogg
320,192,207185,1,0,0:0:0:0:
64,192,207324,1,0,0:0:0:60:tom03.ogg
448,192,207324,1,0,0:0:0:0:
192,192,207464,1,0,0:0:0:60:tom03.ogg
448,192,207464,1,0,0:0:0:0:
64,192,207603,1,0,0:0:0:70:kick-soft.ogg
448,192,207603,128,0,208069:0:0:0:0:
320,192,207696,128,0,207976:0:0:0:0:
192,192,207789,128,0,207882:0:0:0:0:
64,192,207882,128,0,208162:0:0:0:0:
192,192,208162,1,0,0:0:0:80:snare.ogg
320,192,208162,128,0,208441:0:0:0:100:hihat-open.ogg
448,192,208162,1,0,0:0:0:70:cymbal12.ogg
64,192,208301,128,0,208580:0:0:0:0:
448,192,208301,128,0,208441:0:0:0:0:
64,192,208720,1,0,0:0:0:80:kick.ogg
192,192,208720,128,0,209138:0:0:0:100:hihat-open.ogg
448,192,208720,1,0,0:0:0:0:
320,192,208999,128,0,209138:0:0:0:0:
448,192,208999,128,0,209278:0:0:0:0:
64,192,209278,1,0,0:0:0:80:snare.ogg
192,192,209278,128,0,209696:0:0:0:100:hihat-open.ogg
320,192,209278,1,0,0:0:0:0:
448,192,209417,128,0,209557:0:0:0:0:
64,192,209557,128,0,209696:0:0:0:0:
320,192,209696,128,0,210255:0:0:0:0:
64,192,209836,128,0,210255:0:0:0:80:kick.ogg
192,192,209836,128,0,210115:0:0:0:100:hihat-open.ogg
448,192,209836,1,0,0:0:0:0:
448,192,210115,128,0,210255:0:0:0:0:
192,192,210255,128,0,210673:0:0:0:0:
64,192,210394,1,0,0:0:0:80:snare.ogg
320,192,210394,1,0,0:0:0:100:hihat-open.ogg
448,192,210394,1,0,0:0:0:0:
64,192,210534,128,0,210673:0:0:0:0:
320,192,210673,128,0,210952:0:0:0:0:
64,192,210952,128,0,211789:0:0:0:80:kick.ogg
192,192,210952,128,0,211371:0:0:0:100:hihat-open.ogg
448,192,210952,1,0,0:0:0:0:
448,192,211231,128,0,211371:0:0:0:0:
192,192,211510,1,0,0:0:0:80:snare.ogg
320,192,211510,1,0,0:0:0:100:hihat-open.ogg
448,192,211510,1,0,0:0:0:0:
320,192,211650,128,0,211789:0:0:0:0:
64,192,212069,128,0,212487:0:0:0:80:kick.ogg
320,192,212069,128,0,212487:0:0:0:100:hihat-open.ogg
448,192,212069,128,0,212348:0:0:0:0:
192,192,212348,128,0,212487:0:0:0:0:
64,192,212627,1,0,0:0:0:80:snare.ogg
192,192,212627,1,0,0:0:0:100:hihat-open.ogg
320,192,212627,128,0,212906:0:0:0:0:
64,192,212766,128,0,212906:0:0:0:0:
448,192,212766,128,0,212906:0:0:0:0:
64,192,213185,1,0,0:0:0:80:kick.ogg
192,192,213185,128,0,213603:0:0:0:100:hihat-open.ogg
448,192,213185,1,0,0:0:0:0:
320,192,213464,128,0,213603:0:0:0:0:
448,192,213464,128,0,213603:0:0:0:0:
64,192,213743,1,0,0:0:0:80:snare.ogg
192,192,213743,1,0,0:0:0:100:hihat-open.ogg
448,192,213743,128,0,214022:0:0:0:0:
64,192,213882,128,0,214022:0:0:0:0:
192,192,214022,128,0,214580:0:0:0:0:
64,192,214301,128,0,214580:0:0:0:80:kick.ogg
320,192,214301,1,0,0:0:0:100:hihat-open.ogg
448,192,214301,128,0,214441:0:0:0:0:
320,192,214580,128,0,214720:0:0:0:0:
448,192,214580,128,0,214859:0:0:0:0:
64,192,214859,128,0,215138:0:0:0:80:snare.ogg
192,192,214859,1,0,0:0:0:100:hihat-open.ogg
320,192,214859,1,0,0:0:0:0:
192,192,214999,128,0,215138:0:0:0:0:
448,192,215138,128,0,215417:0:0:0:0:
64,192,215417,128,0,215696:0:0:0:80:kick.ogg
192,192,215417,1,0,0:0:0:100:hihat-open.ogg
320,192,215417,1,0,0:0:0:0:
192,192,215696,128,0,215836:0:0:0:0:
320,192,215696,128,0,215976:0:0:0:0:
64,192,215976,128,0,216255:0:0:0:80:snare.ogg
192,192,215976,1,0,0:0:0:100:hihat-open.ogg
448,192,215976,1,0,0:0:0:0:
448,192,216115,128,0,216255:0:0:0:0:
192,192,216255,128,0,216534:0:0:0:0:
64,192,216534,128,0,216952:0:0:0:80:kick.ogg
320,192,216534,128,0,216813:0:0:0:100:hihat-open.ogg
448,192,216534,128,0,216952:0:0:0:0:
192,192,216813,128,0,216952:0:0:0:0:
64,192,217092,128,0,217371:0:0:0:80:snare.ogg
320,192,217092,1,0,0:0:0:100:hihat-open.ogg
448,192,217092,1,0,0:0:0:0:
448,192,217231,128,0,217371:0:0:0:0:
192,192,217371,128,0,217510:0:0:0:0:
64,192,217650,1,0,0:0:0:80:kick.ogg
192,192,217650,128,0,217929:0:0:0:100:hihat-open.ogg
448,192,217650,1,0,0:0:0:0:
64,192,217929,128,0,218069:0:0:0:0:
320,192,217929,128,0,218069:0:0:0:0:
192,192,218208,1,0,0:0:0:80:snare.ogg
320,192,218208,1,0,0:0:0:100:hihat-open.ogg
448,192,218208,128,0,218627:0:0:0:0:
192,192,218348,128,0,218487:0:0:0:0:
64,192,218487,128,0,218627:0:0:0:0:
320,192,218627,128,0,219185:0:0:0:0:
64,192,218766,128,0,219185:0:0:0:80:kick.ogg
192,192,218766,128,0,219045:0:0:0:100:hihat-open.ogg
448,192,218766,1,0,0:0:0:0:
448,192,219045,128,0,219185:0:0:0:0:
192,192,219185,128,0,219603:0:0:0:0:
64,192,219324,1,0,0:0:0:80:snare.ogg
320,192,219324,1,0,0:0:0:100:hihat-open.ogg
448,192,219324,1,0,0:0:0:0:
320,192,219464,128,0,219603:0:0:0:0:
64,192,219603,128,0,219882:0:0:0:0:
192,192,219882,1,0,0:0:0:80:kick.ogg
320,192,219882,128,0,220301:0:0:0:100:hihat-open.ogg
448,192,219882,128,0,220720:0:0:0:0:
192,192,220162,128,0,220301:0:0:0:0:
64,192,220441,1,0,0:0:0:80:snare.ogg
192,192,220441,1,0,0:0:0:100:hihat-open.ogg
320,192,220441,1,0,0:0:0:0:
64,192,220580,128,0,220720:0:0:0:0:
64,192,220999,128,0,221278:0:0:0:80:kick.ogg
192,192,220999,128,0,221417:0:0:0:100:hihat-open.ogg
448,192,220999,128,0,221417:0:0:0:0:
320,192,221278,128,0,221417:0:0:0:0:
64,192,221557,1,0,0:0:0:80:snare.ogg
192,192,221557,1,0,0:0:0:100:hihat-open.ogg
320,192,221557,128,0,221836:0:0:0:0:
64,192,221696,128,0,221836:0:0:0:0:
448,192,221836,128,0,221976:0:0:0:0:
64,192,222115,1,0,0:0:0:80:kick.ogg
192,192,222115,128,0,222394:0:0:0:100:hihat-open.ogg
448,192,222115,1,0,0:0:0:0:
320,192,222394,128,0,222534:0:0:0:0:
448,192,222394,128,0,222534:0:0:0:0:
64,192,222673,1,0,0:0:0:80:snare.ogg
192,192,222673,128,0,222952:0:0:0:100:hihat-open.ogg
320,192,222673,1,0,0:0:0:0:
448,192,222813,128,0,222952:0:0:0:0:
64,192,222952,128,0,223510:0:0:0:0:
192,192,223231,128,0,223650:0:0:0:80:kick.ogg
320,192,223231,1,0,0:0:0:100:hihat-open.ogg
448,192,223231,128,0,223371:0:0:0:0:
320,192,223510,128,0,223650:0:0:0:0:
448,192,223510,128,0,223789:0:0:0:0:
64,192,223789,1,0,0:0:0:80:snare.ogg
192,192,223789,128,0,224069:0:0:0:100:hihat-open.ogg
320,192,223789,1,0,0:0:0:0:
64,192,223929,128,0,224069:0:0:0:0:
448,192,224069,128,0,224348:0:0:0:0:
64,192,224348,1,0,0:0:0:80:kick.ogg
192,192,224348,1,0,0:0:0:100:hihat-open.ogg
320,192,224348,1,0,0:0:0:0:
192,192,224487,1,0,0:0:0:80:snare.ogg
320,192,224487,1,0,0:0:0:0:
64,192,224627,1,0,0:0:0:0:
448,192,224627,1,0,0:0:0:0:
64,192,224906,1,0,0:0:0:80:snare.ogg
192,192,224906,1,0,0:0:0:100:hihat-open.ogg
64,192,225045,1,0,0:0:0:80:snare.ogg
448,192,225045,1,0,0:0:0:0:
192,192,225185,1,0,0:0:0:80:snare.ogg
320,192,225185,1,0,0:0:0:0:
64,192,225324,1,0,0:0:0:80:snare.ogg
448,192,225324,1,0,0:0:0:0:
320,192,225464,1,0,0:0:0:80:kick.wav
448,192,225464,1,0,0:0:0:0:
192,192,225603,1,0,0:0:0:0:
64,192,225743,1,0,0:0:0:0:
448,192,225882,1,0,0:0:0:0:
64,192,226022,1,0,0:0:0:80:snare.ogg
192,192,226022,128,0,226301:0:0:0:100:hihat-open.ogg
320,192,226022,1,0,0:0:0:70:cymbal12.ogg
64,192,226162,128,0,226301:0:0:0:0:
448,192,226162,128,0,226441:0:0:0:0:
320,192,226301,128,0,226441:0:0:0:0:
192,192,226441,1,0,0:0:0:0:
64,192,226580,1,0,0:0:0:80:kick.ogg
320,192,226580,128,0,226999:0:0:0:100:hihat-open.ogg
448,192,226580,1,0,0:0:0:0:
64,192,226859,128,0,227138:0:0:0:0:
192,192,226859,128,0,226999:0:0:0:0:
192,192,227138,1,0,0:0:0:80:snare.ogg
320,192,227138,128,0,227557:0:0:0:100:hihat-open.ogg
448,192,227138,1,0,0:0:0:0:
64,192,227278,128,0,227417:0:0:0:0:
448,192,227417,128,0,227557:0:0:0:0:
192,192,227557,128,0,228115:0:0:0:0:
64,192,227696,1,0,0:0:0:80:kick.ogg
320,192,227696,128,0,227976:0:0:0:100:hihat-open.ogg
448,192,227696,128,0,228115:0:0:0:0:
64,192,227976,128,0,228115:0:0:0:0:
320,192,228115,128,0,228534:0:0:0:0:
64,192,228255,1,0,0:0:0:80:snare.ogg
192,192,228255,1,0,0:0:0:100:hihat-open.ogg
448,192,228255,1,0,0:0:0:0:
448,192,228394,128,0,228534:0:0:0:0:
192,192,228534,128,0,228813:0:0:0:0:
64,192,228813,1,0,0:0:0:80:kick.ogg
320,192,228813,128,0,229231:0:0:0:100:hihat-open.ogg
448,192,228813,128,0,229650:0:0:0:0:
64,192,229092,128,0,229231:0:0:0:0:
64,192,229371,1,0,0:0:0:80:snare.ogg
192,192,229371,1,0,0:0:0:100:hihat-open.ogg
320,192,229371,1,0,0:0:0:0:
192,192,229510,128,0,229650:0:0:0:0:
320,192,229650,1,0,0:0:0:0:
64,192,229929,128,0,230208:0:0:0:80:kick.ogg
192,192,229929,128,0,230348:0:0:0:100:hihat-open.ogg
448,192,229929,128,0,230348:0:0:0:0:
320,192,230208,128,0,230348:0:0:0:0:
192,192,230487,128,0,230766:0:0:0:80:snare.ogg
320,192,230487,1,0,0:0:0:100:hihat-open.ogg
448,192,230487,1,0,0:0:0:0:
64,192,230627,128,0,230766:0:0:0:0:
448,192,230627,128,0,230766:0:0:0:0:
320,192,230766,1,0,0:0:0:0:
64,192,231045,1,0,0:0:0:80:kick.ogg
320,192,231045,128,0,231464:0:0:0:100:hihat-open.ogg
448,192,231045,1,0,0:0:0:0:
64,192,231324,128,0,231464:0:0:0:0:
192,192,231324,128,0,231464:0:0:0:0:
64,192,231603,128,0,231882:0:0:0:80:snare.ogg
320,192,231603,1,0,0:0:0:100:hihat-open.ogg
448,192,231603,1,0,0:0:0:0:
448,192,231743,128,0,231882:0:0:0:0:
320,192,231882,128,0,232441:0:0:0:0:
64,192,232162,128,0,232301:0:0:0:80:kick.ogg
192,192,232162,1,0,0:0:0:100:hihat-open.ogg
448,192,232162,128,0,232441:0:0:0:0:
64,192,232441,128,0,232720:0:0:0:0:
192,192,232441,128,0,232580:0:0:0:0:
192,192,232720,1,0,0:0:0:80:snare.ogg
320,192,232720,1,0,0:0:0:100:hihat-open.ogg
448,192,232720,128,0,232999:0:0:0:0:
320,192,232859,128,0,232999:0:0:0:0:
64,192,232999,128,0,233278:0:0:0:0:
192,192,233278,1,0,0:0:0:80:kick.ogg
320,192,233278,1,0,0:0:0:100:hihat-open.ogg
448,192,233278,128,0,233557:0:0:0:0:
192,192,233557,128,0,233836:0:0:0:0:
320,192,233557,128,0,233696:0:0:0:0:
64,192,233836,1,0,0:0:0:80:snare.ogg
320,192,233836,1,0,0:0:0:100:hihat-open.ogg
448,192,233836,128,0,234115:0:0:0:0:
64,192,233976,128,0,234115:0:0:0:0:
320,192,234115,128,0,234394:0:0:0:0:
64,192,234394,128,0,234813:0:0:0:80:kick.ogg
192,192,234394,128,0,234673:0:0:0:100:hihat-open.ogg
448,192,234394,128,0,234813:0:0:0:0:
320,192,234673,128,0,234813:0:0:0:0:
64,192,234952,1,0,0:0:0:80:snare.ogg
192,192,234952,1,0,0:0:0:100:hihat-open.ogg
448,192,234952,128,0,235231:0:0:0:0:
64,192,235092,128,0,235231:0:0:0:0:
320,192,235231,128,0,235371:0:0:0:0:
64,192,235510,1,0,0:0:0:80:kick.ogg
320,192,235510,128,0,235789:0:0:0:100:hihat-open.ogg
448,192,235510,1,0,0:0:0:0:
192,192,235789,128,0,235929:0:0:0:0:
448,192,235789,128,0,235929:0:0:0:0:
64,192,236069,128,0,236487:0:0:0:80:snare.ogg
192,192,236069,1,0,0:0:0:100:hihat-open.ogg
320,192,236069,1,0,0:0:0:0:
320,192,236208,128,0,236348:0:0:0:0:
448,192,236348,128,0,236487:0:0:0:0:
192,192,236487,128,0,237045:0:0:0:0:
64,192,236627,1,0,0:0:0:80:kick.ogg
320,192,236627,1,0,0:0:0:100:hihat-open.ogg
448,192,236627,128,0,236906:0:0:0:0:
64,192,236906,128,0,237045:0:0:0:0:
320,192,237045,128,0,237464:0:0:0:0:
64,192,237185,1,0,0:0:0:80:snare.ogg
192,192,237185,1,0,0:0:0:100:hihat-open.ogg
448,192,237185,1,0,0:0:0:0:
192,192,237324,128,0,237464:0:0:0:0:
448,192,237464,128,0,237743:0:0:0:0:
64,192,237743,128,0,238580:0:0:0:80:kick.ogg
192,192,237743,128,0,238162:0:0:0:100:hihat-open.ogg
320,192,237743,1,0,0:0:0:0:
320,192,238022,128,0,238162:0:0:0:0:
192,192,238301,1,0,0:0:0:80:snare.ogg
320,192,238301,1,0,0:0:0:100:hihat-open.ogg
448,192,238301,1,0,0:0:0:0:
448,192,238441,128,0,238580:0:0:0:0:
192,192,238580,1,0,0:0:0:0:
64,192,238859,128,0,239278:0:0:0:80:kick.ogg
320,192,238859,128,0,239278:0:0:0:100:hihat-open.ogg
448,192,238859,128,0,239138:0:0:0:0:
192,192,239138,128,0,239278:0:0:0:0:
192,192,239417,128,0,239696:0:0:0:80:snare.ogg
320,192,239417,1,0,0:0:0:100:hihat-open.ogg
448,192,239417,1,0,0:0:0:0:
448,192,239557,128,0,239696:0:0:0:0:
64,192,239696,128,0,239836:0:0:0:0:
64,192,239976,1,0,0:0:0:80:kick.ogg
320,192,239976,128,0,240255:0:0:0:100:hihat-open.ogg
448,192,239976,1,0,0:0:0:0:
64,192,240255,128,0,240394:0:0:0:0:
192,192,240255,128,0,240394:0:0:0:0:
192,192,240534,1,0,0:0:0:80:snare.ogg
320,192,240534,128,0,240813:0:0:0:100:hihat-open.ogg
448,192,240534,1,0,0:0:0:0:
64,192,240673,128,0,240813:0:0:0:0:
448,192,240813,128,0,241371:0:0:0:0:
64,192,241092,1,0,0:0:0:80:kick.ogg
192,192,241092,1,0,0:0:0:100:hihat-open.ogg
320,192,241092,128,0,241510:0:0:0:0:
64,192,241371,128,0,241650:0:0:0:0:
192,192,241371,128,0,241510:0:0:0:0:
192,192,241650,1,0,0:0:0:80:snare.ogg
320,192,241650,128,0,241929:0:0:0:100:hihat-open.ogg
448,192,241650,1,0,0:0:0:0:
448,192,241789,128,0,241929:0:0:0:0:
64,192,241929,128,0,242208:0:0:0:0:
192,192,242208,1,0,0:0:0:80:kick.ogg
320,192,242208,1,0,0:0:0:100:hihat-open.ogg
448,192,242208,1,0,0:0:0:0:
192,192,242348,1,0,0:0:0:80:snare.ogg
320,192,242348,1,0,0:0:0:0:
64,192,242487,1,0,0:0:0:0:
448,192,242487,1,0,0:0:0:0:
320,192,242766,1,0,0:0:0:80:snare.ogg
448,192,242766,1,0,0:0:0:100:hihat-open.ogg
192,192,242906,1,0,0:0:0:0:
64,192,243045,1,0,0:0:0:80:snare.ogg
448,192,243045,1,0,0:0:0:0:
64,192,243185,1,0,0:0:0:80:snare.ogg
448,192,243185,1,0,0:0:0:0:
192,192,243324,128,0,243464:0:0:0:80:kick.ogg
320,192,243324,1,0,0:0:0:0:
320,192,243603,128,0,243743:0:0:0:0:
192,192,243743,128,0,243882:0:0:0:0:
64,192,243882,1,0,0:0:0:80:snare.ogg
448,192,243882,1,0,0:0:0:100:hihat-open.ogg
192,192,244022,128,0,244301:0:0:0:0:
448,192,244022,128,0,244301:0:0:0:0:
64,192,244162,128,0,244301:0:0:0:0:
320,192,244301,1,0,0:0:0:0:
64,192,244441,1,0,0:0:0:80:kick.ogg
320,192,244441,1,0,0:0:0:100:hihat-open.ogg
64,192,244580,128,0,244720:0:0:0:0:
320,192,244720,128,0,244999:0:0:0:0:
448,192,244720,128,0,244859:0:0:0:0:
192,192,244859,128,0,244999:0:0:0:0:
64,192,244999,128,0,245138:0:0:0:80:snare.ogg
448,192,244999,1,0,0:0:0:100:hihat-open.ogg
320,192,245138,128,0,245487:0:0:0:0:
448,192,245138,128,0,245348:0:0:0:0:
192,192,245278,128,0,245348:0:0:0:0:
192,192,245417,128,0,245487:0:0:0:0:
64,192,245557,128,0,245976:0:0:0:80:kick.ogg
192,192,245557,128,0,245836:0:0:0:100:hihat-open.ogg
448,192,245557,128,0,245696:0:0:0:0:
320,192,245696,1,0,0:0:0:0:
448,192,245836,128,0,246115:0:0:0:0:
320,192,245976,128,0,246115:0:0:0:0:
64,192,246115,1,0,0:0:0:80:snare.ogg
192,192,246115,1,0,0:0:0:100:hihat-open.ogg
64,192,246255,128,0,246534:0:0:0:0:
448,192,246255,128,0,246534:0:0:0:0:
192,192,246394,128,0,246534:0:0:0:0:
320,192,246534,1,0,0:0:0:0:
64,192,246673,1,0,0:0:0:80:kick.ogg
448,192,246673,1,0,0:0:0:100:hihat-open.ogg
320,192,246813,128,0,246952:0:0:0:0:
64,192,246952,128,0,247231:0:0:0:0:
192,192,246952,128,0,247092:0:0:0:0:
448,192,247092,128,0,247231:0:0:0:0:
192,192,247231,1,0,0:0:0:80:snare.ogg
320,192,247231,128,0,247371:0:0:0:100:hihat-open.ogg
64,192,247371,128,0,247580:0:0:0:0:
192,192,247371,128,0,247720:0:0:0:0:
320,192,247510,128,0,247580:0:0:0:0:
320,192,247650,128,0,247720:0:0:0:0:
64,192,247789,128,0,248069:0:0:0:80:kick.ogg
320,192,247789,128,0,247929:0:0:0:100:hihat-open.ogg
448,192,247789,128,0,248208:0:0:0:0:
192,192,247929,1,0,0:0:0:0:
320,192,248069,128,0,248348:0:0:0:0:
192,192,248208,128,0,248348:0:0:0:0:
64,192,248348,1,0,0:0:0:80:snare.ogg
448,192,248348,1,0,0:0:0:100:hihat-open.ogg
64,192,248487,128,0,248766:0:0:0:0:
192,192,248487,128,0,248766:0:0:0:0:
448,192,248627,128,0,248766:0:0:0:0:
320,192,248766,1,0,0:0:0:0:
64,192,248906,1,0,0:0:0:80:kick.ogg
320,192,248906,1,0,0:0:0:100:hihat-open.ogg
192,192,249045,128,0,249185:0:0:0:0:
64,192,249185,128,0,249464:0:0:0:0:
448,192,249185,128,0,249324:0:0:0:0:
320,192,249324,128,0,249464:0:0:0:0:
192,192,249464,1,0,0:0:0:80:snare.ogg
448,192,249464,128,0,249603:0:0:0:100:hihat-open.ogg
64,192,249603,128,0,249813:0:0:0:0:
192,192,249603,128,0,249952:0:0:0:0:
320,192,249743,128,0,249813:0:0:0:0:
320,192,249882,128,0,249952:0:0:0:0:
64,192,250022,128,0,250162:0:0:0:80:kick.ogg
320,192,250022,128,0,250301:0:0:0:100:hihat-open.ogg
448,192,250022,128,0,250441:0:0:0:0:
192,192,250162,1,0,0:0:0:0:
64,192,250301,128,0,250580:0:0:0:0:
192,192,250441,128,0,250580:0:0:0:0:
320,192,250580,1,0,0:0:0:80:snare.ogg
448,192,250580,1,0,0:0:0:100:hihat-open.ogg
64,192,250720,128,0,250999:0:0:0:0:
448,192,250720,128,0,250999:0:0:0:0:
320,192,250859,128,0,250999:0:0:0:0:
192,192,250999,1,0,0:0:0:0:
320,192,251138,1,0,0:0:0:80:kick.ogg
448,192,251138,1,0,0:0:0:100:hihat-open.ogg
64,192,251278,128,0,251417:0:0:0:0:
192,192,251417,128,0,251557:0:0:0:0:
448,192,251417,128,0,251696:0:0:0:0:
320,192,251557,1,0,0:0:0:0:
64,192,251696,128,0,251836:0:0:0:80:snare.ogg
192,192,251696,1,0,0:0:0:100:hihat-open.ogg
320,192,251836,128,0,252185:0:0:0:0:
448,192,251836,128,0,252045:0:0:0:0:
192,192,251976,128,0,252045:0:0:0:0:
192,192,252115,128,0,252185:0:0:0:0:
64,192,252255,128,0,252534:0:0:0:80:kick.ogg
320,192,252255,128,0,252394:0:0:0:100:hihat-open.ogg
448,192,252255,128,0,252673:0:0:0:0:
192,192,252394,1,0,0:0:0:0:
320,192,252534,128,0,252813:0:0:0:0:
192,192,252673,128,0,252813:0:0:0:0:
64,192,252813,1,0,0:0:0:80:snare.ogg
448,192,252813,1,0,0:0:0:100:hihat-open.ogg
64,192,252952,128,0,253231:0:0:0:0:
192,192,252952,128,0,253231:0:0:0:0:
448,192,253092,128,0,253231:0:0:0:0:
320,192,253231,1,0,0:0:0:0:
64,192,253371,1,0,0:0:0:80:kick.ogg
320,192,253371,1,0,0:0:0:100:hihat-open.ogg
192,192,253510,128,0,253650:0:0:0:0:
64,192,253650,128,0,253929:0:0:0:0:
448,192,253650,128,0,253789:0:0:0:0:
320,192,253789,128,0,253929:0:0:0:0:
192,192,253929,1,0,0:0:0:80:snare.ogg
448,192,253929,128,0,254069:0:0:0:100:hihat-open.ogg
64,192,254069,128,0,254278:0:0:0:0:
192,192,254069,128,0,254417:0:0:0:0:
320,192,254208,128,0,254278:0:0:0:0:
320,192,254348,128,0,254417:0:0:0:0:
64,192,254487,128,0,254627:0:0:0:80:kick.ogg
320,192,254487,128,0,254766:0:0:0:100:hihat-open.ogg
448,192,254487,128,0,254906:0:0:0:0:
192,192,254627,1,0,0:0:0:0:
64,192,254766,128,0,255045:0:0:0:0:
192,192,254906,128,0,255045:0:0:0:0:
320,192,255045,1,0,0:0:0:80:snare.ogg
448,192,255045,1,0,0:0:0:100:hihat-open.ogg
64,192,255185,128,0,255464:0:0:0:0:
448,192,255185,128,0,255464:0:0:0:0:
320,192,255324,128,0,255464:0:0:0:0:
192,192,255464,1,0,0:0:0:0:
320,192,255603,1,0,0:0:0:80:kick.ogg
448,192,255603,1,0,0:0:0:100:hihat-open.ogg
64,192,255743,128,0,255882:0:0:0:0:
192,192,255882,128,0,256022:0:0:0:0:
448,192,255882,128,0,256162:0:0:0:0:
320,192,256022,1,0,0:0:0:0:
64,192,256162,128,0,256301:0:0:0:80:snare.ogg
192,192,256162,1,0,0:0:0:100:hihat-open.ogg
320,192,256301,128,0,256650:0:0:0:0:
448,192,256301,128,0,256510:0:0:0:0:
192,192,256441,128,0,256510:0:0:0:0:
192,192,256580,128,0,256650:0:0:0:0:
64,192,256720,128,0,256859:0:0:0:80:kick.ogg
320,192,256720,128,0,256999:0:0:0:100:hihat-open.ogg
448,192,256720,128,0,257138:0:0:0:0:
192,192,256859,1,0,0:0:0:0:
64,192,256999,128,0,257278:0:0:0:0:
192,192,257138,128,0,257278:0:0:0:0:
320,192,257278,1,0,0:0:0:80:snare.ogg
448,192,257278,1,0,0:0:0:100:hihat-open.ogg
64,192,257417,128,0,257696:0:0:0:0:
448,192,257417,128,0,257696:0:0:0:0:
320,192,257557,128,0,257696:0:0:0:0:
192,192,257696,1,0,0:0:0:0:
64,192,257836,1,0,0:0:0:80:kick.ogg
448,192,257836,1,0,0:0:0:100:hihat-open.ogg
192,192,257976,128,0,258115:0:0:0:0:
320,192,258115,128,0,258255:0:0:0:0:
448,192,258115,128,0,258394:0:0:0:0:
64,192,258255,128,0,258394:0:0:0:0:
192,192,258394,128,0,258534:0:0:0:80:snare.ogg
320,192,258394,1,0,0:0:0:100:hihat-open.ogg
320,192,258534,128,0,258882:0:0:0:0:
448,192,258534,128,0,258743:0:0:0:0:
192,192,258673,128,0,258743:0:0:0:0:
192,192,258813,128,0,258882:0:0:0:0:
64,192,258952,1,0,0:0:0:80:kick.ogg
320,192,258952,128,0,259231:0:0:0:100:hihat-open.ogg
448,192,258952,128,0,259092:0:0:0:0:
192,192,259092,1,0,0:0:0:0:
64,192,259231,128,0,259371:0:0:0:100:snare-enddrop1.ogg
192,192,259231,128,0,259510:0:0:0:0:
448,192,259231,1,0,0:0:0:0:
320,192,259371,128,0,259510:0:0:0:0:
448,192,259510,1,0,0:0:0:0:
64,192,259650,1,0,0:0:0:100:snare-enddrop1.ogg
320,192,259650,128,0,259929:0:0:0:0:
448,192,259650,128,0,259789:0:0:0:0:
192,192,259789,128,0,259929:0:0:0:0:
64,192,259929,1,0,0:0:0:0:
64,192,260069,128,0,260208:0:0:0:100:snare-enddrop1.ogg
192,192,260069,128,0,260348:0:0:0:0:
448,192,260069,1,0,0:0:0:0:
320,192,260208,128,0,260348:0:0:0:0:
448,192,260348,1,0,0:0:0:0:
192,192,260487,128,0,260627:0:0:0:0:
64,192,260627,1,0,0:0:0:70:snare-enddrop2.ogg
320,192,260627,1,0,0:0:0:0:
192,192,260906,1,0,0:0:0:70:snare-enddrop2.ogg
320,192,260906,1,0,0:0:0:0:
192,192,261045,1,0,0:0:0:70:snare-enddrop2.ogg
320,192,261045,1,0,0:0:0:0:
64,192,261185,1,0,0:0:0:45:kick-soft.ogg
448,192,261185,1,0,0:0:0:0:
64,192,261464,1,0,0:0:0:0:
192,192,261603,1,0,0:0:0:0:
320,192,261743,128,0,262022:0:0:0:0:
448,192,261882,128,0,262022:0:0:0:0:
64,192,262022,1,0,0:0:0:0:
192,192,262301,128,0,269836:0:0:0:70:rimshot.ogg
448,192,262301,1,0,0:0:0:0:
320,192,262441,1,0,0:0:0:0:
320,192,262720,1,0,0:0:0:0:
448,192,262859,128,0,263138:0:0:0:0:
320,192,263138,1,0,0:0:0:0:
320,192,263278,1,0,0:0:0:0:
64,192,263417,1,0,0:0:0:45:kick-soft.ogg
448,192,263417,1,0,0:0:0:0:
320,192,263696,1,0,0:0:0:0:
64,192,263836,1,0,0:0:0:0:
320,192,263976,128,0,264255:0:0:0:0:
448,192,264115,1,0,0:0:0:0:
64,192,264255,1,0,0:0:0:0:
64,192,264534,1,0,0:0:0:70:rimshot.ogg
448,192,264534,1,0,0:0:0:0:
320,192,264673,1,0,0:0:0:0:
320,192,264952,1,0,0:0:0:0:
448,192,265092,128,0,265371:0:0:0:0:
64,192,265371,1,0,0:0:0:0:
64,192,265510,1,0,0:0:0:0:
320,192,265650,1,0,0:0:0:45:kick-soft.ogg
448,192,265650,1,0,0:0:0:0:
64,192,265929,1,0,0:0:0:0:
320,192,266069,1,0,0:0:0:0:
64,192,266208,128,0,266487:0:0:0:0:
448,192,266348,1,0,0:0:0:0:
320,192,266487,1,0,0:0:0:0:
320,192,266766,1,0,0:0:0:70:rimshot.ogg
448,192,266766,1,0,0:0:0:0:
64,192,266906,1,0,0:0:0:0:
64,192,267185,1,0,0:0:0:0:
448,192,267324,128,0,267603:0:0:0:0:
320,192,267603,1,0,0:0:0:0:
320,192,267743,1,0,0:0:0:0:
64,192,267882,1,0,0:0:0:45:kick-soft.ogg
320,192,268162,1,0,0:0:0:0:
448,192,268301,1,0,0:0:0:0:
64,192,268441,128,0,268720:0:0:0:0:
320,192,268580,1,0,0:0:0:0:
448,192,268720,1,0,0:0:0:0:
64,192,268999,1,0,0:0:0:70:rimshot.ogg
320,192,268999,1,0,0:0:0:0:
448,192,269138,1,0,0:0:0:0:
448,192,269417,1,0,0:0:0:0:
320,192,269557,128,0,269836:0:0:0:0:
64,192,269836,1,0,0:0:0:0:
64,192,269976,1,0,0:0:0:0:
192,192,270115,1,0,0:0:0:45:kick-soft.ogg
448,192,270115,1,0,0:0:0:0:
320,192,270394,1,0,0:0:0:0:
192,192,270534,1,0,0:0:0:0:
64,192,270813,1,0,0:0:0:0:
320,192,270952,1,0,0:0:0:0:
64,192,271231,1,0,0:0:0:70:rimshot.ogg
192,192,271231,1,0,0:0:0:0:
448,192,271371,1,0,0:0:0:0:
320,192,271650,1,0,0:0:0:0:
192,192,271789,1,0,0:0:0:0:
320,192,272069,1,0,0:0:0:0:
320,192,272208,1,0,0:0:0:0:
64,192,272348,1,0,0:0:0:45:kick-soft.ogg
192,192,272348,1,0,0:0:0:0:
64,192,272627,1,0,0:0:0:0:
192,192,272766,1,0,0:0:0:0:
320,192,273045,1,0,0:0:0:0:
448,192,273185,1,0,0:0:0:0:
192,192,273464,1,0,0:0:0:70:rimshot.ogg
448,192,273464,1,0,0:0:0:0:
320,192,273603,1,0,0:0:0:0:
192,192,273882,1,0,0:0:0:0:
64,192,274022,1,0,0:0:0:0:
192,192,274301,1,0,0:0:0:0:
192,192,274441,1,0,0:0:0:0:
320,192,274580,1,0,0:0:0:45:kick-soft.ogg
448,192,274580,1,0,0:0:0:0:
320,192,274859,1,0,0:0:0:0:
192,192,274999,1,0,0:0:0:0:
64,192,275278,1,0,0:0:0:0:
192,192,275417,1,0,0:0:0:0:
64,192,275696,1,0,0:0:0:70:rimshot.ogg
320,192,275696,1,0,0:0:0:0:
448,192,275836,1,0,0:0:0:0:
320,192,276115,1,0,0:0:0:0:
192,192,276255,1,0,0:0:0:0:
448,192,276534,1,0,0:0:0:0:
448,192,276673,1,0,0:0:0:0:
64,192,276813,1,0,0:0:0:45:kick-soft.ogg
320,192,276813,1,0,0:0:0:0:
192,192,277092,1,0,0:0:0:0:
64,192,277231,1,0,0:0:0:0:
320,192,277510,1,0,0:0:0:0:
192,192,277650,1,0,0:0:0:0:
448,192,277650,1,0,0:0:0:0:
64,192,277929,1,0,0:0:0:70:rimshot.ogg
448,192,277929,1,0,0:0:0:0:
192,192,278069,1,0,0:0:0:0:
192,192,278348,1,0,0:0:0:0:
320,192,278487,1,0,0:0:0:0:
448,192,278766,1,0,0:0:0:0:
448,192,278906,1,0,0:0:0:0:
192,192,279090,128,0,281322:0:0:0:0:
64,192,279090,128,0,283555:0:0:0:0:
320,192,281322,1,0,0:0:0:0:
448,192,282438,1,0,0:0:0:0:
320,192,283555,128,0,286903:0:0:0:0:
192,192,283555,128,0,288020:0:0:0:0:
448,192,286903,128,0,288020:0:0:0:0:
64,192,288020,128,0,290252:0:0:0:0:
320,192,288020,128,0,292485:0:0:0:0:
192,192,290252,1,0,0:0:0:0:
448,192,291369,1,0,0:0:0:0:
64,192,292485,128,0,292915:0:0:0:0:
448,192,292485,128,0,300564:0:0:0:0:
192,192,292659,1,0,0:0:0:0:
320,192,292756,1,0,0:0:0:0:
192,192,292915,1,0,0:0:0:0:
320,192,293120,1,0,0:0:0:0:
64,192,293363,1,0,0:0:0:0:
192,192,293638,1,0,0:0:0:0:
320,192,294010,1,0,0:0:0:0:
64,192,294264,1,0,0:0:0:0:
192,192,294704,128,0,300564:0:0:0:0:
320,192,295820,128,0,300564:0:0:0:0:
