osu file format v14

[General]
AudioFilename: audio.mp3
AudioLeadIn: 0
PreviewTime: 0
Countdown: 0
SampleSet: None
StackLeniency: 0.7
Mode: 2
LetterboxInBreaks: 0
WidescreenStoryboard: 1

[Editor]
Bookmarks: 25840,36300,46678,67435,72624,83002,93381,103435,108948,119327,129705,140083,150462,160840,191975,212732
DistanceSpacing: 0.9
BeatDivisor: 4
GridSize: 8
TimelineZoom: 0.9000001

[Metadata]
Title:In Circles
TitleUnicode:In Circles
Artist:Creo
ArtistUnicode:Creo
Creator:salchow
Version:Salad
Source:osu!
Tags:fa featured artist wonjae chickenbible Nelly Rocma EP
BeatmapID:2026789
BeatmapSetID:965558

[Difficulty]
HPDrainRate:4
CircleSize:3.3
OverallDifficulty:7
ApproachRate:7
SliderMultiplier:1.4
SliderTickRate:1

[Events]
//Background and Video events
0,0,"In circles.jpg",0,0
//Break Periods
2,26121,35400
2,109148,118427
2,161040,170319
//Storyboard Layer 0 (Background)
//Storyboard Layer 1 (Fail)
//Storyboard Layer 2 (Pass)
//Storyboard Layer 3 (Foreground)
//Storyboard Sound Samples

[TimingPoints]
5165,324.324324324324,4,2,2,50,1,0
36300,-100,4,1,2,50,0,0
44083,-100,4,2,2,70,0,0
44732,-100,4,2,2,40,0,0
45381,-100,4,2,2,30,0,0
46029,-83.3333333333333,4,1,2,20,0,0
46678,-83.3333333333333,4,1,2,60,0,1
67435,-83.3333333333333,4,3,2,59,0,0
69381,-83.3333333333333,4,3,2,29,0,0
69462,-83.3333333333333,4,3,2,59,0,0
71975,-83.3333333333333,4,3,2,29,0,0
72056,-83.3333333333333,4,3,2,49,0,0
93381,-83.3333333333333,4,1,2,60,0,0
119327,-83.3333333333333,4,2,2,50,0,0
124516,-83.3333333333333,4,1,2,50,0,0
129705,-83.3333333333333,4,3,2,60,0,0
137489,-100,4,3,2,60,0,0
138137,-83.3333333333333,4,3,2,60,0,0
147867,-100,4,3,2,60,0,0
148516,-83.3333333333333,4,3,2,60,0,0
171219,-100,4,2,2,50,0,0
181597,-100,4,1,2,50,0,0
189381,-100,4,1,2,70,0,0
190029,-100,4,1,2,40,0,0
190678,-100,4,1,2,30,0,0
191327,-83.3333333333333,4,1,2,20,0,0
191975,-83.3333333333333,4,1,2,60,0,1
223110,333.324324324324,4,3,2,59,1,0
223110,-83.3333333333333,4,3,2,59,0,0
224443,365.853658536585,4,3,2,40,1,0
225906,377.358490566038,4,3,2,40,1,0
226660,387.096774193548,4,3,2,40,1,0
227434,400,4,3,2,40,1,0
228234,413.793103448276,4,3,2,40,1,0
229061,425.531914893617,4,3,2,30,1,0
229061,-133.333333333333,4,3,2,30,0,0

[Colours]
Combo1 : 188,71,126
Combo2 : 0,64,128
Combo3 : 0,128,128
Combo4 : 54,168,205

[HitObjects]
392,232,4516,5,8,0:0:0:0:
208,200,5164,2,0,P|160:184|216:144,1,140,0|0,0:0|0:0,0:0:0:0:
336,128,5813,1,2,0:0:0:0:
206,128,6137,2,0,B|64:128|64:128|224:128,1,280,0|0,0:0|1:0,0:0:0:0:
336,128,7110,2,0,L|336:280,1,140,2|0,0:0|0:0,0:0:0:0:
72,280,7759,6,0,L|360:240,1,280,0|2,1:0|0:0,0:0:0:0:
200,208,8732,1,0,0:0:0:0:
349,241,9056,2,0,L|349:89,1,140,0|0,1:0|0:0,0:0:0:0:
200,208,9705,2,0,L|130:208,1,70,2|0,0:0|0:0,0:0:0:0:
440,64,10354,6,0,L|440:208,1,140,0|0,1:0|0:0,0:0:0:0:
296,200,11002,1,2,0:0:0:0:
440,208,11327,2,0,L|280:208,2,140,0|0|0,0:0|1:0|1:0,0:0:0:0:
300,208,12300,2,0,P|303:286|359:358,1,140,2|0,0:0|0:0,0:0:0:0:
57,343,12948,6,0,P|49:279|225:175,1,280,0|2,1:0|0:0,0:0:0:0:
112,96,13921,1,0,0:0:0:0:
240,168,14246,2,0,P|287:141|239:93,1,140,0|0,1:0|0:0,0:0:0:0:
104,96,14894,2,0,L|16:96,1,70,2|0,0:0|0:0,0:0:0:0:
328,208,15543,6,0,P|376:192|320:152,1,140,0|0,1:0|0:0,0:0:0:0:
184,136,16192,1,2,0:0:0:0:
330,136,16516,2,0,P|389:121|311:-18,1,280,0|0,0:0|0:0,0:0:0:0:
192,128,17489,2,0,P|159:193|217:252,1,140,2|0,0:0|0:0,0:0:0:0:
464,288,18138,6,0,L|176:248,1,280,0|2,1:0|0:0,0:0:0:0:
336,216,19111,1,0,0:0:0:0:
187,249,19435,2,0,L|187:97,1,140,0|0,1:0|0:0,0:0:0:0:
336,216,20084,2,0,L|406:216,1,70,2|0,0:0|0:0,0:0:0:0:
96,72,20733,6,0,L|96:216,1,140,0|0,1:0|0:0,0:0:0:0:
231,210,21381,1,2,0:0:0:0:
87,218,21706,2,0,L|247:218,2,140,0|0|0,0:0|1:0|1:0,0:0:0:0:
227,218,22679,2,0,P|224:296|168:368,1,140,2|0,0:0|0:0,0:0:0:0:
448,352,23327,6,0,P|480:296|336:176,1,280,0|2,1:0|0:0,0:0:0:0:
464,136,24300,1,0,0:0:0:0:
351,171,24625,2,0,P|304:144|352:96,1,140,2|0,0:0|0:0,0:0:0:0:
464,136,25273,2,0,L|376:136,1,70,2|0,0:0|0:0,0:0:0:0:
64,128,25921,5,4,0:0:0:0:
88,312,36300,6,0,P|96:224|256:136,1,280,0|0,3:0|1:0,0:0:0:0:
416,184,37597,2,0,P|408:96|248:8,1,280,0|0,3:0|1:0,0:0:0:0:
88,312,38894,6,0,P|96:224|256:136,1,280,0|0,3:0|1:0,0:0:0:0:
416,184,40192,2,0,P|408:96|248:8,1,280,0|0,3:0|1:0,0:0:0:0:
88,48,41489,6,0,L|88:200,1,140,0|0,0:0|0:0,0:0:0:0:
208,160,42137,2,0,L|208:304,1,140,0|0,0:0|0:0,0:0:0:0:
336,240,42786,2,0,L|336:392,1,140,0|0,0:0|0:0,0:0:0:0:
78,367,43435,1,0,0:0:0:0:
392,336,44083,6,0,P|432:272|288:184,2,280,8|8|8,0:0|0:0|0:0,0:0:0:0:
284,336,45705,1,8,0:0:0:0:
184,336,46029,2,0,L|288:288,1,83.9999974365235,8|0,0:0|0:0,0:0:0:0:
328,336,46354,1,8,0:0:0:0:
73,292,46678,6,0,L|233:188,2,167.999994873047,4|0|0,2:0|0:0|3:0,0:0:0:0:
213,201,47651,2,0,P|209:110|72:64,1,251.999992309571,0|0,0:0|0:0,0:0:0:0:
184,64,48300,1,0,0:0:0:0:
72,64,48624,2,0,L|72:248,1,167.999994873047,0|0,3:0|0:0,0:0:0:0:
304,232,49273,6,0,L|480:216,2,167.999994873047,4|0|0,2:0|0:0|3:0,0:0:0:0:
176,248,50246,1,0,0:0:0:0:
304,232,50570,6,0,L|304:128,1,83.9999974365235,4|0,3:0|0:0,0:0:0:0:
200,152,50894,2,0,L|200:48,1,83.9999974365235,4|0,3:0|0:0,0:0:0:0:
304,56,51219,1,0,3:0:0:0:
144,56,51543,1,0,0:3:0:0:
416,56,51867,6,0,P|376:152|304:168,2,167.999994873047,4|0|0,2:0|0:0|3:0,0:0:0:0:
296,56,52840,2,0,L|128:56,1,167.999994873047,0|0,0:0|0:0,0:0:0:0:
208,56,53327,1,0,0:0:0:0:
296,56,53489,1,0,0:0:0:0:
128,56,53813,2,0,L|128:232,1,167.999994873047,0|0,3:0|0:0,0:0:0:0:
424,216,54462,6,0,L|80:152,1,335.999989746094,4|0,2:0|3:0,0:0:0:0:
216,112,55435,1,0,0:0:0:0:
96,104,55759,6,0,L|96:208,1,83.9999974365235,4|0,0:3|0:0,0:0:0:0:
192,184,56083,1,4,0:3:0:0:
112,184,56246,1,0,0:0:0:0:
32,184,56408,1,0,3:0:0:0:
185,181,56732,1,0,0:0:0:0:
432,222,57056,6,0,L|256:190,2,167.999994873047,4|0|0,2:0|0:0|3:0,0:0:0:0:
267,192,58029,2,0,P|271:101|408:55,1,251.999992309571
328,64,58678,1,0,0:0:0:0:
440,64,59002,2,0,L|440:248,1,167.999994873047,0|0,3:0|0:0,0:0:0:0:
196,241,59651,6,0,L|35:179,2,167.999994873047,4|0|0,2:0|0:0|3:0,0:0:0:0:
336,248,60624,1,0,0:0:0:0:
208,232,60948,6,0,L|208:128,1,83.9999974365235,4|0,0:3|0:0,0:0:0:0:
312,152,61272,2,0,L|312:48,1,83.9999974365235,4|0,0:3|0:0,0:0:0:0:
208,56,61597,1,0,3:0:0:0:
368,56,61921,1,0,3:0:0:0:
96,56,62246,6,0,P|136:152|208:168,2,167.999994873047,4|0|0,2:0|0:0|3:0,0:0:0:0:
216,56,63218,2,0,L|384:56,1,167.999994873047,0|0,0:0|0:0,0:0:0:0:
304,56,63705,1,0,0:0:0:0:
216,56,63867,1,0,0:0:0:0:
384,56,64191,2,0,L|384:232,1,167.999994873047,0|0,3:0|0:0,0:0:0:0:
88,216,64840,6,0,L|416:88,1,335.999989746094,4|0,2:0|3:0,0:0:0:0:
304,104,65813,1,0,0:0:0:0:
416,104,66137,6,0,L|416:208,1,83.9999974365235,4|0,0:3|0:0,0:0:0:0:
304,192,66461,2,0,L|304:312,1,83.9999974365235,4|0,0:3|0:0,0:0:0:0:
416,280,66786,1,0,3:0:0:0:
416,336,67110,1,0,0:0:0:0:
144,320,67435,6,0,P|88:264|248:216,2,335.999989746094,4|8|0,2:0|2:3|0:0,0:0:0:0:
240,320,68894,1,0,2:0:0:0:
336,320,69056,1,8,2:3:0:0:
192,280,69381,2,0,L|192:184,2,83.9999974365235,8|0|0,1:0|0:0|0:0,0:0:0:0:
424,280,70029,6,0,B|120:128|120:128,2,335.999989746094,4|8|0,2:0|2:3|0:0,0:0:0:0:
344,288,71489,1,0,2:0:0:0:
264,288,71651,1,8,2:3:0:0:
424,280,71975,2,0,L|424:192,1,83.9999974365235,8|0,1:0|0:0,0:0:0:0:
112,296,72624,6,0,P|70:224|242:118,1,335.999989746094,4|2,3:0|0:0,0:0:0:0:
96,120,73597,1,8,3:0:0:0:
176,120,73759,1,0,0:0:0:0:
296,80,74083,1,0,0:0:0:0:
216,80,74245,1,0,1:0:0:0:
456,48,74570,2,0,P|456:256|456:256,1,167.999994873047,0|0,0:0|0:0,0:0:0:0:
192,224,75219,6,0,B|35:161|35:161|214:231,1,335.999989746094,4|2,0:0|0:3,0:0:0:0:
328,232,76192,1,0,0:0:0:0:
192,224,76516,2,0,P|144:192|216:120,1,167.999994873047,4|0,0:0|0:0,0:0:0:0:
328,232,77164,2,0,L|440:232,1,83.9999974365235,0|0,1:0|0:0,0:0:0:0:
56,240,77813,6,0,B|56:72|56:72|256:72,1,335.999989746094,4|2,0:0|0:0,0:0:0:0:
384,72,78786,1,0,0:0:0:0:
304,72,78948,1,0,0:0:0:0:
223,72,79110,1,4,0:0:0:0:
304,72,79273,1,0,0:0:0:0:
384,72,79435,1,0,0:0:0:0:
223,72,79759,2,0,P|183:112|231:200,1,167.999994873047,0|0,1:0|0:0,0:0:0:0:
472,208,80408,6,0,L|144:72,1,335.999989746094,4|2,0:0|0:0,0:0:0:0:
272,48,81381,1,0,0:0:0:0:
272,120,81543,1,0,0:0:0:0:
184,120,81705,1,4,0:0:0:0:
344,120,82029,1,0,0:0:0:0:
184,120,82354,2,0,L|80:168,1,83.9999974365235,0|0,1:0|0:0,0:0:0:0:
400,296,83002,6,0,P|442:224|270:118,1,335.999989746094,4|2,3:0|0:0,0:0:0:0:
416,120,83975,1,0,3:0:0:0:
336,120,84137,1,0,0:0:0:0:
216,80,84461,1,0,0:0:0:0:
296,80,84623,1,0,1:0:0:0:
56,48,84948,2,0,P|56:256|56:256,1,167.999994873047,0|0,0:0|0:0,0:0:0:0:
320,224,85597,6,0,B|477:161|477:161|298:231,1,335.999989746094,4|2,0:0|0:3,0:0:0:0:
184,232,86570,1,0,0:0:0:0:
320,224,86894,2,0,P|368:192|296:120,1,167.999994873047,4|0,0:0|0:0,0:0:0:0:
184,232,87542,2,0,L|72:232,1,83.9999974365235,0|0,1:0|0:0,0:0:0:0:
456,240,88191,6,0,B|456:72|456:72|256:72,1,335.999989746094,4|2,0:0|0:0,0:0:0:0:
128,72,89164,1,0,0:0:0:0:
208,72,89326,1,0,0:0:0:0:
289,72,89488,1,4,0:0:0:0:
208,72,89651,1,0,0:0:0:0:
128,72,89813,1,0,0:0:0:0:
289,72,90137,2,0,P|329:112|281:200,1,167.999994873047,0|0,1:0|0:0,0:0:0:0:
40,208,90786,6,0,L|360:64,1,335.999989746094,4|2,0:0|0:0,0:0:0:0:
240,48,91759,1,0,0:0:0:0:
240,120,91921,1,0,0:0:0:0:
328,120,92083,1,4,0:0:0:0:
168,120,92407,1,0,0:0:0:0:
328,120,92732,2,0,P|424:160|432:240,1,167.999994873047,0|0,1:0|0:0,0:0:0:0:
136,120,93381,6,0,P|136:192|232:208,1,167.999994873047,4|0,0:0|0:0,0:0:0:0:
304,216,93867,1,0,0:0:0:0:
392,216,94029,2,0,L|392:40,1,167.999994873047,8|0,1:0|0:0,0:0:0:0:
168,48,94678,2,0,P|112:104|184:160,1,167.999994873047,2|0,0:0|0:0,0:0:0:0:
264,176,95327,2,0,L|96:176,1,167.999994873047,8|0,0:0|0:0,0:0:0:0:
344,72,95975,6,0,L|344:264,1,167.999994873047,4|0,0:0|0:0,0:0:0:0:
256,248,96462,1,0,0:0:0:0:
168,248,96624,2,0,L|168:69,1,167.999994873047,8|0,0:0|0:0,0:0:0:0:
256,80,97110,1,0,0:0:0:0:
344,80,97273,1,2,0:0:0:0:
168,80,97597,1,0,0:0:0:0:
344,80,97921,2,0,P|420:105|438:184,1,167.999994873047,8|0,0:0|0:0,0:0:0:0:
120,152,98570,6,0,L|120:336,1,167.999994873047,4|0,0:0|0:0,0:0:0:0:
288,320,99219,2,0,L|104:320,1,167.999994873047,8|0,0:0|0:0,0:0:0:0:
256,320,99867,2,0,P|264:240|352:224,1,167.999994873047,2|0,0:0|0:0,0:0:0:0:
488,216,100516,2,0,L|312:216,1,167.999994873047,8|0,0:0|0:0,0:0:0:0:
80,208,101164,6,0,P|72:144|184:88,1,167.999994873047,4|0,0:0|0:0,0:0:0:0:
232,80,101651,1,0,0:0:0:0:
320,80,101813,2,0,L|320:256,1,167.999994873047,8|0,0:0|0:0,0:0:0:0:
232,80,102300,1,0,0:0:0:0:
128,88,102462,2,0,B|56:59|56:59|152:88,1,167.999994873047,2|0,0:0|0:0,0:0:0:0:
400,88,103110,2,0,P|384:144|288:176,2,167.999994873047,8|0|4,0:0|0:0|0:0,0:0:0:0:
232,96,104083,5,0,0:0:0:0:
136,96,104246,1,0,0:0:0:0:
232,96,104408,2,0,P|288:120|208:256,1,251.999992309571,8|0,0:0|0:0,0:0:0:0:
128,256,105056,1,2,0:0:0:0:
128,312,105219,1,0,0:0:0:0:
232,259,105381,1,0,0:0:0:0:
472,256,105705,2,0,L|216:224,1,251.999992309571,8|0,0:0|0:0,0:0:0:0:
328,216,106354,6,0,L|328:40,1,167.999994873047,4|0,0:0|0:0,0:0:0:0:
192,216,107002,2,0,L|192:40,1,167.999994873047,8|0,0:0|0:0,0:0:0:0:
328,216,107651,2,0,L|328:40,1,167.999994873047,4|0,0:0|0:0,0:0:0:0:
192,216,108299,2,0,L|192:40,1,167.999994873047,2|0,0:0|0:0,0:0:0:0:
432,56,108948,1,8,0:0:0:0:
56,272,119327,6,0,L|56:72,1,167.999994873047,0|0,3:0|0:0,0:0:0:0:
192,104,119975,2,0,L|192:304,1,167.999994873047,0|0,1:0|0:0,0:0:0:0:
456,272,120624,6,0,L|456:72,1,167.999994873047,0|0,3:0|0:0,0:0:0:0:
320,104,121272,2,0,L|320:304,1,167.999994873047,0|0,1:0|1:0,0:0:0:0:
56,272,121921,6,0,P|88:128|256:136,2,335.999989746094,0|0|0,3:0|1:0|3:0,0:0:0:0:
136,280,123381,1,0,0:0:0:0:
216,288,123543,1,0,0:0:0:0:
384,304,123867,2,0,L|384:120,1,167.999994873047,0|0,1:0|0:0,0:0:0:0:
120,128,124516,6,0,L|440:-16,1,335.999989746094,0|8,3:0|2:0,0:0:0:0:
320,40,125489,1,0,0:0:0:0:
88,24,125813,2,0,L|88:200,1,167.999994873047,0|0,3:0|0:0,0:0:0:0:
224,168,126462,2,0,L|224:344,1,167.999994873047,0|0,2:0|0:0,0:0:0:0:
96,336,127110,6,0,L|416:192,2,335.999989746094,8|8|8,0:0|0:0|0:0,0:0:0:0:
192,344,128732,1,8,0:0:0:0:
296,352,129056,2,0,L|296:248,1,83.9999974365235,8|0,0:0|0:0,0:0:0:0:
192,248,129381,1,0,0:0:0:0:
432,256,129705,6,0,P|432:104|256:80,1,335.999989746094,8|2,0:0|0:0,0:0:0:0:
104,88,130678,2,0,L|104:184,1,83.9999974365235,0|0,0:0|0:0,0:0:0:0:
232,176,131164,1,0,0:0:0:0:
136,176,131327,2,0,P|88:248|144:304,1,167.999994873047,2|0,0:0|0:0,0:0:0:0:
216,304,131813,1,0,0:0:0:0:
296,304,131975,1,0,0:0:0:0:
46,135,132300,6,0,P|80:296|240:312,1,335.999989746094,8|2,0:0|0:0,0:0:0:0:
400,304,133273,2,0,L|400:192,1,83.9999974365235
312,216,133597,1,8,0:0:0:0:
232,216,133759,1,0,0:0:0:0:
336,216,133921,2,0,P|336:144|232:112,1,167.999994873047,0|2,0:0|0:0,0:0:0:0:
168,104,134408,1,0,0:0:0:0:
168,48,134570,1,0,0:0:0:0:
432,368,134894,6,0,L|432:16,1,335.999989746094,8|2,0:0|0:0,0:0:0:0:
248,96,135867,1,0,0:0:0:0:
320,88,136029,1,0,0:0:0:0:
392,80,136192,2,0,L|392:272,1,167.999994873047,8|0,0:0|0:0,0:0:0:0:
256,248,136840,2,0,L|80:248,1,167.999994873047,2|0,0:0|0:0,0:0:0:0:
336,248,137489,6,0,P|416:160|320:48,1,280,8|2,0:0|0:0,0:0:0:0:
152,48,138462,2,0,L|236:48,1,83.9999974365235,0|0,0:0|0:0,0:0:0:0:
320,48,138786,2,0,L|200:48,1,83.9999974365235,8|0,0:0|0:0,0:0:0:0:
152,48,139110,1,0,0:0:0:0:
320,48,139435,2,0,L|424:48,2,83.9999974365235,2|0|0,0:0|0:0|0:0,0:0:0:0:
80,256,140083,6,0,P|80:104|256:80,1,335.999989746094,8|2,0:0|0:0,0:0:0:0:
408,88,141056,2,0,L|408:184,1,83.9999974365235,0|0,0:0|0:0,0:0:0:0:
280,176,141542,1,0,0:0:0:0:
376,176,141705,2,0,P|424:248|368:304,1,167.999994873047,2|0,0:0|0:0,0:0:0:0:
296,304,142191,1,0,0:0:0:0:
216,304,142353,1,0,0:0:0:0:
466,135,142678,6,0,P|432:296|272:312,1,335.999989746094,8|2,0:0|0:0,0:0:0:0:
112,304,143651,2,0,L|112:192,1,83.9999974365235
200,216,143975,1,8,0:0:0:0:
280,216,144137,1,0,0:0:0:0:
176,216,144299,2,0,P|176:144|280:112,1,167.999994873047,0|2,0:0|0:0,0:0:0:0:
344,104,144786,1,0,0:0:0:0:
344,48,144948,1,0,0:0:0:0:
80,368,145272,6,0,L|80:16,1,335.999989746094,8|2,0:0|0:0,0:0:0:0:
264,96,146245,1,0,0:0:0:0:
192,88,146407,1,0,0:0:0:0:
120,80,146570,2,0,L|120:272,1,167.999994873047,8|0,0:0|0:0,0:0:0:0:
256,248,147218,2,0,L|432:248,1,167.999994873047,2|0,0:0|0:0,0:0:0:0:
176,264,147867,6,0,B|176:192|176:192|72:104|72:104|72:8,1,280,8|2,0:0|0:0,0:0:0:0:
208,32,148840,2,0,L|304:32,1,83.9999974365235,0|0,0:0|0:0,0:0:0:0:
392,24,149164,2,0,L|392:120,1,83.9999974365235,8|0,0:0|0:0,0:0:0:0:
296,112,149489,1,0,0:0:0:0:
160,112,149813,2,0,L|160:208,1,83.9999974365235,2|0,0:0|0:0,0:0:0:0:
264,216,150137,2,0,L|264:328,1,83.9999974365235,0|0,0:0|0:0,0:0:0:0:
88,304,150462,1,4,1:0:0:0:
256,192,151110,12,0,160840,0:0:0:0:
256,192,171219,5,8,0:0:0:0:
384,192,171543,2,0,L|384:104,1,70
288,96,171867,1,2,0:0:0:0:
408,40,172192,1,0,0:0:0:0:
160,48,172678,2,0,L|64:48,1,70,0|0,0:0|0:0,0:0:0:0:
224,48,173164,2,0,L|224:200,1,140,2|0,0:0|0:0,0:0:0:0:
112,200,173813,6,0,B|112:344|112:344|248:344|248:344|136:320|144:200|200:144|280:160,1,560,8|0,0:0|1:0,0:0:0:0:
368,160,175435,1,0,0:0:0:0:
248,160,175759,2,0,L|96:160,1,140,2|0,0:0|0:0,0:0:0:0:
376,184,176408,5,8,0:0:0:0:
248,184,176732,2,0,L|248:96,1,70
344,88,177056,1,2,0:0:0:0:
224,32,177381,1,0,0:0:0:0:
384,32,177705,2,0,L|384:200,1,140,0|0,1:0|0:0,0:0:0:0:
244,172,178354,2,0,L|248:344,1,140,2|0,0:0|0:0,0:0:0:0:
384,172,179002,6,0,B|384:316|384:316|248:316|248:316|248:174|248:174|400:172|400:172,1,560,8|0,0:0|1:0,0:0:0:0:
208,176,180624,2,0,L|64:152,2,140,0|2|0,0:0|0:0|0:0,0:0:0:0:
472,312,181598,6,0,P|464:224|304:136,1,280,0|0,3:0|0:0,0:0:0:0:
96,184,182895,2,0,P|104:96|264:8,1,280,0|0,3:0|0:0,0:0:0:0:
424,312,184192,6,0,P|416:224|256:136,1,280,0|0,3:0|1:0,0:0:0:0:
96,184,185489,2,0,P|104:96|264:8,1,280,0|0,3:0|1:0,0:0:0:0:
424,48,186787,6,0,L|424:200,1,140,0|0,0:0|0:0,0:0:0:0:
304,160,187435,2,0,L|304:304,1,140,0|0,0:0|0:0,0:0:0:0:
176,240,188083,2,0,L|176:392,1,140,0|0,0:0|0:0,0:0:0:0:
434,367,188732,1,0,0:0:0:0:
120,336,189381,6,0,P|80:272|224:184,2,280,8|8|8,0:0|0:0|0:0,0:0:0:0:
228,336,191002,1,8,0:0:0:0:
328,336,191326,2,0,L|232:336,1,70,8|0,0:0|0:0,0:0:0:0:
188,336,191651,1,8,0:0:0:0:
439,292,191976,6,0,L|279:188,2,167.999994873047,4|0|0,2:0|0:0|3:0,0:0:0:0:
299,201,192948,2,0,P|303:110|440:64,1,251.999992309571
328,64,193597,1,0,0:0:0:0:
440,64,193922,2,0,L|440:248,1,167.999994873047,0|0,3:0|0:0,0:0:0:0:
208,232,194571,6,0,L|32:216,2,167.999994873047,4|0|0,2:0|0:0|0:0,0:0:0:0:
336,248,195544,1,0,0:0:0:0:
208,232,195868,6,0,L|208:128,1,83.9999974365235,4|0,3:0|0:0,0:0:0:0:
312,152,196192,2,0,L|312:48,1,83.9999974365235,4|0,3:0|0:0,0:0:0:0:
208,56,196517,1,0,3:0:0:0:
368,56,196841,1,0,0:3:0:0:
96,56,197165,6,0,P|136:152|208:168,2,167.999994873047,4|0|0,2:0|0:0|3:0,0:0:0:0:
216,56,198138,2,0,L|384:56,1,167.999994873047,0|0,0:0|0:0,0:0:0:0:
304,56,198625,1,0,0:0:0:0:
216,56,198787,1,0,0:0:0:0:
384,56,199111,2,0,L|384:232,1,167.999994873047,0|0,3:0|0:0,0:0:0:0:
88,216,199760,6,0,L|400:80,1,335.999989746094,4|0,2:0|0:0,0:0:0:0:
296,112,200733,1,0,0:0:0:0:
416,104,201057,6,0,L|416:208,1,83.9999974365235,4|0,0:3|0:0,0:0:0:0:
320,184,201381,1,4,0:3:0:0:
400,184,201544,1,0,0:0:0:0:
480,184,201705,1,0,3:0:0:0:
327,181,202029,1,0,0:0:0:0:
80,222,202353,6,0,L|256:190,2,167.999994873047,4|0|0,2:0|0:0|3:0,0:0:0:0:
213,201,203327,2,0,P|209:110|72:64,1,251.999992309571,0|0,0:0|0:0,0:0:0:0:
184,64,203975,1,0,0:0:0:0:
72,64,204300,2,0,L|72:248,1,167.999994873047,0|0,3:0|0:0,0:0:0:0:
304,232,204949,6,0,L|480:216,2,167.999994873047,4|0|0,2:0|0:0|3:0,0:0:0:0:
176,248,205922,1,0,0:0:0:0:
304,232,206246,6,0,L|304:128,1,83.9999974365235,4|0,0:3|0:0,0:0:0:0:
200,152,206570,2,0,L|200:48,1,83.9999974365235,4|0,0:3|0:0,0:0:0:0:
304,56,206895,1,0,3:0:0:0:
144,56,207219,1,0,3:0:0:0:
416,56,207543,6,0,P|376:152|304:168,2,167.999994873047,4|0|0,2:0|0:0|3:0,0:0:0:0:
296,56,208516,2,0,L|128:56,1,167.999994873047,0|0,0:0|0:0,0:0:0:0:
208,56,209003,1,0,0:0:0:0:
296,56,209165,1,0,0:0:0:0:
128,56,209489,2,0,L|128:232,1,167.999994873047,0|0,3:0|0:0,0:0:0:0:
424,216,210138,6,0,L|96:88,1,335.999989746094,0|0,3:0|3:0,0:0:0:0:
208,104,211111,1,0,0:0:0:0:
96,104,211435,6,0,L|96:208,1,83.9999974365235,4|0,0:3|0:0,0:0:0:0:
208,192,211759,2,0,L|208:312,1,83.9999974365235,4|0,0:3|0:0,0:0:0:0:
96,280,212084,1,0,3:0:0:0:
208,280,212408,1,0,0:0:0:0:
464,232,212732,6,0,L|288:200,2,167.999994873047,4|0|0,2:0|0:0|3:0,0:0:0:0:
299,201,213705,2,0,P|303:110|440:64,1,251.999992309571,0|0,0:0|0:0,0:0:0:0:
328,64,214353,1,0,0:0:0:0:
440,64,214678,2,0,L|440:248,1,167.999994873047,0|0,3:0|0:0,0:0:0:0:
208,232,215327,6,0,L|32:216,2,167.999994873047,4|0|0,2:0|0:0|3:0,0:0:0:0:
336,248,216300,1,0,0:0:0:0:
208,232,216624,6,0,L|208:128,1,83.9999974365235,4|0,3:0|0:0,0:0:0:0:
312,152,216948,2,0,L|312:48,1,83.9999974365235,4|0,3:0|0:0,0:0:0:0:
208,56,217273,1,0,0:0:0:0:
368,56,217597,1,0,0:0:0:0:
96,56,217921,6,0,P|136:152|208:168,1,167.999994873047,0|0,1:0|0:0,0:0:0:0:
448,193,218570,2,0,B|451:365|451:365|293:366|293:366|290:176,1,503.999984619141,0|0,3:0|0:0,0:0:0:0:
424,64,219867,2,0,L|424:240,1,167.999994873047,0|0,3:0|0:0,0:0:0:0:
128,208,220516,6,0,L|456:72,1,335.999989746094,4|0,2:0|3:0,0:0:0:0:
320,112,221489,1,0,0:0:0:0:
440,104,221813,6,0,L|440:208,1,83.9999974365235,4|0,3:0|0:0,0:0:0:0:
320,184,222137,1,4,3:0:0:0:
400,184,222300,1,0,0:0:0:0:
480,184,222462,1,0,0:0:0:0:
320,184,222786,1,0,0:0:0:0:
100,143,223110,6,0,L|264:184,1,167.999994873047,4|0,2:0|0:0,0:0:0:0:
355,184,223609,1,0,0:0:0:0:
264,184,223776,2,0,L|89:141,1,167.999994873047,8|0,2:0|0:0,0:0:0:0:
178,163,224276,1,0,0:0:0:0:
264,184,224443,6,0,L|264:280,1,70,0|0,0:0|0:0,0:0:0:0:
176,184,224808,1,8,0:0:0:0:
176,256,224991,1,0,0:0:0:0:
272,256,225174,1,8,1:0:0:0:
368,256,225357,2,0,L|368:40,1,210,0|4,0:0|2:0,0:0:0:0:
200,112,226283,5,0,0:0:0:0:
272,96,226472,1,0,0:0:0:0:
344,72,226660,2,0,P|424:160|328:272,1,280,8|8,2:0|0:0,0:0:0:0:
256,272,227634,1,0,0:0:0:0:
176,272,227834,1,8,0:0:0:0:
352,328,228234,1,8,1:0:0:0:
120,336,229061,6,0,P|224:32|312:344,1,840.000032043458,4|8,2:0|2:0,0:0:0:0:
