osu file format v14

[General]
AudioFilename: audio.mp3
AudioLeadIn: 0
PreviewTime: 0
Countdown: 0
SampleSet: Normal
StackLeniency: 0.7
Mode: 2
LetterboxInBreaks: 0
WidescreenStoryboard: 0

[Editor]
Bookmarks: 25840,36300,46678,67435,72624,83002,93381,103435,108948,119327,127759,129705,140083,150462,191975,212732
DistanceSpacing: 0.8
BeatDivisor: 3
GridSize: 8
TimelineZoom: 0.9000001

[Metadata]
Title:In Circles
TitleUnicode:In Circles
Artist:Creo
ArtistUnicode:Creo
Creator:salchow
Version:Pulse
Source:osu!
Tags:fa featured artist wonjae chickenbible Nelly Rocma EP
BeatmapID:2021199
BeatmapSetID:965558

[Difficulty]
HPDrainRate:6
CircleSize:5
OverallDifficulty:8.6
ApproachRate:8.6
SliderMultiplier:2.2
SliderTickRate:2

[Events]
//Background and Video events
0,0,"In circles.jpg",0,0
//Break Periods
2,26121,35641
2,109148,118668
2,161040,170560
//Storyboard Layer 0 (Background)
//Storyboard Layer 1 (Fail)
//Storyboard Layer 2 (Pass)
//Storyboard Layer 3 (Foreground)
//Storyboard Sound Samples

[TimingPoints]
5165,324.324324324324,4,2,2,50,1,0
36300,-100,4,1,2,50,0,0
44083,-100,4,2,2,70,0,0
44732,-100,4,2,2,40,0,0
45381,-100,4,2,2,30,0,0
46029,-83.3333333333333,4,1,2,20,0,0
46678,-83.3333333333333,4,1,2,60,0,1
67435,-83.3333333333333,4,3,2,59,0,0
69381,-83.3333333333333,4,3,2,29,0,0
69462,-83.3333333333333,4,3,2,59,0,0
71975,-83.3333333333333,4,3,2,29,0,0
72056,-83.3333333333333,4,3,2,49,0,0
93381,-83.3333333333333,4,1,2,60,0,0
119327,-83.3333333333333,4,2,2,50,0,0
124516,-83.3333333333333,4,1,2,50,0,0
129705,-83.3333333333333,4,3,2,60,0,0
137489,-100,4,3,2,60,0,0
138137,-83.3333333333333,4,3,2,60,0,0
147867,-100,4,3,2,60,0,0
148516,-83.3333333333333,4,3,2,60,0,0
171219,-100,4,2,2,50,0,0
181597,-100,4,1,2,50,0,0
189381,-100,4,1,2,70,0,0
190029,-100,4,1,2,40,0,0
190678,-100,4,1,2,30,0,0
191327,-83.3333333333333,4,1,2,20,0,0
191975,-83.3333333333333,4,1,2,60,0,1
218570,-62.5,4,1,2,60,0,1
218894,-83.3333333333333,4,1,2,60,0,1
223110,333.324324324324,4,3,2,59,1,0
223110,-83.3333333333333,4,3,2,59,0,0
224443,365.853658536585,4,3,2,40,1,0
225906,377.358490566038,4,3,2,40,1,0
226660,387.096774193548,4,3,2,40,1,0
227434,400,4,3,2,40,1,0
228234,413.793103448276,4,3,2,40,1,0
229061,425.531914893617,4,3,2,30,1,0

[Colours]
Combo1 : 175,71,131
Combo2 : 0,64,128
Combo3 : 0,128,128
Combo4 : 67,188,209

[HitObjects]
256,240,4516,5,8,0:0:0:0:
80,232,5165,5,0,0:0:0:0:
160,216,5327,1,0,0:0:0:0:
248,200,5489,1,0,0:0:0:0:
112,168,5651,1,0,0:0:0:0:
360,128,5813,2,8,L|360:360,1,220,2|0,0:0|0:0,0:0:0:0:
248,344,6300,1,0,0:0:0:0:
424,336,6624,5,0,0:0:0:0:
152,336,6786,2,0,L|24:328,1,110,0|0,1:0|0:0,0:0:0:0:
288,256,7110,2,0,L|416:248,1,110,2|0,0:0|0:0,0:0:0:0:
152,216,7435,2,0,L|152:56,1,110,0|0,0:0|0:0,0:0:0:0:
368,104,7759,6,0,B|480:104|480:104|480:208|480:208|344:208,1,330,0|0,1:0|0:0,0:0:0:0:
96,112,8408,1,2,0:0:0:0:
200,144,8570,1,0,0:0:0:0:
200,208,8732,1,0,0:0:0:0:
96,240,8894,1,0,0:0:0:0:
320,272,9056,5,0,1:0:0:0:
424,272,9219,1,0,0:0:0:0:
312,208,9381,1,0,0:0:0:0:
432,208,9543,1,0,0:0:0:0:
184,200,9705,1,2,0:0:0:0:
80,200,9867,2,0,P|56:128|176:80,1,220,0|0,0:0|0:0,0:0:0:0:
448,88,10354,5,0,1:0:0:0:
336,136,10516,1,0,0:0:0:0:
336,216,10678,1,0,0:0:0:0:
448,256,10840,1,0,0:0:0:0:
208,112,11002,2,0,P|136:192|232:200,1,220,2|0,0:0|0:0,0:0:0:0:
312,208,11489,1,0,0:0:0:0:
88,256,11651,6,0,L|208:256,1,110,0|0,1:0|0:0,0:0:0:0:
64,256,11975,2,0,P|40:160|168:120,1,220,0|2,1:0|0:0,0:0:0:0:
240,104,12462,1,0,0:0:0:0:
80,72,12786,1,0,0:0:0:0:
320,64,12948,6,0,P|408:128|371:264,1,220,0|0,1:0|0:0,0:0:0:0:
314,230,13435,1,0,0:0:0:0:
72,296,13597,1,2,0:0:0:0:
176,272,13759,1,0,0:0:0:0:
280,248,13921,1,0,0:0:0:0:
176,224,14083,1,0,0:0:0:0:
408,224,14246,6,0,L|408:368,1,110,0|0,1:0|0:0,0:0:0:0:
272,112,14570,2,0,L|272:256,1,110,0|0,0:0|0:0,0:0:0:0:
488,104,14894,2,0,L|344:96,1,110,2|0,0:0|0:0,0:0:0:0:
128,80,15381,1,0,0:0:0:0:
432,232,15543,5,0,1:0:0:0:
352,216,15706,1,0,0:0:0:0:
264,200,15868,1,0,0:0:0:0:
400,168,16030,1,0,0:0:0:0:
152,128,16192,2,0,L|152:360,1,220,2|0,0:0|0:0,0:0:0:0:
264,344,16679,1,0,0:0:0:0:
88,336,17003,5,0,0:0:0:0:
360,336,17165,2,0,L|488:328,1,110,0|0,0:0|0:0,0:0:0:0:
224,256,17489,2,0,L|96:248,1,110,2|0,0:0|0:0,0:0:0:0:
360,216,17814,2,0,L|360:56,1,110,0|0,0:0|0:0,0:0:0:0:
144,104,18138,6,0,B|32:104|32:104|32:221|32:221,1,220,0|0,1:0|0:0,0:0:0:0:
139,207,18624,1,0,0:0:0:0:
416,112,18787,1,2,0:0:0:0:
312,144,18949,1,0,0:0:0:0:
312,208,19111,1,0,0:0:0:0:
416,240,19273,1,0,0:0:0:0:
192,272,19435,5,0,1:0:0:0:
88,272,19598,1,0,0:0:0:0:
200,208,19760,1,0,0:0:0:0:
80,208,19922,1,0,0:0:0:0:
328,200,20084,1,2,0:0:0:0:
432,200,20246,2,0,P|456:128|336:80,1,220,0|0,0:0|0:0,0:0:0:0:
64,88,20732,5,0,1:0:0:0:
176,136,20895,1,0,0:0:0:0:
176,216,21057,1,0,0:0:0:0:
64,256,21219,1,0,0:0:0:0:
304,112,21381,2,0,P|376:192|280:200,1,220,2|0,0:0|0:0,0:0:0:0:
200,208,21868,1,0,0:0:0:0:
424,256,22030,6,0,L|304:256,1,110,0|0,1:0|0:0,0:0:0:0:
448,256,22354,2,0,P|472:160|344:120,1,220,0|2,1:0|0:0,0:0:0:0:
272,104,22841,1,0,0:0:0:0:
432,72,23165,1,0,0:0:0:0:
154,73,23327,6,0,P|66:137|103:273,1,220,0|0,1:0|0:0,0:0:0:0:
160,239,23814,1,0,0:0:0:0:
408,248,23975,2,0,L|472:152,2,110,2|0|0,0:0|0:0|0:0,0:0:0:0:
320,248,24462,1,0,0:0:0:0:
232,248,24624,2,0,L|168:152,2,110,2|0|0,0:0|0:0|0:0,0:0:0:0:
320,248,25111,1,0,0:0:0:0:
232,248,25273,1,2,0:0:0:0:
408,248,25435,1,0,0:0:0:0:
64,240,25921,5,4,0:0:0:0:
112,120,36300,6,0,P|64:240|128:304,1,220,0|0,3:0|0:0,0:0:0:0:
272,120,36948,2,0,P|320:240|256:304,1,220,0|0,1:0|0:0,0:0:0:0:
114,298,37597,6,0,L|306:178,1,220,0|0,3:0|0:0,0:0:0:0:
114,298,38246,6,0,L|306:178,1,220,0|0,1:0|0:0,0:0:0:0:
96,288,38894,5,0,3:0:0:0:
256,256,39219,1,0,0:0:0:0:
416,288,39543,1,0,1:0:0:0:
256,256,39867,1,0,0:0:0:0:
96,288,40192,5,0,3:0:0:0:
256,256,40516,1,0,0:0:0:0:
416,288,40841,1,0,1:0:0:0:
256,256,41164,1,0,0:0:0:0:
96,272,41489,6,0,L|96:152,1,110
216,168,41813,2,0,L|216:48,1,110,0|0,0:0|0:0,0:0:0:0:
88,64,42137,2,0,L|216:64,1,110,0|0,0:0|0:0,0:0:0:0:
326,168,42462,2,0,L|198:168,1,110,0|0,0:0|0:0,0:0:0:0:
271,143,42705,1,0,0:0:0:0:
431,161,42786,5,0,0:0:0:0:
488,249,42948,1,0,0:0:0:0:
447,346,43110,1,0,0:0:0:0:
343,367,43272,1,0,0:0:0:0:
127,161,43435,1,0,0:0:0:0:
69,249,43597,1,0,0:0:0:0:
110,346,43759,1,0,0:0:0:0:
214,367,43921,1,0,0:0:0:0:
432,344,44083,5,8,0:0:0:0:
462,279,44191,1,0,0:0:0:0:
438,212,44299,1,0,0:0:0:0:
344,208,44408,1,0,0:0:0:0:
313,143,44516,1,0,0:0:0:0:
337,76,44624,1,0,0:0:0:0:
432,64,44732,5,8,0:0:0:0:
368,72,44813,1,0,0:0:0:0:
304,80,44894,1,0,0:0:0:0:
232,72,44975,1,0,0:0:0:0:
304,80,45056,1,0,0:0:0:0:
376,88,45137,1,0,0:0:0:0:
432,64,45219,1,0,0:0:0:0:
368,72,45300,1,0,0:0:0:0:
160,64,45381,5,8,0:0:0:0:
139,81,45421,1,0,0:0:0:0:
125,105,45462,1,0,0:0:0:0:
119,132,45502,1,0,0:0:0:0:
123,159,45543,1,0,0:0:0:0:
134,184,45583,1,0,0:0:0:0:
153,203,45624,1,0,0:0:0:0:
304,192,45705,5,8,0:0:0:0:
324,209,45745,1,0,0:0:0:0:
338,233,45786,1,0,0:0:0:0:
344,260,45826,1,0,0:0:0:0:
340,287,45867,1,0,0:0:0:0:
329,312,45907,1,0,0:0:0:0:
310,331,45948,1,0,0:0:0:0:
80,112,46029,6,0,L|288:112,1,175.999994628906,8|0,0:0|0:0,0:0:0:0:
176,112,46354,2,0,P|96:160|112:240,1,175.999994628906,8|0,0:0|0:0,0:0:0:0:
304,216,46678,6,0,B|426:166|426:166|304:216,1,263.99999194336,4|0,2:0|0:0,0:0:0:0:
424,144,47164,1,0,0:0:0:0:
176,192,47327,1,0,3:0:0:0:
72,160,47489,1,0,0:0:0:0:
176,144,47651,1,0,0:0:0:0:
224,136,47732,1,0,0:0:0:0:
272,128,47813,2,0,L|112:120,1,131.99999597168,0|0,0:0|0:0,0:0:0:0:
392,96,48137,5,0,0:0:0:0:
176,144,48300,2,0,L|56:232,1,131.99999597168,0|0,0:0|0:0,0:0:0:0:
336,176,48624,2,8,L|352:320,1,131.99999597168,0|0,3:0|0:0,0:0:0:0:
208,320,48948,2,0,L|196:189,1,131.99999597168,0|0,0:0|0:0,0:0:0:0:
432,160,49273,6,0,P|200:24|200:24,1,263.99999194336,4|0,2:0|0:0,0:0:0:0:
304,24,49759,1,0,0:0:0:0:
63,87,49921,2,0,L|79:271,1,131.99999597168,0|0,3:0|0:0,0:0:0:0:
192,240,50246,1,0,0:0:0:0:
144,240,50327,1,0,0:0:0:0:
96,240,50408,1,0,0:0:0:0:
328,224,50570,6,0,L|456:160,1,131.99999597168,4|0,3:0|0:0,0:0:0:0:
160,168,50894,2,0,L|24:104,1,131.99999597168,4|0,3:0|0:0,0:0:0:0:
304,56,51219,2,0,L|304:240,1,131.99999597168,0|0,3:0|0:0,0:0:0:0:
64,256,51543,1,0,0:3:0:0:
304,264,51705,1,0,0:0:0:0:
56,224,51867,6,0,P|64:120|216:80,1,263.99999194336,4|0,2:0|0:0,0:0:0:0:
72,56,52354,1,0,0:0:0:0:
296,56,52516,2,0,P|376:88|280:192,1,263.99999194336,0|0,3:0|0:0,0:0:0:0:
240,192,52921,1,0,0:0:0:0:
176,192,53002,1,0,0:0:0:0:
320,216,53164,5,0,0:0:0:0:
160,240,53327,1,0,0:0:0:0:
432,200,53489,2,0,L|432:352,1,131.99999597168,0|0,0:0|0:0,0:0:0:0:
192,304,53813,6,0,B|66:248,3,131.99999597168,0|0|0|0,3:0|0:0|0:0|0:0,0:0:0:0:
288,288,54462,6,0,P|376:256|280:184,1,263.99999194336,4|0,2:0|0:0,0:0:0:0:
184,184,54948,1,0,0:0:0:0:
432,120,55110,2,0,L|256:96,1,131.99999597168,0|0,3:0|0:0,0:0:0:0:
184,88,55435,1,0,0:0:0:0:
144,72,55516,1,0,0:0:0:0:
184,64,55597,1,0,0:0:0:0:
432,120,55759,6,0,L|432:272,1,131.99999597168,4|0,0:3|0:0,0:0:0:0:
192,192,56083,2,0,L|192:344,1,131.99999597168,4|0,0:3|0:0,0:0:0:0:
432,328,56408,1,0,3:0:0:0:
312,328,56570,1,0,0:0:0:0:
432,304,56732,1,0,0:0:0:0:
432,256,56894,1,0,0:0:0:0:
208,216,57056,6,0,B|80:176|80:176|208:216,1,263.99999194336,4|0,2:0|0:0,0:0:0:0:
88,144,57542,1,0,0:0:0:0:
336,200,57705,2,0,L|336:48,1,131.99999597168,0|0,3:0|0:0,0:0:0:0:
216,56,58029,1,0,0:0:0:0:
160,48,58110,1,0,0:0:0:0:
104,40,58192,1,0,0:0:0:0:
264,128,58354,5,0,0:0:0:0:
32,128,58516,1,0,0:0:0:0:
264,184,58678,1,0,0:0:0:0:
144,184,58840,1,0,0:0:0:0:
424,128,59002,2,0,P|456:200|400:240,1,131.99999597168,0|0,3:0|0:0,0:0:0:0:
320,248,59327,1,0,0:0:0:0:
424,256,59489,1,0,0:0:0:0:
176,192,59651,6,0,P|40:272|80:352,1,263.99999194336,4|0,2:0|0:0,0:0:0:0:
176,336,60137,1,0,0:0:0:0:
400,336,60300,2,0,L|256:320,1,131.99999597168,0|0,3:0|0:0,0:0:0:0:
328,320,60543,1,0,0:0:0:0:
392,312,60624,1,0,0:0:0:0:
96,296,60786,1,0,0:0:0:0:
312,248,60948,6,0,L|448:192,1,131.99999597168,4|0,0:3|0:0,0:0:0:0:
200,248,61273,2,0,L|64:192,1,131.99999597168,4|0,0:3|0:0,0:0:0:0:
312,104,61597,2,0,L|312:272,1,131.99999597168,0|0,3:0|0:0,0:0:0:0:
48,264,61921,1,0,3:0:0:0:
160,240,62083,1,0,0:0:0:0:
392,208,62246,6,0,P|416:144|368:80,1,131.99999597168,4|0,2:0|0:0,0:0:0:0:
256,96,62570,2,0,L|416:80,1,131.99999597168,0|0,0:0|0:0,0:0:0:0:
96,96,62894,2,0,L|120:256,1,131.99999597168,0|0,3:0|0:0,0:0:0:0:
240,216,63219,1,0,0:0:0:0:
192,232,63300,1,0,0:0:0:0:
144,248,63381,1,0,0:0:0:0:
264,288,63543,5,0,0:0:0:0:
128,312,63705,1,0,0:0:0:0:
360,272,63867,2,0,L|488:208,1,131.99999597168,0|0,0:0|0:0,0:0:0:0:
200,96,64192,2,0,L|200:376,1,263.99999194336,0|0,3:0|0:0,0:0:0:0:
96,360,64678,1,0,0:0:0:0:
320,352,64840,6,0,B|445:296,3,131.99999597168,4|0|0|0,2:0|0:0|0:0|0:0,0:0:0:0:
112,328,65489,2,0,P|80:264|120:240,1,131.99999597168,0|0,3:0|0:0,0:0:0:0:
224,240,65813,1,0,0:0:0:0:
272,240,65894,1,0,0:0:0:0:
320,240,65975,1,0,0:0:0:0:
40,128,66137,6,0,L|40:272,1,131.99999597168,4|0,0:3|0:0,0:0:0:0:
304,88,66462,2,0,L|304:232,1,131.99999597168,4|0,0:3|0:0,0:0:0:0:
72,320,66786,2,0,P|48:224|200:168,1,263.99999194336,0|0,3:0|0:0,0:0:0:0:
40,104,67273,1,0,0:0:0:0:
256,104,67435,6,0,B|368:104|368:104|368:224|368:224|272:224|272:224|272:336|272:336|416:336|416:336,1,527.999983886719,4|8,2:0|2:3,0:0:0:0:
448,336,68246,1,0,0:0:0:0:
344,336,68408,1,0,0:0:0:0:
304,312,68489,1,0,0:0:0:0:
344,288,68570,1,0,0:0:0:0:
448,256,68732,1,0,0:0:0:0:
312,216,68894,1,0,2:0:0:0:
448,192,69056,2,0,L|448:48,1,131.99999597168,8|0,2:3|0:0,0:0:0:0:
312,56,69381,2,0,L|444:56,3,131.99999597168,8|0|0|0,1:0|0:0|0:0|0:0,0:0:0:0:
232,104,70029,6,0,B|120:104|120:104|120:224|120:224|216:224|216:224|216:336|216:336|72:336|72:336,1,527.999983886719,4|8,2:0|2:3,0:0:0:0:
40,336,70840,1,0,0:0:0:0:
144,336,71002,1,0,0:0:0:0:
184,312,71083,1,0,0:0:0:0:
144,288,71164,1,0,0:0:0:0:
40,256,71326,1,0,0:0:0:0:
176,216,71488,1,0,2:0:0:0:
40,192,71650,2,0,L|40:48,1,131.99999597168,8|0,2:3|0:0,0:0:0:0:
176,40,71975,2,0,B|176:320|176:320|48:320|48:320,1,395.999987915039,8|0,1:0|0:0,0:0:0:0:
352,320,72624,6,0,B|440:288|440:288|448:232,2,131.99999597168,4|0|0,3:0|0:0|0:0,0:0:0:0:
120,311,73273,2,0,P|104:215|256:143,1,263.99999194336,2|8,0:0|3:0,0:0:0:0:
96,112,73759,1,0,0:0:0:0:
320,96,74083,1,0,0:0:0:0:
96,40,74246,2,0,L|96:312,1,263.99999194336,0|0,1:0|0:0,0:0:0:0:
224,304,74732,2,0,B|96:304|96:304|96:160,1,263.99999194336,0|0,0:0|0:0,0:0:0:0:
376,120,75219,6,0,L|262:187,2,131.99999597168,4|0|0,0:0|0:0|0:0,0:0:0:0:
148,74,75867,2,0,P|111:139|149:165,1,131.99999597168,2|0,0:3|0:0,0:0:0:0:
254,186,76192,2,0,L|118:202,1,131.99999597168,0|0,0:0|0:0,0:0:0:0:
344,320,76516,1,4,0:0:0:0:
440,280,76678,1,0,0:0:0:0:
440,192,76840,1,0,0:0:0:0:
344,160,77002,1,0,0:0:0:0:
104,136,77164,2,0,L|104:288,1,131.99999597168,0|0,1:0|0:0,0:0:0:0:
376,304,77813,6,0,P|448:224|352:112,1,263.99999194336,4|0,0:0|0:0,0:0:0:0:
280,112,78300,1,0,0:0:0:0:
48,104,78462,2,0,B|176:104|176:104|176:256,1,263.99999194336,2|0,0:0|0:0,0:0:0:0:
48,240,78948,1,0,0:0:0:0:
280,240,79110,2,0,L|408:152,2,131.99999597168,4|0|0,0:0|0:0|0:0,0:0:0:0:
176,240,79597,1,0,0:0:0:0:
432,216,79759,2,0,L|432:360,1,131.99999597168,0|0,1:0|0:0,0:0:0:0:
200,328,80408,6,0,L|56:280,3,131.99999597168,4|0|0|0,0:0|0:0|0:0|0:0,0:0:0:0:
328,256,81056,2,0,L|328:120,1,131.99999597168,2|0,0:0|0:0,0:0:0:0:
232,104,81381,1,0,0:0:0:0:
328,64,81543,1,0,0:0:0:0:
104,152,81705,2,0,L|224:88,2,131.99999597168,4|0|0,0:0|0:0|0:0,0:0:0:0:
352,128,82354,2,0,L|352:272,1,131.99999597168,0|0,1:0|0:0,0:0:0:0:
160,319,83002,6,0,B|72:287|72:287|64:231,2,131.99999597168,4|0|0,3:0|0:0|0:0,0:0:0:0:
392,310,83651,2,8,P|408:214|256:142,1,263.99999194336,2|0,0:0|3:0,0:0:0:0:
416,111,84137,1,0,0:0:0:0:
186,87,84461,1,0,0:0:0:0:
416,39,84624,2,0,L|416:311,1,263.99999194336,0|0,1:0|0:0,0:0:0:0:
288,303,85110,2,0,B|416:303|416:303|416:159,1,263.99999194336,0|0,0:0|0:0,0:0:0:0:
136,119,85597,6,0,L|250:186,2,131.99999597168,4|0|0,0:0|0:0|0:0,0:0:0:0:
364,73,86245,2,0,P|401:138|363:164,1,131.99999597168,2|0,0:3|0:0,0:0:0:0:
258,185,86570,2,0,L|394:201,1,131.99999597168,0|0,0:0|0:0,0:0:0:0:
168,319,86894,1,4,0:0:0:0:
72,279,87056,1,0,0:0:0:0:
72,191,87218,1,0,0:0:0:0:
168,159,87380,1,0,0:0:0:0:
408,135,87542,2,0,L|408:287,1,131.99999597168,0|0,1:0|0:0,0:0:0:0:
136,303,88191,6,0,P|64:223|160:111,1,263.99999194336,4|0,0:0|0:0,0:0:0:0:
232,111,88678,1,0,0:0:0:0:
464,103,88840,2,0,B|336:103|336:103|336:255,1,263.99999194336,2|0,0:0|0:0,0:0:0:0:
464,239,89326,1,0,0:0:0:0:
232,239,89488,2,0,L|104:151,2,131.99999597168,4|0|0,0:0|0:0|0:0,0:0:0:0:
336,239,89975,1,0,0:0:0:0:
80,215,90137,2,0,L|80:359,1,131.99999597168,0|0,1:0|0:0,0:0:0:0:
312,327,90786,6,0,L|456:279,3,131.99999597168,4|0|0|0,0:0|0:0|0:0|0:0,0:0:0:0:
184,255,91434,2,0,L|184:119,1,131.99999597168,2|0,0:0|0:0,0:0:0:0:
280,103,91759,1,0,0:0:0:0:
184,63,91921,1,0,0:0:0:0:
408,151,92083,2,0,L|288:87,2,131.99999597168,4|0|0,0:0|0:0|0:0,0:0:0:0:
160,127,92732,6,0,L|160:288,1,131.99999597168,0|0,1:0|0:0,0:0:0:0:
88,288,93381,6,0,L|240:288,1,131.99999597168,4|0,0:0|0:0,0:0:0:0:
312,288,93705,2,0,L|152:288,1,131.99999597168,0|0,0:0|0:0,0:0:0:0:
416,240,94029,1,8,1:0:0:0:
200,224,94354,2,0,P|200:144|280:112,1,131.99999597168,0|0,0:0|0:0,0:0:0:0:
456,96,94678,2,0,L|264:96,1,131.99999597168,2|0,0:0|0:0,0:0:0:0:
248,96,95002,2,0,L|440:96,1,131.99999597168,0|0,0:0|0:0,0:0:0:0:
136,72,95327,1,8,0:0:0:0:
264,64,95651,2,0,L|264:216,1,131.99999597168,0|0,0:0|0:0,0:0:0:0:
32,192,95975,6,0,L|344:192,1,263.99999194336,4|0,0:0|0:0,0:0:0:0:
184,192,96462,1,0,0:0:0:0:
416,136,96624,2,0,P|456:208|384:240,1,131.99999597168,8|0,0:0|0:0,0:0:0:0:
312,240,96948,1,0,0:0:0:0:
248,240,97029,1,0,0:0:0:0:
184,240,97110,1,0,0:0:0:0:
416,136,97273,2,0,P|408:264|288:312,1,263.99999194336,2|0,0:0|0:0,0:0:0:0:
448,320,97759,1,0,0:0:0:0:
232,320,97921,2,0,L|80:320,1,131.99999597168,8|0,0:0|0:0,0:0:0:0:
232,320,98246,2,0,L|384:320,1,131.99999597168,0|0,0:0|0:0,0:0:0:0:
80,312,98570,6,0,P|40:248|144:96,1,263.99999194336,4|0,0:0|0:0,0:0:0:0:
240,96,99056,1,0,0:0:0:0:
464,144,99219,2,0,L|328:128,1,131.99999597168,8|0,0:0|0:0,0:0:0:0:
216,104,99543,1,0,0:0:0:0:
288,88,99624,1,0,0:0:0:0:
360,72,99705,1,0,0:0:0:0:
96,64,99867,2,0,L|72:216,1,131.99999597168,2|0,0:0|0:0,0:0:0:0:
240,64,100192,2,0,L|264:224,1,131.99999597168,0|0,0:0|0:0,0:0:0:0:
40,232,100516,2,0,L|192:240,3,131.99999597168,8|0|0|0,0:0|0:0|0:0|0:0,0:0:0:0:
456,256,101164,6,0,L|192:256,1,263.99999194336,4|0,0:0|0:0,0:0:0:0:
320,232,101651,1,0,0:0:0:0:
56,256,101813,2,0,L|320:256,1,263.99999194336,8|0,0:0|0:0,0:0:0:0:
192,232,102300,1,0,0:0:0:0:
440,248,102462,6,0,L|440:72,1,131.99999597168,2|0,0:0|0:0,0:0:0:0:
312,120,102786,2,0,L|464:96,1,131.99999597168,0|0,0:0|0:0,0:0:0:0:
128,80,103110,2,0,P|136:170|232:240,1,197.99999395752,8|0,0:0|0:0,0:0:0:0:
312,224,103435,2,0,P|303:314|208:384,1,197.99999395752,0|0,0:0|0:0,0:0:0:0:
48,200,103759,6,0,L|48:384,1,131.99999597168,4|0,0:0|0:0,0:0:0:0:
160,336,104083,1,0,0:0:0:0:
48,352,104246,1,0,0:0:0:0:
360,304,104408,2,0,L|224:304,1,131.99999597168,8|0,0:0|0:0,0:0:0:0:
360,256,104732,1,0,0:0:0:0:
424,256,104813,1,0,0:0:0:0:
488,256,104894,1,0,0:0:0:0:
256,208,105056,5,2,0:0:0:0:
152,200,105219,1,0,0:0:0:0:
264,160,105381,2,0,P|304:104|248:64,1,131.99999597168,0|0,0:0|0:0,0:0:0:0:
40,80,105705,2,0,L|184:72,1,131.99999597168,8|0,0:0|0:0,0:0:0:0:
280,64,106029,2,0,L|128:56,1,131.99999597168,0|0,0:0|0:0,0:0:0:0:
408,40,106354,6,0,P|472:160|176:352,2,527.999983886719,4|8|4,0:0|0:0|0:0,0:0:0:0:
96,32,108300,6,0,P|96:184|200:208,1,263.99999194336,2|0,0:0|0:0,0:0:0:0:
400,200,108948,5,8,0:0:0:0:
160,320,119327,6,0,L|312:96,1,263.99999194336,0|0,3:0|0:0,0:0:0:0:
128,320,119975,2,0,L|280:96,1,263.99999194336,0|0,1:0|0:0,0:0:0:0:
96,320,120624,2,0,L|248:96,1,263.99999194336,0|0,3:0|0:0,0:0:0:0:
64,320,121272,2,0,L|216:96,1,263.99999194336,0|0,1:0|1:0,0:0:0:0:
352,320,121921,6,0,L|200:96,1,263.99999194336,0|0,3:0|0:0,0:0:0:0:
384,320,122569,2,0,L|232:96,1,263.99999194336,0|0,1:0|0:0,0:0:0:0:
416,320,123218,2,0,L|264:96,1,263.99999194336,0|0,3:0|0:0,0:0:0:0:
448,320,123867,2,0,L|296:96,1,263.99999194336,0|0,1:0|0:0,0:0:0:0:
160,336,124516,6,0,P|56:200|288:-8,2,527.999983886719,0|8|0,3:0|2:0|3:0,0:0:0:0:
248,336,125975,1,0,0:0:0:0:
336,328,126137,1,0,0:0:0:0:
120,304,126462,2,0,P|120:192|272:120,1,263.99999194336,0|0,2:0|0:0,0:0:0:0:
424,40,127110,6,0,B|424:320|424:320|424:336,1,263.99999194336,8|0,0:0|0:0,0:0:0:0:
320,304,127597,1,0,0:0:0:0:
88,40,127759,6,0,B|88:320|88:320|88:336,1,263.99999194336,8|0,0:0|0:0,0:0:0:0:
192,304,128246,1,0,0:0:0:0:
448,320,128408,6,0,L|448:152,1,131.99999597168,8|0,0:0|0:0,0:0:0:0:
216,320,128732,2,0,L|216:160,1,131.99999597168,8|0,0:0|0:0,0:0:0:0:
456,136,129056,1,8,0:0:0:0:
384,128,129137,1,0,0:0:0:0:
312,120,129219,1,0,0:0:0:0:
384,128,129300,1,0,0:0:0:0:
456,136,129381,1,0,0:0:0:0:
80,104,129705,6,0,P|104:224|248:232,1,263.99999194336,8|0,0:0|0:0,0:0:0:0:
88,248,130192,1,0,0:0:0:0:
384,248,130354,1,2,0:0:0:0:
264,240,130678,2,0,L|264:88,1,131.99999597168,0|0,0:0|0:0,0:0:0:0:
88,248,131165,1,0,0:0:0:0:
384,248,131327,1,2,0:0:0:0:
192,128,131651,1,0,0:0:0:0:
72,128,131813,1,0,0:0:0:0:
72,232,131975,1,0,0:0:0:0:
192,240,132137,1,0,0:0:0:0:
420,243,132300,6,0,B|468:161|468:161|436:65|436:65|300:65|300:65|268:161|268:161|329:263,1,527.999983886719,8|2,0:0|0:0,0:0:0:0:
464,256,133273,1,0,0:0:0:0:
312,256,133435,1,0,0:0:0:0:
88,256,133597,2,0,L|88:120,1,131.99999597168,8|0,0:0|0:0,0:0:0:0:
208,112,133921,2,0,L|72:80,1,131.99999597168,0|0,0:0|0:0,0:0:0:0:
400,56,134246,1,2,0:0:0:0:
400,136,134408,1,0,0:0:0:0:
280,144,134570,1,0,0:0:0:0:
280,224,134732,1,0,0:0:0:0:
64,256,134894,6,0,L|288:88,1,263.99999194336,8|0,0:0|0:0,0:0:0:0:
376,80,135381,1,0,0:0:0:0:
96,88,135543,1,2,0:0:0:0:
320,144,135867,2,0,L|188:130,1,131.99999597168,0|0,0:0|0:0,0:0:0:0:
448,284,136192,2,0,L|448:152,1,131.99999597168,8|0,0:0|0:0,0:0:0:0:
336,304,136516,1,0,0:0:0:0:
448,352,136678,1,0,0:0:0:0:
128,288,136840,2,0,L|128:156,1,131.99999597168,2|0,0:0|0:0,0:0:0:0:
240,304,137164,1,0,0:0:0:0:
128,356,137326,1,0,0:0:0:0:
432,344,137489,6,0,P|480:232|224:112,1,440,8|2,0:0|0:0,0:0:0:0:
80,160,138462,2,0,L|216:136,1,131.99999597168,0|0,0:0|0:0,0:0:0:0:
352,120,138786,1,8,0:0:0:0:
352,192,138948,1,0,0:0:0:0:
352,248,139110,1,0,0:0:0:0:
176,184,139435,2,0,L|40:120,3,131.99999597168,2|0|0|0,0:0|0:0|0:0|0:0,0:0:0:0:
432,104,140083,6,0,P|408:224|264:232,1,263.99999194336,8|0,0:0|0:0,0:0:0:0:
424,248,140570,1,0,0:0:0:0:
128,248,140732,1,2,0:0:0:0:
248,240,141056,2,0,L|248:88,1,131.99999597168,0|0,0:0|0:0,0:0:0:0:
424,248,141543,1,0,0:0:0:0:
128,248,141705,1,2,0:0:0:0:
320,128,142029,1,0,0:0:0:0:
440,128,142191,1,0,0:0:0:0:
440,232,142353,1,0,0:0:0:0:
320,240,142515,1,0,0:0:0:0:
92,243,142678,6,0,B|44:161|44:161|76:65|76:65|212:65|212:65|244:161|244:161|183:263,1,527.999983886719,8|2,0:0|0:0,0:0:0:0:
48,256,143651,1,0,0:0:0:0:
200,256,143813,1,0,0:0:0:0:
424,256,143975,2,0,L|424:120,1,131.99999597168,8|0,0:0|0:0,0:0:0:0:
304,112,144299,2,0,L|440:80,1,131.99999597168,0|0,0:0|0:0,0:0:0:0:
112,56,144624,1,2,0:0:0:0:
112,136,144786,1,0,0:0:0:0:
232,144,144948,1,0,0:0:0:0:
232,224,145110,1,0,0:0:0:0:
448,256,145272,6,0,L|224:88,1,263.99999194336,8|0,0:0|0:0,0:0:0:0:
136,80,145759,1,0,0:0:0:0:
416,88,145921,1,2,0:0:0:0:
192,144,146245,2,0,L|324:130,1,131.99999597168,0|0,0:0|0:0,0:0:0:0:
64,284,146570,2,0,L|64:152,1,131.99999597168,8|0,0:0|0:0,0:0:0:0:
176,304,146894,1,0,0:0:0:0:
64,352,147056,1,0,0:0:0:0:
384,288,147218,2,0,L|384:156,1,131.99999597168,2|0,0:0|0:0,0:0:0:0:
272,304,147542,1,0,0:0:0:0:
384,356,147704,1,0,0:0:0:0:
80,344,147867,6,0,P|32:232|288:112,1,440,8|2,0:0|0:0,0:0:0:0:
432,160,148840,2,0,L|296:136,1,131.99999597168,0|0,0:0|0:0,0:0:0:0:
168,120,149164,1,8,0:0:0:0:
168,192,149326,1,0,0:0:0:0:
168,248,149488,1,0,0:0:0:0:
368,256,149813,2,0,L|368:120,1,131.99999597168,2|0,0:0|0:0,0:0:0:0:
192,160,150137,2,0,L|192:8,1,131.99999597168,0|0,0:0|0:0,0:0:0:0:
448,32,150462,1,4,1:0:0:0:
256,192,150786,8,0,160840,0:0:0:0:
256,192,171219,5,8,0:0:0:0:
376,296,171543,2,0,L|376:160,1,110,0|0,0:0|0:0,0:0:0:0:
256,192,171867,1,2,0:0:0:0:
440,192,172192,1,0,0:0:0:0:
256,192,172516,2,0,L|136:192,2,110,0|0|0,0:0|0:0|0:0,0:0:0:0:
64,48,173164,2,0,L|64:296,1,220,2|0,0:0|0:0,0:0:0:0:
192,273,173813,6,0,P|256:241|184:137,1,220,8|0,0:0|0:0,0:0:0:0:
72,136,174300,1,0,0:0:0:0:
200,136,174462,2,0,L|433:58,1,220,0|0,0:0|0:0,0:0:0:0:
192,128,175110,1,0,1:0:0:0:
400,64,175435,1,0,0:0:0:0:
192,128,175759,2,0,L|192:360,1,220,2|0,0:0|0:0,0:0:0:0:
392,344,176408,6,0,P|408:256|264:208,1,220,8|0,0:0|0:0,0:0:0:0:
216,192,176894,1,0,0:0:0:0:
336,192,177056,2,0,L|336:40,1,110,2|0,0:0|0:0,0:0:0:0:
224,80,177381,2,0,L|96:80,1,110,0|0,0:0|0:0,0:0:0:0:
224,80,177705,2,0,L|224:320,1,220,0|0,1:0|0:0,0:0:0:0:
104,304,178354,2,0,L|328:288,1,220,2|0,0:0|0:0,0:0:0:0:
104,304,179002,6,0,P|64:264|144:144,1,220,8|0,0:0|0:0,0:0:0:0:
272,152,179489,1,0,0:0:0:0:
152,144,179651,2,0,L|24:136,1,110,0|0,0:0|0:0,0:0:0:0:
152,144,179975,2,0,L|272:120,1,110,0|0,0:0|0:0,0:0:0:0:
152,144,180300,2,0,L|152:272,1,110,0|0,1:0|0:0,0:0:0:0:
280,240,180624,2,0,L|280:376,1,110,0|0,0:0|0:0,0:0:0:0:
128,352,180948,2,0,P|64:336|72:192,1,220,2|0,0:0|0:0,0:0:0:0:
160,200,181435,1,0,0:0:0:0:
400,120,181597,6,0,P|448:240|384:304,1,220,0|0,3:0|0:0,0:0:0:0:
296,120,182083,1,0,0:0:0:0:
192,120,182245,2,0,P|144:240|208:304,1,220,0|0,0:0|0:0,0:0:0:0:
400,120,182894,2,0,P|448:240|384:304,1,220,0|0,3:0|0:0,0:0:0:0:
192,120,183542,2,0,P|144:240|208:304,1,220,0|0,0:0|0:0,0:0:0:0:
296,120,184029,1,0,0:0:0:0:
416,288,184191,5,0,3:0:0:0:
256,256,184516,1,0,0:0:0:0:
96,288,184840,1,0,1:0:0:0:
256,256,185164,1,0,0:0:0:0:
416,288,185489,5,0,3:0:0:0:
256,256,185813,1,0,0:0:0:0:
96,288,186138,1,0,1:0:0:0:
256,256,186461,1,0,0:0:0:0:
416,272,186786,6,0,L|416:152,1,110,0|0,0:0|0:0,0:0:0:0:
296,168,187110,2,0,L|296:48,1,110,0|0,0:0|0:0,0:0:0:0:
424,64,187434,2,0,L|296:64,1,110,0|0,0:0|0:0,0:0:0:0:
186,168,187759,2,0,L|314:168,1,110,0|0,0:0|0:0,0:0:0:0:
241,143,188002,1,0,0:0:0:0:
81,161,188083,5,0,0:0:0:0:
24,249,188245,1,0,0:0:0:0:
65,346,188407,1,0,0:0:0:0:
169,367,188569,1,0,0:0:0:0:
385,161,188732,1,0,0:0:0:0:
443,249,188894,1,0,0:0:0:0:
402,346,189056,1,0,0:0:0:0:
298,367,189218,1,0,0:0:0:0:
80,344,189380,5,8,0:0:0:0:
50,279,189488,1,0,0:0:0:0:
74,212,189596,1,0,0:0:0:0:
168,208,189705,1,0,0:0:0:0:
199,143,189813,1,0,0:0:0:0:
175,76,189921,1,0,0:0:0:0:
80,64,190029,5,8,0:0:0:0:
144,72,190110,1,0,0:0:0:0:
208,80,190191,1,0,0:0:0:0:
280,72,190272,1,0,0:0:0:0:
208,80,190353,1,0,0:0:0:0:
136,88,190434,1,0,0:0:0:0:
80,64,190516,1,0,0:0:0:0:
144,72,190597,1,0,0:0:0:0:
352,64,190678,5,8,0:0:0:0:
373,81,190718,1,0,0:0:0:0:
387,105,190759,1,0,0:0:0:0:
393,132,190799,1,0,0:0:0:0:
389,159,190840,1,0,0:0:0:0:
378,184,190880,1,0,0:0:0:0:
359,203,190921,1,0,0:0:0:0:
208,192,191002,5,8,0:0:0:0:
188,209,191042,1,0,0:0:0:0:
174,233,191083,1,0,0:0:0:0:
168,260,191123,1,0,0:0:0:0:
172,287,191164,1,0,0:0:0:0:
183,312,191204,1,0,0:0:0:0:
202,331,191245,1,0,0:0:0:0:
432,112,191327,6,0,L|224:112,1,175.999994628906,8|0,0:0|0:0,0:0:0:0:
336,112,191652,2,0,P|416:160|400:240,1,175.999994628906,8|0,0:0|0:0,0:0:0:0:
208,216,191975,6,0,B|80:176|80:176|208:216,1,263.99999194336,4|0,2:0|0:0,0:0:0:0:
88,144,192461,1,0,0:0:0:0:
336,184,192624,1,0,3:0:0:0:
448,168,192786,1,0,0:0:0:0:
336,144,192948,1,0,0:0:0:0:
288,136,193029,1,0,0:0:0:0:
240,128,193110,2,0,L|400:120,1,131.99999597168,0|0,0:0|0:0,0:0:0:0:
120,96,193434,5,0,0:0:0:0:
336,144,193597,2,0,L|456:232,1,131.99999597168,0|0,0:0|0:0,0:0:0:0:
176,176,193921,2,8,L|160:320,1,131.99999597168,0|0,3:0|0:0,0:0:0:0:
304,320,194245,2,0,L|316:189,1,131.99999597168,0|0,0:0|0:0,0:0:0:0:
80,160,194570,6,0,P|312:24|312:24,1,263.99999194336,4|0,2:0|0:0,0:0:0:0:
208,24,195056,1,0,0:0:0:0:
449,87,195218,2,0,L|433:271,1,131.99999597168,0|0,0:0|0:0,0:0:0:0:
320,240,195543,1,0,0:0:0:0:
368,240,195624,1,0,0:0:0:0:
416,240,195705,1,0,0:0:0:0:
184,224,195867,6,0,L|56:160,1,131.99999597168,4|0,3:0|0:0,0:0:0:0:
352,168,196191,2,0,L|488:104,1,131.99999597168,4|0,3:0|0:0,0:0:0:0:
208,56,196516,2,0,L|208:240,1,131.99999597168,0|0,3:0|0:0,0:0:0:0:
448,256,196840,1,0,0:3:0:0:
208,264,197002,1,0,0:0:0:0:
456,224,197164,6,0,P|448:120|296:80,1,263.99999194336,4|0,2:0|0:0,0:0:0:0:
440,56,197651,1,0,0:0:0:0:
216,56,197813,2,0,P|136:88|232:192,1,263.99999194336,0|0,3:0|0:0,0:0:0:0:
272,192,198218,1,0,0:0:0:0:
336,192,198299,1,0,0:0:0:0:
192,216,198461,5,0,0:0:0:0:
352,240,198624,1,0,0:0:0:0:
80,200,198786,2,0,L|80:352,1,131.99999597168,0|0,0:0|0:0,0:0:0:0:
344,304,199110,6,0,B|469:248,3,131.99999597168,0|0|0|0,3:0|0:0|0:0|0:0,0:0:0:0:
224,288,199759,6,0,P|136:256|232:184,1,263.99999194336,4|0,2:0|0:0,0:0:0:0:
328,184,200245,1,0,0:0:0:0:
80,120,200407,2,0,L|256:96,1,131.99999597168,0|0,0:0|0:0,0:0:0:0:
328,88,200732,1,0,0:0:0:0:
368,72,200813,1,0,0:0:0:0:
328,64,200894,1,0,0:0:0:0:
80,120,201056,6,0,L|80:272,1,131.99999597168,4|0,0:3|0:0,0:0:0:0:
320,192,201380,2,0,L|320:344,1,131.99999597168,4|0,0:3|0:0,0:0:0:0:
80,328,201705,1,0,3:0:0:0:
200,328,201867,1,0,0:0:0:0:
80,304,202029,1,0,0:0:0:0:
80,256,202191,1,0,0:0:0:0:
312,256,202354,6,0,B|440:216|440:216|312:256,1,263.99999194336,4|0,2:0|0:0,0:0:0:0:
432,184,202840,1,0,0:0:0:0:
176,200,203002,2,0,L|176:48,1,131.99999597168,0|0,3:0|0:0,0:0:0:0:
296,56,203326,1,0,0:0:0:0:
352,48,203407,1,0,0:0:0:0:
408,40,203489,1,0,0:0:0:0:
248,128,203651,5,0,0:0:0:0:
480,128,203813,1,0,0:0:0:0:
248,184,203975,1,0,0:0:0:0:
368,184,204137,1,0,0:0:0:0:
88,128,204299,2,0,P|56:200|112:240,1,131.99999597168,0|0,3:0|0:0,0:0:0:0:
192,248,204624,1,0,0:0:0:0:
88,256,204786,1,0,0:0:0:0:
336,192,204948,6,0,P|472:272|432:352,1,263.99999194336,4|0,2:0|0:0,0:0:0:0:
336,336,205434,1,0,0:0:0:0:
112,336,205597,2,0,L|256:320,1,131.99999597168,0|0,3:0|0:0,0:0:0:0:
184,320,205840,1,0,0:0:0:0:
120,312,205921,1,0,0:0:0:0:
416,296,206083,1,0,0:0:0:0:
200,248,206245,6,0,L|64:192,1,131.99999597168,4|0,0:3|0:0,0:0:0:0:
312,248,206570,2,0,L|448:192,1,131.99999597168,4|0,0:3|0:0,0:0:0:0:
200,104,206894,2,0,L|200:272,1,131.99999597168,0|0,3:0|0:0,0:0:0:0:
464,264,207218,1,0,3:0:0:0:
352,240,207380,1,0,0:0:0:0:
120,208,207543,6,0,P|96:144|144:80,1,131.99999597168,4|0,2:0|0:0,0:0:0:0:
256,96,207867,2,0,L|96:80,1,131.99999597168,0|0,0:0|0:0,0:0:0:0:
416,96,208191,2,0,L|392:256,1,131.99999597168,0|0,3:0|0:0,0:0:0:0:
272,216,208516,1,0,0:0:0:0:
320,232,208597,1,0,0:0:0:0:
368,248,208678,1,0,0:0:0:0:
248,288,208840,5,0,0:0:0:0:
384,312,209002,1,0,0:0:0:0:
152,272,209164,2,0,L|24:208,1,131.99999597168,0|0,0:0|0:0,0:0:0:0:
312,96,209489,2,0,L|312:376,1,263.99999194336,0|0,3:0|0:0,0:0:0:0:
416,360,209975,1,0,0:0:0:0:
192,352,210137,6,0,B|66:296,3,131.99999597168,0|0|0|0,3:0|0:0|0:0|0:0,0:0:0:0:
400,328,210786,2,0,P|432:264|392:240,1,131.99999597168,0|0,3:0|0:0,0:0:0:0:
288,240,211110,1,0,0:0:0:0:
240,240,211191,1,0,0:0:0:0:
192,240,211272,1,0,0:0:0:0:
472,128,211434,6,0,L|472:272,1,131.99999597168,4|0,0:3|0:0,0:0:0:0:
208,88,211759,2,0,L|208:232,1,131.99999597168,4|0,0:3|0:0,0:0:0:0:
440,320,212083,6,0,P|464:224|312:168,1,263.99999194336,0|0,3:0|0:0,0:0:0:0:
472,104,212570,1,0,0:0:0:0:
208,216,212732,6,0,B|80:176|80:176|208:216,1,263.99999194336,4|0,2:0|0:0,0:0:0:0:
88,144,213218,1,0,0:0:0:0:
335,184,213381,1,0,3:0:0:0:
448,168,213543,1,0,0:0:0:0:
336,144,213705,1,0,0:0:0:0:
288,136,213786,1,0,0:0:0:0:
240,128,213867,2,0,L|400:120,1,131.99999597168,0|0,0:0|0:0,0:0:0:0:
120,96,214191,5,0,0:0:0:0:
336,144,214354,2,0,L|456:232,1,131.99999597168,0|0,0:0|0:0,0:0:0:0:
176,176,214678,2,0,L|160:320,1,131.99999597168,0|0,3:0|0:0,0:0:0:0:
304,320,215002,2,0,L|316:189,1,131.99999597168,0|0,0:0|0:0,0:0:0:0:
80,160,215327,6,0,P|312:24|312:24,1,263.99999194336,4|0,2:0|0:0,0:0:0:0:
208,24,215813,1,0,0:0:0:0:
449,87,215975,2,0,L|433:271,1,131.99999597168,0|0,3:0|0:0,0:0:0:0:
320,240,216300,1,0,0:0:0:0:
368,240,216381,1,0,0:0:0:0:
416,240,216462,1,0,0:0:0:0:
160,160,216624,6,0,P|192:296|312:336,2,263.99999194336,4|4|0,3:0|3:0|0:0,0:0:0:0:
448,256,217597,1,0,0:0:0:0:
208,264,217759,1,0,0:0:0:0:
456,224,217921,2,0,P|448:120|296:80,1,263.99999194336,0|0,1:0|0:0,0:0:0:0:
440,56,218408,1,0,0:0:0:0:
216,56,218570,6,0,B|64:-25|64:-25|53:170|53:170|200:263|200:263|38:157,1,704,0|0,3:0|0:0,0:0:0:0:
360,240,219381,1,0,0:0:0:0:
80,200,219543,2,0,L|80:352,1,131.99999597168,0|0,0:0|0:0,0:0:0:0:
344,320,219867,6,0,B|472:280|472:280|344:320,1,263.99999194336,0|0,3:0|0:0,0:0:0:0:
464,248,220353,1,0,0:0:0:0:
224,288,220516,6,0,P|136:256|232:184,1,263.99999194336,4|0,2:0|0:0,0:0:0:0:
328,184,221002,1,0,0:0:0:0:
80,120,221164,2,0,L|256:96,1,131.99999597168,0|0,3:0|0:0,0:0:0:0:
328,88,221489,1,0,0:0:0:0:
368,72,221570,1,0,0:0:0:0:
328,64,221651,1,0,0:0:0:0:
80,120,221813,6,0,L|80:272,1,131.99999597168,4|0,3:0|0:0,0:0:0:0:
320,192,222137,2,0,L|320:344,1,131.99999597168,4|0,3:0|0:0,0:0:0:0:
80,328,222462,1,0,0:0:0:0:
200,328,222624,1,0,0:0:0:0:
200,272,222786,1,0,0:0:0:0:
80,272,222948,1,0,0:0:0:0:
336,272,223110,6,0,P|440:248|424:88,1,263.99999194336,4|0,2:0|0:0,0:0:0:0:
360,112,223609,1,0,0:0:0:0:
280,112,223776,2,0,P|208:160|200:208,1,131.99999597168,8|0,2:0|0:0,0:0:0:0:
312,208,224109,1,0,0:0:0:0:
368,224,224193,1,0,0:0:0:0:
312,240,224276,1,0,0:0:0:0:
208,272,224443,1,0,0:0:0:0:
312,312,224625,1,0,0:0:0:0:
72,304,224808,6,0,L|208:288,1,110,8|0,0:0|0:0,0:0:0:0:
72,304,225174,2,0,L|208:288,1,110,8|0,1:0|0:0,0:0:0:0:
72,304,225540,1,0,0:0:0:0:
72,304,225723,1,0,0:0:0:0:
328,304,225906,6,0,B|328:192|328:192|224:192|224:192|224:328,1,330,4|0,2:0|0:0,0:0:0:0:
472,184,226660,2,0,L|344:168,1,110,8|0,2:0|0:0,0:0:0:0:
256,160,227047,1,0,0:0:0:0:
208,136,227143,1,0,0:0:0:0:
256,128,227240,1,0,0:0:0:0:
360,104,227434,6,0,L|360:240,1,110,8|0,0:0|0:0,0:0:0:0:
256,224,227834,2,0,L|256:344,1,110,8|0,0:0|0:0,0:0:0:0:
400,328,228234,1,8,1:0:0:0:
256,334,228440,1,0,0:0:0:0:
432,336,229061,6,0,B|453:275|432:224|432:224|376:250|320:224|320:224|337:171|320:128|320:128|268:147|216:128|216:128|200:165|216:224|216:224|269:195|328:224|328:224|382:156|394:31|366:-42|219:-60|104:-8|104:-8|57:54|104:104|104:104|154:127|216:104|216:104|226:163|216:224|216:224|182:242|112:224|112:224|129:203|112:174|112:174|67:203|90:281|139:304,1,1760,4|8,2:0|2:0,0:0:0:0:
