osu file format v14

[General]
AudioFilename: audio.mp3
AudioLeadIn: 0
PreviewTime: 0
Countdown: 0
SampleSet: Normal
StackLeniency: 0.7
Mode: 2
LetterboxInBreaks: 0
WidescreenStoryboard: 1

[Editor]
Bookmarks: 25840,36300,46678,67435,72624,83002,93381,103435,108948,119327,129705,140083,150462,166029,171219,191975,212732
DistanceSpacing: 1
BeatDivisor: 4
GridSize: 16
TimelineZoom: 2.2

[Metadata]
Title:In Circles
TitleUnicode:In Circles
Artist:Creo
ArtistUnicode:Creo
Creator:salchow
Version:Collab Rain
Source:osu!
Tags:fa featured artist wonjae chickenbible Nelly Rocma EP
BeatmapID:2050069
BeatmapSetID:965558

[Difficulty]
HPDrainRate:5
CircleSize:4.5
OverallDifficulty:8.3
ApproachRate:8.3
SliderMultiplier:1.7
SliderTickRate:2

[Events]
//Background and Video events
0,0,"In circles.jpg",0,0
//Break Periods
2,26121,35596
2,109148,118623
2,150662,160136
//Storyboard Layer 0 (Background)
//Storyboard Layer 1 (Fail)
//Storyboard Layer 2 (Pass)
//Storyboard Layer 3 (Foreground)
//Storyboard Sound Samples

[TimingPoints]
5165,324.324324324324,4,2,2,50,1,0
36300,-100,4,1,2,50,0,0
44083,-100,4,2,2,70,0,0
44732,-100,4,2,2,40,0,0
45381,-100,4,2,2,30,0,0
46029,-83.3333333333333,4,1,2,20,0,0
46678,-83.3333333333333,4,1,2,60,0,1
67435,-83.3333333333333,4,3,2,59,0,0
69381,-83.3333333333333,4,3,2,29,0,0
69462,-83.3333333333333,4,3,2,59,0,0
71975,-83.3333333333333,4,3,2,29,0,0
72056,-83.3333333333333,4,3,2,49,0,0
93381,-83.3333333333333,4,1,2,60,0,0
119327,-100,4,2,2,50,0,0
124516,-100,4,1,2,50,0,0
129705,-100,4,3,2,60,0,0
137489,-100,4,3,2,60,0,0
138137,-100,4,3,2,60,0,0
147867,-100,4,3,2,60,0,0
148516,-100,4,3,2,60,0,0
160840,-88.5425889853019,4,3,2,60,0,0
171219,-88.5425889853019,4,2,2,50,0,0
181597,-88.5425889853019,4,1,2,50,0,0
189381,-88.5425889853019,4,1,2,70,0,0
190029,-88.5425889853019,4,1,2,40,0,0
190678,-88.5425889853019,4,1,2,30,0,0
191327,-88.5425889853019,4,1,2,20,0,0
191975,-88.5425889853019,4,1,2,60,0,1
223110,333.324324324324,4,3,2,59,1,0
223110,-88.5425889853019,4,3,2,59,0,0
224443,365.853658536585,4,3,2,40,1,0
224443,-88.5425889853019,4,3,2,40,0,0
225906,377.358490566038,4,3,2,40,1,0
225906,-88.5425889853019,4,3,2,40,0,0
226660,387.096774193548,4,3,2,40,1,0
226660,-88.5425889853019,4,3,2,40,0,0
227434,400,4,3,2,40,1,0
227434,-88.5425889853019,4,3,2,40,0,0
228234,413.793103448276,4,3,2,40,1,0
228234,-88.5425889853019,4,3,2,40,0,0
229061,425.531914893617,4,3,2,30,1,0
229061,-88.5425889853019,4,3,2,30,0,0

[Colours]
Combo1 : 181,66,149
Combo2 : 0,64,128
Combo3 : 0,128,128
Combo4 : 83,184,213

[HitObjects]
256,160,4516,5,8,0:0:0:0:
87,53,5164,6,0,L|256:49,3,170,0|0|0|0,0:0|0:0|0:0|0:0,0:0:0:0:
428,53,6300,6,0,P|465:69|428:163,1,170,0|0,0:0|0:0,0:0:0:0:
331,165,6786,2,0,L|244:162,1,85,0|0,1:0|0:0,0:0:0:0:
418,319,7110,2,0,L|502:317,2,85,2|0|0,0:0|0:0|0:0,0:0:0:0:
28,256,7759,6,0,P|28:212|121:143,1,170,0|0,1:0|0:0,0:0:0:0:
291,143,8408,2,0,L|120:142,1,170,2|0,0:0|0:0,0:0:0:0:
206,222,8894,1,0,0:0:0:0:
366,235,9056,6,0,L|370:151,1,85,0|0,1:0|0:0,0:0:0:0:
258,150,9381,2,0,L|254:66,1,85,0|0,0:0|0:0,0:0:0:0:
400,337,9705,1,2,0:0:0:0:
176,355,9867,2,0,P|121:300|175:244,1,170,0|0,0:0|0:0,0:0:0:0:
425,53,10354,6,0,L|256:49,3,170,0|0|2|0,1:0|0:0|0:0|0:0,0:0:0:0:
84,138,11489,6,0,L|78:222,1,85,0|0,0:0|1:0,0:0:0:0:
188,253,11813,2,0,L|275:250,2,85,0|0|0,0:0|1:0|0:0,0:0:0:0:
50,335,12300,2,0,L|134:337,2,85,2|0|0,0:0|0:0|0:0,0:0:0:0:
484,256,12949,6,0,P|484:212|391:143,1,170,0|0,1:0|0:0,0:0:0:0:
221,143,13598,2,0,L|392:142,1,170,2|0,0:0|0:0,0:0:0:0:
306,222,14084,1,0,0:0:0:0:
146,235,14246,6,0,L|142:151,1,85,0|0,1:0|0:0,0:0:0:0:
254,150,14571,2,0,L|258:66,1,85,0|0,0:0|0:0,0:0:0:0:
112,337,14895,1,2,0:0:0:0:
336,355,15057,2,0,P|391:300|337:244,1,170,0|0,0:0|0:0,0:0:0:0:
87,53,15543,6,0,L|256:49,3,170,0|0|2|0,1:0|0:0|0:0|0:0,0:0:0:0:
428,53,16679,6,0,P|465:69|428:163,1,170,0|0,0:0|0:0,0:0:0:0:
331,165,17164,2,0,P|286:165|211:256,1,170,0|2,0:0|0:0,0:0:0:0:
375,325,17651,2,0,L|462:324,1,85,0|0,0:0|0:0,0:0:0:0:
28,256,18138,6,0,P|28:212|121:143,1,170,0|0,1:0|0:0,0:0:0:0:
291,143,18787,2,0,L|120:142,1,170,2|0,0:0|0:0,0:0:0:0:
206,222,19273,1,0,0:0:0:0:
366,235,19435,6,0,L|370:151,1,85,0|0,1:0|0:0,0:0:0:0:
258,150,19760,2,0,L|254:66,1,85,0|0,0:0|0:0,0:0:0:0:
400,337,20084,1,2,0:0:0:0:
176,355,20246,2,0,P|121:300|175:244,1,170,0|0,0:0|0:0,0:0:0:0:
425,53,20732,6,0,L|256:49,3,170,0|0|2|0,1:0|0:0|0:0|0:0,0:0:0:0:
96,145,21867,6,0,L|12:147,2,85,0|0|0,0:0|1:0|0:0,0:0:0:0:
199,143,22354,2,0,P|239:159|253:275,1,170,0|2,1:0|0:0,0:0:0:0:
116,316,22840,2,0,L|31:315,1,85,0|0,0:0|0:0,0:0:0:0:
425,53,23327,6,0,L|256:49,3,170,0|0|2|0,1:0|0:0|0:0|0:0,0:0:0:0:
161,46,24462,1,0,0:0:0:0:
336,185,24624,6,0,L|423:182,2,85,2|0|0,0:0|0:0|0:0,0:0:0:0:
94,224,25273,2,0,L|89:310,1,85,2|0,0:0|0:0,0:0:0:0:
422,338,25921,1,4,0:0:0:0:
123,60,36300,6,0,P|83:91|131:335,1,340,0|0,3:0|1:0,0:0:0:0:
418,247,37597,2,0,L|96:138,1,340,0|0,3:0|1:0,0:0:0:0:
96,50,38570,1,0,0:0:0:0:
389,60,38894,6,0,P|429:91|381:335,1,340,0|0,3:0|1:0,0:0:0:0:
94,247,40191,2,0,L|416:138,1,340,0|0,3:0|1:0,0:0:0:0:
256,81,41164,2,0,L|168:79,1,85,0|0,0:0|0:0,0:0:0:0:
433,324,41489,6,0,L|480:250,3,85,0|0|0|0,0:0|0:0|0:0|0:0,0:0:0:0:
311,184,42137,2,0,L|387:144,3,85,0|0|0|0,0:0|0:0|0:0|0:0,0:0:0:0:
343,136,42705,1,0,0:0:0:0:
130,90,42787,5,0,0:0:0:0:
80,171,42949,1,0,0:0:0:0:
98,264,43111,1,0,0:0:0:0:
175,323,43273,1,0,0:0:0:0:
323,322,43435,2,0,L|333:234,1,85,0|0,0:0|0:0,0:0:0:0:
205,227,43759,1,0,0:0:0:0:
332,221,43921,1,0,0:0:0:0:
95,56,44083,6,0,L|34:59,2,56.6666666666667,8|0|0,0:0|0:0|0:0,0:0:0:0:
179,79,44408,2,0,L|240:82,2,56.6666666666667,0|0|0,0:0|0:0|0:0,0:0:0:0:
95,56,44732,1,8,0:0:0:0:
62,82,44813,1,0,0:0:0:0:
40,118,44894,1,0,0:0:0:0:
33,159,44975,1,0,0:0:0:0:
40,201,45056,1,0,0:0:0:0:
62,237,45137,1,0,0:0:0:0:
96,263,45218,1,0,0:0:0:0:
136,275,45299,1,0,0:0:0:0:
287,281,45381,6,0,L|460:267,1,170,8|8,0:0|0:0,0:0:0:0:
187,248,46029,2,0,P|191:198|260:160,1,135.99999584961,8|0,0:0|0:0,0:0:0:0:
326,156,46354,2,0,P|322:106|252:69,1,135.99999584961,8|0,0:0|0:0,0:0:0:0:
53,91,46678,6,0,P|36:127|125:242,1,203.999993774414,4|0,2:0|0:0,0:0:0:0:
224,241,47164,1,0,0:0:0:0:
459,91,47327,2,0,P|476:127|387:242,1,203.999993774414,0|0,3:0|0:0,0:0:0:0:
338,241,47732,1,0,0:0:0:0:
287,241,47813,1,0,0:0:0:0:
154,241,47975,5,0,0:0:0:0:
287,241,48137,2,0,L|293:139,1,101.999996887207,0|0,0:0|0:0,0:0:0:0:
159,139,48462,1,0,0:0:0:0:
292,139,48624,2,0,L|393:135,1,101.999996887207,0|0,3:0|0:0,0:0:0:0:
261,242,48948,2,0,L|160:238,1,101.999996887207,0|0,0:0|0:0,0:0:0:0:
459,91,49273,6,0,P|476:127|387:242,1,203.999993774414,4|0,2:0|0:0,0:0:0:0:
288,241,49759,1,0,0:0:0:0:
53,91,49922,2,0,P|36:127|125:242,1,203.999993774414,0|0,3:0|0:0,0:0:0:0:
174,241,50327,1,0,0:0:0:0:
225,241,50408,1,0,0:0:0:0:
358,241,50570,6,0,L|257:239,1,101.999996887207,4|0,3:0|0:0,0:0:0:0:
122,241,50894,2,0,L|120:140,1,101.999996887207,4|0,3:0|0:0,0:0:0:0:
257,102,51219,2,0,L|358:104,1,101.999996887207,0|0,3:0|0:0,0:0:0:0:
491,204,51543,2,0,L|390:206,1,101.999996887207,0|0,0:3|0:0,0:0:0:0:
119,210,51867,6,0,P|72:192|119:84,1,203.999993774414,4|0,2:0|0:0,0:0:0:0:
221,83,52354,1,0,0:0:0:0:
454,213,52516,2,0,P|479:181|395:76,1,203.999993774414,0|0,3:0|0:0,0:0:0:0:
345,75,52921,1,0,0:0:0:0:
294,75,53002,1,0,0:0:0:0:
161,75,53164,6,0,L|156:177,1,101.999996887207,0|0,0:0|0:0,0:0:0:0:
289,176,53489,2,0,L|392:174,1,101.999996887207,0|0,0:0|0:0,0:0:0:0:
257,281,53813,2,0,L|155:276,3,101.999996887207,0|0|0|0,3:0|0:0|0:0|0:0,0:0:0:0:
393,210,54462,6,0,P|440:192|393:84,1,203.999993774414,4|0,2:0|0:0,0:0:0:0:
291,83,54949,1,0,0:0:0:0:
58,213,55111,2,0,P|33:181|117:76,1,203.999993774414,0|0,3:0|0:0,0:0:0:0:
167,75,55516,1,0,0:0:0:0:
218,75,55597,1,0,0:0:0:0:
351,75,55759,6,0,L|356:177,1,101.999996887207,4|0,0:3|0:0,0:0:0:0:
222,176,56084,2,0,L|220:277,1,101.999996887207,4|0,0:3|0:0,0:0:0:0:
352,277,56408,1,0,3:0:0:0:
220,277,56570,2,0,L|116:271,2,101.999996887207,0|0|0,0:0|0:0|0:0,0:0:0:0:
459,91,57056,6,0,P|476:127|387:242,1,203.999993774414,4|0,2:0|0:0,0:0:0:0:
288,241,57542,1,0,0:0:0:0:
53,91,57705,2,0,P|36:127|125:242,1,203.999993774414,0|0,3:0|0:0,0:0:0:0:
174,241,58110,1,0,0:0:0:0:
225,241,58191,1,0,0:0:0:0:
358,241,58353,5,0,0:0:0:0:
225,241,58515,2,0,L|219:139,1,101.999996887207,0|0,0:0|0:0,0:0:0:0:
353,139,58840,1,0,0:0:0:0:
220,139,59002,2,0,L|119:135,1,101.999996887207,0|0,3:0|0:0,0:0:0:0:
251,242,59326,2,0,L|352:238,1,101.999996887207,0|0,0:0|0:0,0:0:0:0:
53,91,59651,6,0,P|36:127|125:242,1,203.999993774414,4|0,2:0|0:0,0:0:0:0:
224,241,60137,1,0,0:0:0:0:
459,91,60300,2,0,P|476:127|387:242,1,203.999993774414,0|0,3:0|0:0,0:0:0:0:
338,241,60705,1,0,0:0:0:0:
287,241,60786,1,0,0:0:0:0:
154,241,60948,6,0,L|255:239,1,101.999996887207,4|0,0:3|0:0,0:0:0:0:
390,241,61272,2,0,L|392:140,1,101.999996887207,4|0,0:3|0:0,0:0:0:0:
255,102,61597,2,0,L|154:104,1,101.999996887207,0|0,3:0|0:0,0:0:0:0:
21,204,61921,2,0,L|122:206,1,101.999996887207,0|0,3:0|0:0,0:0:0:0:
393,210,62245,6,0,P|440:192|393:84,1,203.999993774414,4|0,2:0|0:0,0:0:0:0:
291,83,62732,1,0,0:0:0:0:
58,213,62894,2,0,P|33:181|117:76,1,203.999993774414,0|0,3:0|0:0,0:0:0:0:
167,75,63299,1,0,0:0:0:0:
218,75,63380,1,0,0:0:0:0:
351,75,63542,6,0,L|356:177,1,101.999996887207,0|0,0:0|0:0,0:0:0:0:
223,176,63867,2,0,L|120:174,1,101.999996887207,0|0,0:0|0:0,0:0:0:0:
255,281,64191,2,0,L|357:276,3,101.999996887207,0|0|0|0,3:0|0:0|0:0|0:0,0:0:0:0:
119,210,64840,6,0,P|72:192|119:84,1,203.999993774414,4|0,2:0|0:0,0:0:0:0:
221,83,65327,1,0,0:0:0:0:
454,213,65489,2,0,P|479:181|395:76,1,203.999993774414,0|0,3:0|0:0,0:0:0:0:
345,75,65894,1,0,0:0:0:0:
294,75,65975,1,0,0:0:0:0:
161,75,66137,6,0,L|156:177,1,101.999996887207,4|0,0:3|0:0,0:0:0:0:
290,176,66462,2,0,L|291:277,1,101.999996887207,4|0,0:3|0:0,0:0:0:0:
160,277,66786,1,0,3:0:0:0:
291,277,66948,2,0,L|396:271,2,101.999996887207,0|0|0,0:0|0:0|0:0,0:0:0:0:
52,286,67435,6,0,P|37:240|126:130,1,203.999993774414,4|0,2:0|0:0,0:0:0:0:
247,130,67921,1,0,0:0:0:0:
124,130,68083,1,8,2:3:0:0:
247,130,68246,1,0,0:0:0:0:
338,130,68408,2,0,L|354:181,2,50.9999984436036,0|0|0,0:0|0:0|0:0,0:0:0:0:
205,130,68732,6,0,L|199:234,1,101.999996887207,0|0,0:0|2:0,0:0:0:0:
331,231,69056,2,0,L|435:225,2,101.999996887207,8|0|8,2:3|0:0|1:0,0:0:0:0:
199,231,69543,2,0,P|152:213|199:105,1,203.999993774414,0|0,0:0|0:0,0:0:0:0:
460,286,70029,6,0,P|475:240|386:130,1,203.999993774414,4|0,2:0|0:0,0:0:0:0:
265,130,70515,1,0,0:0:0:0:
388,130,70677,1,8,2:3:0:0:
265,130,70840,1,0,0:0:0:0:
174,130,71002,2,0,L|158:181,2,50.9999984436036,0|0|0,0:0|0:0|0:0,0:0:0:0:
307,130,71326,6,0,L|313:234,1,101.999996887207,0|0,0:0|2:0,0:0:0:0:
181,231,71650,2,0,L|77:225,2,101.999996887207,8|0|8,2:3|0:0|1:0,0:0:0:0:
410,243,72137,1,0,0:0:0:0:
88,163,72624,6,0,L|256:49,3,203.999993774414,4|0|2|8,3:0|0:0|0:0|3:0,0:0:0:0:
428,53,73760,6,0,P|472:72|428:185,1,203.999993774414,0|0,0:0|0:0,0:0:0:0:
325,185,74246,2,0,L|417:137,1,101.999996887207,0|0,1:0|0:0,0:0:0:0:
282,344,74570,2,0,L|359:277,1,101.999996887207,0|0,0:0|0:0,0:0:0:0:
480,224,74894,1,0,0:0:0:0:
28,256,75219,6,0,P|28:203|139:120,1,203.999993774414,4|0,0:0|0:0,0:0:0:0:
291,143,75868,2,0,L|136:277,1,203.999993774414,2|0,0:3|0:0,0:0:0:0:
258,289,76354,1,0,0:0:0:0:
366,235,76516,6,0,L|370:132,1,101.999996887207,4|0,0:0|0:0,0:0:0:0:
258,150,76841,2,0,L|253:47,1,101.999996887207,0|0,0:0|0:0,0:0:0:0:
400,337,77165,1,0,1:0:0:0:
176,355,77327,2,0,P|110:289|174:222,1,203.999993774414,0|0,0:0|0:0,0:0:0:0:
423,167,77814,6,0,L|256:49,3,203.999993774414,4|0|2|0,0:0|0:0|0:0|0:0,0:0:0:0:
84,138,78949,6,0,L|78:239,1,101.999996887207,0|0,0:0|0:0,0:0:0:0:
188,253,79273,2,0,L|278:195,2,101.999996887207,0|0|0,0:0|0:0|0:0,0:0:0:0:
63,333,79760,2,0,L|155:380,2,101.999996887207,0|0|0,1:0|0:0|0:0,0:0:0:0:
484,256,80409,6,0,P|484:203|372:120,1,203.999993774414,4|0,0:0|0:0,0:0:0:0:
221,143,81056,2,0,L|368:283,1,203.999993774414,2|0,0:0|0:0,0:0:0:0:
248,303,81544,1,0,0:0:0:0:
146,235,81706,6,0,L|141:132,1,101.999996887207,4|0,0:0|0:0,0:0:0:0:
254,150,82029,2,0,L|258:48,1,101.999996887207,0|0,0:0|0:0,0:0:0:0:
112,337,82355,1,0,1:0:0:0:
336,355,82517,2,0,P|400:290|337:224,1,203.999993774414,0|0,0:0|0:0,0:0:0:0:
87,163,83003,6,0,L|256:49,3,203.999993774414,4|0|2|0,3:0|0:0|0:0|3:0,0:0:0:0:
428,53,84137,6,0,P|472:72|428:185,1,203.999993774414,0|0,0:0|0:0,0:0:0:0:
331,165,84624,2,0,P|285:174|232:308,1,203.999993774414,0|0,1:0|0:0,0:0:0:0:
366,316,85111,2,0,L|470:314,1,101.999996887207,0|0,0:0|0:0,0:0:0:0:
28,256,85598,6,0,P|28:202|140:119,1,203.999993774414,4|0,0:0|0:0,0:0:0:0:
291,143,86247,2,0,L|138:277,1,203.999993774414,0|0,0:0|0:0,0:0:0:0:
259,282,86733,1,0,0:0:0:0:
366,235,86895,6,0,L|370:133,1,101.999996887207,4|0,0:0|0:0,0:0:0:0:
258,150,87220,2,0,L|253:46,1,101.999996887207,0|0,0:0|0:0,0:0:0:0:
400,337,87544,1,0,0:0:0:0:
176,355,87706,2,0,P|110:289|174:222,1,203.999993774414,0|0,0:0|0:0,0:0:0:0:
425,164,88192,6,0,L|256:49,3,203.999993774414,4|0|2|0,0:0|0:0|0:0|0:0,0:0:0:0:
96,145,89327,6,0,L|12:205,2,101.999996887207,0|0|0,0:0|0:0|0:0,0:0:0:0:
199,125,89814,2,0,P|239:147|220:285,1,203.999993774414,0|0,0:0|0:0,0:0:0:0:
118,314,90300,2,0,L|34:257,1,101.999996887207,0|0,0:0|0:0,0:0:0:0:
423,172,90787,6,0,L|256:49,3,203.999993774414,4|0|0|0,0:0|0:0|0:0|0:0,0:0:0:0:
161,46,91922,1,0,0:0:0:0:
336,185,92084,6,0,L|416:247,2,101.999996887207,4|0|0,0:0|0:0|0:0,0:0:0:0:
94,224,92732,1,0,1:0:0:0:
316,283,92894,2,0,P|382:217|318:150,1,203.999993774414,0|0,0:0|0:0,0:0:0:0:
94,224,93381,6,0,P|66:198|129:75,1,203.999993774414,4|0,0:0|0:0,0:0:0:0:
228,75,93867,1,0,0:0:0:0:
443,308,94029,2,0,L|279:180,1,203.999993774414,8|0,1:0|0:0,0:0:0:0:
328,182,94435,1,0,0:0:0:0:
373,182,94516,1,0,0:0:0:0:
148,304,94678,6,0,L|72:227,1,101.999996887207,2|0,0:0|0:0,0:0:0:0:
198,231,95002,2,0,L|274:154,1,101.999996887207,0|0,0:0|0:0,0:0:0:0:
137,144,95327,2,0,P|98:159|35:301,1,203.999993774414,8|0,0:0|0:0,0:0:0:0:
156,297,95813,1,0,0:0:0:0:
383,213,95975,6,0,L|219:85,1,203.999993774414,4|0,0:0|0:0,0:0:0:0:
345,42,96462,1,0,0:0:0:0:
113,237,96624,2,0,P|85:211|148:88,1,203.999993774414,8|0,0:0|0:0,0:0:0:0:
196,88,97029,1,0,0:0:0:0:
246,88,97110,1,0,0:0:0:0:
483,191,97273,6,0,L|487:295,1,101.999996887207,2|0,0:0|0:0,0:0:0:0:
354,292,97597,1,0,0:0:0:0:
486,292,97759,1,0,0:0:0:0:
354,292,97921,2,0,P|354:240|467:160,1,203.999993774414,8|0,0:0|0:0,0:0:0:0:
365,90,98408,1,0,0:0:0:0:
113,75,98570,6,0,P|40:137|80:224,1,203.999993774414,4|0,0:0|0:0,0:0:0:0:
181,223,99056,1,0,0:0:0:0:
401,251,99218,2,0,L|237:123,1,203.999993774414,8|0,0:0|0:0,0:0:0:0:
200,92,99624,1,0,0:0:0:0:
159,61,99705,1,0,0:0:0:0:
383,296,99867,6,0,L|454:223,1,101.999996887207,2|0,0:0|0:0,0:0:0:0:
333,223,100191,2,0,L|261:150,1,101.999996887207,0|0,0:0|0:0,0:0:0:0:
393,135,100516,2,0,P|476:191|496:289,1,203.999993774414,8|0,0:0|0:0,0:0:0:0:
383,296,101002,1,0,0:0:0:0:
129,213,101164,6,0,L|293:85,1,203.999993774414,4|0,0:0|0:0,0:0:0:0:
167,42,101651,1,0,0:0:0:0:
399,237,101813,2,0,P|427:211|364:88,1,203.999993774414,8|0,0:0|0:0,0:0:0:0:
316,88,102218,1,0,0:0:0:0:
266,88,102299,1,0,0:0:0:0:
29,191,102462,6,0,L|25:295,1,101.999996887207,2|0,0:0|0:0,0:0:0:0:
158,292,102786,1,0,0:0:0:0:
26,292,102948,1,0,0:0:0:0:
158,292,103110,2,0,P|158:240|45:160,1,203.999993774414,8|0,0:0|0:0,0:0:0:0:
147,90,103597,1,0,0:0:0:0:
384,74,103759,6,0,L|465:138,3,101.999996887207,4|0|0|0,0:0|0:0|0:0|0:0,0:0:0:0:
333,269,104408,2,0,P|267:205|330:137,1,203.999993774414,8|0,0:0|0:0,0:0:0:0:
383,138,104813,2,0,L|389:188,1,50.9999984436036,0|0,0:0|0:0,0:0:0:0:
158,266,105056,6,0,L|77:330,2,101.999996887207,2|0|0,0:0|0:0|0:0,0:0:0:0:
291,266,105543,1,0,0:0:0:0:
158,266,105705,2,0,P|170:214|290:134,1,203.999993774414,8|0,0:0|0:0,0:0:0:0:
383,138,106192,1,0,0:0:0:0:
144,33,106354,6,0,P|95:57|137:342,1,407.999987548829,4|8,0:0|0:0,0:0:0:0:
368,33,107651,2,0,P|416:57|374:342,1,407.999987548829,4|2,0:0|0:0,0:0:0:0:
45,331,108948,1,8,0:0:0:0:
355,263,119327,6,0,B|421:250|415:199|248:196,1,170,0|0,3:0|0:0,0:0:0:0:
195,194,119813,1,0,0:0:0:0:
372,122,119975,2,0,P|404:202|356:284,1,170,0|0,1:0|0:0,0:0:0:0:
257,295,120462,1,0,0:0:0:0:
88,293,120624,1,0,3:0:0:0:
205,204,120948,6,0,L|14:158,2,170,0|0|0,0:0|1:0|1:0,0:0:0:0:
312,216,121759,1,0,0:0:0:0:
483,208,121921,1,0,3:0:0:0:
360,276,122246,6,0,L|246:285,2,85,0|0|0,0:0|0:0|0:0,0:0:0:0:
268,274,122732,1,0,0:0:0:0:
436,213,122894,2,0,L|446:104,1,85,0|0,0:0|0:0,0:0:0:0:
267,115,123219,6,0,L|257:14,1,85,0|0,3:0|0:0,0:0:0:0:
156,30,123543,1,0,0:0:0:0:
237,78,123705,1,0,0:0:0:0:
254,152,123867,1,0,1:0:0:0:
210,217,124029,1,0,0:0:0:0:
130,234,124192,1,0,0:0:0:0:
427,307,124516,6,0,L|241:308,1,170,0|0,3:0|0:0,0:0:0:0:
159,266,125002,1,0,0:0:0:0:
331,203,125164,2,0,P|380:161|314:97,1,170,8|0,2:0|0:0,0:0:0:0:
231,94,125651,1,0,0:0:0:0:
63,87,125813,1,0,3:0:0:0:
215,153,126137,6,0,L|34:176,2,170,0|0|0,0:0|2:0|0:0,0:0:0:0:
330,152,126948,1,0,0:0:0:0:
64,265,127110,6,0,L|59:335,1,56.6666666666667,8|0,0:0|0:0,0:0:0:0:
125,331,127327,1,0,0:0:0:0:
193,330,127435,2,0,L|195:282,1,42.5,0|0,0:0|0:0,0:0:0:0:
152,252,127597,1,0,0:0:0:0:
98,255,127678,1,0,0:0:0:0:
268,237,127759,1,8,0:0:0:0:
290,185,127867,1,0,0:0:0:0:
289,129,127975,1,0,0:0:0:0:
273,82,128083,1,0,0:0:0:0:
236,46,128164,1,0,0:0:0:0:
198,35,128246,1,0,0:0:0:0:
160,39,128327,1,0,0:0:0:0:
374,28,128408,2,0,P|424:109|359:188,1,170,8|8,0:0|0:0,0:0:0:0:
220,196,129056,6,0,L|213:306,1,85,8|0,0:0|0:0,0:0:0:0:
481,301,129381,2,0,L|327:303,1,127.5,0|0,0:0|0:0,0:0:0:0:
120,272,129705,6,0,P|90:186|147:147,1,170,8|0,0:0|0:0,0:0:0:0:
242,134,130192,1,0,0:0:0:0:
410,134,130354,1,2,0:0:0:0:
233,170,130678,2,0,L|221:262,1,85,0|0,0:0|0:0,0:0:0:0:
115,255,131002,1,0,0:0:0:0:
338,345,131164,6,0,L|436:346,1,85,0|2,0:0|0:0,0:0:0:0:
507,341,131489,1,0,0:0:0:0:
330,288,131651,2,0,L|325:184,1,85,0|0,0:0|0:0,0:0:0:0:
238,154,131975,2,0,L|360:148,1,85,0|0,0:0|0:0,0:0:0:0:
70,197,132300,6,0,L|254:159,1,170,8|0,0:0|0:0,0:0:0:0:
477,155,132786,2,0,L|483:47,1,85,0|2,0:0|0:0,0:0:0:0:
387,45,133110,1,0,0:0:0:0:
215,101,133273,2,0,L|114:111,1,85,0|0,0:0|0:0,0:0:0:0:
376,232,133597,6,0,L|473:244,1,85,8|0,0:0|0:0,0:0:0:0:
286,302,133921,2,0,L|173:324,1,85,0|0,0:0|0:0,0:0:0:0:
373,181,134246,2,0,L|487:170,3,85,2|0|0|0,0:0|0:0|0:0|0:0,0:0:0:0:
197,164,134894,6,0,P|122:203|126:310,1,170,8|0,0:0|0:0,0:0:0:0:
203,284,135381,1,0,0:0:0:0:
370,285,135543,1,2,0:0:0:0:
225,224,135867,2,0,L|216:129,1,85,0|0,0:0|0:0,0:0:0:0:
106,109,136192,1,8,0:0:0:0:
326,88,136354,6,0,L|435:79,1,85,0|0,0:0|0:0,0:0:0:0:
489,78,136678,1,0,0:0:0:0:
399,136,136840,2,0,L|402:255,1,85,2|0,0:0|0:0,0:0:0:0:
228,295,137164,2,0,L|340:298,1,85,0|0,0:0|0:0,0:0:0:0:
57,242,137489,2,0,P|39:148|120:128,1,170,8|0,0:0|0:0,0:0:0:0:
357,130,137975,6,0,L|260:133,1,85,0|2,0:0|0:0,0:0:0:0:
193,148,138300,1,0,0:0:0:0:
355,205,138462,2,0,L|353:294,1,85,0|0,0:0|0:0,0:0:0:0:
121,333,138786,2,0,L|313:337,1,170,8|0,0:0|0:0,0:0:0:0:
382,336,139273,1,0,0:0:0:0:
226,279,139435,2,0,L|131:273,1,85,2|0,0:0|0:0,0:0:0:0:
312,232,139759,2,0,L|312:117,1,85,0|0,0:0|0:0,0:0:0:0:
84,151,140083,6,0,P|91:97|190:43,1,170,8|0,0:0|0:0,0:0:0:0:
266,43,140570,1,0,0:0:0:0:
430,39,140732,1,2,0:0:0:0:
256,140,141056,2,0,L|239:262,1,85,0|0,0:0|0:0,0:0:0:0:
133,223,141381,1,0,0:0:0:0:
310,328,141543,2,0,L|424:324,2,85,0|2|0,0:0|0:0|0:0,0:0:0:0:
134,250,142029,2,0,L|36:250,1,85,0|0,0:0|0:0,0:0:0:0:
333,197,142354,2,0,L|324:85,1,85,0|0,0:0|0:0,0:0:0:0:
64,81,142678,6,0,L|251:60,1,170,8|0,0:0|0:0,0:0:0:0:
485,160,143164,2,0,L|484:270,1,85,0|2,0:0|0:0,0:0:0:0:
292,257,143651,2,0,L|296:358,1,85,0|0,0:0|0:0,0:0:0:0:
130,338,143975,1,8,0:0:0:0:
391,272,144137,2,0,L|496:275,2,85,0|0|0,0:0|0:0|0:0,0:0:0:0:
294,222,144624,2,0,P|284:151|362:93,1,170,2|0,0:0|0:0,0:0:0:0:
447,87,145110,1,0,0:0:0:0:
197,177,145273,6,0,P|121:151|15:175,1,170,8|0,0:0|0:0,0:0:0:0:
107,227,145759,1,0,0:0:0:0:
275,259,145921,1,2,0:0:0:0:
166,203,146246,2,0,L|182:103,1,85,0|0,0:0|0:0,0:0:0:0:
342,62,146570,1,8,0:0:0:0:
92,136,146732,2,0,L|0:140,2,85,0|0|0,0:0|0:0|0:0,0:0:0:0:
198,166,147219,2,0,L|178:275,1,85,2|0,0:0|0:0,0:0:0:0:
435,254,147543,2,0,L|453:338,1,85,0|0,0:0|0:0,0:0:0:0:
189,192,147867,6,0,P|150:120|232:72,1,170,8|0,0:0|0:0,0:0:0:0:
379,61,148354,1,0,0:0:0:0:
455,79,148516,2,0,L|460:192,1,85,2|0,0:0|0:0,0:0:0:0:
200,264,148840,2,0,L|94:226,1,85,0|0,0:0|0:0,0:0:0:0:
270,214,149164,5,8,0:0:0:0:
27,187,149327,1,0,0:0:0:0:
9,117,149489,1,0,0:0:0:0:
44,60,149651,1,0,0:0:0:0:
115,43,149813,2,0,L|197:108,1,85,2|0,0:0|0:0,0:0:0:0:
431,188,150137,2,0,L|317:266,1,127.5,0|0,0:0|0:0,0:0:0:0:
135,269,150462,1,4,1:0:0:0:
64,272,160840,5,0,0:0:0:0:
208,256,161164,6,0,L|224:128,1,95.9990018486136,0|0,0:0|0:0,0:0:0:0:
112,144,161489,1,0,0:0:0:0:
336,96,161813,6,0,B|384:96|400:112|411:150|400:192|384:208|336:208|336:208|144:208|144:208|336:208,1,575.994011091682,0|0,0:0|0:0,0:0:0:0:
144,288,163110,2,0,L|128:192,1,95.9990018486136,0|0,0:0|0:0,0:0:0:0:
304,176,163435,5,0,0:0:0:0:
160,160,163759,2,0,L|176:48,1,95.9990018486136,0|0,0:0|0:0,0:0:0:0:
288,64,164083,1,0,0:0:0:0:
96,128,164408,6,0,B|96:160|108:233|176:250|218:248|218:248|26:247|26:247|217:248,1,575.994011091682,0|0,0:0|0:0,0:0:0:0:
32,288,165705,1,0,0:0:0:0:
304,288,166029,6,0,L|512:288,1,191.998003697227,0|0,0:0|0:0,0:0:0:0:
384,224,166516,1,0,0:0:0:0:
496,208,166678,1,0,0:0:0:0:
192,176,167002,1,0,0:0:0:0:
352,176,167327,6,0,P|409:258|336:288,1,191.998003697227,0|0,0:0|0:0,0:0:0:0:
144,176,167975,2,0,L|368:176,1,191.998003697227,0|0,0:0|0:0,0:0:0:0:
16,256,168624,6,0,L|224:256,1,191.998003697227,0|0,0:0|0:0,0:0:0:0:
336,224,169110,1,0,0:0:0:0:
208,192,169273,1,0,0:0:0:0:
496,144,169597,1,0,0:0:0:0:
336,144,169921,6,0,P|352:208|464:272,1,191.998003697227,0|0,0:0|0:0,0:0:0:0:
277,287,170570,2,0,L|480:288,1,191.998003697227,0|0,0:0|0:0,0:0:0:0:
48,304,171219,6,0,L|32:96,1,191.998003697227,8|0,0:0|0:0,0:0:0:0:
144,96,171705,1,0,0:0:0:0:
256,80,171867,1,2,0:0:0:0:
32,64,172192,1,0,0:0:0:0:
272,128,172516,6,0,L|288:240,1,95.9990018486136,0|0,0:0|0:0,0:0:0:0:
400,240,172840,1,0,0:0:0:0:
240,128,173164,2,0,L|224:240,1,95.9990018486136,2|0,0:0|0:0,0:0:0:0:
336,224,173489,2,0,L|352:336,1,95.9990018486136,0|0,0:0|0:0,0:0:0:0:
224,336,173813,6,0,L|432:336,1,191.998003697227,8|0,0:0|0:0,0:0:0:0:
320,304,174300,1,0,0:0:0:0:
464,256,174462,2,0,L|256:256,1,191.998003697227,0|0,0:0|0:0,0:0:0:0:
48,256,175110,2,0,P|80:176|208:144,1,191.998003697227,0|0,1:0|0:0,0:0:0:0:
384,144,175759,2,0,P|400:240|384:336,1,191.998003697227,2|0,0:0|0:0,0:0:0:0:
128,320,176408,6,0,L|336:320,1,191.998003697227,8|0,0:0|0:0,0:0:0:0:
224,288,176894,1,0,0:0:0:0:
64,240,177056,2,0,L|272:240,1,191.998003697227,2|0,0:0|0:0,0:0:0:0:
448,208,177705,5,0,1:0:0:0:
256,176,178029,2,0,P|288:96|384:48,1,191.998003697227,0|2,0:0|0:0,0:0:0:0:
128,32,178678,1,0,0:0:0:0:
384,96,179002,6,0,P|443:160|384:224,1,191.998003697227,8|0,0:0|0:0,0:0:0:0:
256,240,179489,1,0,0:0:0:0:
384,288,179651,1,0,0:0:0:0:
128,288,179975,1,0,0:0:0:0:
320,272,180300,6,0,P|377:189|320:144,1,191.998003697227,0|0,1:0|0:0,0:0:0:0:
112,160,180948,2,0,L|304:160,1,191.998003697227,2|0,0:0|0:0,0:0:0:0:
112,336,181597,6,0,L|160:144,1,191.998003697227,0|0,3:0|0:0,0:0:0:0:
256,144,182083,1,0,0:0:0:0:
353,149,182246,2,0,L|400:336,1,191.998003697227,0|0,0:0|0:0,0:0:0:0:
80,288,182894,6,0,L|128:96,1,191.998003697227,0|0,3:0|0:0,0:0:0:0:
385,101,183543,2,0,L|432:288,1,191.998003697227,0|0,0:0|0:0,0:0:0:0:
32,288,184192,6,0,L|80:96,1,191.998003697227,0|0,3:0|0:0,0:0:0:0:
208,96,184678,1,0,0:0:0:0:
433,101,184840,2,0,L|480:288,1,191.998003697227,0|0,1:0|0:0,0:0:0:0:
64,240,185489,5,0,3:0:0:0:
256,192,185813,1,0,0:0:0:0:
448,256,186137,2,0,P|496:208|427:107,1,191.998003697227,0|0,1:0|0:0,0:0:0:0:
240,256,186786,6,0,L|224:128,1,95.9990018486136,0|0,0:0|0:0,0:0:0:0:
336,192,187110,2,0,L|320:64,1,95.9990018486136,0|0,0:0|0:0,0:0:0:0:
208,192,187435,2,0,L|192:64,1,95.9990018486136,0|0,0:0|0:0,0:0:0:0:
320,128,187759,2,0,L|304:0,1,95.9990018486136,0|0,0:0|0:0,0:0:0:0:
176,48,188083,6,0,P|208:96|256:112,1,95.9990018486136,0|0,0:0|0:0,0:0:0:0:
352,96,188408,2,0,P|320:144|272:160,1,95.9990018486136,0|0,0:0|0:0,0:0:0:0:
144,128,188732,2,0,P|176:176|224:192,1,95.9990018486136,0|0,0:0|0:0,0:0:0:0:
336,176,189057,2,0,P|304:224|256:240,1,95.9990018486136,0|0,0:0|0:0,0:0:0:0:
144,288,189381,6,0,P|192:256|141:150,1,191.998003697227,8|0,0:0|0:0,0:0:0:0:
272,144,189867,1,0,0:0:0:0:
400,288,190029,6,0,P|352:256|403:150,1,191.998003697227,8|0,0:0|0:0,0:0:0:0:
272,144,190515,1,0,0:0:0:0:
48,160,190678,6,0,L|32:64,1,95.9990018486136,8|0,0:0|0:0,0:0:0:0:
176,112,191002,2,0,L|192:16,1,95.9990018486136,8|0,0:0|0:0,0:0:0:0:
115,46,191327,1,8,0:0:0:0:
221,58,191543,1,0,0:0:0:0:
238,95,191651,1,8,0:0:0:0:
132,83,191867,1,0,0:0:0:0:
305,295,191975,6,0,P|366:220|305:167,1,191.998003697227,4|0,2:0|0:0,0:0:0:0:
176,160,192462,1,0,0:0:0:0:
416,128,192624,2,0,L|432:240,1,95.9990018486136,0|0,3:0|0:0,0:0:0:0:
336,272,192948,2,0,L|448:272,1,95.9990018486136,0|0,0:0|0:0,0:0:0:0:
160,320,193273,5,0,0:0:0:0:
272,288,193435,2,0,L|288:192,2,95.9990018486136,0|0|0,0:0|0:0|0:0,0:0:0:0:
48,320,193921,2,0,P|80:240|192:208,1,191.998003697227,0|0,3:0|0:0,0:0:0:0:
48,176,194408,1,0,0:0:0:0:
304,176,194570,6,0,L|496:176,1,191.998003697227,4|0,2:0|0:0,0:0:0:0:
400,176,195056,1,0,0:0:0:0:
176,192,195219,2,0,L|208:80,1,95.9990018486136,0|0,0:0|0:0,0:0:0:0:
320,112,195543,2,0,L|352:0,1,95.9990018486136,0|0,0:0|0:0,0:0:0:0:
128,32,195867,5,4,3:0:0:0:
16,48,196029,1,0,0:0:0:0:
128,32,196192,1,4,3:0:0:0:
16,48,196354,1,0,0:0:0:0:
256,96,196516,2,0,P|320:160|240:208,1,191.998003697227,0|0,3:0|0:3,0:0:0:0:
128,224,197002,1,0,0:0:0:0:
368,304,197164,6,0,L|384:192,1,95.9990018486136,4|0,2:0|0:0,0:0:0:0:
256,224,197489,2,0,L|240:112,1,95.9990018486136,0|0,0:0|0:0,0:0:0:0:
480,96,197813,2,0,L|272:96,1,191.998003697227,0|0,3:0|0:0,0:0:0:0:
384,96,198300,1,0,0:0:0:0:
160,96,198462,6,0,L|144:208,1,95.9990018486136,0|0,0:0|0:0,0:0:0:0:
272,192,198786,2,0,L|256:304,1,95.9990018486136,0|0,0:0|0:0,0:0:0:0:
32,320,199110,2,0,L|240:320,1,191.998003697227,0|0,3:0|0:0,0:0:0:0:
352,320,199597,1,0,0:0:0:0:
128,272,199759,6,0,P|144:192|272:160,1,191.998003697227,4|0,2:0|0:0,0:0:0:0:
352,144,200246,1,0,0:0:0:0:
112,224,200408,2,0,P|128:144|256:112,1,191.998003697227,0|0,0:0|0:0,0:0:0:0:
112,80,200895,1,0,0:0:0:0:
336,64,201056,5,4,0:3:0:0:
400,128,201218,1,0,0:0:0:0:
371,215,201380,1,4,0:3:0:0:
280,228,201542,1,0,0:0:0:0:
32,288,201705,2,0,P|57:144|96:96,1,191.998003697227,0|0,3:0|0:0,0:0:0:0:
192,112,202192,1,0,0:0:0:0:
448,128,202354,6,0,L|432:240,1,95.9990018486136,4|0,2:0|0:0,0:0:0:0:
336,256,202678,2,0,L|448:256,1,95.9990018486136,0|0,0:0|0:0,0:0:0:0:
192,224,203002,6,0,P|136:190|208:112,1,191.998003697227,0|0,3:0|0:0,0:0:0:0:
320,112,203489,1,0,0:0:0:0:
96,224,203651,5,0,0:0:0:0:
208,192,203813,2,0,L|96:192,2,95.9990018486136,0|0|0,0:0|0:0|0:0,0:0:0:0:
432,160,204300,2,0,L|224:160,1,191.998003697227,0|0,3:0|0:0,0:0:0:0:
336,160,204786,1,0,0:0:0:0:
112,176,204948,6,0,L|16:176,2,95.9990018486136,4|0|0,2:0|0:0|0:0,0:0:0:0:
224,176,205435,1,0,0:0:0:0:
480,144,205597,2,0,L|384:144,1,95.9990018486136,0|0,3:0|0:0,0:0:0:0:
256,128,205921,2,0,L|352:128,1,95.9990018486136,0|0,0:0|0:0,0:0:0:0:
112,256,206246,6,0,L|96:160,1,95.9990018486136,4|0,0:3|0:0,0:0:0:0:
400,256,206570,2,0,L|416:160,1,95.9990018486136,4|0,0:3|0:0,0:0:0:0:
112,256,206894,2,0,L|96:160,1,95.9990018486136,0|0,3:0|0:0,0:0:0:0:
320,128,207219,2,0,L|208:128,1,95.9990018486136,0|0,3:0|0:0,0:0:0:0:
448,304,207543,6,0,P|416:240|288:208,1,191.998003697227,4|0,2:0|0:0,0:0:0:0:
416,160,208029,1,0,0:0:0:0:
192,160,208192,2,0,L|224:48,1,95.9990018486136,0|0,3:0|0:0,0:0:0:0:
336,112,208516,2,0,L|304:0,1,95.9990018486136,0|0,0:0|0:0,0:0:0:0:
80,160,208840,6,0,L|192:160,2,95.9990018486136,0|0|0,0:0|0:0|0:0,0:0:0:0:
208,128,209327,1,0,0:0:0:0:
448,160,209489,2,0,L|224:160,1,191.998003697227,0|0,3:0|0:0,0:0:0:0:
352,160,209975,1,0,0:0:0:0:
128,176,210137,6,0,P|48:224|16:336,1,191.998003697227,0|0,3:0|0:0,0:0:0:0:
128,320,210624,1,0,0:0:0:0:
384,176,210786,2,0,P|464:224|496:336,1,191.998003697227,0|0,3:0|0:0,0:0:0:0:
384,320,211273,1,0,0:0:0:0:
128,288,211435,6,0,L|112:176,1,95.9990018486136,4|0,0:3|0:0,0:0:0:0:
384,288,211759,2,0,L|400:176,1,95.9990018486136,4|0,0:3|0:0,0:0:0:0:
128,288,212083,2,0,L|112:176,1,95.9990018486136,0|0,3:0|0:0,0:0:0:0:
224,176,212408,2,0,L|336:176,1,95.9990018486136,0|0,0:0|0:0,0:0:0:0:
80,160,212732,6,0,P|128:80|224:48,1,191.998003697227,4|0,2:0|0:0,0:0:0:0:
336,48,213219,1,0,0:0:0:0:
112,144,213381,2,0,L|208:144,1,95.9990018486136,0|0,3:0|0:0,0:0:0:0:
112,192,213705,2,0,L|96:288,1,95.9990018486136,0|0,0:0|0:0,0:0:0:0:
336,304,214029,5,0,0:0:0:0:
224,288,214192,2,0,L|240:192,1,95.9990018486136,0|0,0:0|0:0,0:0:0:0:
352,192,214516,1,0,0:0:0:0:
128,176,214678,2,0,L|224:176,1,95.9990018486136,0|0,3:0|0:0,0:0:0:0:
112,128,215002,2,0,L|16:128,1,95.9990018486136,0|0,0:0|0:0,0:0:0:0:
256,96,215327,6,0,P|336:112|384:208,1,191.998003697227,4|0,2:0|0:0,0:0:0:0:
272,240,215813,1,0,0:0:0:0:
32,224,215975,2,0,P|70:139|160:115,1,191.998003697227,0|0,3:0|0:0,0:0:0:0:
272,128,216462,1,0,0:0:0:0:
32,192,216624,6,0,L|16:288,1,95.9990018486136,4|0,3:0|0:0,0:0:0:0:
144,304,216948,2,0,L|48:304,1,95.9990018486136,4|0,3:0|0:0,0:0:0:0:
288,256,217273,2,0,L|384:256,1,95.9990018486136,0|0,0:0|0:0,0:0:0:0:
256,224,217597,2,0,L|144:224,1,95.9990018486136,0|0,0:0|0:0,0:0:0:0:
400,192,217921,6,0,P|448:144|383:40,1,191.998003697227,0|0,1:0|0:0,0:0:0:0:
255,50,218408,2,0,L|191:50,1,47.9995009243068,0|0,0:0|0:0,0:0:0:0:
353,72,218570,2,0,P|431:98|479:210,1,191.998003697227,0|0,3:0|0:0,0:0:0:0:
368,224,219056,1,0,0:0:0:0:
128,288,219219,6,0,L|144:192,1,95.9990018486136,0|0,0:0|0:0,0:0:0:0:
256,160,219543,2,0,L|160:160,1,95.9990018486136,0|0,0:0|0:0,0:0:0:0:
400,96,219867,2,0,L|288:96,2,95.9990018486136,0|0|0,3:0|0:0|0:0,0:0:0:0:
272,64,220354,1,0,0:0:0:0:
48,176,220516,6,0,L|272:176,1,191.998003697227,4|0,2:0|0:0,0:0:0:0:
144,176,221002,1,0,0:0:0:0:
368,192,221164,2,0,L|272:192,2,95.9990018486136,0|0|0,3:0|0:0|0:0,0:0:0:0:
240,240,221651,1,0,0:0:0:0:
480,304,221813,6,0,P|448:224|336:192,1,191.998003697227,4|4,3:0|3:0,0:0:0:0:
464,176,222300,1,0,0:0:0:0:
240,192,222462,2,0,P|176:128|258:89,1,191.998003697227,0|0,0:0|0:0,0:0:0:0:
352,80,222948,1,0,0:0:0:0:
80,112,223110,6,0,L|64:208,2,95.9990018486136,4|0|0,2:0|0:0|0:0,0:0:0:0:
192,112,223609,1,0,0:0:0:0:
432,112,223776,2,0,L|448:208,2,95.9990018486136,8|0|0,2:0|0:0|0:0,0:0:0:0:
320,112,224275,1,0,0:0:0:0:
160,128,224443,5,0,0:0:0:0:
288,128,224625,2,0,L|304:240,1,95.9990018486136,0|8,0:0|0:0,0:0:0:0:
176,240,224991,1,0,0:0:0:0:
352,223,225174,1,8,1:0:0:0:
242,213,225357,2,0,P|242:133|354:69,1,191.998003697227,0|0,0:0|0:0,0:0:0:0:
160,64,225906,6,0,L|144:176,1,95.9990018486136,4|0,2:0|0:0,0:0:0:0:
288,144,226283,2,0,L|272:256,1,95.9990018486136,0|0,0:0|0:0,0:0:0:0:
128,272,226660,2,0,L|240:272,1,95.9990018486136,8|0,2:0|0:0,0:0:0:0:
64,240,227047,2,0,L|48:112,1,95.9990018486136,0|0,0:0|0:0,0:0:0:0:
336,144,227434,6,0,L|464:144,1,95.9990018486136,8|0,0:0|0:0,0:0:0:0:
256,208,227834,2,0,L|128:208,1,95.9990018486136,8|0,0:0|0:0,0:0:0:0:
320,272,228234,1,8,1:0:0:0:
32,272,228440,2,0,P|131:182|227:294,1,287.997005545841,0|4,0:0|2:0,0:0:0:0:
256,192,229273,12,8,232465,2:0:0:0:
