osu file format v14

[General]
AudioFilename: audio.mp3
AudioLeadIn: 0
PreviewTime: 0
Countdown: 0
SampleSet: Soft
StackLeniency: 0.7
Mode: 2
LetterboxInBreaks: 0
WidescreenStoryboard: 1

[Editor]
Bookmarks: 72624,129705,232465
DistanceSpacing: 0.8
BeatDivisor: 2
GridSize: 8
TimelineZoom: 0.9000001

[Metadata]
Title:In Circles
TitleUnicode:In Circles
Artist:Creo
ArtistUnicode:Creo
Creator:salchow
Version:Collab Platter
Source:osu!
Tags:fa featured artist wonjae chickenbible Nelly Rocma EP
BeatmapID:2055792
BeatmapSetID:965558

[Difficulty]
HPDrainRate:4
CircleSize:3.8
OverallDifficulty:7.5
ApproachRate:7.5
SliderMultiplier:1.3
SliderTickRate:1

[Events]
//Background and Video events
0,0,"In circles.jpg",0,0
//Break Periods
2,31310,35475
2,150662,160015
//Storyboard Layer 0 (Background)
//Storyboard Layer 1 (Fail)
//Storyboard Layer 2 (Pass)
//Storyboard Layer 3 (Foreground)
//Storyboard Sound Samples

[TimingPoints]
5165,324.324324324324,4,2,2,50,1,0
36300,-100,4,1,2,50,0,0
44083,-100,4,2,2,70,0,0
44732,-100,4,2,2,40,0,0
45381,-100,4,2,2,30,0,0
46029,-83.3333333333333,4,1,2,20,0,0
46678,-83.3333333333333,4,1,2,60,0,1
67435,-83.3333333333333,4,3,2,59,0,0
69381,-83.3333333333333,4,3,2,29,0,0
69462,-83.3333333333333,4,3,2,59,0,0
71975,-83.3333333333333,4,3,2,29,0,0
72056,-83.3333333333333,4,3,2,49,0,0
72624,-100,4,3,2,49,0,0
93381,-100,4,1,2,60,0,0
119327,-100,4,2,2,50,0,0
124516,-100,4,1,2,50,0,0
129705,-100,4,3,2,60,0,0
171219,-100,4,2,2,50,0,0
181597,-100,4,1,2,50,0,0
189381,-100,4,1,2,70,0,0
190029,-100,4,1,2,40,0,0
190678,-100,4,1,2,30,0,0
191327,-100,4,1,2,20,0,0
191975,-100,4,1,2,60,0,1
223110,333.324324324324,4,3,2,59,1,0
224443,365.853658536585,4,3,2,40,1,0
225906,377.358490566038,4,3,2,40,1,0
226660,387.096774193548,4,3,2,40,1,0
227434,400,4,3,2,40,1,0
228234,413.793103448276,4,3,2,40,1,0
229061,425.531914893617,4,3,2,30,1,0

[Colours]
Combo1 : 188,88,151
Combo2 : 0,64,128
Combo3 : 0,128,128
Combo4 : 86,188,209

[HitObjects]
278,221,4516,5,8,0:0:0:0:
302,212,5164,6,0,L|446:208,1,130,0|0,0:0|0:0,0:0:0:0:
329,209,5813,1,2,0:0:0:0:
195,177,6137,2,0,L|129:169,2,65,0|0|0,0:0|0:0|0:0,0:0:0:0:
321,175,6786,1,0,1:0:0:0:
457,167,7110,1,2,0:0:0:0:
284,184,7273,2,0,L|288:329,1,130,0|0,0:0|0:0,0:0:0:0:
109,327,7759,6,0,P|39:291|123:238,1,195,0|0,1:0|0:0,0:0:0:0:
204,220,8408,1,2,0:0:0:0:
43,194,8732,1,0,0:0:0:0:
42,148,8894,1,0,0:0:0:0:
208,135,9056,2,0,L|207:-1,1,130,0|0,1:0|0:0,0:0:0:0:
333,16,9705,1,2,0:0:0:0:
164,124,9867,2,0,P|107:175|108:233,1,130,0|0,0:0|0:0,0:0:0:0:
343,26,10354,6,0,L|486:29,1,130,0|0,1:0|0:0,0:0:0:0:
357,97,11002,1,2,0:0:0:0:
218,168,11327,2,0,L|154:170,2,65,0|0|0,0:0|0:0|1:0,0:0:0:0:
300,218,11813,1,0,0:0:0:0:
230,274,11975,1,0,1:0:0:0:
120,315,12300,1,2,0:0:0:0:
290,293,12462,2,0,L|291:136,1,130,0|0,0:0|0:0,0:0:0:0:
463,132,12948,6,0,P|501:185|404:267,1,195,0|0,1:0|0:0,0:0:0:0:
330,282,13597,1,2,0:0:0:0:
198,306,13921,1,0,0:0:0:0:
198,306,14083,1,0,0:0:0:0:
364,209,14246,2,0,L|365:60,1,130,0|0,1:0|0:0,0:0:0:0:
245,49,14894,1,2,0:0:0:0:
413,70,15056,2,0,P|456:111|433:186,1,130,0|0,0:0|0:0,0:0:0:0:
208,301,15543,6,0,P|155:258|195:217,1,130,0|0,1:0|0:0,0:0:0:0:
273,129,16192,1,2,0:0:0:0:
170,74,16516,2,0,L|101:74,2,65,0|0|0,0:0|0:0|0:0,0:0:0:0:
246,117,17002,1,0,0:0:0:0:
336,156,17164,1,0,0:0:0:0:
231,230,17489,1,2,0:0:0:0:
402,298,17651,6,0,P|429:233|397:159,1,130,0|0,0:0|0:0,0:0:0:0:
231,230,18137,2,0,L|28:230,1,195,0|0,1:0|0:0,0:0:0:0:
149,186,18786,1,2,0:0:0:0:
289,131,19110,2,0,L|291:45,1,65,0|0,0:0|0:0,0:0:0:0:
124,44,19435,1,0,1:0:0:0:
51,95,19597,1,0,0:0:0:0:
124,44,19759,1,0,0:0:0:0:
252,55,20083,1,2,0:0:0:0:
81,216,20246,2,0,L|79:355,1,130,0|0,0:0|0:0,0:0:0:0:
311,348,20732,6,0,B|387:338|437:321|363:295,1,130,0|0,1:0|0:0,0:0:0:0:
280,258,21219,1,0,0:0:0:0:
192,228,21381,1,2,0:0:0:0:
311,173,21705,2,0,L|317:83,1,65,0|0,0:0|0:0,0:0:0:0:
239,79,22029,1,0,1:0:0:0:
321,38,22192,2,0,L|318:126,1,65,0|0,0:0|1:0,0:0:0:0:
182,143,22678,1,2,0:0:0:0:
349,239,22840,2,0,L|345:376,1,130,0|0,0:0|0:0,0:0:0:0:
175,351,23327,6,0,B|133:331|107:310|228:319,1,130,0|0,1:0|0:0,0:0:0:0:
300,327,23813,1,0,0:0:0:0:
444,245,23975,2,0,L|308:228,2,130,2|0|2,0:0|0:0|0:0,0:0:0:0:
308,170,24948,1,0,0:0:0:0:
204,123,25273,2,0,L|201:48,1,65,2|0,0:0|0:0,0:0:0:0:
441,26,25921,1,4,0:0:0:0:
256,192,26246,12,0,31110,0:0:0:0:
154,264,36300,6,0,L|150:122,1,130,0|0,3:0|0:0,0:0:0:0:
330,294,36948,6,0,L|188:302,1,130,0|0,1:0|0:0,0:0:0:0:
335,239,37597,1,0,3:0:0:0:
98,130,37921,2,0,L|227:122,2,130,0|0|0,0:0|1:0|0:0,0:0:0:0:
252,152,38894,2,0,L|281:301,1,130,0|0,3:0|0:0,0:0:0:0:
428,225,39543,2,0,L|406:366,1,130,0|0,1:0|0:0,0:0:0:0:
217,328,40192,2,0,L|64:334,1,130,0|0,3:0|0:0,0:0:0:0:
253,233,40840,2,0,L|410:251,1,130,0|0,1:0|0:0,0:0:0:0:
138,168,41489,6,0,L|64:171,2,65,0|0|0,0:0|0:0|0:0,0:0:0:0:
215,127,41975,1,0,0:0:0:0:
140,170,42137,2,0,L|141:244,1,65,0|0,0:0|0:0,0:0:0:0:
223,264,42462,2,0,L|300:264,1,65,0|0,0:0|0:0,0:0:0:0:
133,198,42786,2,0,L|53:201,1,65,0|0,0:0|0:0,0:0:0:0:
68,138,43110,2,0,L|159:136,1,65,0|0,0:0|0:0,0:0:0:0:
290,94,43435,2,0,L|364:71,3,65,0|0|0|0,0:0|0:0|0:0|0:0,0:0:0:0:
118,111,44083,5,8,0:0:0:0:
77,127,44192,1,0,0:0:0:0:
64,160,44300,1,0,0:0:0:0:
87,195,44408,1,0,0:0:0:0:
225,246,44570,1,0,0:0:0:0:
370,326,44732,1,8,0:0:0:0:
401,296,44813,1,0,0:0:0:0:
421,254,44894,1,0,0:0:0:0:
400,210,44975,1,0,0:0:0:0:
362,176,45056,1,0,0:0:0:0:
234,162,45219,1,0,0:0:0:0:
104,128,45381,6,0,L|25:129,1,65,8|0,0:0|0:0,0:0:0:0:
147,202,45705,2,0,L|226:206,1,65,8|0,0:0|0:0,0:0:0:0:
43,294,46029,1,8,0:0:0:0:
116,352,46246,6,0,L|55:349,1,51.999998413086,0|8,0:0|0:0,0:0:0:0:
452,323,46678,6,0,P|460:290|315:201,1,233.999992858887,4|0,2:0|0:0,0:0:0:0:
143,201,47327,2,0,P|63:135|128:36,1,233.999992858887,0|0,3:0|0:0,0:0:0:0:
208,33,47975,1,0,0:0:0:0:
390,154,48137,2,0,L|467:154,2,77.999997619629,0|0|0,0:0|0:0|0:0,0:0:0:0:
313,194,48624,2,0,L|313:281,1,77.999997619629,0|0,3:0|0:0,0:0:0:0:
471,270,48948,2,0,L|470:358,1,77.999997619629,0|0,0:0|0:0,0:0:0:0:
215,307,49273,6,0,P|163:260|260:155,1,233.999992858887,4|0,2:0|0:0,0:0:0:0:
93,96,49921,2,0,L|336:62,1,233.999992858887,0|0,3:0|0:0,0:0:0:0:
428,94,50570,1,4,3:0:0:0:
180,217,50894,2,0,L|177:313,1,77.999997619629,4|0,3:0|0:0,0:0:0:0:
268,310,51219,2,0,L|112:311,1,155.999995239258,0|0,3:0|0:3,0:0:0:0:
20,318,51705,1,0,0:0:0:0:
248,249,51867,6,0,L|330:249,2,77.999997619629,4|0|0,2:0|0:0|0:0,0:0:0:0:
159,195,52354,1,0,0:0:0:0:
329,202,52516,2,0,P|380:163|305:37,1,233.999992858887,0|0,3:0|0:0,0:0:0:0:
145,39,53164,2,0,B|125:182|125:182|222:182,1,233.999992858887,0|0,0:0|0:0,0:0:0:0:
403,300,53813,2,0,L|230:303,1,155.999995239258,0|0,3:0|0:0,0:0:0:0:
141,299,54300,1,0,0:0:0:0:
321,254,54462,6,0,P|331:180|209:84,1,233.999992858887,4|0,2:0|0:0,0:0:0:0:
119,51,55110,2,0,L|368:62,1,233.999992858887,0|0,3:0|0:0,0:0:0:0:
159,208,55759,2,0,L|47:208,1,77.999997619629,4|0,0:3|0:0,0:0:0:0:
76,157,56083,2,0,L|153:155,1,77.999997619629,4|0,0:3|0:0,0:0:0:0:
347,99,56408,2,0,L|364:347,1,233.999992858887,0|0,3:0|0:0,0:0:0:0:
122,300,57056,6,0,B|37:291|37:291|207:298,1,233.999992858887,4|0,2:0|0:0,0:0:0:0:
369,251,57705,2,0,P|408:158|319:73,1,233.999992858887,0|0,3:0|0:0,0:0:0:0:
231,61,58354,1,0,0:0:0:0:
415,119,58516,2,0,L|496:117,2,77.999997619629,0|0|0,0:0|0:0|0:0,0:0:0:0:
331,160,59002,2,0,L|332:260,1,77.999997619629,0|0,3:0|0:0,0:0:0:0:
145,292,59327,2,0,L|141:193,1,77.999997619629,0|0,0:0|0:0,0:0:0:0:
381,152,59651,6,0,P|450:126|362:52,1,233.999992858887,4|0,2:0|0:0,0:0:0:0:
263,64,60300,2,0,L|432:96,1,155.999995239258,0|0,3:0|0:0,0:0:0:0:
501,111,60786,1,0,0:0:0:0:
317,199,60948,2,0,P|271:186|101:275,1,233.999992858887,4|0,0:3|0:0,0:0:0:0:
200,306,61597,2,0,P|319:288|376:315,1,155.999995239258,0|0,3:0|3:0,0:0:0:0:
440,324,62083,1,0,0:0:0:0:
198,239,62246,6,0,P|181:155|296:76,1,233.999992858887,4|0,2:0|0:0,0:0:0:0:
130,72,62894,2,0,L|374:70,1,233.999992858887,0|0,3:0|0:0,0:0:0:0:
439,200,63543,2,0,P|458:112|345:35,1,233.999992858887,0|0,0:0|0:0,0:0:0:0:
171,165,64192,2,0,L|78:179,1,77.999997619629,0|0,3:0|0:0,0:0:0:0:
174,216,64516,2,0,L|276:206,1,77.999997619629,0|0,0:0|0:0,0:0:0:0:
479,51,64840,6,0,B|481:131|481:131|326:146,1,233.999992858887,4|0,2:0|0:0,0:0:0:0:
141,245,65489,2,0,P|235:228|363:276,1,233.999992858887,0|0,3:0|0:0,0:0:0:0:
187,307,66137,2,0,L|180:198,1,77.999997619629,4|0,0:3|0:0,0:0:0:0:
353,147,66462,2,0,L|442:147,1,77.999997619629,4|0,0:3|0:0,0:0:0:0:
264,114,66786,2,0,P|147:116|136:236,1,233.999992858887,0|0,3:0|0:0,0:0:0:0:
396,235,67435,5,4,2:0:0:0:
412,296,67597,1,0,0:0:0:0:
381,343,67759,1,0,0:0:0:0:
333,349,67921,1,0,0:0:0:0:
143,281,68083,2,0,L|146:180,1,77.999997619629,8|0,2:3|0:0,0:0:0:0:
234,166,68408,2,0,L|278:163,2,38.9999988098145,0|0|0,0:0|0:0|0:0,0:0:0:0:
53,127,68732,1,0,0:0:0:0:
50,64,68894,1,0,2:0:0:0:
238,95,69056,6,0,B|338:106|550:125|145:145|108:191|340:171,1,389.999988098145,8|0,2:3|0:0,0:0:0:0:
93,302,70029,6,0,P|70:239|146:200,1,155.999995239258,4|0,2:0|0:0,0:0:0:0:
223,190,70516,1,0,0:0:0:0:
407,119,70678,2,0,L|159:83,1,233.999992858887,8|0,2:3|0:0,0:0:0:0:
354,167,71327,2,0,L|352:256,1,77.999997619629,0|0,0:0|0:0,0:0:0:0:
430,312,71651,2,0,L|347:310,1,77.999997619629,8|0,2:3|0:0,0:0:0:0:
116,334,71975,2,0,P|71:271|165:166,1,233.999992858887,8|0,1:0|0:0,0:0:0:0:
391,138,72624,6,0,L|393:226,1,65,4|0,3:0|0:0,0:0:0:0:
306,212,72948,1,0,0:0:0:0:
82,214,73273,1,2,0:0:0:0:
306,212,73597,2,0,L|217:215,1,65,8|0,3:0|0:0,0:0:0:0:
455,135,74083,6,0,L|466:227,1,65,0|0,0:0|1:0,0:0:0:0:
366,210,74408,1,0,0:0:0:0:
202,153,74570,2,0,L|115:155,2,65,0|0|0,0:0|0:0|0:0,0:0:0:0:
468,91,75219,6,0,L|472:183,1,65,4|0,0:0|0:0,0:0:0:0:
376,178,75543,1,0,0:0:0:0:
95,298,75867,2,0,L|85:224,1,65,2|0,0:3|0:0,0:0:0:0:
188,170,76192,2,0,L|266:164,1,65,0|0,0:0|0:0,0:0:0:0:
495,279,76516,6,0,L|497:187,1,65,4|0,0:0|0:0,0:0:0:0:
395,199,76840,1,0,0:0:0:0:
180,242,77164,1,0,1:0:0:0:
333,213,77327,2,0,P|342:150|265:131,1,130,0|0,0:0|0:0,0:0:0:0:
57,150,77813,6,0,L|4:103,2,65,4|0|0,0:0|0:0|0:0,0:0:0:0:
287,223,78462,1,2,0:0:0:0:
61,167,78786,2,0,L|130:167,1,65,0|0,0:0|0:0,0:0:0:0:
358,168,79110,6,0,L|438:166,2,65,4|0|0,0:0|0:0|0:0,0:0:0:0:
121,278,79759,2,0,L|115:187,1,65,0|0,1:0|0:0,0:0:0:0:
255,146,80083,2,0,L|263:236,1,65,0|0,0:0|0:0,0:0:0:0:
27,234,80408,6,0,L|21:149,1,65,4|0,0:0|0:0,0:0:0:0:
122,113,80732,1,0,0:0:0:0:
357,199,81056,2,0,L|266:204,1,65,2|0,0:0|0:0,0:0:0:0:
426,88,81381,2,0,L|432:171,1,65,0|0,0:0|0:0,0:0:0:0:
197,202,81705,6,0,L|121:208,2,65,4|0|0,0:0|0:0|0:0,0:0:0:0:
446,137,82354,1,0,1:0:0:0:
291,183,82516,2,0,P|295:134|378:102,1,130,0|0,0:0|0:0,0:0:0:0:
131,267,83002,6,0,L|37:270,2,65,4|0|0,3:0|0:0|0:0,0:0:0:0:
373,157,83651,1,2,0:0:0:0:
137,144,83975,2,0,L|220:147,1,65,0|0,3:0|0:0,0:0:0:0:
440,261,84462,1,0,0:0:0:0:
388,261,84624,1,0,1:0:0:0:
323,259,84786,1,0,0:0:0:0:
271,205,84948,1,0,0:0:0:0:
417,184,85110,2,0,P|415:134|328:102,1,130,0|0,0:0|0:0,0:0:0:0:
130,154,85597,6,0,L|35:157,2,65,4|0|0,0:0|0:0|0:0,0:0:0:0:
386,261,86246,2,0,L|381:170,1,65,2|0,0:3|0:0,0:0:0:0:
251,133,86570,2,0,L|254:222,1,65,0|0,0:0|0:0,0:0:0:0:
488,202,86894,6,0,L|490:126,1,65,4|0,0:0|0:0,0:0:0:0:
335,207,87219,2,0,P|335:152|413:122,1,130,0|0,0:0|0:0,0:0:0:0:
262,116,87705,2,0,L|121:121,1,130,0|0,0:0|0:0,0:0:0:0:
364,252,88192,6,0,P|409:209|345:190,1,130,4|0,0:0|0:0,0:0:0:0:
280,167,88678,1,0,0:0:0:0:
144,222,88840,1,2,0:0:0:0:
19,152,89164,2,0,L|112:148,1,65,0|0,0:0|0:0,0:0:0:0:
318,258,89489,6,0,L|320:183,1,65,4|0,0:0|0:0,0:0:0:0:
184,209,89813,2,0,P|183:167|273:142,1,130,0|0,0:0|1:0,0:0:0:0:
393,229,90300,2,0,P|434:205|451:117,1,130,0|0,0:0|0:0,0:0:0:0:
219,160,90786,6,0,L|131:162,2,65,4|0|0,0:0|0:0|0:0,0:0:0:0:
448,222,91435,2,0,L|447:149,1,65,2|0,0:0|0:0,0:0:0:0:
346,144,91759,2,0,L|262:147,1,65,0|0,0:0|0:0,0:0:0:0:
47,267,92083,6,0,L|40:189,1,65,4|0,0:0|0:0,0:0:0:0:
141,150,92408,1,0,0:0:0:0:
357,246,92732,2,0,P|354:185|230:156,1,195,0|0,1:0|0:0,0:0:0:0:
478,147,93381,6,0,L|484:59,1,65,4|0,0:0|0:0,0:0:0:0:
381,75,93705,1,0,0:0:0:0:
217,212,93867,1,0,0:0:0:0:
406,177,94192,1,0,0:0:0:0:
278,176,94354,6,0,P|277:117|350:100,1,130,0|2,0:0|0:0,0:0:0:0:
402,75,94840,1,0,0:0:0:0:
169,222,95002,2,0,L|83:224,2,65,0|0|8,0:0|0:0|0:0,0:0:0:0:
305,196,95489,2,0,P|348:162|286:116,1,130,0|0,0:0|0:0,0:0:0:0:
82,247,95975,6,0,L|71:153,1,65,4|0,0:0|0:0,0:0:0:0:
165,121,96300,1,0,0:0:0:0:
301,199,96462,2,0,P|345:174|287:128,1,130,0|0,0:0|0:0,0:0:0:0:
181,212,96948,2,0,L|109:213,1,65,0|0,0:0|0:0,0:0:0:0:
351,221,97273,6,0,L|440:217,2,65,2|0|0,0:0|0:0|0:0,0:0:0:0:
117,174,97921,1,8,0:0:0:0:
253,181,98083,2,0,P|252:132|168:114,1,130,0|0,0:0|0:0,0:0:0:0:
419,196,98570,6,0,L|491:195,2,65,4|0|0,0:0|0:0|0:0,0:0:0:0:
346,202,99056,1,0,0:0:0:0:
196,222,99219,1,8,0:0:0:0:
413,172,99543,2,0,L|498:172,1,65,0|0,0:0|0:0,0:0:0:0:
247,293,99867,6,0,L|236:204,1,65,2|0,0:0|0:0,0:0:0:0:
378,136,100192,2,0,L|389:222,1,65,0|0,0:0|0:0,0:0:0:0:
248,292,100516,1,8,0:0:0:0:
378,136,100678,2,0,P|370:87|276:78,1,130,0|0,0:0|0:0,0:0:0:0:
69,193,101164,6,0,L|4:196,2,65,4|0|0,0:0|0:0|0:0,0:0:0:0:
146,127,101651,1,0,0:0:0:0:
376,235,101813,6,0,L|441:238,2,65,8|0|0,0:0|0:0|0:0,0:0:0:0:
299,169,102300,1,0,0:0:0:0:
70,282,102462,2,0,L|62:212,1,65,2|0,0:0|0:0,0:0:0:0:
161,161,102786,2,0,L|226:152,1,65,0|0,0:0|0:0,0:0:0:0:
460,253,103110,2,0,L|306:264,1,130,8|0,0:0|0:0,0:0:0:0:
64,239,103759,6,0,L|139:237,2,65,4|0|0,0:0|0:0|0:0,0:0:0:0:
196,165,104246,2,0,L|341:162,1,130,0|0,0:0|0:0,0:0:0:0:
195,76,104732,2,0,L|126:78,1,65,0|0,0:0|0:0,0:0:0:0:
358,274,105056,6,0,L|434:271,2,65,2|0|0,0:0|0:0|0:0,0:0:0:0:
96,278,105705,2,0,L|240:274,1,130,8|0,0:0|0:0,0:0:0:0:
157,203,106192,1,0,0:0:0:0:
386,237,106354,6,0,P|417:189|356:142,1,130,4|0,0:0|0:0,0:0:0:0:
300,138,106840,1,0,0:0:0:0:
149,244,107002,2,0,P|118:196|179:149,1,130,8|0,0:0|0:0,0:0:0:0:
235,145,107488,1,0,0:0:0:0:
388,259,107651,6,0,L|376:180,1,65,4|0,0:0|0:0,0:0:0:0:
247,176,107975,2,0,L|259:268,1,65,0|0,0:0|0:0,0:0:0:0:
324,175,108300,1,2,0:0:0:0:
466,244,108462,2,0,P|464:186|390:176,1,130,0|0,0:0|0:0,0:0:0:0:
172,180,108948,5,8,0:0:0:0:
42,133,109273,2,0,L|112:132,2,65,0|0|0,0:0|0:0|0:0,0:0:0:0:
261,223,109921,2,0,L|173:229,1,65,0|0,0:0|0:0,0:0:0:0:
405,132,110408,1,0,0:0:0:0:
276,174,110570,2,0,L|429:174,2,130,0|0|0,0:0|0:0|0:0,0:0:0:0:
343,164,111381,1,0,0:0:0:0:
493,250,111543,6,0,L|340:258,1,130,0|0,0:0|0:0,0:0:0:0:
432,180,112029,1,0,0:0:0:0:
286,224,112192,2,0,L|134:223,1,130,0|0,0:0|0:0,0:0:0:0:
298,150,112678,2,0,P|309:98|235:77,1,130,0|0,0:0|0:0,0:0:0:0:
107,185,113164,1,0,0:0:0:0:
248,162,113489,2,0,L|322:161,2,65,0|0|0,0:0|0:0|0:0,0:0:0:0:
20,273,114137,6,0,P|19:222|105:186,1,130,0|0,0:0|0:0,0:0:0:0:
147,174,114624,1,0,0:0:0:0:
304,232,114786,2,0,P|314:183|245:142,1,130,0|0,0:0|0:0,0:0:0:0:
108,227,115273,1,0,0:0:0:0:
336,157,115597,2,0,L|266:158,1,65,0|0,0:0|0:0,0:0:0:0:
58,220,116083,1,0,0:0:0:0:
267,253,116408,2,0,L|274:185,1,65,0|0,0:0|0:0,0:0:0:0:
124,207,116732,6,0,P|125:162|219:129,1,130,0|0,0:0|0:0,0:0:0:0:
267,111,117219,1,0,0:0:0:0:
418,219,117381,2,0,L|277:228,1,130,0|0,0:0|0:0,0:0:0:0:
143,267,117867,1,0,0:0:0:0:
358,186,118192,2,0,L|278:186,1,65,0|0,0:0|0:0,0:0:0:0:
69,274,118678,2,0,P|69:214|129:191,1,130,0|0,0:0|0:0,0:0:0:0:
203,157,119164,1,0,0:0:0:0:
444,261,119327,6,0,P|456:204|335:142,1,195,0|0,3:0|0:0,0:0:0:0:
212,222,119975,2,0,L|139:223,1,65,0|0,1:0|0:0,0:0:0:0:
14,302,120300,2,0,L|9:230,1,65,0|0,0:0|0:0,0:0:0:0:
244,164,120624,6,0,L|330:161,2,65,0|0|0,3:0|0:0|0:0,0:0:0:0:
19,270,121273,2,0,P|16:208|84:182,1,130,0|0,1:0|1:0,0:0:0:0:
136,156,121759,1,0,0:0:0:0:
284,223,121921,5,0,3:0:0:0:
423,270,122246,2,0,L|429:183,1,65,0|0,0:0|0:0,0:0:0:0:
274,139,122570,1,0,1:0:0:0:
132,282,122894,2,0,L|124:215,1,65,0|0,0:0|0:0,0:0:0:0:
360,198,123219,6,0,L|453:193,2,65,0|0|0,3:0|0:0|0:0,0:0:0:0:
138,246,123867,2,0,L|281:248,1,130,0|0,1:0|0:0,0:0:0:0:
198,182,124354,1,0,0:0:0:0:
428,238,124516,6,0,P|429:186|350:165,1,130,0|0,3:0|0:0,0:0:0:0:
145,220,125164,1,8,2:0:0:0:
361,253,125489,2,0,L|365:181,1,65,0|0,0:0|0:0,0:0:0:0:
215,153,125813,6,0,L|149:157,2,65,0|0|0,3:0|0:0|0:0,0:0:0:0:
436,221,126462,2,0,L|278:237,1,130,0|0,2:0|0:0,0:0:0:0:
56,246,127110,5,8,0:0:0:0:
277,167,127435,2,0,L|182:174,2,65,0|0|8,0:0|0:0|0:0,0:0:0:0:
477,244,128083,2,0,L|486:167,1,65,0|0,0:0|0:0,0:0:0:0:
250,173,128408,6,0,L|97:192,2,130,8|8|8,0:0|0:0|0:0,0:0:0:0:
75,144,129381,1,0,0:0:0:0:
467,250,129705,6,0,P|477:155|450:121,1,130,8|0,0:0|0:0,0:0:0:0:
376,120,130192,1,0,0:0:0:0:
206,124,130354,1,2,0:0:0:0:
304,202,130678,2,0,L|307:298,1,65,0|0,0:0|0:0,0:0:0:0:
219,310,131002,1,0,0:0:0:0:
382,353,131164,2,0,L|449:351,2,65,0|2|0,0:0|0:0|0:0,0:0:0:0:
289,305,131651,2,0,L|279:229,1,65,0|0,0:0|0:0,0:0:0:0:
446,193,131975,2,0,L|449:111,1,65,0|0,0:0|0:0,0:0:0:0:
218,82,132300,6,0,P|163:140|183:171,1,130,8|0,0:0|0:0,0:0:0:0:
354,233,132786,1,0,0:0:0:0:
422,238,132948,1,2,0:0:0:0:
309,291,133273,2,0,L|306:359,1,65,0|0,0:0|0:0,0:0:0:0:
139,347,133597,2,0,L|49:351,2,65,8|0|0,0:0|0:0|0:0,0:0:0:0:
227,304,134083,1,0,0:0:0:0:
144,253,134246,2,0,L|145:174,1,65,2|0,0:0|0:0,0:0:0:0:
310,136,134570,2,0,L|393:135,1,65,0|0,0:0|0:0,0:0:0:0:
149,86,134894,6,0,P|88:119|66:184,1,130,8|0,0:0|0:0,0:0:0:0:
140,225,135381,1,0,0:0:0:0:
307,246,135543,1,2,0:0:0:0:
202,271,135867,2,0,L|202:363,1,65,0|0,0:0|0:0,0:0:0:0:
374,336,136192,1,8,0:0:0:0:
330,275,136354,2,0,L|242:279,2,65,0|0|0,0:0|0:0|0:0,0:0:0:0:
418,240,136840,2,0,L|409:146,1,65,2|0,0:0|0:0,0:0:0:0:
244,133,137164,2,0,L|156:140,1,65,0|0,0:0|0:0,0:0:0:0:
411,107,137489,6,0,P|453:144|405:189,1,130,8|0,0:0|0:0,0:0:0:0:
248,201,137975,1,0,0:0:0:0:
178,243,138137,2,0,L|314:241,1,130,2|0,0:0|0:0,0:0:0:0:
388,237,138624,1,0,0:0:0:0:
225,306,138786,2,0,L|149:307,2,65,8|0|0,0:0|0:0|0:0,0:0:0:0:
310,271,139273,1,0,0:0:0:0:
228,216,139435,2,0,L|275:154,1,65,2|0,0:0|0:0,0:0:0:0:
349,115,139759,2,0,L|429:112,1,65,0|0,0:0|0:0,0:0:0:0:
173,49,140083,6,0,L|12:52,1,130,8|0,0:0|0:0,0:0:0:0:
105,111,140570,1,0,0:0:0:0:
266,120,140732,1,2,0:0:0:0:
178,183,141056,2,0,L|181:257,1,65,0|0,0:0|0:0,0:0:0:0:
267,263,141381,1,0,0:0:0:0:
431,337,141543,2,0,L|279:334,1,130,0|0,0:0|0:0,0:0:0:0:
224,282,142029,2,0,L|213:206,1,65,0|0,0:0|0:0,0:0:0:0:
52,156,142354,2,0,L|130:153,1,65,0|0,0:0|0:0,0:0:0:0:
358,107,142678,6,0,P|424:96|498:123,1,130,8|0,0:0|0:0,0:0:0:0:
315,235,143164,2,0,L|311:309,1,65,0|2,0:0|0:0,0:0:0:0:
167,314,143651,2,0,L|179:382,1,65,0|0,0:0|0:0,0:0:0:0:
344,357,143975,1,8,0:0:0:0:
381,289,144137,2,0,L|304:287,2,65,0|0|0,0:0|0:0|0:0,0:0:0:0:
460,248,144624,2,0,L|460:181,1,65,2|0,0:0|0:0,0:0:0:0:
288,128,144948,2,0,L|199:129,1,65,0|0,0:0|0:0,0:0:0:0:
455,46,145273,6,0,P|483:76|428:152,1,130,8|0,0:0|0:0,0:0:0:0:
365,177,145759,1,0,0:0:0:0:
199,210,145921,1,2,0:0:0:0:
310,287,146246,2,0,L|317:355,1,65,0|0,0:0|0:0,0:0:0:0:
228,359,146570,1,8,0:0:0:0:
61,277,146732,1,0,0:0:0:0:
11,205,146894,2,0,L|87:201,1,65,0|0,0:0|0:0,0:0:0:0:
168,197,147219,1,2,0:0:0:0:
56,62,147543,1,0,0:0:0:0:
459,277,147867,6,0,P|485:247|437:156,1,130,8|0,0:0|0:0,0:0:0:0:
296,88,148354,2,0,L|213:88,1,65,0|2,0:0|0:0,0:0:0:0:
345,190,148840,2,0,L|418:191,1,65,0|0,0:0|0:0,0:0:0:0:
344,247,149164,1,8,0:0:0:0:
179,285,149327,2,0,L|92:273,2,65,0|0|0,0:0|0:0|0:0,0:0:0:0:
265,285,149813,2,0,L|269:204,1,65,2|0,0:0|0:0,0:0:0:0:
429,349,150137,2,0,L|340:358,1,65,0|0,0:0|0:0,0:0:0:0:
127,352,150462,1,4,1:0:0:0:
339,168,160840,5,0,0:0:0:0:
197,229,161327,1,0,0:0:0:0:
197,229,161489,1,0,0:0:0:0:
334,291,161813,1,0,0:0:0:0:
73,219,162137,1,0,0:0:0:0:
198,124,162462,1,0,0:0:0:0:
70,54,162786,1,0,0:0:0:0:
318,42,163110,1,0,0:0:0:0:
36,57,163435,5,0,0:0:0:0:
155,146,163921,1,0,0:0:0:0:
155,146,164083,1,0,0:0:0:0:
30,210,164408,1,0,0:0:0:0:
291,282,164732,1,0,0:0:0:0:
176,211,165056,1,0,0:0:0:0:
298,141,165381,1,0,0:0:0:0:
43,74,165705,1,0,0:0:0:0:
329,126,166029,6,0,L|398:123,2,65,0|0|0,0:0|0:0|0:0,0:0:0:0:
166,163,166516,1,0,0:0:0:0:
234,138,166678,1,0,0:0:0:0:
275,98,166840,1,0,0:0:0:0:
234,138,167002,1,0,0:0:0:0:
166,163,167164,1,0,0:0:0:0:
328,233,167327,6,0,L|325:319,1,65,0|0,0:0|0:0,0:0:0:0:
223,309,167651,2,0,L|152:306,1,65,0|0,0:0|0:0,0:0:0:0:
326,251,167975,2,0,P|361:190|318:154,1,130,0|0,0:0|0:0,0:0:0:0:
65,93,168624,2,0,L|82:237,1,130,0|0,0:0|0:0,0:0:0:0:
244,218,169110,1,0,0:0:0:0:
324,214,169273,2,0,P|395:232|404:308,1,130,0|0,0:0|0:0,0:0:0:0:
149,302,169921,5,0,0:0:0:0:
264,231,170246,1,0,0:0:0:0:
13,168,170570,2,0,L|63:30,1,130,0|0,0:0|0:0,0:0:0:0:
467,34,171219,6,0,P|498:96|446:150,1,130,8|0,0:0|0:0,0:0:0:0:
304,165,171705,1,0,0:0:0:0:
222,203,171867,2,0,L|219:276,1,65,2|0,0:0|0:0,0:0:0:0:
386,271,172192,2,0,L|391:354,1,65,0|0,0:0|0:0,0:0:0:0:
257,340,172678,1,0,0:0:0:0:
321,294,172840,2,0,L|311:212,1,65,0|0,0:0|0:0,0:0:0:0:
155,197,173164,2,0,P|82:145|86:93,1,130,2|0,0:0|0:0,0:0:0:0:
160,93,173651,1,0,0:0:0:0:
317,185,173813,6,0,L|390:192,2,65,8|0|0,0:0|0:0|0:0,0:0:0:0:
148,223,174300,1,0,0:0:0:0:
71,253,174462,2,0,L|70:332,1,65,0|0,0:0|0:0,0:0:0:0:
234,342,174786,1,0,0:0:0:0:
138,280,175110,2,0,L|141:200,1,65,0|0,1:0|0:0,0:0:0:0:
221,160,175435,2,0,L|304:158,1,65,0|0,0:0|0:0,0:0:0:0:
120,96,175759,2,0,L|42:101,2,65,2|0|0,0:0|0:0|0:0,0:0:0:0:
263,56,176408,6,0,P|196:48|110:71,1,130,8|0,0:0|0:0,0:0:0:0:
300,112,176894,1,0,0:0:0:0:
383,115,177056,2,0,P|426:147|401:221,1,130,2|0,0:0|0:0,0:0:0:0:
321,236,177543,1,0,0:0:0:0:
156,249,177705,2,0,B|150:182,1,65,0|0,1:0|0:0,0:0:0:0:
59,139,178029,2,0,L|137:130,1,65,0|0,0:0|0:0,0:0:0:0:
294,118,178354,2,0,P|352:111|439:138,1,130,2|0,0:0|0:0,0:0:0:0:
147,243,179002,6,0,P|105:180|133:121,1,130,8|0,0:0|0:0,0:0:0:0:
287,134,179489,1,0,0:0:0:0:
365,177,179651,2,0,L|217:181,1,130,0|0,0:0|0:0,0:0:0:0:
498,266,180300,2,0,L|340:275,1,130,0|0,1:0|0:0,0:0:0:0:
271,314,180786,1,0,0:0:0:0:
364,316,180948,2,0,L|362:383,1,65,2|0,0:0|0:0,0:0:0:0:
197,349,181273,2,0,L|113:345,1,65,0|0,0:0|0:0,0:0:0:0:
362,316,181597,6,0,P|416:281|412:207,1,130,0|0,3:0|0:0,0:0:0:0:
353,191,182083,1,0,0:0:0:0:
189,169,182246,1,0,0:0:0:0:
292,187,182570,2,0,L|290:269,1,65,0|0,0:0|0:0,0:0:0:0:
125,298,182894,2,0,L|48:304,2,65,0|0|0,3:0|0:0|0:0,0:0:0:0:
198,245,183381,1,0,0:0:0:0:
361,187,183543,2,0,L|345:96,1,65,0|0,0:0|0:0,0:0:0:0:
254,79,183867,2,0,L|182:83,1,65,0|0,0:0|0:0,0:0:0:0:
354,142,184192,5,0,3:0:0:0:
247,224,184516,2,0,L|234:304,1,65,0|0,0:0|0:0,0:0:0:0:
402,336,184840,2,0,L|474:332,2,65,0|0|0,1:0|0:0|0:0,0:0:0:0:
321,297,185327,1,0,0:0:0:0:
155,247,185489,1,0,3:0:0:0:
276,208,185813,2,0,L|279:130,1,65,0|0,0:0|0:0,0:0:0:0:
112,89,186137,1,0,1:0:0:0:
190,75,186786,6,0,L|255:70,2,65,0|0|0,0:0|0:0|0:0,0:0:0:0:
100,116,187273,1,0,0:0:0:0:
195,129,187435,2,0,L|201:212,1,65,0|0,0:0|0:0,0:0:0:0:
104,222,187759,2,0,L|104:291,1,65,0|0,0:0|0:0,0:0:0:0:
269,337,188083,6,0,L|346:335,2,65,0|0|0,0:0|0:0|0:0,0:0:0:0:
171,294,188570,1,0,0:0:0:0:
335,230,188732,2,0,L|335:142,1,65,0|0,0:0|0:0,0:0:0:0:
107,134,189056,2,0,L|26:145,1,65,0|0,0:0|0:0,0:0:0:0:
299,86,189381,6,0,L|378:76,2,43.3333333333333,8|0|0,0:0|0:0|0:0,0:0:0:0:
230,104,189705,1,0,0:0:0:0:
143,130,189867,1,0,0:0:0:0:
297,208,190029,2,0,L|366:199,2,43.3333333333333,8|0|0,0:0|0:0|0:0,0:0:0:0:
221,218,190354,1,0,0:0:0:0:
136,233,190516,1,0,0:0:0:0:
298,304,190678,6,0,L|371:303,1,65,8|0,0:0|0:0,0:0:0:0:
289,346,191002,2,0,L|207:349,1,65,8|0,0:0|0:0,0:0:0:0:
391,257,191327,1,8,0:0:0:0:
477,181,191543,2,0,L|472:253,1,43.3333333333333,0|8,0:0|0:0,0:0:0:0:
70,60,191975,6,0,P|40:139|99:229,1,195,4|0,2:0|0:0,0:0:0:0:
247,278,192624,2,0,P|176:263|71:329,1,195,0|0,3:0|0:0,0:0:0:0:
154,352,193273,1,0,0:0:0:0:
320,307,193435,2,0,L|396:296,2,65,0|0|0,0:0|0:0|0:0,0:0:0:0:
228,274,193921,6,0,L|224:197,1,65,0|0,3:0|0:0,0:0:0:0:
393,143,194246,2,0,L|486:136,1,65,0|0,0:0|0:0,0:0:0:0:
231,102,194570,2,0,P|185:157|251:252,1,195,4|0,2:0|0:0,0:0:0:0:
406,293,195219,2,0,P|321:294|206:345,1,195,0|0,0:0|0:0,0:0:0:0:
384,315,195867,2,0,L|380:226,1,65,4|0,3:0|0:0,0:0:0:0:
309,204,196192,2,0,L|306:125,1,65,4|0,3:0|0:0,0:0:0:0:
385,89,196516,1,0,3:0:0:0:
243,163,196840,6,0,L|163:165,1,65,0|0,0:3|0:0,0:0:0:0:
408,325,197164,2,0,P|448:315|393:225,1,195,4|0,2:0|0:0,0:0:0:0:
231,199,197813,2,0,P|150:167|212:103,1,195,0|0,3:0|0:0,0:0:0:0:
364,73,198462,1,0,0:0:0:0:
431,136,198624,2,0,L|505:134,2,65,0|0|0,0:0|0:0|0:0,0:0:0:0:
267,299,199110,2,0,P|345:276|455:324,1,195,0|0,3:0|0:0,0:0:0:0:
216,336,199759,5,4,2:0:0:0:
114,292,200083,2,0,L|117:207,1,65,0|0,0:0|0:0,0:0:0:0:
283,227,200408,2,0,P|321:174|235:75,1,195,0|0,0:0|0:0,0:0:0:0:
93,58,201056,1,4,0:3:0:0:
200,140,201381,1,4,0:3:0:0:
91,214,201705,1,0,3:0:0:0:
343,270,202354,6,0,P|271:247|154:269,1,195,4|0,2:0|0:0,0:0:0:0:
322,328,203002,2,0,P|367:263|307:165,1,195,0|0,3:0|0:0,0:0:0:0:
230,145,203651,1,0,0:0:0:0:
400,104,203813,2,0,L|485:92,2,65,0|0|0,0:0|0:0|0:0,0:0:0:0:
319,150,204300,2,0,L|318:224,1,65,0|0,3:0|0:0,0:0:0:0:
411,247,204624,2,0,L|414:337,1,65,0|0,0:0|0:0,0:0:0:0:
184,293,204948,6,0,P|75:261|0:317,1,195,4|0,2:0|0:0,0:0:0:0:
177,314,205597,2,0,L|189:227,1,65,0|0,3:0|0:0,0:0:0:0:
103,197,205921,2,0,L|21:184,1,65,0|0,0:0|0:0,0:0:0:0:
204,141,206246,2,0,L|275:138,2,65,4|0|4,0:3|0:0|0:3,0:0:0:0:
128,182,206732,1,0,0:0:0:0:
211,217,206894,2,0,L|211:299,1,65,0|0,3:0|0:0,0:0:0:0:
113,323,207219,2,0,L|41:322,1,65,0|0,3:0|0:0,0:0:0:0:
284,265,207543,5,4,2:0:0:0:
198,202,207867,2,0,L|207:112,1,65,0|0,0:0|0:0,0:0:0:0:
368,189,208192,2,0,P|410:111|350:32,1,195,0|0,3:0|0:0,0:0:0:0:
184,84,208840,2,0,B|312:81|312:81|312:164,1,195,0|0,0:0|0:0,0:0:0:0:
162,231,209489,2,0,P|106:286|197:298,1,195,0|0,3:0|0:0,0:0:0:0:
339,334,210137,6,0,P|399:299|400:182,1,195,0|0,3:0|0:0,0:0:0:0:
303,134,210786,1,0,3:0:0:0:
425,132,211110,2,0,L|427:58,1,65,0|0,0:0|0:0,0:0:0:0:
260,84,211435,2,0,L|181:86,2,65,4|0|4,0:3|0:0|0:3,0:0:0:0:
392,192,212083,2,0,P|279:177|182:217,1,195,0|0,3:0|0:0,0:0:0:0:
433,310,212732,6,0,P|458:235|382:145,1,195,4|0,2:0|0:0,0:0:0:0:
224,109,213381,1,0,3:0:0:0:
377,180,213867,2,0,L|378:270,1,65,0|0,0:0|0:0,0:0:0:0:
288,276,214192,1,0,0:0:0:0:
124,281,214354,1,0,0:0:0:0:
235,206,214678,2,0,L|309:208,2,65,0|0|0,3:0|0:0|0:0,0:0:0:0:
160,152,215164,1,0,0:0:0:0:
325,109,215327,6,0,P|264:93|119:123,1,195,4|0,2:0|0:0,0:0:0:0:
304,313,215975,2,0,P|340:274|280:158,1,195,0|0,3:0|0:0,0:0:0:0:
117,118,216624,1,4,3:0:0:0:
33,161,216786,1,0,0:0:0:0:
50,240,216948,1,4,3:0:0:0:
141,261,217110,1,0,0:0:0:0:
308,342,217273,2,0,L|387:337,2,65,0|0|0,0:0|0:0|0:0,0:0:0:0:
39,248,217921,6,0,L|42:170,1,65,0|0,1:0|0:0,0:0:0:0:
124,158,218246,1,0,0:0:0:0:
353,184,218408,2,0,B|581:171|435:156|232:131|189:85|479:92,1,455,0|0,0:0|0:0,0:0:0:0:
201,210,219867,6,0,L|113:212,2,65,0|0|0,3:0|0:0|0:0,0:0:0:0:
465,243,220516,2,0,P|475:185|378:93,1,195,4|0,2:0|0:0,0:0:0:0:
277,95,221164,2,0,L|277:12,1,65,0|0,3:0|0:0,0:0:0:0:
376,53,221489,2,0,L|468:55,1,65,0|0,0:0|0:0,0:0:0:0:
276,130,221813,2,0,P|144:160|108:214,1,195,4|0,3:0|0:0,0:0:0:0:
281,298,222462,2,0,P|416:289|472:336,1,195,0|0,0:0|0:0,0:0:0:0:
224,330,223110,5,4,2:0:0:0:
330,264,223609,2,0,L|332:193,1,65,0|8,0:0|2:0,0:0:0:0:
207,148,224276,1,0,0:0:0:0:
373,159,224443,2,0,B|390:102|436:133|456:93|158:92|-80:93|146:156,1,455,0|0,0:0|0:0,0:0:0:0:
311,226,225906,5,4,2:0:0:0:
142,300,226660,1,8,2:0:0:0:
328,349,227434,1,8,0:0:0:0:
178,349,228234,1,8,1:0:0:0:
256,350,229061,1,4,2:0:0:0:
256,192,229486,12,8,232465,2:0:0:0:
