osu file format v14

[General]
AudioFilename: audio.mp3
AudioLeadIn: 0
PreviewTime: 184904
Countdown: 0
SampleSet: Soft
StackLeniency: 0.7
Mode: 2
LetterboxInBreaks: 0
WidescreenStoryboard: 1

[Editor]
Bookmarks: 133568,134602,135292,137361,138051
DistanceSpacing: 1.4
BeatDivisor: 12
GridSize: 8
TimelineZoom: 2.599999

[Metadata]
Title:Glome
TitleUnicode:Glome
Artist:Creo
ArtistUnicode:Creo
Creator:Nelly
Version:Collab Rain
Source:osu!
Tags:featured artist mappers guild fruit factory electronic wonjae salchow rocma
BeatmapID:2046330
BeatmapSetID:965319

[Difficulty]
HPDrainRate:6
CircleSize:4
OverallDifficulty:9
ApproachRate:9
SliderMultiplier:1.69
SliderTickRate:1

[Events]
//Background and Video events
0,0,"bg.jpg",0,0
//Break Periods
2,336,4363
2,7231,10570
2,12807,15398
2,135508,137467
//Storyboard Layer 0 (Background)
//Storyboard Layer 1 (Fail)
//Storyboard Layer 2 (Pass)
//Storyboard Layer 3 (Foreground)
//Storyboard Sound Samples

[TimingPoints]
136,344.827586206897,4,2,1,35,1,0
18067,-125,4,2,1,35,0,0
22204,-100,4,2,1,35,0,0
44273,-100,4,2,1,40,0,0
55308,-100,4,2,2,40,0,0
66342,-100,4,2,1,50,0,1
79446,-100,4,2,1,45,0,0
80136,-100,4,2,1,50,0,1
101745,-100,4,2,1,50,0,0
102204,-100,4,2,1,50,0,1
113239,-100,4,2,2,50,0,0
145653,-83.3333333333333,4,2,2,50,0,0
184273,-100,4,2,1,50,0,0
185308,-100,4,2,1,50,0,1
187722,-83.3333333333333,4,2,1,50,0,1
192549,-100,4,2,1,45,0,0
193239,-83.3333333333333,4,2,1,50,0,1
203584,-100,4,2,1,50,0,0
204273,-83.3333333333333,4,2,1,50,0,1
223584,-125,4,2,1,35,0,0

[Colours]
Combo1 : 230,210,181
Combo2 : 223,124,26
Combo3 : 125,69,13

[HitObjects]
319,282,136,5,2,0:0:0:0:
324,298,4963,6,0,P|408:211|314:151,1,253.5,2|0,0:0|0:0,0:0:0:0:
227,144,5653,1,0,0:0:0:0:
341,40,6170,1,2,0:0:0:0:
155,102,6687,2,0,L|343:129,1,169,0|2,0:0|0:0,0:0:0:0:
284,173,11170,5,2,0:0:0:0:
135,264,11687,1,0,0:0:0:0:
313,168,12204,2,0,L|314:69,1,84.5,2|0,0:0|0:0,0:0:0:0:
212,53,12607,1,0,0:0:0:0:
342,243,15998,6,0,L|79:255,1,253.5,2|0,0:0|0:0,0:0:0:0:
195,318,16687,1,0,0:0:0:0:
326,316,17204,1,2,0:0:0:0:
153,275,17722,2,0,L|322:270,1,169,0|2,0:0|0:0,0:0:0:0:
471,200,19446,5,2,0:0:0:0:
256,192,19791,12,0,22032,0:0:0:0:
99,132,22204,6,0,L|356:138,1,253.5,2|2,0:0|0:0,0:0:0:0:
193,235,23239,1,0,0:0:0:0:
335,314,23584,2,0,P|352:236|173:71,1,338,2|0,0:0|0:0,0:0:0:0:
108,73,24791,1,0,0:0:0:0:
265,160,24963,6,0,L|263:258,1,84.5,2|0,0:0|0:0,0:0:0:0:
208,256,25250,1,0,0:0:0:0:
270,244,25653,2,0,L|263:139,1,84.5,2|0,0:0|0:0,0:0:0:0:
210,154,25940,1,0,0:0:0:0:
113,135,26170,1,0,0:0:0:0:
201,111,26342,2,0,P|308:158|373:278,1,253.5,2|0,0:0|0:0,0:0:0:0:
202,265,27032,6,0,L|470:267,1,253.5
291,134,27722,2,0,P|267:279|357:337,1,253.5,2|2,0:0|0:0,0:0:0:0:
440,351,28613,1,0,0:0:0:0:
352,289,28756,2,0,L|352:150,1,112.666666666667,2|0,0:0|0:0,0:0:0:0:
261,119,29101,2,0,L|86:100,1,169,2|0,0:0|0:0,0:0:0:0:
241,57,29791,2,0,P|264:135|216:201,1,169,0|0,0:0|0:0,0:0:0:0:
114,219,30480,5,0,0:0:0:0:
113,168,31371,1,0,0:0:0:0:
207,161,31515,2,0,L|205:42,1,112.666666666667,2|0,0:0|0:0,0:0:0:0:
118,62,31888,2,0,L|282:44,1,154.916666666667,2|0,0:0|0:0,0:0:0:0:
414,149,33239,6,0,P|303:194|354:285,1,253.5,2|0,0:0|0:0,0:0:0:0:
243,111,34273,1,0,0:0:0:0:
71,194,34618,2,0,L|413:140,1,338,2|0,0:0|0:0,0:0:0:0:
287,113,35825,1,0,0:0:0:0:
91,253,35998,6,0,L|90:359,1,84.5,2|0,0:0|0:0,0:0:0:0:
158,332,36285,1,0,0:0:0:0:
297,249,36687,2,0,L|212:249,1,84.5,2|0,0:0|0:0,0:0:0:0:
277,214,36975,1,0,0:0:0:0:
362,212,37204,1,0,0:0:0:0:
269,114,37377,2,0,P|252:182|411:237,1,253.5,2|0,0:0|0:0,0:0:0:0:
195,259,38067,6,0,P|192:194|331:88,1,253.5,2|0,0:0|0:0,0:0:0:0:
433,50,38756,2,0,L|172:61,1,253.5,0|2,0:0|0:0,0:0:0:0:
28,123,39618,1,0,0:0:0:0:
88,193,39791,2,0,L|84:294,1,98.5833333333333,2|0,0:0|0:0,0:0:0:0:
164,326,40136,1,2,0:0:0:0:
342,319,41515,5,0,0:0:0:0:
256,192,42377,12,0,44101,0:0:0:0:
336,145,44273,6,0,L|516:149,1,169,6|0,0:0|0:0,0:0:0:0:
197,280,44963,2,0,L|214:187,1,84.5,0|0,0:0|0:0,0:0:0:0:
298,166,45308,2,0,L|129:178,1,169,2|0,0:0|0:0,0:0:0:0:
47,116,45825,1,0,0:0:0:0:
148,70,45998,1,0,0:0:0:0:
77,129,46170,1,0,0:0:0:0:
60,205,46342,1,2,0:0:0:0:
100,286,46515,1,0,0:0:0:0:
183,332,46687,2,0,L|281:330,1,84.5,0|0,0:0|0:0,0:0:0:0:
458,237,47032,6,0,L|349:236,1,84.5,2|0,0:0|0:0,0:0:0:0:
282,167,47377,1,0,0:0:0:0:
364,128,47549,1,0,0:0:0:0:
411,70,47722,1,0,0:3:0:0:
400,26,47894,1,0,0:0:0:0:
371,22,48067,1,0,0:3:0:0:
316,25,48239,1,0,0:0:0:0:
399,48,48411,6,0,L|484:46,1,84.5,0|0,0:3|0:0,0:0:0:0:
380,115,48756,2,0,L|453:164,1,84.5,0|0,0:3|0:0,0:0:0:0:
333,183,49101,2,0,L|358:270,1,84.5,0|0,0:0|0:0,0:0:0:0:
236,258,49446,2,0,L|223:360,1,84.5,0|0,0:0|0:0,0:0:0:0:
394,348,49791,6,0,L|487:347,1,84.5,2|0,0:0|0:0,0:0:0:0:
229,202,50136,2,0,L|225:100,1,84.5,0|0,0:0|0:0,0:0:0:0:
380,130,50480,2,0,L|377:30,1,84.5,0|0,0:0|0:0,0:0:0:0:
203,30,50825,2,0,L|390:29,1,169,2|0,0:0|0:0,0:0:0:0:
288,76,51342,1,0,0:0:0:0:
355,126,51515,1,0,0:0:0:0:
387,199,51687,1,0,0:0:0:0:
367,277,51860,1,2,0:0:0:0:
307,324,52032,1,0,0:0:0:0:
219,325,52204,2,0,L|201:230,1,84.5,0|0,0:0|0:0,0:0:0:0:
468,135,52549,6,0,B|224:238,2,253.5,2|2|2,0:0|0:0|0:0,0:0:0:0:
370,138,53756,2,0,L|370:40,1,84.5,0|0,0:0|0:0,0:0:0:0:
187,42,54101,2,0,L|367:37,1,169,2|0,0:0|0:0,0:0:0:0:
90,131,54618,2,0,L|93:239,1,84.5,2|0,0:0|0:0,0:0:0:0:
184,243,54963,2,0,L|91:257,1,84.5,0|0,0:0|0:0,0:0:0:0:
388,300,55308,6,0,L|472:307,1,84.5,6|0,0:0|0:0,0:0:0:0:
296,331,55653,2,0,L|194:352,1,84.5,0|0,0:0|0:0,0:0:0:0:
32,231,55998,2,0,L|130:202,1,84.5,10|0,0:0|0:0,0:0:0:0:
287,148,56342,2,0,L|185:129,1,84.5,0|0,0:0|0:0,0:0:0:0:
455,193,56687,6,0,L|461:295,1,84.5,0|0,0:0|0:0,0:0:0:0:
278,323,57032,1,2,0:0:0:0:
276,316,57377,2,0,L|173:325,2,84.5,8|0|0,0:0|0:0|0:0,0:0:0:0:
371,307,57894,1,0,0:0:0:0:
203,134,58067,6,0,L|208:47,1,84.5,2|0,0:0|0:0,0:0:0:0:
309,44,58411,1,0,0:0:0:0:
309,44,58584,1,0,0:0:0:0:
133,207,58756,2,0,P|218:187|282:233,1,169,10|0,0:0|0:0,0:0:0:0:
373,258,59273,1,0,0:0:0:0:
196,296,59446,2,0,L|183:191,1,84.5,2|0,0:0|0:0,0:0:0:0:
282,184,59791,2,0,L|260:97,1,84.5,2|0,0:0|0:0,0:0:0:0:
77,100,60136,2,0,L|55:3,1,84.5,10|0,0:0|0:0,0:0:0:0:
229,33,60480,2,0,L|340:36,1,84.5,0|0,0:0|0:0,0:0:0:0:
52,156,60825,6,0,L|48:255,1,84.5,2|0,0:0|0:0,0:0:0:0:
229,306,61170,2,0,L|321:306,1,84.5,2|0,0:0|0:0,0:0:0:0:
494,229,61515,2,0,L|423:292,1,84.5,10|0,0:0|0:0,0:0:0:0:
262,327,61860,2,0,L|263:234,1,84.5,2|0,0:0|0:0,0:0:0:0:
358,188,62204,2,0,L|355:92,1,84.5,0|0,0:0|0:0,0:0:0:0:
470,80,62549,2,0,L|450:173,1,84.5,0|0,0:0|0:0,0:0:0:0:
271,240,62894,2,0,L|328:319,1,84.5,10|0,0:0|0:0,0:0:0:0:
147,342,63239,2,0,L|56:344,1,84.5,0|0,0:0|0:0,0:0:0:0:
66,260,63584,1,2,0:0:0:0:
256,192,63929,12,2,65653,0:0:0:0:
50,124,66342,6,0,L|170:118,1,112.666666666667,6|0,0:0|0:0,0:0:0:0:
265,173,66658,2,0,L|130:176,1,126.75
49,281,67032,1,8,0:0:0:0:
479,294,67377,2,0,L|467:196,1,98.5833333333333
341,177,67693,2,0,L|343:44,1,126.75
453,59,68067,1,0,0:0:0:0:
455,113,68181,1,0,0:0:0:0:
394,119,68296,1,0,0:0:0:0:
279,121,68411,1,8,0:0:0:0:
137,106,68929,1,0,0:0:0:0:
402,294,69101,6,0,L|498:253,1,98.5833333333333,2|0,0:0|0:0,0:0:0:0:
439,234,69446,2,0,L|436:130,1,98.5833333333333
300,81,69791,2,0,L|404:67,1,98.5833333333333,8|0,0:0|0:0,0:0:0:0:
349,73,70136,2,0,L|352:177,1,98.5833333333333,0|0,0:0|0:0,0:0:0:0:
495,105,70480,2,0,L|318:119,1,169,0|0,0:0|0:0,0:0:0:0:
226,191,71055,1,0,0:0:0:0:
386,302,71170,2,0,L|503:298,1,112.666666666667,8|0,0:0|0:0,0:0:0:0:
453,209,71515,2,0,L|332:209,1,112.666666666667,0|0,0:0|0:0,0:0:0:0:
136,89,71860,6,0,L|144:196,1,98.5833333333333,2|0,0:0|0:0,0:0:0:0:
235,190,72204,2,0,L|260:303,1,112.666666666667
126,275,72549,2,0,L|94:169,1,98.5833333333333,8|0,0:0|0:0,0:0:0:0:
323,175,72894,2,0,L|428:163,1,98.5833333333333,0|0,0:0|0:0,0:0:0:0:
393,150,73268,2,0,L|288:150,1,98.5833333333333
396,128,73584,2,0,P|452:192|442:214,1,112.666666666667,0|0,0:0|0:0,0:0:0:0:
308,214,73929,2,0,L|273:336,1,112.666666666667,8|0,0:0|0:0,0:0:0:0:
203,323,74273,2,0,L|171:207,1,112.666666666667,0|0,0:0|0:0,0:0:0:0:
403,234,74618,6,0,P|428:296|401:350,1,112.666666666667,2|0,0:0|0:0,0:0:0:0:
349,344,74963,2,0,L|228:338,1,112.666666666667,0|0,0:0|0:0,0:0:0:0:
384,120,75308,1,8,0:0:0:0:
276,44,75653,2,0,L|294:156,1,84.5,0|0,0:0|0:0,0:0:0:0:
364,86,75998,2,0,L|236:92,1,112.666666666667,0|0,0:0|0:0,0:0:0:0:
387,266,76342,2,0,L|396:138,1,112.666666666667,0|0,0:0|0:0,0:0:0:0:
154,134,76687,2,0,P|256:200|158:269,1,281.666666666667,8|0,0:0|0:0,0:0:0:0:
387,266,77377,6,0,L|217:252,1,169,6|0,0:0|0:0,0:0:0:0:
129,218,77952,1,0,0:0:0:0:
270,210,78067,2,0,L|253:83,1,112.666666666667,8|0,0:0|0:0,0:0:0:0:
34,55,78411,2,0,L|228:50,1,169,0|0,0:0|0:0,0:0:0:0:
294,83,78986,1,0,0:0:0:0:
213,131,79101,2,0,L|131:141,2,56.3333333333333,0|0|0,0:0|0:0|0:0,0:0:0:0:
334,223,79446,2,0,P|128:214|110:167,1,281.666666666667,8|0,0:0|0:0,0:0:0:0:
325,74,80136,6,0,P|405:136|327:276,1,281.666666666667,6|0,0:0|0:0,0:0:0:0:
200,332,80825,2,0,L|332:328,1,112.666666666667,8|0,0:0|0:0,0:0:0:0:
174,277,81170,2,0,P|114:204|223:81,1,281.666666666667,0|0,0:0|0:0,0:0:0:0:
305,84,81860,1,0,0:0:0:0:
199,169,82090,1,0,0:0:0:0:
354,130,82204,2,0,L|361:252,1,112.666666666667,8|0,0:0|0:0,0:0:0:0:
305,271,82549,2,0,L|170:266,1,112.666666666667,0|0,0:0|0:0,0:0:0:0:
429,333,82894,6,0,L|293:335,1,112.666666666667,2|0,0:0|0:0,0:0:0:0:
184,253,83239,2,0,L|48:248,1,112.666666666667,0|0,0:0|0:0,0:0:0:0:
77,218,83584,2,0,L|207:208,1,112.666666666667,8|0,0:0|0:0,0:0:0:0:
333,141,83929,2,0,P|358:189|331:259,1,112.666666666667,0|0,0:0|0:0,0:0:0:0:
284,246,84273,2,0,L|167:253,1,112.666666666667
114,250,84618,2,0,L|75:144,1,112.666666666667,0|0,0:0|0:0,0:0:0:0:
296,122,84963,2,0,L|115:122,1,169,8|0,0:0|0:0,0:0:0:0:
47,88,85480,1,0,0:0:0:0:
256,180,85653,6,0,P|293:238|259:284,1,126.75,0|0,0:0|0:0,0:0:0:0:
216,301,85998,2,0,L|94:302,1,112.666666666667,0|0,0:0|0:0,0:0:0:0:
246,230,86342,2,0,L|359:231,1,112.666666666667,8|0,0:0|0:0,0:0:0:0:
430,162,86687,2,0,L|501:160,2,56.3333333333333,0|0|0,0:0|0:0|0:0,0:0:0:0:
344,131,87032,2,0,L|226:129,1,112.666666666667,0|0,0:0|0:0,0:0:0:0:
287,96,87377,2,0,L|419:103,1,112.666666666667,0|0,0:0|0:0,0:0:0:0:
115,264,87722,2,0,P|45:229|140:98,1,281.666666666667,8|0,0:0|0:0,0:0:0:0:
335,238,88411,6,0,L|49:267,1,281.666666666667,6|0,0:0|0:0,0:0:0:0:
197,305,89101,2,0,L|385:332,1,169,8|0,0:0|0:0,0:0:0:0:
144,188,89561,2,0,P|136:268|252:345,1,225.333333333333,0|0,0:0|0:0,0:0:0:0:
324,351,90136,2,0,P|340:297|334:240,1,112.666666666667
134,297,90480,1,8,0:0:0:0:
39,281,90595,2,0,P|37:181|143:101,1,225.333333333333,0|0,0:0|0:0,0:0:0:0:
335,244,91170,6,0,P|339:194|155:77,1,281.666666666667,2|0,0:0|0:0,0:0:0:0:
319,110,91860,2,0,L|319:243,1,112.666666666667,8|0,0:0|0:0,0:0:0:0:
89,299,92204,2,0,P|146:272|356:326,1,281.666666666667,0|0,0:0|0:0,0:0:0:0:
122,266,92923,2,0,L|124:157,1,98.5833333333333
417,91,93239,2,0,B|424:161|424:161|329:185|329:185|315:302,1,281.666666666667
133,247,93929,6,0,P|119:298|133:332,1,84.5,2|0,0:0|0:0,0:0:0:0:
287,349,94273,2,0,L|400:351,1,112.666666666667,0|0,0:0|0:0,0:0:0:0:
213,218,94618,2,0,L|95:216,1,112.666666666667,8|0,0:0|0:0,0:0:0:0:
335,220,94963,2,0,P|372:193|269:33,1,281.666666666667,0|0,0:0|0:0,0:0:0:0:
171,149,95653,2,0,L|29:147,1,112.666666666667
241,217,95998,2,0,P|246:276|211:322,1,112.666666666667,8|0,0:0|0:0,0:0:0:0:
83,325,96342,1,0,0:0:0:0:
488,208,96687,6,0,P|497:161|457:96,1,112.666666666667,2|0,0:0|0:0,0:0:0:0:
405,91,97032,2,0,L|267:94,1,112.666666666667
140,268,97377,2,0,L|259:267,1,112.666666666667,8|0,0:0|0:0,0:0:0:0:
41,186,97722,2,0,P|51:151|260:126,1,281.666666666667,0|0,0:0|0:0,0:0:0:0:
401,191,98411,2,0,L|390:325,1,112.666666666667,0|0,0:0|0:0,0:0:0:0:
139,322,98756,2,0,B|79:298|58:265|82:230|301:237,1,281.666666666667,8|0,0:0|0:0,0:0:0:0:
29,152,99446,6,0,P|97:110|270:169,1,253.5,6|0,0:0|0:0,0:0:0:0:
75,231,100136,2,0,L|52:346,1,112.666666666667,8|0,0:0|0:0,0:0:0:0:
306,314,100480,2,0,L|425:297,1,112.666666666667,0|0,0:0|0:0,0:0:0:0:
388,237,100825,1,0,0:0:0:0:
146,234,101055,2,0,P|180:135|245:122,1,169,0|0,0:0|0:0,0:0:0:0:
319,76,101515,1,10,0:0:0:0:
27,105,101745,2,0,L|22:167,1,56.3333333333333
61,171,102090,1,0,0:0:0:0:
287,309,102204,6,0,P|358:281|308:106,1,281.666666666667,6|0,0:0|0:0,0:0:0:0:
188,71,102894,2,0,L|327:74,1,112.666666666667,8|0,0:0|0:0,0:0:0:0:
162,169,103239,2,0,P|121:277|267:348,1,281.666666666667,0|0,0:0|0:0,0:0:0:0:
389,293,103929,2,0,L|404:179,1,112.666666666667,0|0,0:0|0:0,0:0:0:0:
221,116,104273,2,0,B|100:124|190:99|257:97|342:96|318:106|160:97,1,281.666666666667,8|0,0:0|0:0,0:0:0:0:
371,159,104963,6,0,L|374:288,1,112.666666666667,2|0,0:0|0:0,0:0:0:0:
231,306,105308,2,0,L|99:302,1,112.666666666667,0|0,0:0|0:0,0:0:0:0:
255,233,105653,2,0,L|373:226,1,112.666666666667,8|0,0:0|0:0,0:0:0:0:
223,166,105998,2,0,L|209:42,1,112.666666666667,0|0,0:0|0:0,0:0:0:0:
439,125,106342,2,0,L|455:241,1,112.666666666667,0|0,0:0|0:0,0:0:0:0:
378,277,106687,2,0,L|256:291,1,112.666666666667,0|0,0:0|0:0,0:0:0:0:
122,344,107032,6,0,L|93:218,1,112.666666666667,8|0,0:0|0:0,0:0:0:0:
228,201,107377,2,0,L|255:108,1,84.5
20,34,107722,6,0,L|148:37,1,112.666666666667
273,121,108067,2,0,L|160:121,1,112.666666666667
310,283,108411,2,0,L|322:144,1,112.666666666667,8|0,0:0|0:0,0:0:0:0:
221,105,108756,2,0,L|149:111,2,56.3333333333333,0|0|0,0:0|0:0|0:0,0:0:0:0:
274,102,109101,1,0,0:0:0:0:
70,214,109331,2,0,L|67:336,1,112.666666666667,0|0,0:0|0:0,0:0:0:0:
396,347,109791,2,0,P|443:301|336:153,1,281.666666666667,8|0,0:0|0:0,0:0:0:0:
145,98,110480,6,0,L|283:88,1,112.666666666667,2|0,0:0|0:0,0:0:0:0:
398,166,110825,2,0,L|515:154,1,112.666666666667,0|0,0:0|0:0,0:0:0:0:
370,286,111170,2,0,L|371:167,1,112.666666666667,10|0,0:0|0:0,0:0:0:0:
231,134,111515,2,0,B|73:143|10:136|240:152,1,281.666666666667,2|0,0:0|0:0,0:0:0:0:
374,273,112204,2,0,L|371:151,1,112.666666666667,0|0,0:0|0:0,0:0:0:0:
230,85,112549,2,0,L|511:123,1,281.666666666667,10|0,0:0|0:0,0:0:0:0:
470,202,113239,5,0,0:0:0:0:
409,252,113469,2,0,L|336:256,1,56.3333333333333,0|0,0:0|0:0,0:0:0:0:
247,241,113814,1,0,0:0:0:0:
244,176,113929,1,8,0:0:0:0:
355,134,114273,2,0,L|478:138,1,112.666666666667,0|0,0:0|0:0,0:0:0:0:
407,223,114848,1,0,0:0:0:0:
266,264,114963,6,0,P|194:251|142:280,1,112.666666666667,0|0,0:0|0:0,0:0:0:0:
101,286,115308,1,8,0:0:0:0:
24,242,115538,2,0,L|17:176,1,56.3333333333333,0|0,0:0|0:0,0:0:0:0:
85,128,115883,1,0,0:0:0:0:
230,67,115998,1,0,0:0:0:0:
317,117,116227,2,0,L|318:180,1,56.3333333333333,0|0,0:0|0:0,0:0:0:0:
391,255,116572,1,0,0:0:0:0:
342,255,116687,5,8,0:0:0:0:
238,316,116917,2,0,L|169:311,1,56.3333333333333,0|0,0:0|0:0,0:0:0:0:
108,313,117262,1,0,0:0:0:0:
194,236,117607,1,0,0:0:0:0:
268,239,117722,2,0,L|265:358,1,112.666666666667,0|0,0:0|0:0,0:0:0:0:
413,356,118067,5,8,0:0:0:0:
352,257,118296,2,0,L|287:256,1,56.3333333333333,0|0,0:0|0:0,0:0:0:0:
213,257,118641,1,0,0:0:0:0:
425,280,118756,2,0,P|428:225|396:176,1,112.666666666667,0|0,0:0|0:0,0:0:0:0:
336,174,119101,1,0,0:0:0:0:
244,132,119446,2,0,L|130:133,1,112.666666666667,8|0,0:0|0:0,0:0:0:0:
61,149,119791,1,0,0:0:0:0:
59,213,120021,1,0,0:0:0:0:
165,243,120365,5,0,0:0:0:0:
317,308,120480,2,0,L|316:183,1,112.666666666667,0|0,0:0|0:0,0:0:0:0:
249,176,120825,1,8,0:0:0:0:
341,108,121170,1,0,0:0:0:0:
410,107,121400,1,0,0:0:0:0:
267,90,121515,5,0,0:0:0:0:
201,151,121745,2,0,L|205:227,1,56.3333333333333,0|0,0:0|0:0,0:0:0:0:
273,258,122090,1,0,0:0:0:0:
139,329,122204,2,0,L|253:324,1,112.666666666667,8|0,0:0|0:0,0:0:0:0:
312,318,122549,1,0,0:0:0:0:
309,273,122779,1,0,0:0:0:0:
225,221,123124,5,0,0:0:0:0:
159,198,123239,2,0,L|158:71,1,112.666666666667,0|0,0:0|0:0,0:0:0:0:
231,66,123584,1,8,0:0:0:0:
98,113,123814,1,0,0:0:0:0:
100,160,123929,1,0,0:0:0:0:
200,181,124158,1,0,0:0:0:0:
341,292,124273,6,0,P|366:237|331:204,1,112.666666666667,0|0,0:0|0:0,0:0:0:0:
279,198,124618,1,0,0:0:0:0:
212,55,124848,1,0,0:0:0:0:
278,54,124963,1,8,0:0:0:0:
383,54,125193,1,0,0:0:0:0:
386,114,125308,1,0,0:0:0:0:
310,172,125538,1,0,0:0:0:0:
213,232,125883,1,0,0:0:0:0:
355,327,125998,6,0,L|353:214,1,112.666666666667,0|0,0:0|0:0,0:0:0:0:
288,186,126342,2,0,L|177:162,1,112.666666666667,8|0,0:0|0:0,0:0:0:0:
125,120,126687,1,0,0:0:0:0:
235,78,126917,1,0,0:0:0:0:
374,107,127032,6,0,P|396:134|383:225,1,112.666666666667,0|0,0:0|0:0,0:0:0:0:
336,232,127377,1,0,0:0:0:0:
216,311,127722,2,0,L|216:187,1,112.666666666667,8|0,0:0|0:0,0:0:0:0:
156,193,128067,1,0,0:0:0:0:
94,188,128296,1,0,0:0:0:0:
121,75,128641,1,0,0:0:0:0:
265,175,128756,6,0,L|378:181,1,112.666666666667,0|0,0:0|0:0,0:0:0:0:
319,230,129101,1,8,0:0:0:0:
178,243,129446,1,0,0:0:0:0:
212,204,129676,1,0,0:0:0:0:
409,207,129791,6,0,P|444:161|409:115,1,112.666666666667,0|0,0:0|0:0,0:0:0:0:
361,102,130136,1,0,0:0:0:0:
283,101,130365,1,0,0:0:0:0:
139,139,130480,2,0,L|128:260,1,112.666666666667,8|0,0:0|0:0,0:0:0:0:
260,306,130825,2,0,P|305:292|379:321,1,112.666666666667,0|0,0:0|0:0,0:0:0:0:
428,315,131400,1,0,0:0:0:0:
352,303,131515,6,0,L|331:182,1,112.666666666667,0|0,0:0|0:0,0:0:0:0:
187,184,131860,2,0,L|212:58,1,112.666666666667,8|0,0:0|0:0,0:0:0:0:
258,67,132204,1,0,0:0:0:0:
337,53,132434,1,0,0:0:0:0:
194,89,132549,5,0,0:0:0:0:
103,151,132779,2,0,L|100:209,1,56.3333333333333,0|0,0:0|0:0,0:0:0:0:
182,258,133124,1,0,0:0:0:0:
186,305,133239,1,8,0:0:0:0:
256,192,133584,12,0,134618,0:0:0:0:
256,192,135308,5,0,0:0:0:0:
256,248,138067,6,0,L|368:248,1,112.666666666667,0|0,0:0|0:0,0:0:0:0:
296,208,138411,1,0,0:0:0:0:
128,192,138641,1,0,0:0:0:0:
208,192,138756,2,0,L|208:56,1,112.666666666667,8|0,0:0|0:0,0:0:0:0:
128,192,139101,1,0,0:0:0:0:
296,72,139331,1,0,0:0:0:0:
392,72,139446,2,0,L|272:72,1,112.666666666667,0|0,0:0|0:0,0:0:0:0:
376,72,139791,1,0,0:0:0:0:
216,72,140021,1,0,0:0:0:0:
448,128,140136,1,8,0:0:0:0:
128,136,140825,6,0,L|96:272,1,112.666666666667,0|0,0:0|0:0,0:0:0:0:
192,248,141170,2,0,L|320:248,1,112.666666666667,0|0,0:0|0:0,0:0:0:0:
192,248,141515,1,8,0:0:0:0:
352,272,141745,1,0,0:0:0:0:
440,272,141860,2,0,P|480:216|448:160,1,112.666666666667,0|0,0:0|0:0,0:0:0:0:
376,176,142204,2,0,L|240:176,1,112.666666666667,0|0,0:0|0:0,0:0:0:0:
184,176,142549,2,0,L|336:176,1,112.666666666667,0|0,0:0|0:0,0:0:0:0:
184,176,142894,1,8,0:0:0:0:
344,144,143124,1,0,0:0:0:0:
440,176,143239,2,0,L|440:320,1,112.666666666667,0|0,0:0|0:0,0:0:0:0:
344,288,143584,6,0,L|216:288,1,112.666666666667,0|0,0:0|0:0,0:0:0:0:
312,288,143929,2,0,L|432:288,1,112.666666666667,0|0,0:0|0:0,0:0:0:0:
304,288,144273,1,8,0:0:0:0:
136,200,144503,1,0,0:0:0:0:
216,200,144618,2,0,L|344:200,1,112.666666666667,0|0,0:0|0:0,0:0:0:0:
216,200,144963,2,0,L|216:352,1,112.666666666667,0|0,0:0|0:0,0:0:0:0:
328,312,145308,2,0,L|448:312,1,112.666666666667,0|0,0:0|0:0,0:0:0:0:
216,312,145653,6,0,B|216:104|216:104|400:104,1,337.999989685059,8|0,0:0|0:0,0:0:0:0:
80,112,146342,6,0,P|80:192|160:200,1,135.199995874024,0|0,0:0|0:0,0:0:0:0:
208,216,146687,2,0,L|352:216,1,135.199995874024,0|0,0:0|0:0,0:0:0:0:
208,168,147032,1,8,0:0:0:0:
376,168,147377,1,0,0:0:0:0:
208,168,147607,1,0,0:0:0:0:
304,168,147722,2,0,P|376:128|384:48,1,135.199995874024,0|0,0:0|0:0,0:0:0:0:
256,72,148067,5,0,0:0:0:0:
184,64,148181,1,0,0:0:0:0:
256,72,148296,1,0,0:0:0:0:
456,96,148411,2,0,L|456:320,1,202.799993811035,8|0,0:0|0:0,0:0:0:0:
168,320,149101,6,0,L|168:160,1,135.199995874024,0|0,0:0|0:0,0:0:0:0:
272,184,149446,1,0,0:0:0:0:
144,184,149676,1,0,0:0:0:0:
272,184,149791,2,0,P|328:136|288:56,1,135.199995874024,8|0,0:0|0:0,0:0:0:0:
224,80,150136,2,0,L|64:80,1,135.199995874024,0|0,0:0|0:0,0:0:0:0:
168,80,150480,2,0,L|328:80,1,135.199995874024,0|0,0:0|0:0,0:0:0:0:
224,80,150825,2,0,P|160:104|152:176,1,135.199995874024,0|0,0:0|0:0,0:0:0:0:
360,168,151170,1,8,0:0:0:0:
64,192,151860,6,0,L|240:192,1,135.199995874024,0|0,0:0|0:0,0:0:0:0:
289,192,152204,2,0,P|313:272|273:280,1,135.199995874024,0|0,0:0|0:0,0:0:0:0:
144,280,152549,1,8,0:0:0:0:
344,136,152894,1,0,0:0:0:0:
232,136,153124,1,0,0:0:0:0:
320,136,153239,6,0,L|480:136,1,135.199995874024,0|0,0:0|0:0,0:0:0:0:
360,136,153584,2,0,L|200:136,1,135.199995874024,0|0,0:0|0:0,0:0:0:0:
360,136,153929,1,8,0:0:0:0:
224,112,154158,1,0,0:0:0:0:
160,112,154273,2,0,L|336:112,1,135.199995874024,0|0,0:0|0:0,0:0:0:0:
80,112,154618,6,0,L|80:312,1,135.199995874024,0|0,0:0|0:0,0:0:0:0:
192,248,154963,2,0,L|352:248,1,135.199995874024,0|0,0:0|0:0,0:0:0:0:
192,248,155308,1,8,0:0:0:0:
328,248,155538,1,0,0:0:0:0:
416,248,155653,2,0,L|416:104,1,135.199995874024,0|0,0:0|0:0,0:0:0:0:
320,112,155998,6,0,L|160:112,1,135.199995874024,0|0,0:0|0:0,0:0:0:0:
104,112,156342,2,0,L|264:112,1,135.199995874024,0|0,0:0|0:0,0:0:0:0:
32,112,156687,1,8,0:0:0:0:
256,216,157377,6,0,B|456:216|456:216|456:16|456:16|256:16|256:16|256:216|256:216|48:216|48:216|48:16|48:16|256:16|256:16|256:264,1,1622.39995048828,2|0,0:0|0:0,0:0:0:0:
168,320,162894,6,0,P|40:256|200:120,1,405.599987622071
344,320,163929,6,0,P|472:256|312:120,1,405.599987622071
88,112,165653,5,0,0:0:0:0:
456,96,167032,6,0,L|456:240,1,135.199995874024,0|0,0:0|0:0,0:0:0:0:
352,240,167377,2,0,L|352:80,1,135.199995874024,2|0,0:0|0:0,0:0:0:0:
456,96,167722,1,0,0:0:0:0:
352,96,167894,1,0,0:0:0:0:
456,96,168067,1,2,0:0:0:0:
48,88,168411,6,0,L|72:232,1,101.399996905518,2|0,0:0|0:0,0:0:0:0:
176,192,168756,2,0,L|200:336,1,101.399996905518,0|0,0:0|0:0,0:0:0:0:
64,184,169101,2,0,L|192:184,1,101.399996905518,2|0,0:0|0:0,0:0:0:0:
64,184,169446,2,0,L|192:184,1,101.399996905518,0|0,0:0|0:0,0:0:0:0:
288,176,169791,6,0,L|264:320,1,101.399996905518,2|0,0:0|0:0,0:0:0:0:
160,280,170136,2,0,L|136:424,1,101.399996905518,0|0,0:0|0:0,0:0:0:0:
256,376,170480,2,0,L|128:376,1,101.399996905518,2|0,0:0|0:0,0:0:0:0:
256,376,170825,2,0,L|128:376,1,101.399996905518,0|0,0:0|0:0,0:0:0:0:
448,360,171170,6,0,L|448:128,1,202.799993811035,2|0,0:0|0:0,0:0:0:0:
256,320,171860,2,0,L|256:88,1,202.799993811035,2|0,0:0|0:0,0:0:0:0:
448,88,172549,6,0,L|320:88,1,101.399996905518,2|0,0:0|0:0,0:0:0:0:
245,88,172894,2,0,L|373:88,1,101.399996905518,0|0,0:0|0:0,0:0:0:0:
448,88,173239,2,0,L|320:88,1,101.399996905518,2|0,0:0|0:0,0:0:0:0:
245,88,173584,2,0,L|373:88,1,101.399996905518,0|0,0:0|0:0,0:0:0:0:
72,96,173929,6,0,L|72:320,1,202.799993811035,2|0,0:0|0:0,0:0:0:0:
256,96,174618,2,0,L|256:336,1,202.799993811035,2|0,0:0|0:0,0:0:0:0:
88,200,175308,5,2,0:0:0:0:
256,196,175653,1,0,0:0:0:0:
424,200,175998,1,2,0:0:0:0:
256,196,176342,1,0,0:0:0:0:
72,200,176687,5,2,0:0:0:0:
256,196,177032,1,0,0:0:0:0:
456,200,177377,1,2,0:0:0:0:
256,196,177721,1,0,0:0:0:0:
32,200,178067,5,2,0:0:0:0:
296,200,178411,1,0,0:0:0:0:
32,200,178756,1,2,0:0:0:0:
440,240,179446,6,0,B|440:120|440:120|272:120|272:120|272:240,1,405.599987622071,0|8,0:0|0:0,0:0:0:0:
440,240,180653,6,0,L|315:237,1,118.299996389771
251,232,180998,1,0,0:0:0:0:
338,240,181141,2,0,P|408:184|329:106,1,219.699993295288,0|8,0:0|0:0,0:0:0:0:
96,184,182032,5,0,0:0:0:0:
216,184,182204,1,0,0:0:0:0:
96,104,182377,1,0,0:0:0:0:
160,104,182492,1,0,0:0:0:0:
288,104,182722,1,0,0:0:0:0:
96,104,182894,1,8,0:0:0:0:
224,104,183067,1,0,0:0:0:0:
160,104,183181,1,0,0:0:0:0:
288,104,183411,1,0,0:0:0:0:
96,104,183584,6,0,L|96:272,1,152.099995358276,0|0,0:0|0:0,0:0:0:0:
96,248,184187,1,0,0:0:0:0:
192,248,184273,2,0,L|192:88,1,126.75,8|0,0:0|0:0,0:0:0:0:
96,248,184618,1,0,0:0:0:0:
392,264,184963,5,2,0:0:0:0:
464,264,185078,1,0,0:0:0:0:
392,208,185164,1,0,0:0:0:0:
312,208,185308,2,0,P|256:152|288:128,1,112.666666666667
392,208,185653,2,0,P|448:152|416:120,1,112.666666666667,8|0,0:0|0:0,0:0:0:0:
328,128,185998,2,0,P|272:104|296:48,1,112.666666666667
400,64,186342,6,0,L|248:64,1,112.666666666667
176,72,186687,2,0,L|176:184,1,112.666666666667
448,272,187032,1,8,0:0:0:0:
240,272,187377,1,0,0:0:0:0:
448,272,187722,6,0,L|304:272,1,135.199995874024,2|0,0:0|0:0,0:0:0:0:
112,232,188067,2,0,L|288:232,1,152.099995358276,0|0,0:0|0:0,0:0:0:0:
168,216,188411,1,8,0:0:0:0:
424,96,188756,2,0,L|424:312,1,202.799993811035,0|0,0:0|0:0,0:0:0:0:
216,304,189331,5,0,0:0:0:0:
304,304,189446,2,0,P|296:208|264:192,1,135.199995874024
184,192,189791,1,8,0:0:0:0:
304,192,189963,1,0,0:0:0:0:
432,192,190136,1,0,0:0:0:0:
304,192,190308,1,0,0:0:0:0:
64,120,190480,6,0,B|64:336|64:336|200:336,1,337.999989685059,6|0,0:0|0:0,0:0:0:0:
304,320,191170,1,8,0:0:0:0:
96,200,191515,2,0,P|40:288|136:344,1,202.799993811035,0|0,0:0|0:0,0:0:0:0:
416,344,192090,5,0,0:0:0:0:
344,344,192204,1,0,0:0:0:0:
272,344,192319,1,0,0:0:0:0:
200,344,192434,1,0,0:0:0:0:
304,344,192549,2,0,P|384:221|297:159,1,281.666666666667,8|0,0:0|0:0,0:0:0:0:
64,272,193239,6,0,L|211:274,1,135.199995874024,6|0,0:0|0:0,0:0:0:0:
424,232,193584,2,0,L|272:232,1,135.199995874024
368,224,193929,1,8,0:0:0:0:
88,96,194273,2,0,L|88:312,1,202.799993811035,0|0,0:0|0:0,0:0:0:0:
243,304,194848,5,0,0:0:0:0:
336,303,194963,2,0,L|336:164,1,135.199995874024
244,197,195308,2,0,B|244:-16|244:-16|361:29|361:29,1,337.999989685059,8|0,0:0|0:0,0:0:0:0:
118,90,195998,6,0,L|257:90,1,135.199995874024,2|0,0:0|0:0,0:0:0:0:
360,28,196342,2,0,L|204:29,1,135.199995874024
130,30,196687,2,0,L|130:181,1,135.199995874024,8|0,0:0|0:0,0:0:0:0:
368,187,197032,2,0,P|386:274|346:282,1,135.199995874024
274,282,197377,6,0,L|139:283,1,135.199995874024
210,282,197722,1,0,0:0:0:0:
40,256,197952,1,0,0:0:0:0:
128,256,198067,2,0,L|128:40,1,202.799993811035,8|0,0:0|0:0,0:0:0:0:
416,32,198756,6,0,L|287:33,1,118.299996389771,2|0,0:0|0:0,0:0:0:0:
160,24,199101,2,0,L|160:176,1,135.199995874024
59,176,199446,2,0,L|208:176,1,135.199995874024,8|0,0:0|0:0,0:0:0:0:
368,152,199791,5,0,0:0:0:0:
432,208,199906,1,0,0:0:0:0:
368,264,200021,1,0,0:0:0:0:
280,264,200136,6,0,P|224:248|208:144,1,135.199995874024
296,160,200480,2,0,P|352:144|376:40,1,135.199995874024
272,64,200825,1,8,0:0:0:0:
48,64,201170,1,0,0:0:0:0:
456,72,201515,6,0,B|456:272|456:272|272:272,1,337.999989685059,6|0,0:0|0:0,0:0:0:0:
232,272,202204,1,8,0:0:0:0:
424,272,202549,2,0,P|336:224|456:144,1,270.399991748047,0|0,0:0|0:0,0:0:0:0:
360,128,203124,5,0,0:0:0:0:
288,128,203239,1,0,0:0:0:0:
360,128,203354,1,0,0:0:0:0:
424,128,203469,1,0,0:0:0:0:
295,96,203584,2,0,P|373:214|270:247,1,281.666666666667,8|0,0:0|0:0,0:0:0:0:
56,336,204273,6,0,L|208:336,1,135.199995874024,6|0,0:0|0:0,0:0:0:0:
280,304,204618,2,0,L|128:304,1,135.199995874024
432,304,204963,2,0,P|456:240|424:160,1,135.199995874024,8|0,0:0|0:0,0:0:0:0:
336,168,205308,6,0,L|16:72,1,270.399991748047
160,88,205883,1,0,0:0:0:0:
248,88,205998,1,0,0:0:0:0:
400,56,206342,2,0,P|448:104|288:192,1,337.999989685059,8|0,0:0|0:0,0:0:0:0:
64,144,207032,6,0,L|64:296,1,135.199995874024,6|0,0:0|0:0,0:0:0:0:
160,240,207377,2,0,P|207:271|135:319,1,135.199995874024
80,336,207722,2,0,L|215:335,1,135.199995874024,8|0,0:0|0:0,0:0:0:0:
472,288,208067,2,0,L|128:216,1,337.999989685059
232,192,208756,1,0,0:0:0:0:
472,48,209015,5,0,0:0:0:0:
376,48,209101,2,0,L|376:240,1,135.199995874024,8|0,0:0|0:0,0:0:0:0:
472,184,209446,1,0,0:0:0:0:
256,192,209676,1,0,0:0:0:0:
176,192,209791,6,0,B|384:192|384:192|384:336,1,337.999989685059,2|0,0:0|0:0,0:0:0:0:
280,320,210480,2,0,P|216:256|264:240,1,135.199995874024,8|0,0:0|0:0,0:0:0:0:
344,232,210825,2,0,B|344:32|344:32|176:32,1,337.999989685059
288,32,211515,2,0,L|432:32,1,135.199995874024
176,32,211860,1,8,0:0:0:0:
176,112,212032,1,0,0:0:0:0:
264,112,212204,1,0,0:0:0:0:
352,112,212377,1,0,0:0:0:0:
88,72,212549,6,0,B|88:272|88:272|272:272,1,337.999989685059,6|0,0:0|0:0,0:0:0:0:
328,272,213238,1,8,0:0:0:0:
88,272,213584,2,0,P|176:224|56:144,1,270.399991748047,0|0,0:0|0:0,0:0:0:0:
152,128,214159,5,0,0:0:0:0:
224,128,214274,1,0,0:0:0:0:
152,128,214389,1,0,0:0:0:0:
88,128,214504,1,0,0:0:0:0:
224,128,214618,2,0,P|128:224|240:352,1,337.999989685059,8|0,0:0|0:0,0:0:0:0:
456,336,215308,6,0,L|304:336,1,135.199995874024,6|0,0:0|0:0,0:0:0:0:
232,304,215653,2,0,L|384:304,1,135.199995874024
80,304,215998,2,0,P|56:240|88:160,1,135.199995874024,8|0,0:0|0:0,0:0:0:0:
176,168,216343,6,0,L|496:72,1,270.399991748047
360,88,216918,1,0,0:0:0:0:
280,88,217033,1,0,0:0:0:0:
104,48,217377,2,0,P|40:88|176:216,1,337.999989685059,8|0,0:0|0:0,0:0:0:0:
448,144,218067,6,0,L|272:144,1,135.199995874024,6|0,0:0|0:0,0:0:0:0:
224,152,218411,2,0,P|184:184|248:232,1,135.199995874024
320,232,218756,2,0,P|384:264|344:352,1,135.199995874024,8|0,0:0|0:0,0:0:0:0:
80,152,219101,2,0,L|416:72,1,337.999989685059
312,66,219791,1,0,0:0:0:0:
136,40,220021,5,0,0:0:0:0:
48,40,220135,2,0,L|48:224,1,135.199995874024,8|0,0:0|0:0,0:0:0:0:
136,176,220480,1,0,0:0:0:0:
312,192,220710,1,0,0:0:0:0:
392,192,220825,2,0,B|184:192|184:192|184:336,1,337.999989685059,2|0,0:0|0:0,0:0:0:0:
288,320,221515,2,0,P|328:256|280:224,1,135.199995874024,8|0,0:0|0:0,0:0:0:0:
184,248,221859,6,0,B|184:48|184:48|336:48,1,337.999989685059
408,48,222549,1,0,0:0:0:0:
232,48,222779,1,0,0:0:0:0:
152,48,222894,2,0,P|96:80|88:176,1,135.199995874024,8|0,0:0|0:0,0:0:0:0:
168,160,223239,2,0,P|224:192|232:288,1,135.199995874024
128,272,223584,5,6,0:0:0:0:
408,280,224618,5,0,0:0:0:0:
128,272,226342,6,0,B|397:262|397:262|395:125|395:125|259:125|259:125|264:264|264:264|128:264|128:264|129:125|129:125,1,946.4,2|0,0:0|0:0,0:0:0:0:
392,96,229101,6,0,P|424:176|296:280,1,270.4,2|2,0:0|0:0,0:0:0:0:
120,96,230136,2,0,P|88:176|216:280,1,270.4,2|0,0:0|0:0,0:0:0:0:
416,272,231860,5,2,0:0:0:0:
120,288,233239,6,0,L|120:192,1,67.6,2|0,0:0|0:0,0:0:0:0:
224,208,233584,2,0,L|224:128,1,67.6,0|0,0:0|0:0,0:0:0:0:
120,120,233929,1,2,0:0:0:0:
224,88,234101,1,0,0:0:0:0:
224,56,234216,1,0,0:0:0:0:
64,56,234618,5,2,0:0:0:0:
328,152,235653,1,2,0:0:0:0:
96,216,237377,1,2,0:0:0:0:
392,288,238756,6,0,L|392:192,1,67.6,2|0,0:0|0:0,0:0:0:0:
288,208,239101,2,0,L|288:128,1,67.6,0|0,0:0|0:0,0:0:0:0:
392,120,239446,1,2,0:0:0:0:
288,88,239618,1,0,0:0:0:0:
288,56,239733,1,0,0:0:0:0:
464,56,240136,5,2,0:0:0:0:
168,96,241170,1,2,0:0:0:0:
400,208,242894,1,2,0:0:0:0:
