osu file format v14

[General]
AudioFilename: audio.mp3
AudioLeadIn: 0
PreviewTime: 68679
Countdown: 0
SampleSet: Soft
StackLeniency: 0.7
Mode: 3
LetterboxInBreaks: 0
SpecialStyle: 0
WidescreenStoryboard: 1

[Editor]
DistanceSpacing: 0.8
BeatDivisor: 4
GridSize: 8
TimelineZoom: 1.1

[Metadata]
Title:Exoplanet (Cut Ver.)
TitleUnicode:Exoplanet (Cut Ver.)
Artist:Creo
ArtistUnicode:Creo
Creator:Ucitysm
Version:Normal
Source:
Tags:mg mappers' guild fa featured artist odyssey ep electronic instrumental complextro dubstep orchestral indoroid tigerinity clemens michael höberth hoberth hoeberth
BeatmapID:3945153
BeatmapSetID:1912509

[Difficulty]
HPDrainRate:7.3
CircleSize:4
OverallDifficulty:7.3
ApproachRate:5
SliderMultiplier:1.4
SliderTickRate:1

[Events]
//Background and Video events
0,0,"odyssey.jpg",0,0
//Break Periods
//Storyboard Layer 0 (Background)
//Storyboard Layer 1 (Fail)
//Storyboard Layer 2 (Pass)
//Storyboard Layer 3 (Foreground)
//Storyboard Layer 4 (Overlay)
//Storyboard Sound Samples
Sample,40928,0,"snare.wav",40
Sample,40928,0,"tom03.wav",100
Sample,74785,0,"tom01.wav",100
Sample,88499,0,"tom01.wav",100

[TimingPoints]
214,428.571428571429,4,2,1,15,1,0
10499,-100.0,4,2,1,20,0,0
12214,-100.0,4,2,1,25,0,0
13928,-100.0,4,2,1,50,0,0
41357,-100.0,4,2,1,40,0,0
55071,-100.0,4,2,1,30,0,0
63642,-100.0,4,2,1,35,0,0
65357,-100.0,4,2,1,45,0,0
67071,-100.0,4,2,1,55,0,0
68785,-100.0,4,2,1,70,0,1
69642,-100.0,4,2,1,70,0,0
70499,-100.0,4,2,1,70,0,1
71356,-100.0,4,2,1,70,0,0
72214,-100.0,4,2,1,70,0,1
74785,-100.0,4,2,1,70,0,0
76499,-100.0,4,2,1,70,0,1
81642,-100.0,4,2,1,70,0,0
82499,-100.0,4,2,1,70,0,1
83356,-100.0,4,2,1,70,0,0
84214,-100.0,4,2,1,70,0,1
85071,-100.0,4,2,1,70,0,0
85928,-100.0,4,2,1,70,0,1
88499,-100.0,4,2,1,70,0,0
90214,-100.0,4,2,1,70,0,1
95356,-100.0,4,2,1,70,0,0
96214,-100.0,4,2,1,40,0,0
109928,-100.0,4,2,1,30,0,0
116785,-100.0,4,2,1,25,0,0
123642,-100.0,4,2,1,20,0,0
130499,-100.0,4,2,1,15,0,0

[HitObjects]
64,192,214,1,0,0:0:0:0:
448,192,214,128,0,3214:0:0:0:0:
192,192,3642,128,0,6642:0:0:0:0:
320,192,7071,128,0,10071:0:0:0:0:
64,192,10499,128,0,12214:0:0:0:70:kick.wav
320,192,11356,1,0,0:0:0:25:snare.wav
448,192,11356,1,0,0:0:0:0:
320,192,12214,128,0,13071:0:0:0:0:
192,192,12642,1,0,0:0:0:70:kick.wav
64,192,13071,1,0,0:0:0:25:snare.wav
448,192,13071,1,0,0:0:0:0:
192,192,13285,1,0,0:0:0:100:tom02.wav
320,192,13392,1,0,0:0:0:100:tom01.wav
448,192,13499,1,0,0:0:0:100:tom03.wav
320,192,13714,1,0,0:0:0:100:tom02.wav
192,192,13821,1,0,0:0:0:100:tom02.wav
64,192,13928,1,0,0:0:0:100:kick.wav
448,192,13928,1,0,0:0:0:70:cymbal.wav
192,192,14356,1,0,0:0:0:0:
320,192,14785,1,0,0:0:0:40:snare.wav
448,192,14785,1,0,0:0:0:0:
192,192,15214,1,0,0:0:0:0:
448,192,15642,1,0,0:0:0:100:kick.wav
64,192,16071,1,0,0:0:0:0:
320,192,16499,1,0,0:0:0:40:snare.wav
448,192,16499,1,0,0:0:0:0:
64,192,16928,1,0,0:0:0:0:
320,192,17356,1,0,0:0:0:100:kick.wav
192,192,17785,1,0,0:0:0:0:
64,192,18214,1,0,0:0:0:40:snare.wav
448,192,18214,1,0,0:0:0:0:
192,192,18642,1,0,0:0:0:0:
320,192,19071,1,0,0:0:0:100:kick.wav
64,192,19499,1,0,0:0:0:0:
320,192,19928,1,0,0:0:0:40:snare.wav
448,192,19928,1,0,0:0:0:0:
64,192,20356,1,0,0:0:0:0:
448,192,20785,1,0,0:0:0:100:kick.wav
192,192,21214,1,0,0:0:0:0:
64,192,21642,1,0,0:0:0:40:snare.wav
320,192,21642,1,0,0:0:0:0:
192,192,22071,1,0,0:0:0:0:
448,192,22499,1,0,0:0:0:100:kick.wav
320,192,22928,1,0,0:0:0:0:
64,192,23356,1,0,0:0:0:40:snare.wav
192,192,23356,1,0,0:0:0:0:
320,192,23785,1,0,0:0:0:0:
448,192,24214,128,0,25499:0:0:0:100:kick.wav
192,192,24642,1,0,0:0:0:0:
64,192,25071,1,0,0:0:0:40:snare.wav
320,192,25071,1,0,0:0:0:0:
192,192,25499,1,0,0:0:0:0:
64,192,25928,128,0,27214:0:0:0:100:kick.wav
320,192,26356,1,0,0:0:0:0:
192,192,26785,1,0,0:0:0:40:snare.wav
448,192,26785,1,0,0:0:0:0:
320,192,27214,1,0,0:0:0:0:
64,192,27642,1,0,0:0:0:100:kick.wav
448,192,27642,128,0,28928:0:0:0:70:cymbal.wav
192,192,28071,1,0,0:0:0:0:
64,192,28499,1,0,0:0:0:40:snare.wav
320,192,28499,1,0,0:0:0:0:
192,192,28928,1,0,0:0:0:0:
448,192,29356,1,0,0:0:0:100:kick.wav
64,192,29785,1,0,0:0:0:0:
320,192,30214,1,0,0:0:0:40:snare.wav
448,192,30214,1,0,0:0:0:0:
64,192,30642,1,0,0:0:0:0:
192,192,30642,128,0,31071:0:0:0:0:
320,192,31071,128,0,32356:0:0:0:100:kick.wav
192,192,31499,1,0,0:0:0:0:
64,192,31928,1,0,0:0:0:40:snare.wav
448,192,31928,1,0,0:0:0:0:
192,192,32356,1,0,0:0:0:0:
320,192,32785,1,0,0:0:0:100:kick.wav
64,192,33214,128,0,33642:0:0:0:0:
192,192,33214,1,0,0:0:0:0:
320,192,33642,1,0,0:0:0:40:snare.wav
448,192,33642,1,0,0:0:0:0:
64,192,34071,1,0,0:0:0:0:
320,192,34499,1,0,0:0:0:100:kick.wav
448,192,34499,128,0,35785:0:0:0:0:
192,192,34928,1,0,0:0:0:0:
64,192,35356,1,0,0:0:0:40:snare.wav
320,192,35356,1,0,0:0:0:0:
192,192,35785,1,0,0:0:0:0:
448,192,36214,1,0,0:0:0:100:kick.wav
64,192,36642,1,0,0:0:0:0:
192,192,37071,1,0,0:0:0:40:snare.wav
448,192,37071,1,0,0:0:0:0:
64,192,37499,128,0,37928:0:0:0:0:
320,192,37499,1,0,0:0:0:0:
448,192,37928,1,0,0:0:0:100:kick.wav
64,192,38356,1,0,0:0:0:100:kick.wav
192,192,38356,128,0,38785:0:0:0:40:snare.wav
64,192,38785,1,0,0:0:0:0:
320,192,38999,128,0,39428:0:0:0:100:kick.wav
448,192,38999,1,0,0:0:0:40:snare.wav
448,192,39428,1,0,0:0:0:0:
64,192,39642,128,0,40071:0:0:0:100:kick.wav
192,192,39642,1,0,0:0:0:40:snare.wav
192,192,40071,1,0,0:0:0:0:
320,192,40285,1,0,0:0:0:100:kick.wav
448,192,40285,128,0,40714:0:0:0:40:snare.wav
192,192,40714,1,0,0:0:0:100:tom02.wav
320,192,40821,1,0,0:0:0:100:tom01.wav
448,192,40928,1,0,0:0:0:100:kick.wav
320,192,41142,1,0,0:0:0:100:tom02.wav
192,192,41249,1,0,0:0:0:100:tom02.wav
64,192,41356,1,0,0:0:0:100:kick.wav
448,192,41356,128,0,42214:0:0:0:70:cymbal.wav
192,192,41785,1,0,0:0:0:0:
192,192,42428,1,0,0:0:0:0:
64,192,43071,1,0,0:0:0:0:
64,192,43714,1,0,0:0:0:0:
320,192,44356,1,0,0:0:0:0:
448,192,44785,128,0,45214:0:0:0:0:
192,192,45214,1,0,0:0:0:0:
192,192,45856,1,0,0:0:0:0:
64,192,46499,1,0,0:0:0:0:
64,192,47142,1,0,0:0:0:0:
448,192,47785,1,0,0:0:0:0:
64,192,48214,1,0,0:0:0:100:kick.wav
448,192,48214,128,0,49071:0:0:0:70:cymbal.wav
192,192,48642,1,0,0:0:0:0:
192,192,49285,1,0,0:0:0:0:
64,192,49928,1,0,0:0:0:0:
64,192,50571,1,0,0:0:0:0:
320,192,51214,1,0,0:0:0:0:
192,192,51642,1,0,0:0:0:100:kick.wav
448,192,52071,1,0,0:0:0:0:
64,192,52499,1,0,0:0:0:40:snare.wav
192,192,52499,1,0,0:0:0:0:
448,192,52714,1,0,0:0:0:0:
192,192,53356,1,0,0:0:0:0:
320,192,53785,1,0,0:0:0:100:kick.wav
192,192,53999,1,0,0:0:0:0:
64,192,54214,1,0,0:0:0:40:snare.wav
448,192,54214,1,0,0:0:0:0:
320,192,54428,1,0,0:0:0:100:tom02.wav
192,192,54535,1,0,0:0:0:100:tom01.wav
64,192,54642,1,0,0:0:0:100:tom03.wav
192,192,54856,1,0,0:0:0:100:tom02.wav
320,192,54964,1,0,0:0:0:100:tom02.wav
64,192,55071,1,0,0:0:0:100:kick.wav
448,192,55071,128,0,58499:0:0:0:70:cymbal.wav
192,192,58499,128,0,60214:0:0:0:0:
64,192,60214,128,0,61928:0:0:0:0:
448,192,61928,128,0,65356:0:0:0:100:kick.wav
192,192,62785,1,0,0:0:0:100:kick.wav
320,192,63642,1,0,0:0:0:100:kick.wav
64,192,64499,1,0,0:0:0:100:kick.wav
192,192,65356,1,0,0:0:0:100:kick.wav
320,192,65785,1,0,0:0:0:100:kick.wav
192,192,66214,1,0,0:0:0:100:kick.wav
320,192,66642,1,0,0:0:0:100:kick.wav
64,192,67071,1,0,0:0:0:100:kick.wav
192,192,67285,1,0,0:0:0:100:kick.wav
320,192,67499,1,0,0:0:0:100:kick.wav
448,192,67714,1,0,0:0:0:100:kick.wav
64,192,67928,1,0,0:0:0:100:kick.wav
192,192,68035,1,0,0:0:0:100:kick.wav
320,192,68142,1,0,0:0:0:100:kick.wav
448,192,68249,1,0,0:0:0:100:kick.wav
64,192,68356,1,0,0:0:0:40:snare.wav
192,192,68356,1,0,0:0:0:0:
64,192,68785,128,0,69642:0:0:0:100:kick.wav
448,192,68785,1,0,0:0:0:70:cymbal.wav
320,192,69214,1,0,0:0:0:0:
192,192,69428,1,0,0:0:0:0:
320,192,69642,1,0,0:0:0:45:snare.wav
448,192,69642,128,0,69856:0:0:0:0:
64,192,69856,128,0,70071:0:0:0:0:
320,192,70071,1,0,0:0:0:0:
448,192,70178,1,0,0:0:0:0:
192,192,70285,1,0,0:0:0:0:
64,192,70392,1,0,0:0:0:0:
448,192,70499,128,0,71356:0:0:0:100:kick.wav
64,192,70928,1,0,0:0:0:0:
320,192,71142,1,0,0:0:0:0:
64,192,71356,1,0,0:0:0:45:snare.wav
192,192,71356,1,0,0:0:0:0:
192,192,71571,1,0,0:0:0:0:
320,192,71785,1,0,0:0:0:0:
320,192,71999,1,0,0:0:0:0:
64,192,72214,1,0,0:0:0:100:kick.wav
448,192,72214,128,0,73928:0:0:0:70:cymbal.wav
64,192,72642,1,0,0:0:0:0:
192,192,72856,1,0,0:0:0:0:
64,192,73071,1,0,0:0:0:45:snare.wav
320,192,73071,1,0,0:0:0:0:
192,192,73499,1,0,0:0:0:0:
320,192,73714,1,0,0:0:0:0:
64,192,73928,128,0,74785:0:0:0:100:kick.wav
448,192,74356,1,0,0:0:0:0:
192,192,74571,1,0,0:0:0:0:
320,192,74785,1,0,0:0:0:100:kick.wav
448,192,74892,1,0,0:0:0:100:tom01.wav
192,192,74999,1,0,0:0:0:100:tom02.wav
64,192,75106,1,0,0:0:0:100:tom02.wav
320,192,75214,1,0,0:0:0:45:snare.wav
448,192,75214,1,0,0:0:0:100:tom01.wav
192,192,75428,1,0,0:0:0:100:tom02.wav
320,192,75535,1,0,0:0:0:100:tom02.wav
448,192,75642,128,0,75856:0:0:0:100:kick.wav
448,192,76071,128,0,76499:0:0:0:0:
192,192,76285,1,0,0:0:0:0:
64,192,76499,128,0,77142:0:0:0:45:snare.wav
320,192,76499,1,0,0:0:0:70:cymbal.wav
320,192,76928,1,0,0:0:0:0:
448,192,77142,1,0,0:0:0:0:
192,192,77356,128,0,77999:0:0:0:100:kick.wav
448,192,77785,1,0,0:0:0:0:
320,192,77999,1,0,0:0:0:0:
64,192,78214,1,0,0:0:0:45:snare.wav
448,192,78214,128,0,78856:0:0:0:0:
320,192,78642,1,0,0:0:0:0:
64,192,78856,1,0,0:0:0:0:
192,192,79071,128,0,79285:0:0:0:100:kick.wav
448,192,79071,1,0,0:0:0:70:cymbal.wav
64,192,79285,1,0,0:0:0:0:
320,192,79392,1,0,0:0:0:0:
192,192,79606,1,0,0:0:0:0:
448,192,79714,1,0,0:0:0:0:
64,192,79928,1,0,0:0:0:45:snare.wav
192,192,79928,1,0,0:0:0:0:
448,192,80142,1,0,0:0:0:0:
192,192,80249,1,0,0:0:0:0:
320,192,80464,1,0,0:0:0:0:
64,192,80571,1,0,0:0:0:0:
448,192,80785,1,0,0:0:0:100:kick.wav
192,192,80999,1,0,0:0:0:0:
320,192,81106,1,0,0:0:0:0:
448,192,81321,1,0,0:0:0:0:
64,192,81428,1,0,0:0:0:0:
320,192,81642,1,0,0:0:0:45:snare.wav
448,192,81642,1,0,0:0:0:100:tom02.wav
64,192,81749,1,0,0:0:0:100:tom02.wav
320,192,81856,1,0,0:0:0:100:tom01.wav
448,192,81964,1,0,0:0:0:100:tom01.wav
192,192,82071,1,0,0:0:0:100:tom02.wav
64,192,82285,1,0,0:0:0:100:tom01.wav
192,192,82392,1,0,0:0:0:100:tom01.wav
320,192,82499,1,0,0:0:0:100:kick.wav
448,192,82499,1,0,0:0:0:70:cymbal.wav
448,192,82714,1,0,0:0:0:0:
64,192,82928,1,0,0:0:0:0:
64,192,83142,1,0,0:0:0:0:
320,192,83356,128,0,83571:0:0:0:45:snare.wav
448,192,83356,1,0,0:0:0:0:
64,192,83571,1,0,0:0:0:0:
320,192,83785,1,0,0:0:0:0:
448,192,83892,1,0,0:0:0:0:
192,192,83999,1,0,0:0:0:0:
64,192,84106,1,0,0:0:0:0:
320,192,84214,128,0,85071:0:0:0:100:kick.wav
64,192,84642,1,0,0:0:0:0:
192,192,84856,1,0,0:0:0:0:
64,192,85071,128,0,85285:0:0:0:45:snare.wav
448,192,85071,1,0,0:0:0:0:
320,192,85285,1,0,0:0:0:100:tom02.wav
192,192,85392,1,0,0:0:0:100:tom02.wav
448,192,85499,128,0,85714:0:0:0:100:tom01.wav
192,192,85714,1,0,0:0:0:100:tom02.wav
320,192,85821,1,0,0:0:0:100:tom02.wav
64,192,85928,128,0,87642:0:0:0:100:kick.wav
448,192,85928,1,0,0:0:0:70:cymbal.wav
320,192,86356,1,0,0:0:0:0:
448,192,86571,1,0,0:0:0:0:
192,192,86785,1,0,0:0:0:45:snare.wav
320,192,86785,1,0,0:0:0:0:
448,192,87214,1,0,0:0:0:0:
192,192,87428,1,0,0:0:0:0:
448,192,87642,128,0,88499:0:0:0:100:kick.wav
64,192,88071,1,0,0:0:0:0:
320,192,88285,1,0,0:0:0:0:
192,192,88499,1,0,0:0:0:100:kick.wav
64,192,88606,1,0,0:0:0:100:tom01.wav
320,192,88714,1,0,0:0:0:100:tom02.wav
448,192,88821,1,0,0:0:0:100:tom02.wav
64,192,88928,1,0,0:0:0:45:snare.wav
192,192,88928,1,0,0:0:0:100:tom01.wav
320,192,89142,1,0,0:0:0:100:tom02.wav
192,192,89249,1,0,0:0:0:100:tom02.wav
64,192,89356,128,0,89571:0:0:0:100:kick.wav
64,192,89785,128,0,90214:0:0:0:0:
320,192,89999,1,0,0:0:0:0:
192,192,90214,1,0,0:0:0:45:snare.wav
448,192,90214,128,0,90856:0:0:0:70:cymbal.wav
192,192,90642,1,0,0:0:0:0:
64,192,90856,1,0,0:0:0:0:
320,192,91071,128,0,91714:0:0:0:100:kick.wav
64,192,91499,1,0,0:0:0:0:
192,192,91714,1,0,0:0:0:0:
64,192,91928,128,0,92571:0:0:0:45:snare.wav
448,192,91928,1,0,0:0:0:0:
192,192,92356,1,0,0:0:0:0:
448,192,92571,1,0,0:0:0:0:
64,192,92785,1,0,0:0:0:100:kick.wav
320,192,92785,128,0,92999:0:0:0:70:cymbal.wav
448,192,92999,1,0,0:0:0:0:
192,192,93106,1,0,0:0:0:0:
320,192,93321,1,0,0:0:0:0:
64,192,93428,1,0,0:0:0:0:
320,192,93642,1,0,0:0:0:45:snare.wav
448,192,93642,1,0,0:0:0:0:
64,192,93856,1,0,0:0:0:0:
320,192,93964,1,0,0:0:0:0:
192,192,94178,1,0,0:0:0:0:
448,192,94285,1,0,0:0:0:0:
64,192,94499,1,0,0:0:0:100:kick.wav
320,192,94714,1,0,0:0:0:0:
192,192,94821,1,0,0:0:0:0:
64,192,95035,1,0,0:0:0:0:
448,192,95142,1,0,0:0:0:0:
64,192,95356,1,0,0:0:0:45:snare.wav
192,192,95356,1,0,0:0:0:100:tom02.wav
448,192,95464,1,0,0:0:0:100:tom02.wav
192,192,95571,1,0,0:0:0:100:tom01.wav
64,192,95678,1,0,0:0:0:100:tom01.wav
320,192,95785,1,0,0:0:0:100:tom02.wav
448,192,95999,1,0,0:0:0:100:tom01.wav
320,192,96106,1,0,0:0:0:100:tom01.wav
192,192,96214,1,0,0:0:0:100:kick.wav
64,192,96642,1,0,0:0:0:0:
64,192,96856,128,0,97071:0:0:0:0:
320,192,97071,1,0,0:0:0:40:snare.wav
448,192,97071,1,0,0:0:0:0:
192,192,97499,1,0,0:0:0:0:
192,192,97714,128,0,97928:0:0:0:0:
64,192,97928,1,0,0:0:0:100:kick.wav
320,192,98356,1,0,0:0:0:0:
320,192,98571,128,0,98785:0:0:0:0:
64,192,98785,1,0,0:0:0:40:snare.wav
448,192,98785,1,0,0:0:0:0:
192,192,98999,1,0,0:0:0:100:tom02.wav
320,192,99106,1,0,0:0:0:100:tom01.wav
448,192,99214,1,0,0:0:0:100:tom03.wav
320,192,99428,1,0,0:0:0:100:tom02.wav
192,192,99535,1,0,0:0:0:100:tom02.wav
64,192,99642,1,0,0:0:0:100:kick.wav
448,192,100071,1,0,0:0:0:0:
448,192,100285,128,0,100499:0:0:0:0:
64,192,100499,1,0,0:0:0:40:snare.wav
320,192,100499,1,0,0:0:0:0:
192,192,100928,1,0,0:0:0:0:
192,192,101142,128,0,101356:0:0:0:0:
320,192,101356,1,0,0:0:0:100:kick.wav
448,192,101785,1,0,0:0:0:0:
448,192,101999,128,0,102214:0:0:0:0:
64,192,102214,1,0,0:0:0:40:snare.wav
320,192,102214,1,0,0:0:0:0:
192,192,102642,1,0,0:0:0:0:
192,192,102856,128,0,103071:0:0:0:0:
448,192,103071,1,0,0:0:0:100:kick.wav
64,192,103499,1,0,0:0:0:0:
64,192,103714,128,0,103928:0:0:0:0:
320,192,103928,1,0,0:0:0:40:snare.wav
448,192,103928,1,0,0:0:0:0:
192,192,104356,1,0,0:0:0:0:
192,192,104571,128,0,104785:0:0:0:0:
64,192,104785,1,0,0:0:0:100:kick.wav
320,192,105214,1,0,0:0:0:0:
320,192,105428,128,0,105642:0:0:0:0:
64,192,105642,1,0,0:0:0:40:snare.wav
448,192,105642,1,0,0:0:0:0:
192,192,105856,1,0,0:0:0:100:tom02.wav
320,192,105964,1,0,0:0:0:100:tom01.wav
448,192,106071,1,0,0:0:0:100:tom03.wav
320,192,106285,1,0,0:0:0:100:tom02.wav
192,192,106392,1,0,0:0:0:100:tom02.wav
64,192,106499,1,0,0:0:0:100:kick.wav
448,192,106928,1,0,0:0:0:0:
448,192,107142,128,0,107356:0:0:0:0:
64,192,107356,1,0,0:0:0:40:snare.wav
320,192,107356,1,0,0:0:0:0:
192,192,107785,1,0,0:0:0:0:
192,192,107999,128,0,108214:0:0:0:0:
320,192,108214,1,0,0:0:0:100:kick.wav
448,192,108642,1,0,0:0:0:0:
448,192,108856,128,0,109071:0:0:0:0:
64,192,109071,1,0,0:0:0:40:snare.wav
320,192,109071,1,0,0:0:0:0:
192,192,109499,1,0,0:0:0:0:
192,192,109714,128,0,109928:0:0:0:0:
448,192,109928,1,0,0:0:0:70:kick.wav
64,192,110356,1,0,0:0:0:0:
64,192,110571,1,0,0:0:0:0:
320,192,110785,1,0,0:0:0:25:snare.wav
448,192,110785,1,0,0:0:0:0:
192,192,111214,1,0,0:0:0:0:
192,192,111428,1,0,0:0:0:0:
64,192,111642,1,0,0:0:0:70:kick.wav
320,192,112071,1,0,0:0:0:0:
320,192,112285,1,0,0:0:0:0:
64,192,112499,1,0,0:0:0:25:snare.wav
448,192,112499,1,0,0:0:0:0:
192,192,112714,1,0,0:0:0:100:tom02.wav
320,192,112821,1,0,0:0:0:100:tom01.wav
448,192,112928,1,0,0:0:0:100:tom03.wav
320,192,113142,1,0,0:0:0:100:tom02.wav
192,192,113249,1,0,0:0:0:100:tom02.wav
64,192,113356,1,0,0:0:0:70:kick.wav
448,192,113785,1,0,0:0:0:0:
448,192,113999,1,0,0:0:0:0:
64,192,114214,1,0,0:0:0:25:snare.wav
320,192,114214,1,0,0:0:0:0:
192,192,114642,1,0,0:0:0:0:
192,192,114856,1,0,0:0:0:0:
320,192,115071,1,0,0:0:0:70:kick.wav
448,192,115499,1,0,0:0:0:0:
448,192,115714,1,0,0:0:0:0:
64,192,115928,1,0,0:0:0:25:snare.wav
320,192,115928,1,0,0:0:0:0:
192,192,116356,1,0,0:0:0:0:
192,192,116571,1,0,0:0:0:0:
448,192,116785,1,0,0:0:0:60:kick.wav
64,192,117214,1,0,0:0:0:0:
64,192,117428,1,0,0:0:0:0:
320,192,117642,1,0,0:0:0:25:snare.wav
448,192,117642,1,0,0:0:0:0:
192,192,118071,1,0,0:0:0:0:
192,192,118285,1,0,0:0:0:0:
64,192,118499,1,0,0:0:0:60:kick.wav
320,192,118928,1,0,0:0:0:0:
320,192,119142,1,0,0:0:0:0:
64,192,119356,1,0,0:0:0:25:snare.wav
448,192,119356,1,0,0:0:0:0:
192,192,119571,1,0,0:0:0:100:tom02.wav
320,192,119678,1,0,0:0:0:100:tom01.wav
448,192,119785,1,0,0:0:0:100:tom03.wav
320,192,119999,1,0,0:0:0:100:tom02.wav
192,192,120106,1,0,0:0:0:100:tom02.wav
64,192,120214,1,0,0:0:0:60:kick.wav
448,192,120642,1,0,0:0:0:0:
448,192,120856,1,0,0:0:0:0:
64,192,121071,1,0,0:0:0:25:snare.wav
320,192,121071,1,0,0:0:0:0:
192,192,121499,1,0,0:0:0:0:
192,192,121714,1,0,0:0:0:0:
320,192,121928,1,0,0:0:0:60:kick.wav
448,192,122356,1,0,0:0:0:0:
448,192,122571,1,0,0:0:0:0:
64,192,122785,1,0,0:0:0:25:snare.wav
320,192,122785,1,0,0:0:0:0:
192,192,123214,1,0,0:0:0:0:
192,192,123428,1,0,0:0:0:0:
448,192,123749,128,0,124392:0:0:0:0:
64,192,124606,128,0,125249:0:0:0:0:
448,192,125464,128,0,126106:0:0:0:0:
64,192,126321,128,0,126964:0:0:0:0:
320,192,127178,128,0,127821:0:0:0:0:
192,192,128035,128,0,128678:0:0:0:0:
320,192,128892,128,0,129535:0:0:0:0:
192,192,129749,128,0,130392:0:0:0:0:
448,192,130606,128,0,131249:0:0:0:0:
64,192,131464,128,0,132106:0:0:0:0:
448,192,132321,128,0,132964:0:0:0:0:
64,192,133178,128,0,133821:0:0:0:0:
320,192,134035,128,0,135535:0:0:0:0:
