osu file format v14

[General]
AudioFilename: audio.mp3
AudioLeadIn: 0
PreviewTime: -1
Countdown: 1
SampleSet: Normal
StackLeniency: 0.7
Mode: 0
LetterboxInBreaks: 0
WidescreenStoryboard: 0

[Editor]
Bookmarks: 83882
DistanceSpacing: 1
BeatDivisor: 4
GridSize: 4
TimelineZoom: 1

[Metadata]
Title:Dimension
TitleUnicode:Dimension
Artist:Creo
ArtistUnicode:Creo
Creator:rexdo206
Version:Dimensions
Source:
Tags:
BeatmapID:2014588
BeatmapSetID:962152

[Difficulty]
HPDrainRate:6
CircleSize:4
OverallDifficulty:5
ApproachRate:10
SliderMultiplier:2.09999990463257
SliderTickRate:1

[Events]
//Background and Video events
//Break Periods
2,80283,83810
//Storyboard Layer 0 (Background)
//Storyboard Layer 1 (Fail)
//Storyboard Layer 2 (Pass)
//Storyboard Layer 3 (Foreground)
//Storyboard Sound Samples

[TimingPoints]
0,521.739130434783,4,1,0,100,1,0
31391,-52.6315789473684,4,1,0,100,0,0
35109,-43.4782608695652,4,1,0,100,0,0
46950,-37.037037037037,4,1,0,100,0,0
47687,-50,4,1,0,100,0,0
49723,-58.8235294117647,4,1,0,100,0,0
54583,-62.5,4,1,0,100,0,0
65623,-55.5555555555556,4,1,0,100,0,0
77342,-66.6666666666667,4,1,0,100,0,0
77702,-55.2486187845304,4,1,0,100,0,0
78242,-49.7512437810945,4,1,0,100,0,0
79273,-55.2486187845304,4,1,0,100,0,0
90923,-76.3358778625954,4,1,0,100,0,0
101882,-70.9219858156028,4,1,0,100,0,0

[HitObjects]
56,238,3521,6,0,B|95:187|95:187|95:186|150:190|150:190|160:157|167:138|167:138|250:165|250:165|262:129|262:129|332:154,1,367.4999833107
326,151,4695,2,0,B|306:200|306:200|249:177,1,104.999995231629
256,192,5217,12,0,8739,0:0:0:0:
256,192,9260,12,0,21391,0:0:0:0:
256,192,22173,12,0,24130,0:0:0:0:
256,192,24391,12,0,25173,0:0:0:0:
256,192,26086,12,0,33782,0:0:0:0:
79,178,34043,6,0,B|128:260|304:271|380:166,1,315
374,103,35086,6,0,P|511:202|346:308,1,398.999989345551
298,302,36000,6,0,B|195:268|143:215|143:215|121:186,1,120.749996819496
256,192,36782,12,0,37173,0:0:0:0:
165,268,37695,5,0,0:0:0:0:
254,174,37826,1,0,0:0:0:0:
165,268,37956,5,0,0:0:0:0:
168,153,38086,1,0,0:0:0:0:
165,268,38217,5,0,0:0:0:0:
77,154,38347,1,0,0:0:0:0:
77,46,38739,5,0,0:0:0:0:
385,236,39000,1,0,0:0:0:0:
232,243,39521,6,0,B|270:169|150:140,1,120.749996819496
192,100,40043,6,0,B|106:155|106:158|106:157|106:157|123:77|123:77|223:60,1,241.500004606247
378,264,40565,6,0,B|247:302|247:302|255:123|255:123|406:124|406:124|392:289|392:289,1,603.749984097481
10,167,42000,2,0,B|181:309|338:312|544:152,1,563.50001074791
107,278,43304,5,0,0:0:0:0:
337,349,43565,1,0,0:0:0:0:
359,243,44086,5,0,0:0:0:0:
359,243,44217,1,0,0:0:0:0:
359,243,44347,1,0,0:0:0:0:
141,81,44608,5,0,0:0:0:0:
141,81,44739,1,0,0:0:0:0:
141,81,44869,1,0,0:0:0:0:
14,248,45391,2,0,P|152:275|297:62,2,402.500007677078
172,333,47217,6,0,P|321:107|95:118,1,485.99998897934
82,249,48000,6,0,L|186:80,7,154.999995231628
75,303,49956,6,0,L|225:185,1,131.749998459816
322,298,50478,2,0,B|155:188|287:49|287:48|364:398|361:394,1,395.249995379448
62,35,51130,5,0,0:0:0:0:
101,55,51260,1,0,0:0:0:0:
161,35,51391,1,0,0:0:0:0:
204,16,51521,1,0,0:0:0:0:
258,20,51652,1,0,0:0:0:0:
291,41,51782,1,0,0:0:0:0:
357,51,51913,1,0,0:0:0:0:
424,37,52043,1,0,0:0:0:0:
475,52,52173,1,0,0:0:0:0:
498,85,52304,1,0,0:0:0:0:
508,135,52434,1,0,0:0:0:0:
506,179,52565,1,0,0:0:0:0:
488,211,52695,1,0,0:0:0:0:
465,249,52826,1,0,0:0:0:0:
414,244,52956,1,0,0:0:0:0:
376,207,53086,1,0,0:0:0:0:
350,166,53217,1,0,0:0:0:0:
308,142,53347,1,0,0:0:0:0:
286,146,53478,1,0,0:0:0:0:
256,181,53608,1,0,0:0:0:0:
244,225,53739,1,0,0:0:0:0:
181,240,53869,1,0,0:0:0:0:
124,195,54000,1,0,0:0:0:0:
73,120,54130,1,0,0:0:0:0:
30,171,54260,1,0,0:0:0:0:
52,241,54652,6,0,B|230:336|261:320|359:202|361:185|352:168|319:157|268:155|175:143|112:114|138:73|290:41|444:84,1,658.74999229908
466,249,56217,5,0,0:0:0:0:
410,270,56347,1,0,0:0:0:0:
352,281,56478,1,0,0:0:0:0:
292,280,56608,1,0,0:0:0:0:
236,261,56739,1,0,0:0:0:0:
226,213,56869,1,0,0:0:0:0:
280,189,57000,1,0,0:0:0:0:
336,171,57130,1,0,0:0:0:0:
370,128,57260,1,0,0:0:0:0:
326,91,57391,1,0,0:0:0:0:
267,81,57521,1,0,0:0:0:0:
208,86,57652,1,0,0:0:0:0:
151,101,57782,1,0,0:0:0:0:
256,192,58826,12,0,59739,0:0:0:0:
76,41,60130,6,0,B|208:28|365:90|427:179|391:217|254:228|99:200|78:138|121:122|143:123|142:124|52:200|104:275|374:317,1,852.499973773957
50,288,61826,6,0,B|188:285|188:285|95:209|95:209|104:28|104:27|13:149,1,464.999985694885
161,59,62869,6,0,B|288:85|170:302|170:302|319:306,1,387.499988079071
421,72,63782,2,0,B|313:67|314:67|326:222|326:222|450:220|450:220|452:350|452:349|210:239,1,697.499978542328
60,242,65869,6,0,P|305:220|381:74,1,418.499974353791
187,87,66652,6,0,L|380:304,1,278.999982902528
105,311,67304,6,0,B|253:280|308:196|35:137|35:138|15:46|15:46|490:56|490:55|282:213|281:213|511:336,1,1115.99993161011
256,192,69260,12,0,72130,0:0:0:0:
108,160,73043,6,0,B|314:160|351:166|351:164|137:245,1,278.999982902528
79,308,73695,6,0,B|175:63|175:63|266:300|266:300|45:188|45:188|395:88|395:87|465:318|465:318|235:186|235:186|471:118,1,1813.49988886643
83,106,76826,6,0,B|406:54|407:53|407:53|486:78,1,278.999982902528
358,61,78260,6,0,B|34:112|33:113|33:113|-45:88,1,278.999982902528
37,113,79043,6,0,B|240:118|240:117|240:116|240:116|195:62|127:29|127:29|368:142|368:142|91:103,1,841.649969612847
256,192,84260,12,0,87521,0:0:0:0:
256,192,87782,12,0,90130,0:0:0:0:
101,197,90913,6,0,P|194:269|398:142,1,355.337495574932
80,86,94304,6,0,B|310:236|508:168|503:147|501:130|494:104|494:104|272:106|77:180|72:97,1,913.724988621254
290,94,99000,6,0,P|168:94|293:259,1,456.862494310627
206,82,99782,2,0,B|210:275|210:275|337:274|337:274|211:274|211:274|208:168|208:168|386:168|386:168|207:168|207:167|211:78|211:78|403:77,1,1116.77498609264
55,20,102260,6,0,B|341:29|432:21|432:20|432:20|366:146|366:146|477:18|477:18|454:235|454:235|43:17|43:17|372:98,1,1693.76236131367
256,192,107347,12,0,110347,0:0:0:0:
52,303,111130,6,0,B|150:275|103:29|103:29|453:35|453:35|453:34,1,592.199942834934
191,77,112565,2,0,B|344:157|195:288|195:288|392:278,1,444.1499571262
256,192,113739,12,0,114260,0:0:0:0:
17,32,114652,6,0,B|299:53|374:195|387:330,1,518.174949980567
139,320,116086,6,0,B|259:96|259:95|259:95|425:324,1,518.174949980567
28,260,117391,6,0,B|253:163|253:162|253:162|352:164|352:164|462:185|462:185|525:252,1,518.174949980567
418,285,118695,5,0,0:0:0:0:
316,331,118956,1,0,0:0:0:0:
233,345,119347,6,0,B|108:302|152:77|152:77|330:76|330:76|330:77|347:200|181:172,1,666.224935689301
39,311,120782,6,0,B|52:22|188:74|188:73|108:190|59:160|59:160|144:300|239:282|263:244|267:191|231:145|196:139|159:186|161:271|224:309|293:303|326:291|372:273|391:111|475:283|493:290|513:280|523:253|505:174|490:151|483:149|474:152|474:151|391:323|391:323|375:150|375:150|519:342,1,1554.5248499417
137,88,123782,2,0,B|129:337|129:337|201:318|262:178|262:178|250:163|135:86|135:86|359:93|359:93|420:98|420:98|405:329|405:329|300:314|300:314|316:137,1,1406.47486423297
70,58,126782,6,0,B|161:95|34:324|34:324|276:326|276:326|170:64|170:63|368:76|368:76|257:315|257:315|490:315|489:315|368:211|455:78|455:77|455:77|540:100|540:100|428:253,1,1850.62482135917
