osu file format v14

[General]
AudioFilename: audio.mp3
AudioLeadIn: 0
PreviewTime: 112512
Countdown: 0
SampleSet: Normal
StackLeniency: 0.7
Mode: 2
LetterboxInBreaks: 0
WidescreenStoryboard: 0

[Editor]
DistanceSpacing: 0.8
BeatDivisor: 4
GridSize: 16
TimelineZoom: 2.4

[Metadata]
Title:Challenger
TitleUnicode:Challenger
Artist:Creo
ArtistUnicode:Creo
Creator:Rocma
Version:Challenge
Source:osu!
Tags:FA Featured Artist wonjae Nelly chickenbible WildOne94 Nemophore EP dance electronic
BeatmapID:2022498
BeatmapSetID:966240

[Difficulty]
HPDrainRate:6
CircleSize:4.2
OverallDifficulty:9.5
ApproachRate:9.5
SliderMultiplier:3.2
SliderTickRate:2

[Events]
//Background and Video events
0,0,"BG.png",0,0
//Break Periods
//Storyboard Layer 0 (Background)
//Storyboard Layer 1 (Fail)
//Storyboard Layer 2 (Pass)
//Storyboard Layer 3 (Foreground)
//Storyboard Sound Samples

[TimingPoints]
130,468.75,4,1,2,40,1,0
7630,-100,4,1,2,50,0,0
11380,-100,4,1,2,70,0,0
13255,-50,4,1,2,70,0,0
13723,-45.4545454545455,4,1,2,70,0,0
14192,-83.3333333333333,4,1,2,70,0,0
15130,-83.3333333333333,4,1,2,80,0,1
15247,-83.3333333333333,4,1,2,80,0,0
45130,-83.3333333333333,4,1,2,60,0,0
48880,-100,4,1,2,50,0,0
60130,-100,4,1,2,70,0,0
75130,-100,4,1,2,50,0,0
82630,-100,4,1,2,55,0,0
97630,-100,4,1,2,40,0,0
107005,-100,4,1,2,50,0,0
108880,-100,4,1,2,60,0,0
110755,-100,4,1,2,70,0,0
112630,-83.3333333333333,4,1,2,90,0,1
157630,-100,4,1,2,50,0,0
165130,-100,4,1,2,30,0,0

[Colours]
Combo1 : 253,222,117
Combo2 : 243,133,133

[HitObjects]
112,288,130,6,0,L|96:192,2,80,2|0|0,0:0|0:0|0:0,0:0:0:0:
256,272,598,1,0,0:0:0:0:
128,224,833,1,0,0:0:0:0:
352,224,1067,1,0,0:0:0:0:
224,176,1302,1,0,0:0:0:0:
352,144,1536,2,0,L|365:65,2,80,2|0|0,0:0|0:0|0:0,0:0:0:0:
272,160,1887,1,0,0:0:0:0:
400,288,2005,6,0,L|416:192,2,80,2|0|0,0:0|0:0|0:0,0:0:0:0:
256,272,2473,1,0,0:0:0:0:
384,224,2708,1,0,0:0:0:0:
160,224,2942,1,2,0:0:0:0:
288,176,3176,2,0,L|301:97,1,80
208,96,3411,2,0,L|195:17,2,80,2|0|0,0:0|0:0|0:0,0:0:0:0:
300,97,3762,1,0,0:0:0:0:
176,160,3880,6,0,L|112:224,2,80,2|0|0,0:0|0:0|0:0,0:0:0:0:
304,144,4348,1,0,0:0:0:0:
176,112,4583,1,0,0:0:0:0:
400,128,4817,1,0,0:0:0:0:
272,96,5051,1,0,0:0:0:0:
400,160,5286,2,0,L|464:224,2,80,2|0|0,0:0|0:0|0:0,0:0:0:0:
320,160,5637,1,0,0:0:0:0:
208,160,5755,6,0,L|144:224,2,80,2|0|0,0:0|0:0|0:0,0:0:0:0:
384,176,6223,5,0,0:0:0:0:
327,232,6340,1,0,0:0:0:0:
270,176,6458,1,0,0:0:0:0:
448,176,6692,6,0,L|384:240,3,80
192,240,7161,1,2,0:0:0:0:
176,144,7630,6,0,L|336:144,1,160,2|0,0:0|0:0,0:0:0:0:
160,176,8098,2,0,L|300:255,1,160
144,208,8567,2,0,L|264:314,1,160
128,240,9036,2,0,L|96:160,2,80,2|0|0,0:0|0:0|0:0,0:0:0:0:
208,224,9387,1,0,0:0:0:0:
336,144,9505,6,0,L|176:144,1,160,2|0,0:0|0:0,0:0:0:0:
352,176,9973,2,0,L|212:255,1,160
368,208,10442,2,0,L|248:314,1,160
384,240,10911,2,0,L|416:160,2,80,2|0|0,0:0|0:0|0:0,0:0:0:0:
304,224,11262,1,0,0:0:0:0:
64,240,11380,6,0,L|48:160,1,80,8|0,0:0|0:0,0:0:0:0:
128,128,11614,1,0,0:0:0:0:
304,80,11848,2,0,L|224:80,3,80,2|0|0|0,0:0|0:0|0:0|0:0,0:0:0:0:
448,240,12317,6,0,L|464:160,1,80,8|0,0:0|0:0,0:0:0:0:
384,128,12551,1,0,0:0:0:0:
208,80,12785,2,0,L|288:80,1,80,2|0,0:0|0:0,0:0:0:0:
192,128,13020,2,0,L|272:128,1,80
464,256,13255,6,0,L|128:256,1,320,8|0,0:0|0:0,0:0:0:0:
480,288,13723,2,0,L|128:288,1,352.000010742188,8|0,0:0|0:0,0:0:0:0:
496,336,14192,6,0,L|400:336,1,95.9999970703126,8|0,0:0|0:0,0:0:0:0:
208,336,14426,2,0,L|320:336,1,95.9999970703126
112,336,14661,2,0,P|17:251|112:160,1,287.999991210938,4|0,0:0|0:0,0:0:0:0:
336,288,15130,5,8,0:0:0:0:
240,272,15247,2,0,L|224:160,1,95.9999970703126
320,128,15481,1,0,0:0:0:0:
128,224,15598,1,8,0:0:0:0:
32,208,15715,2,0,L|16:96,1,95.9999970703126
112,64,15949,1,0,0:0:0:0:
304,48,16067,6,0,L|416:48,1,95.9999970703126,8|0,0:0|0:0,0:0:0:0:
288,96,16301,2,0,L|192:96,1,95.9999970703126,8|8,0:0|0:0,0:0:0:0:
384,176,16536,2,0,L|480:176,1,95.9999970703126,4|0,0:0|0:0,0:0:0:0:
368,176,16770,2,0,L|464:176,1,95.9999970703126,8|8,0:0|0:0,0:0:0:0:
256,304,17005,5,8,0:0:0:0:
352,288,17122,2,0,L|368:176,1,95.9999970703126
272,144,17356,1,0,0:0:0:0:
80,208,17473,1,8,0:0:0:0:
176,192,17590,2,0,L|192:80,1,95.9999970703126
96,48,17824,1,0,0:0:0:0:
288,32,17942,6,0,L|384:32,1,95.9999970703126,8|0,0:0|0:0,0:0:0:0:
272,80,18176,2,0,L|400:80,1,95.9999970703126,4|0,0:0|0:0,0:0:0:0:
144,128,18411,2,0,P|93:225|176:256,1,191.999994140625,8|0,0:0|0:0,0:0:0:0:
464,320,18880,5,8,0:0:0:0:
368,288,18997,2,0,L|381:192,1,95.9999970703126
480,176,19231,1,0,0:0:0:0:
288,224,19348,1,8,0:0:0:0:
192,192,19465,2,0,L|205:96,1,95.9999970703126
304,80,19700,1,0,0:0:0:0:
112,64,19817,6,0,L|16:64,1,95.9999970703126,8|0,0:0|0:0,0:0:0:0:
128,96,20051,2,0,L|240:96,1,95.9999970703126,8|8,0:0|0:0,0:0:0:0:
416,160,20286,2,0,L|304:160,3,95.9999970703126,4|0|8|8,0:0|0:0|0:0|0:0,0:0:0:0:
112,304,20755,5,8,0:0:0:0:
208,272,20872,2,0,L|194:176,1,95.9999970703126
96,160,21106,1,0,0:0:0:0:
288,240,21223,1,8,0:0:0:0:
384,208,21340,2,0,L|370:112,1,95.9999970703126
272,96,21574,1,0,0:0:0:0:
80,64,21692,6,0,L|192:64,3,95.9999970703126,8|0|4|0,0:0|0:0|0:0|0:0,0:0:0:0:
368,96,22161,2,0,L|256:96,1,95.9999970703126,8|0,0:0|0:0,0:0:0:0:
80,144,22395,2,0,L|192:144,1,95.9999970703126
352,288,22630,5,4,0:0:0:0:
240,272,22747,2,0,L|224:176,1,95.9999970703126
336,128,22981,1,0,0:0:0:0:
224,96,23098,1,8,0:0:0:0:
32,64,23333,1,0,0:0:0:0:
368,288,23567,6,0,L|464:288,2,95.9999970703126,0|0|4,0:0|0:0|0:0,0:0:0:0:
256,288,23919,1,0,0:0:0:0:
144,144,24036,2,0,L|256:144,3,95.9999970703126,8|0|0|0,0:0|0:0|0:0|0:0,0:0:0:0:
432,176,24505,6,0,L|416:272,1,95.9999970703126,4|0,0:0|0:0,0:0:0:0:
304,160,24739,2,0,L|288:256,1,95.9999970703126
176,176,24973,1,8,0:0:0:0:
368,192,25208,1,0,0:0:0:0:
64,288,25442,6,0,L|176:288,2,95.9999970703126,0|0|4,0:0|0:0|0:0,0:0:0:0:
256,240,25911,1,8,0:0:0:0:
64,192,26145,2,8,L|80:80,1,95.9999970703126
352,208,26380,6,0,L|336:96,1,95.9999970703126,4|0,0:0|0:0,0:0:0:0:
240,112,26614,1,0,0:0:0:0:
432,112,26848,1,8,0:0:0:0:
240,48,27083,2,0,L|336:48,1,95.9999970703126
128,272,27317,6,0,L|144:160,1,95.9999970703126,2|0,0:0|0:0,0:0:0:0:
256,176,27551,1,4,0:0:0:0:
64,160,27785,2,0,L|80:48,1,95.9999970703126,8|0,0:0|0:0,0:0:0:0:
192,80,28020,2,0,L|96:80,1,95.9999970703126
288,112,28255,6,0,L|416:112,2,95.9999970703126,4|0|0,0:0|0:0|0:0,0:0:0:0:
480,176,28723,2,0,L|352:176,3,95.9999970703126,8|0|0|0,0:0|0:0|0:0|0:0,0:0:0:0:
144,256,29192,6,0,L|128:368,1,95.9999970703126,2|0,0:0|0:0,0:0:0:0:
240,352,29426,2,0,L|368:352,1,95.9999970703126,8|0,0:0|0:0,0:0:0:0:
80,304,29661,2,0,P|21:226|80:176,1,191.999994140625,8|0,0:0|0:0,0:0:0:0:
176,176,30012,1,0,0:0:0:0:
448,240,30130,6,0,L|240:240,1,191.999994140625,8|0,0:0|0:0,0:0:0:0:
352,240,30481,1,0,0:0:0:0:
160,240,30598,2,0,P|80:160|144:128,1,191.999994140625,8|0,0:0|0:0,0:0:0:0:
208,112,30950,1,0,0:0:0:0:
416,131,31067,2,0,P|449:211|368:240,1,191.999994140625,8|0,0:0|0:0,0:0:0:0:
272,208,31419,1,0,0:0:0:0:
64,224,31536,2,0,L|192:224,3,95.9999970703126,2|0|0|0,0:0|0:0|0:0|0:0,0:0:0:0:
368,224,32005,6,0,P|320:128|192:112,1,191.999994140625,8|0,0:0|0:0,0:0:0:0:
336,80,32356,1,0,0:0:0:0:
128,128,32473,2,0,P|176:224|256:256,1,191.999994140625,8|0,0:0|0:0,0:0:0:0:
368,272,32825,1,0,0:0:0:0:
160,224,32942,2,0,P|79:255|111:335,1,191.999994140625,8|0,0:0|0:0,0:0:0:0:
208,336,33294,1,0,0:0:0:0:
384,272,33411,2,0,P|441:201|368:144,1,191.999994140625,4|0,0:0|0:0,0:0:0:0:
64,240,33880,6,0,L|272:240,1,191.999994140625,8|0,0:0|0:0,0:0:0:0:
160,240,34231,1,0,0:0:0:0:
352,240,34348,2,0,P|432:160|368:128,1,191.999994140625,8|0,0:0|0:0,0:0:0:0:
304,112,34700,1,0,0:0:0:0:
96,131,34817,2,0,P|63:211|144:240,1,191.999994140625,8|0,0:0|0:0,0:0:0:0:
240,208,35169,1,0,0:0:0:0:
448,224,35286,2,0,L|320:224,3,95.9999970703126,2|0|0|0,0:0|0:0|0:0|0:0,0:0:0:0:
144,224,35755,6,0,P|192:128|320:112,1,191.999994140625,8|0,0:0|0:0,0:0:0:0:
176,80,36106,1,0,0:0:0:0:
384,128,36223,2,0,P|336:224|256:256,1,191.999994140625,8|0,0:0|0:0,0:0:0:0:
144,272,36575,1,0,0:0:0:0:
400,288,36692,5,8,0:0:0:0:
304,256,36809,2,0,L|288:160,1,95.9999970703126,4|0,0:0|0:0,0:0:0:0:
384,112,37044,1,4,0:0:0:0:
192,80,37161,2,0,L|384:80,1,191.999994140625,8|0,0:0|0:0,0:0:0:0:
288,80,37512,1,8,0:0:0:0:
80,320,37630,5,4,0:0:0:0:
167,288,37747,1,0,0:0:0:0:
204,202,37864,1,0,0:0:0:0:
166,117,37981,1,0,0:0:0:0:
80,80,38098,2,0,L|192:80,3,95.9999970703126,8|0|0|0,0:0|0:0|0:0|0:0,0:0:0:0:
368,320,38567,5,2,0:0:0:0:
455,288,38684,1,0,0:0:0:0:
492,202,38801,1,0,0:0:0:0:
454,117,38918,1,0,0:0:0:0:
368,80,39035,2,0,L|240:80,3,95.9999970703126,8|0|0|0,0:0|0:0|0:0|0:0,0:0:0:0:
48,320,39505,5,4,0:0:0:0:
62,225,39622,1,0,0:0:0:0:
170,194,39739,1,0,0:0:0:0:
184,101,39856,1,0,0:0:0:0:
80,96,39973,2,0,L|188:97,1,95.9999970703126,8|0,0:0|0:0,0:0:0:0:
293,90,40208,2,0,L|185:90,1,95.9999970703126
416,336,40442,6,0,L|432:224,1,95.9999970703126,2|0,0:0|0:0,0:0:0:0:
320,208,40676,2,0,L|416:208,1,95.9999970703126
304,160,40911,2,0,L|288:32,1,95.9999970703126,8|0,0:0|0:0,0:0:0:0:
400,32,41145,2,8,L|288:32,1,95.9999970703126
64,320,41380,5,4,0:0:0:0:
153,293,41497,1,0,0:0:0:0:
191,208,41614,1,0,0:0:0:0:
153,123,41731,1,0,0:0:0:0:
64,96,41848,2,0,L|176:96,1,95.9999970703126,8|0,0:0|0:0,0:0:0:0:
272,96,42083,2,0,L|160:96,1,95.9999970703126
368,320,42317,5,2,0:0:0:0:
457,293,42434,1,0,0:0:0:0:
495,208,42551,1,0,0:0:0:0:
457,123,42668,1,0,0:0:0:0:
368,96,42786,2,0,L|464:96,3,95.9999970703126,8|0|0|0,0:0|0:0|0:0|0:0,0:0:0:0:
256,96,43255,5,4,0:0:0:0:
166,116,43372,1,0,0:0:0:0:
126,199,43489,1,0,0:0:0:0:
166,283,43606,1,0,0:0:0:0:
256,96,43723,1,8,0:0:0:0:
346,116,43840,1,0,0:0:0:0:
386,199,43957,1,0,0:0:0:0:
346,283,44074,1,0,0:0:0:0:
256,304,44192,6,0,L|240:192,1,95.9999970703126,2|0,0:0|0:0,0:0:0:0:
352,224,44426,2,0,L|368:112,1,95.9999970703126
256,112,44661,2,0,L|352:112,1,95.9999970703126,8|0,0:0|0:0,0:0:0:0:
240,128,44895,2,0,L|224:240,1,95.9999970703126
448,336,45130,5,2,0:0:0:0:
428,243,45247,1,0,0:0:0:0:
361,176,45364,1,0,0:0:0:0:
268,158,45481,1,0,0:0:0:0:
176,138,45598,1,8,0:0:0:0:
268,158,45715,1,0,0:0:0:0:
335,225,45832,1,0,0:0:0:0:
353,318,45949,1,0,0:0:0:0:
224,336,46067,5,0,0:0:0:0:
137,303,46184,1,0,0:0:0:0:
110,214,46301,1,0,0:0:0:0:
164,139,46418,1,0,0:0:0:0:
257,135,46535,1,8,0:0:0:0:
164,139,46653,1,0,0:0:0:0:
110,214,46770,1,0,0:0:0:0:
137,303,46887,1,0,0:0:0:0:
256,352,47005,5,0,0:0:0:0:
320,285,47122,1,0,0:0:0:0:
304,194,47239,1,0,0:0:0:0:
221,154,47356,1,0,0:0:0:0:
122,287,47473,1,8,0:0:0:0:
58,220,47590,1,0,0:0:0:0:
74,129,47707,1,0,0:0:0:0:
157,89,47824,1,0,0:0:0:0:
272,96,47942,6,0,L|368:96,1,95.9999970703126
256,144,48176,2,0,L|160:144,1,95.9999970703126,8|0,0:0|0:0,0:0:0:0:
272,192,48411,1,8,0:0:0:0:
361,208,48528,1,0,0:0:0:0:
386,295,48645,1,0,0:0:0:0:
319,356,48762,1,0,0:0:0:0:
112,320,48880,5,2,0:0:0:0:
52,273,48997,1,0,0:0:0:0:
68,199,49114,1,0,0:0:0:0:
142,182,49231,1,0,0:0:0:0:
224,176,49348,1,8,0:0:0:0:
284,129,49465,1,0,0:0:0:0:
268,55,49582,1,0,0:0:0:0:
194,38,49699,1,0,0:0:0:0:
112,96,49817,5,0,0:0:0:0:
129,172,49934,1,0,0:0:0:0:
189,224,50051,1,0,0:0:0:0:
267,230,50168,1,0,0:0:0:0:
352,192,50286,1,8,0:0:0:0:
334,268,50403,1,0,0:0:0:0:
274,320,50520,1,0,0:0:0:0:
196,326,50637,1,0,0:0:0:0:
288,352,50755,5,0,0:0:0:0:
362,339,50872,1,0,0:0:0:0:
382,266,50989,1,0,0:0:0:0:
324,218,51106,1,0,0:0:0:0:
240,192,51223,1,8,0:0:0:0:
181,143,51340,1,0,0:0:0:0:
201,70,51457,1,0,0:0:0:0:
276,58,51574,1,0,0:0:0:0:
368,96,51692,6,0,L|448:144,3,80,0|0|8|0,0:0|0:0|0:0|0:0,0:0:0:0:
320,160,52161,2,0,L|256:240,1,80,8|0,0:0|0:0,0:0:0:0:
368,160,52395,2,0,L|432:240,1,80
160,320,52630,6,0,L|144:240,1,80,2|0,0:0|0:0,0:0:0:0:
224,240,52864,2,0,L|240:160,1,80
145,169,53098,2,0,L|61:126,1,80,8|0,0:0|0:0,0:0:0:0:
73,132,53332,2,0,L|144:167,1,80
252,177,53567,6,0,L|268:97,1,80
182,105,53801,2,0,L|166:25,1,80
266,31,54035,2,0,L|353:31,1,80,8|0,0:0|0:0,0:0:0:0:
346,31,54269,2,0,L|266:29,1,80
161,80,54505,5,0,0:0:0:0:
142,161,54622,1,0,0:0:0:0:
232,153,54739,1,0,0:0:0:0:
251,234,54856,1,0,0:0:0:0:
135,193,54973,1,8,0:0:0:0:
64,224,55090,1,0,0:0:0:0:
52,300,55207,1,0,0:0:0:0:
110,351,55324,1,0,0:0:0:0:
224,352,55442,6,0,L|144:352,1,80
240,320,55676,2,0,L|256:224,1,80,8|0,0:0|0:0,0:0:0:0:
128,224,55911,1,8,0:0:0:0:
80,164,56028,1,0,0:0:0:0:
112,95,56145,1,0,0:0:0:0:
188,93,56262,1,0,0:0:0:0:
400,320,56380,5,2,0:0:0:0:
324,302,56497,1,0,0:0:0:0:
291,232,56614,1,0,0:0:0:0:
324,162,56731,1,0,0:0:0:0:
400,320,56848,1,8,0:0:0:0:
324,302,56965,1,0,0:0:0:0:
291,232,57082,1,0,0:0:0:0:
324,162,57199,1,0,0:0:0:0:
416,128,57317,5,0,0:0:0:0:
409,206,57434,1,0,0:0:0:0:
356,264,57551,1,0,0:0:0:0:
279,277,57668,1,0,0:0:0:0:
192,160,57786,1,8,0:0:0:0:
198,238,57903,1,0,0:0:0:0:
251,296,58020,1,0,0:0:0:0:
328,309,58137,1,0,0:0:0:0:
224,336,58255,5,0,0:0:0:0:
153,311,58372,1,0,0:0:0:0:
156,237,58489,1,0,0:0:0:0:
228,218,58606,1,0,0:0:0:0:
336,176,58723,2,0,L|256:176,1,80,8|0,0:0|0:0,0:0:0:0:
160,144,58958,2,0,L|256:144,1,80
352,144,59192,5,0,0:0:0:0:
420,178,59309,1,0,0:0:0:0:
424,254,59426,1,8,0:0:0:0:
361,296,59543,1,0,0:0:0:0:
240,304,59661,2,0,L|320:304,1,80,8|0,0:0|0:0,0:0:0:0:
416,320,59895,2,0,L|336:320,1,80
128,304,60130,6,0,L|32:304,1,80,2|0,0:0|0:0,0:0:0:0:
272,240,60364,2,0,L|352:240,1,80,8|0,0:0|0:0,0:0:0:0:
256,208,60598,2,0,L|176:208,1,80,2|0,0:0|0:0,0:0:0:0:
272,176,60833,2,0,L|288:96,1,80,8|0,0:0|0:0,0:0:0:0:
176,64,61067,5,2,0:0:0:0:
103,86,61184,1,0,0:0:0:0:
89,161,61301,1,8,0:0:0:0:
150,207,61418,1,8,0:0:0:0:
240,224,61536,1,4,0:0:0:0:
160,224,61653,1,0,0:0:0:0:
80,224,61770,1,8,0:0:0:0:
256,288,62005,6,0,L|336:288,1,80,2|0,0:0|0:0,0:0:0:0:
240,240,62239,2,0,L|128:240,1,80,8|0,0:0|0:0,0:0:0:0:
256,192,62473,2,0,L|272:96,1,80,2|0,0:0|0:0,0:0:0:0:
176,144,62708,2,0,L|160:48,1,80,8|0,0:0|0:0,0:0:0:0:
272,64,62942,5,2,0:0:0:0:
346,82,63059,1,0,0:0:0:0:
373,154,63176,1,8,0:0:0:0:
272,192,63294,1,8,0:0:0:0:
373,210,63411,1,2,0:0:0:0:
353,286,63528,1,0,0:0:0:0:
295,339,63645,1,8,0:0:0:0:
217,349,63762,1,0,0:0:0:0:
16,320,63880,5,2,0:0:0:0:
92,313,63997,1,0,0:0:0:0:
133,248,64114,1,8,0:0:0:0:
105,176,64231,1,0,0:0:0:0:
16,144,64348,2,0,L|112:144,1,80,2|0,0:0|0:0,0:0:0:0:
192,144,64583,2,0,L|208:240,1,80,8|0,0:0|0:0,0:0:0:0:
96,240,64817,6,0,L|80:352,1,80,2|0,0:0|0:0,0:0:0:0:
176,336,65051,2,8,L|256:336,1,80
160,272,65286,1,4,0:0:0:0:
99,225,65403,1,0,0:0:0:0:
160,176,65520,1,8,0:0:0:0:
320,128,65755,5,2,0:0:0:0:
369,205,65872,1,0,0:0:0:0:
316,264,65989,1,8,0:0:0:0:
241,288,66106,1,0,0:0:0:0:
352,320,66223,2,0,L|448:320,1,80,2|0,0:0|0:0,0:0:0:0:
352,320,66458,2,0,L|256:320,1,80,8|0,0:0|0:0,0:0:0:0:
160,304,66692,5,2,0:0:0:0:
172,228,66809,1,0,0:0:0:0:
243,198,66926,1,8,0:0:0:0:
160,144,67044,1,8,0:0:0:0:
256,96,67161,1,2,0:0:0:0:
329,119,67278,1,0,0:0:0:0:
349,193,67395,1,8,0:0:0:0:
299,251,67512,1,0,0:0:0:0:
64,320,67630,6,0,L|80:224,1,80,2|0,0:0|0:0,0:0:0:0:
160,224,67864,2,0,L|80:224,1,80,8|0,0:0|0:0,0:0:0:0:
192,208,68098,2,0,L|176:112,1,80,2|0,0:0|0:0,0:0:0:0:
96,112,68332,2,0,L|176:112,1,80,8|0,0:0|0:0,0:0:0:0:
288,112,68567,2,0,L|176:112,1,80,2|0,0:0|0:0,0:0:0:0:
128,144,68801,2,8,L|224:144,1,80
128,192,69036,2,0,L|32:192,2,80,4|0|8,0:0|0:0|0:0,0:0:0:0:
448,320,69505,6,0,L|432:224,1,80,2|0,0:0|0:0,0:0:0:0:
352,224,69739,2,0,L|432:224,1,80,8|0,0:0|0:0,0:0:0:0:
320,208,69973,2,0,L|336:112,1,80,2|0,0:0|0:0,0:0:0:0:
416,112,70207,2,0,L|336:112,1,80,8|0,0:0|0:0,0:0:0:0:
224,112,70442,6,0,L|240:208,1,80,2|0,0:0|0:0,0:0:0:0:
320,224,70676,2,8,L|224:224,1,80
336,288,70911,1,2,0:0:0:0:
406,256,71028,1,0,0:0:0:0:
418,180,71145,1,8,0:0:0:0:
362,128,71262,1,0,0:0:0:0:
96,128,71380,5,2,0:0:0:0:
88,207,71497,1,0,0:0:0:0:
81,287,71614,1,8,0:0:0:0:
160,288,71731,1,0,0:0:0:0:
256,176,71848,1,2,0:0:0:0:
263,255,71965,1,0,0:0:0:0:
270,335,72082,1,8,0:0:0:0:
192,336,72199,1,0,0:0:0:0:
304,336,72317,5,2,0:0:0:0:
296,256,72434,1,0,0:0:0:0:
288,176,72551,1,8,0:0:0:0:
208,176,72669,1,8,0:0:0:0:
112,128,72786,2,0,L|208:128,2,80,4|0|8,0:0|0:0|0:0,0:0:0:0:
416,192,73255,6,0,L|400:288,1,80,4|0,0:0|0:0,0:0:0:0:
208,224,73489,2,0,L|192:320,1,80,8|0,0:0|0:0,0:0:0:0:
400,304,73723,2,0,L|496:304,1,80,4|0,0:0|0:0,0:0:0:0:
400,304,73958,2,0,L|304:304,1,80,8|8,0:0|0:0,0:0:0:0:
224,304,74192,5,4,0:0:0:0:
161,261,74309,1,0,0:0:0:0:
179,188,74426,1,8,0:0:0:0:
253,178,74543,1,8,0:0:0:0:
352,144,74661,2,0,L|256:144,3,80,4|0|8|0,0:0|0:0|0:0|0:0,0:0:0:0:
48,160,75130,5,0,0:0:0:0:
64,240,75247,2,0,L|160:240,1,80,2|0,0:0|0:0,0:0:0:0:
224,240,75482,2,0,L|240:48,1,160,0|2,0:0|0:0,0:0:0:0:
317,80,75833,1,0,0:0:0:0:
398,83,75951,2,0,L|411:242,1,160,0|2,0:0|0:0,0:0:0:0:
331,79,76302,1,0,0:0:0:0:
251,79,76419,2,0,L|237:238,1,160,0|2,0:0|0:0,0:0:0:0:
320,256,76771,1,2,0:0:0:0:
240,240,76888,1,0,0:0:0:0:
448,240,77123,6,0,L|352:240,1,80,2|0,0:0|0:0,0:0:0:0:
288,240,77357,2,0,L|272:48,1,160,0|2,0:0|0:0,0:0:0:0:
195,80,77708,1,0,0:0:0:0:
114,83,77826,2,0,L|101:242,1,160,0|2,0:0|0:0,0:0:0:0:
181,79,78177,1,0,0:0:0:0:
261,79,78294,2,0,L|288:256,1,160,0|2,0:0|0:0,0:0:0:0:
205,237,78645,2,0,L|285:237,1,80
112,272,78997,6,0,L|32:272,2,80,2|0|0,0:0|0:0|0:0,0:0:0:0:
256,192,79465,2,0,L|176:192,2,80,2|0|0,0:0|0:0|0:0,0:0:0:0:
400,272,79934,2,0,L|480:272,2,80,2|0|0,0:0|0:0|0:0,0:0:0:0:
256,192,80403,2,0,L|336:192,2,80,2|2|0,0:0|0:0|0:0,0:0:0:0:
432,160,80872,6,0,L|448:64,1,80,2|0,0:0|0:0,0:0:0:0:
352,64,81106,1,0,0:0:0:0:
176,80,81340,1,2,0:0:0:0:
256,80,81457,1,0,0:0:0:0:
336,80,81574,1,0,0:0:0:0:
160,64,81809,1,2,0:0:0:0:
66,81,81926,2,0,L|80:160,1,80
368,144,82161,6,0,P|416:224|350:367,1,240,4|0,0:0|0:0,0:0:0:0:
128,288,82630,6,0,L|304:288,1,160,4|8,0:0|0:0,0:0:0:0:
208,288,82981,1,8,0:0:0:0:
384,240,83098,1,4,0:0:0:0:
192,176,83333,1,4,0:0:0:0:
496,256,83567,6,0,L|320:256,1,160,4|8,0:0|0:0,0:0:0:0:
416,256,83918,1,8,0:0:0:0:
240,208,84035,1,4,0:0:0:0:
432,144,84270,1,4,0:0:0:0:
112,304,84505,6,0,L|96:144,1,160,4|8,0:0|0:0,0:0:0:0:
192,128,84856,1,8,0:0:0:0:
16,112,84973,1,4,0:0:0:0:
192,64,85208,1,4,0:0:0:0:
496,112,85442,1,8,0:0:0:0:
320,64,85677,1,4,0:0:0:0:
16,208,85911,2,0,L|96:208,2,80,8|0|8,0:0|0:0|0:0,0:0:0:0:
320,256,86380,6,0,L|480:256,1,160,4|8,0:0|0:0,0:0:0:0:
400,208,86731,1,8,0:0:0:0:
224,144,86848,1,4,0:0:0:0:
416,112,87083,1,4,0:0:0:0:
112,224,87317,6,0,L|272:224,1,160,4|8,0:0|0:0,0:0:0:0:
192,224,87668,1,8,0:0:0:0:
16,192,87786,1,4,0:0:0:0:
208,144,88020,2,0,L|304:144,1,80,4|0,0:0|0:0,0:0:0:0:
112,272,88255,6,0,P|43:235|31:159,1,160,8|4,0:0|0:0,0:0:0:0:
368,192,88723,2,0,P|336:288|272:304,1,160,8|4,0:0|0:0,0:0:0:0:
208,304,89074,1,4,0:0:0:0:
32,256,89192,2,0,L|192:256,1,160,8|4,0:0|0:0,0:0:0:0:
112,256,89544,1,4,0:0:0:0:
288,256,89661,2,0,P|368:224|448:176,1,160,8|0,0:0|0:0,0:0:0:0:
112,224,90130,6,0,L|96:128,2,80,8|0|0,0:0|0:0|0:0,0:0:0:0:
208,224,90481,1,8,0:0:0:0:
384,192,90598,2,0,L|288:192,3,80,8|0|8|8,0:0|0:0|0:0|0:0,0:0:0:0:
112,240,91067,6,0,L|208:240,3,80,8|0|0|8,0:0|0:0|0:0|0:0,0:0:0:0:
368,208,91536,1,8,0:0:0:0:
288,208,91653,1,8,0:0:0:0:
208,208,91770,1,8,0:0:0:0:
288,208,91887,1,0,0:0:0:0:
480,288,92005,5,8,0:0:0:0:
459,211,92122,1,0,0:0:0:0:
408,150,92239,1,0,0:0:0:0:
304,128,92356,1,8,0:0:0:0:
128,112,92473,2,0,L|224:112,3,80,8|0|8|8,0:0|0:0|0:0|0:0,0:0:0:0:
384,112,92942,6,0,L|288:112,3,80,8|0|8|0,0:0|0:0|0:0|0:0,0:0:0:0:
128,160,93411,1,8,0:0:0:0:
199,206,93528,1,8,0:0:0:0:
199,283,93645,1,8,0:0:0:0:
127,326,93762,1,0,0:0:0:0:
304,336,93880,6,0,L|400:336,1,80,8|0,0:0|0:0,0:0:0:0:
288,304,94114,2,0,L|272:224,1,80,0|8,0:0|0:0,0:0:0:0:
448,208,94348,2,0,L|432:129,1,80,8|0,0:0|0:0,0:0:0:0:
336,97,94583,2,8,L|416:97,1,80
208,336,94817,6,0,L|112:336,1,80,8|0,0:0|0:0,0:0:0:0:
224,304,95051,2,0,L|240:224,1,80,0|8,0:0|0:0,0:0:0:0:
64,208,95285,2,8,L|160:208,2,80
416,240,95755,5,2,0:0:0:0:
96,240,95989,2,0,P|64:176|208:96,1,240,8|0,0:0|0:0,0:0:0:0:
240,96,96458,1,0,0:0:0:0:
172,80,96575,1,0,0:0:0:0:
256,144,96692,1,2,0:0:0:0:
330,162,96809,1,0,0:0:0:0:
358,234,96926,1,0,0:0:0:0:
315,298,97043,1,0,0:0:0:0:
224,144,97161,1,2,0:0:0:0:
149,162,97278,1,0,0:0:0:0:
121,234,97395,1,0,0:0:0:0:
164,298,97512,1,0,0:0:0:0:
368,320,97630,5,2,0:0:0:0:
320,128,98567,1,0,0:0:0:0:
128,96,99505,1,0,0:0:0:0:
320,144,99973,2,0,L|336:304,1,160
224,320,100442,1,0,0:0:0:0:
64,160,100911,2,0,L|80:320,1,160
224,336,101380,5,0,0:0:0:0:
384,256,102786,1,0,0:0:0:0:
224,192,103255,1,0,0:0:0:0:
256,192,103489,12,2,104661,0:0:0:0:
144,320,105130,6,0,P|64:272|48:192,1,160,2|0,0:0|0:0,0:0:0:0:
160,288,105598,2,0,P|80:240|64:160,1,160
176,256,106067,6,0,P|256:208|272:128,1,160
160,224,106535,2,0,P|240:176|256:96,1,160
449,179,107005,6,0,P|421:252|352:288,1,160,2|0,0:0|0:0,0:0:0:0:
465,211,107473,2,0,P|437:284|368:320,1,160
254,115,107942,6,0,P|282:188|352:224,1,160
238,147,108411,2,0,P|266:220|336:256,1,160
176,320,108880,6,0,L|16:320,1,160,2|0,0:0|0:0,0:0:0:0:
192,288,109348,2,0,B|272:288|272:288|176:288,1,160,8|0,0:0|0:0,0:0:0:0:
336,320,109817,6,0,L|496:320,1,160
320,288,110285,2,0,B|240:288|240:288|336:288,1,160,8|0,0:0|0:0,0:0:0:0:
16,256,110755,6,0,L|192:256,1,160,2|0,0:0|0:0,0:0:0:0:
496,256,111223,2,0,L|320:256,1,160,8|0,0:0|0:0,0:0:0:0:
32,272,111692,2,0,L|128:272,1,80,8|0,0:0|0:0,0:0:0:0:
304,272,111926,2,0,L|208:272,1,80,8|0,0:0|0:0,0:0:0:0:
416,272,112161,1,8,0:0:0:0:
96,304,112630,6,0,P|128:224|240:192,1,191.999994140625,8|0,0:0|0:0,0:0:0:0:
320,192,112981,1,4,0:0:0:0:
128,144,113098,2,0,L|32:144,1,95.9999970703126,8|0,0:0|0:0,0:0:0:0:
144,208,113333,2,0,L|272:208,1,95.9999970703126,4|0,0:0|0:0,0:0:0:0:
448,320,113567,6,0,P|392:242|464:224,1,191.999994140625,8|4,0:0|0:0,0:0:0:0:
368,192,113919,1,0,0:0:0:0:
160,144,114036,2,0,L|288:144,1,95.9999970703126,8|0,0:0|0:0,0:0:0:0:
368,96,114270,2,8,L|256:96,1,95.9999970703126
48,320,114505,6,0,L|240:320,1,191.999994140625,8|0,0:0|0:0,0:0:0:0:
144,320,114856,1,4,0:0:0:0:
336,304,114973,2,0,L|448:304,1,95.9999970703126,8|0,0:0|0:0,0:0:0:0:
320,256,115208,2,0,L|144:256,1,95.9999970703126,4|0,0:0|0:0,0:0:0:0:
464,176,115442,6,0,L|224:176,1,191.999994140625,8|8,0:0|0:0,0:0:0:0:
368,176,115794,1,8,0:0:0:0:
112,192,115911,2,0,P|48:112|112:96,1,191.999994140625,4|0,0:0|0:0,0:0:0:0:
464,320,116380,6,0,P|384:208|320:208,1,191.999994140625,8|0,0:0|0:0,0:0:0:0:
432,176,116731,1,4,0:0:0:0:
240,144,116848,2,0,L|144:144,1,95.9999970703126,8|0,0:0|0:0,0:0:0:0:
256,96,117083,2,0,L|368:96,1,95.9999970703126,4|0,0:0|0:0,0:0:0:0:
48,320,117317,6,0,P|192:256|192:176,1,191.999994140625,8|4,0:0|0:0,0:0:0:0:
96,224,117669,1,0,0:0:0:0:
272,176,117786,2,0,L|368:176,1,95.9999970703126,8|0,0:0|0:0,0:0:0:0:
256,144,118020,2,8,L|144:144,1,95.9999970703126
432,304,118255,6,0,L|240:304,1,191.999994140625,8|0,0:0|0:0,0:0:0:0:
336,304,118606,1,4,0:0:0:0:
112,240,118723,2,0,L|240:240,1,95.9999970703126,8|0,0:0|0:0,0:0:0:0:
320,240,118958,2,0,L|432:240,1,95.9999970703126,4|0,0:0|0:0,0:0:0:0:
208,176,119192,6,0,L|0:176,1,191.999994140625,8|8,0:0|0:0,0:0:0:0:
112,176,119544,1,8,0:0:0:0:
320,128,119661,2,0,L|224:128,1,95.9999970703126,2|0,0:0|0:0,0:0:0:0:
128,128,119895,2,0,L|240:128,1,95.9999970703126,2|0,0:0|0:0,0:0:0:0:
416,304,120130,5,4,0:0:0:0:
208,272,120247,2,0,L|224:160,1,95.9999970703126,8|0,0:0|0:0,0:0:0:0:
336,144,120481,1,8,0:0:0:0:
221,176,120598,2,0,L|208:272,1,95.9999970703126,4|0,0:0|0:0,0:0:0:0:
96,224,120833,2,0,L|82:319,1,95.9999970703126,4|0,0:0|0:0,0:0:0:0:
256,320,121067,5,8,0:0:0:0:
432,304,121184,1,12,0:0:0:0:
256,272,121301,2,0,L|240:160,1,95.9999970703126,0|4,0:0|0:0,0:0:0:0:
368,112,121536,2,0,L|381:207,1,95.9999970703126,8|0,0:0|0:0,0:0:0:0:
256,240,121770,2,0,L|240:128,1,95.9999970703126,8|0,0:0|0:0,0:0:0:0:
48,208,122005,6,0,L|144:208,1,95.9999970703126,4|8,0:0|0:0,0:0:0:0:
32,160,122239,2,0,L|160:160,1,95.9999970703126,0|8,0:0|0:0,0:0:0:0:
240,160,122473,2,0,L|256:64,1,95.9999970703126,4|0,0:0|0:0,0:0:0:0:
144,128,122708,2,0,L|128:32,1,95.9999970703126,4|0,0:0|0:0,0:0:0:0:
320,256,122942,6,0,L|416:256,1,95.9999970703126,8|4,0:0|0:0,0:0:0:0:
304,208,123176,2,0,L|400:208,1,95.9999970703126,0|4,0:0|0:0,0:0:0:0:
288,160,123410,2,0,L|304:64,1,95.9999970703126,8|0,0:0|0:0,0:0:0:0:
416,128,123645,2,8,L|400:32,1,95.9999970703126
112,304,123880,5,4,0:0:0:0:
202,283,123997,1,0,0:0:0:0:
242,199,124114,1,0,0:0:0:0:
201,116,124231,1,4,0:0:0:0:
111,96,124348,1,8,0:0:0:0:
208,64,124465,1,0,0:0:0:0:
111,96,124583,1,8,0:0:0:0:
208,64,124700,1,0,0:0:0:0:
432,288,124817,5,4,0:0:0:0:
341,267,124934,1,0,0:0:0:0:
301,183,125051,1,0,0:0:0:0:
342,100,125168,1,4,0:0:0:0:
432,80,125285,1,8,0:0:0:0:
336,48,125402,1,0,0:0:0:0:
432,80,125520,1,8,0:0:0:0:
336,48,125637,1,0,0:0:0:0:
64,288,125755,6,0,L|80:192,1,95.9999970703126,4|0,0:0|0:0,0:0:0:0:
192,176,125989,2,0,L|96:176,1,95.9999970703126,8|0,0:0|0:0,0:0:0:0:
208,160,126223,2,0,L|224:64,1,95.9999970703126,8|0,0:0|0:0,0:0:0:0:
112,32,126457,2,0,L|208:32,1,95.9999970703126,0|8,0:0|0:0,0:0:0:0:
448,288,126692,6,0,L|336:288,2,95.9999970703126,4|0|0,0:0|0:0|0:0,0:0:0:0:
464,192,127044,1,0,0:0:0:0:
240,160,127161,2,0,L|352:160,1,95.9999970703126,4|0,0:0|0:0,0:0:0:0:
448,112,127395,2,8,L|336:112,1,95.9999970703126
64,224,127630,6,0,L|256:224,1,191.999994140625,8|0,0:0|0:0,0:0:0:0:
160,224,127981,1,4,0:0:0:0:
352,176,128098,2,0,L|480:176,3,95.9999970703126,8|0|4|0,0:0|0:0|0:0|0:0,0:0:0:0:
208,176,128567,6,0,P|112:224|96:320,1,191.999994140625,8|4,0:0|0:0,0:0:0:0:
192,304,128919,1,0,0:0:0:0:
400,256,129036,2,0,L|304:256,3,95.9999970703126,8|0|8|8,0:0|0:0|0:0|0:0,0:0:0:0:
496,336,129505,6,0,P|448:240|320:224,1,191.999994140625,8|0,0:0|0:0,0:0:0:0:
272,208,129856,1,4,0:0:0:0:
80,208,129973,2,0,L|176:208,3,95.9999970703126,8|0|4|0,0:0|0:0|0:0|0:0,0:0:0:0:
368,160,130442,6,0,L|160:160,1,191.999994140625,8|4,0:0|0:0,0:0:0:0:
272,160,130794,1,0,0:0:0:0:
32,272,130911,2,0,P|48:160|128:144,1,191.999994140625,8|0,0:0|0:0,0:0:0:0:
464,128,131380,6,0,L|208:128,1,191.999994140625,8|0,0:0|0:0,0:0:0:0:
368,128,131731,1,4,0:0:0:0:
176,176,131848,2,0,L|64:176,3,95.9999970703126,8|0|4|0,0:0|0:0|0:0|0:0,0:0:0:0:
288,240,132317,6,0,L|480:240,1,191.999994140625,8|4,0:0|0:0,0:0:0:0:
384,240,132669,1,0,0:0:0:0:
160,320,132786,2,0,L|256:320,3,95.9999970703126,8|0|8|8,0:0|0:0|0:0|0:0,0:0:0:0:
48,304,133255,6,0,P|64:208|144:176,1,191.999994140625,8|0,0:0|0:0,0:0:0:0:
256,176,133606,1,4,0:0:0:0:
464,144,133723,2,0,L|336:144,3,95.9999970703126,8|0|4|0,0:0|0:0|0:0|0:0,0:0:0:0:
160,208,134192,6,0,L|272:208,1,95.9999970703126,8|0,0:0|0:0,0:0:0:0:
144,176,134426,2,0,L|128:64,1,95.9999970703126,4|0,0:0|0:0,0:0:0:0:
352,208,134661,2,0,L|240:208,1,95.9999970703126,2|0,0:0|0:0,0:0:0:0:
368,176,134895,2,0,L|384:64,1,95.9999970703126,2|0,0:0|0:0,0:0:0:0:
80,288,135130,5,4,0:0:0:0:
272,256,135247,2,0,L|256:144,1,95.9999970703126,8|0,0:0|0:0,0:0:0:0:
144,144,135481,1,8,0:0:0:0:
336,96,135598,2,0,L|448:96,1,95.9999970703126,4|0,0:0|0:0,0:0:0:0:
320,64,135833,2,0,L|208:64,1,95.9999970703126,4|0,0:0|0:0,0:0:0:0:
416,272,136067,5,8,0:0:0:0:
208,288,136184,1,4,0:0:0:0:
304,256,136301,2,0,L|320:160,1,95.9999970703126,0|4,0:0|0:0,0:0:0:0:
112,144,136536,2,0,L|224:144,1,95.9999970703126,8|0,0:0|0:0,0:0:0:0:
304,128,136770,2,0,L|208:128,1,95.9999970703126,8|0,0:0|0:0,0:0:0:0:
400,320,137005,6,0,L|464:224,2,95.9999970703126,4|0|4,0:0|0:0|0:0,0:0:0:0:
192,320,137356,1,8,0:0:0:0:
400,224,137473,2,0,L|288:224,1,95.9999970703126,4|0,0:0|0:0,0:0:0:0:
192,192,137708,2,0,L|288:192,1,95.9999970703126,4|0,0:0|0:0,0:0:0:0:
64,304,137942,5,8,0:0:0:0:
74,213,138059,1,0,0:0:0:0:
161,186,138176,1,8,0:0:0:0:
336,144,138294,1,4,0:0:0:0:
160,80,138411,2,0,L|16:80,1,95.9999970703126,8|0,0:0|0:0,0:0:0:0:
176,112,138645,2,8,L|288:112,1,95.9999970703126
480,176,138880,5,4,0:0:0:0:
454,265,138997,1,8,0:0:0:0:
369,301,139114,1,0,0:0:0:0:
480,336,139231,1,8,0:0:0:0:
368,240,139348,2,0,L|352:144,1,95.9999970703126,4|0,0:0|0:0,0:0:0:0:
464,176,139583,2,0,L|448:80,1,95.9999970703126,4|0,0:0|0:0,0:0:0:0:
224,64,139817,5,8,0:0:0:0:
248,152,139934,1,4,0:0:0:0:
336,180,140051,1,0,0:0:0:0:
224,224,140169,1,4,0:0:0:0:
336,272,140286,2,0,L|224:272,1,95.9999970703126,8|0,0:0|0:0,0:0:0:0:
128,224,140520,2,0,L|272:224,1,95.9999970703126,8|0,0:0|0:0,0:0:0:0:
400,224,140755,6,0,L|320:160,2,95.9999970703126,8|0|4,0:0|0:0|0:0,0:0:0:0:
288,224,141106,1,0,0:0:0:0:
112,224,141223,2,0,L|192:160,2,95.9999970703126,8|0|8,0:0|0:0|0:0,0:0:0:0:
224,224,141574,1,8,0:0:0:0:
400,256,141692,5,4,0:0:0:0:
448,177,141809,1,0,0:0:0:0:
411,92,141926,1,4,0:0:0:0:
304,64,142043,1,4,0:0:0:0:
80,80,142161,2,0,L|192:80,2,95.9999970703126,8|0|8,0:0|0:0|0:0,0:0:0:0:
416,320,142630,6,0,P|361:231|416:208,1,191.999994140625,8|0,0:0|0:0,0:0:0:0:
320,176,142981,1,4,0:0:0:0:
144,224,143098,1,8,0:0:0:0:
219,176,143215,1,0,0:0:0:0:
195,89,143332,1,4,0:0:0:0:
106,87,143449,1,0,0:0:0:0:
352,64,143567,6,0,P|304:192|224:208,1,191.999994140625,8|4,0:0|0:0,0:0:0:0:
368,240,143919,1,0,0:0:0:0:
192,320,144036,2,0,L|224:224,1,95.9999970703126,8|0,0:0|0:0,0:0:0:0:
320,192,144270,2,8,L|208:192,1,95.9999970703126
32,208,144505,6,0,L|240:208,1,191.999994140625,8|0,0:0|0:0,0:0:0:0:
128,208,144856,1,4,0:0:0:0:
320,192,144973,2,0,L|208:176,1,95.9999970703126,8|0,0:0|0:0,0:0:0:0:
336,144,145208,2,0,L|352:32,1,95.9999970703126,4|0,0:0|0:0,0:0:0:0:
144,304,145442,6,0,P|176:208|288:192,1,191.999994140625,8|4,0:0|0:0,0:0:0:0:
352,176,145794,1,0,0:0:0:0:
80,240,145911,2,0,P|32:144|96:96,1,191.999994140625,8|0,0:0|0:0,0:0:0:0:
416,96,146380,6,0,L|192:96,1,191.999994140625,8|0,0:0|0:0,0:0:0:0:
320,96,146731,1,4,0:0:0:0:
128,144,146848,2,0,L|32:144,3,95.9999970703126,8|0|4|0,0:0|0:0|0:0|0:0,0:0:0:0:
240,224,147317,6,0,L|432:224,1,191.999994140625,8|4,0:0|0:0,0:0:0:0:
336,224,147668,1,0,0:0:0:0:
112,176,147785,2,0,L|208:176,3,95.9999970703126,8|0|8|8,0:0|0:0|0:0|0:0,0:0:0:0:
416,176,148255,6,0,P|384:304|304:320,1,191.999994140625,8|0,0:0|0:0,0:0:0:0:
224,320,148606,1,4,0:0:0:0:
32,256,148723,2,0,L|160:256,3,95.9999970703126,8|0|4|0,0:0|0:0|0:0|0:0,0:0:0:0:
320,240,149192,6,0,L|336:112,1,95.9999970703126,8|0,0:0|0:0,0:0:0:0:
224,112,149426,2,0,L|336:112,1,95.9999970703126,4|0,0:0|0:0,0:0:0:0:
96,192,149661,2,0,L|80:80,1,95.9999970703126,8|0,0:0|0:0,0:0:0:0:
320,48,149895,2,8,L|224:48,1,95.9999970703126
416,208,150130,5,4,0:0:0:0:
224,288,150247,2,0,L|208:176,1,95.9999970703126,8|0,0:0|0:0,0:0:0:0:
320,176,150481,1,8,0:0:0:0:
112,128,150598,2,0,L|16:128,1,95.9999970703126,4|0,0:0|0:0,0:0:0:0:
240,64,150833,2,0,L|336:64,1,95.9999970703126,4|0,0:0|0:0,0:0:0:0:
128,192,151067,5,8,0:0:0:0:
320,224,151184,1,4,0:0:0:0:
416,256,151301,2,0,L|400:352,1,95.9999970703126,0|4,0:0|0:0,0:0:0:0:
192,336,151536,2,0,L|304:336,1,95.9999970703126,8|0,0:0|0:0,0:0:0:0:
480,320,151770,2,0,L|384:320,1,95.9999970703126,8|0,0:0|0:0,0:0:0:0:
160,288,152005,5,4,0:0:0:0:
256,288,152122,1,0,0:0:0:0:
352,288,152239,1,4,0:0:0:0:
160,224,152356,1,8,0:0:0:0:
352,176,152473,2,0,L|464:176,1,95.9999970703126,4|0,0:0|0:0,0:0:0:0:
240,128,152708,2,0,L|128:128,1,95.9999970703126,4|0,0:0|0:0,0:0:0:0:
336,240,152942,6,0,L|432:240,2,95.9999970703126,8|0|8,0:0|0:0|0:0,0:0:0:0:
144,272,153294,1,4,0:0:0:0:
336,336,153411,2,0,L|224:336,1,95.9999970703126,8|0,0:0|0:0,0:0:0:0:
48,320,153645,2,0,L|176:320,1,95.9999970703126,8|0,0:0|0:0,0:0:0:0:
336,272,153880,5,4,0:0:0:0:
144,208,153997,1,8,0:0:0:0:
240,208,154114,1,0,0:0:0:0:
336,208,154231,1,8,0:0:0:0:
144,144,154348,2,0,L|32:144,1,95.9999970703126,4|0,0:0|0:0,0:0:0:0:
240,80,154583,2,0,L|352:80,1,95.9999970703126,4|0,0:0|0:0,0:0:0:0:
144,224,154817,5,8,0:0:0:0:
336,272,154934,2,0,L|448:272,2,95.9999970703126,4|0|4,0:0|0:0|0:0,0:0:0:0:
144,320,155286,2,0,L|256:320,1,95.9999970703126,8|0,0:0|0:0,0:0:0:0:
432,320,155520,2,0,L|320:320,1,95.9999970703126,8|0,0:0|0:0,0:0:0:0:
32,288,155755,6,0,L|18:192,1,95.9999970703126,4|0,0:0|0:0,0:0:0:0:
208,160,155989,2,0,L|336:160,1,95.9999970703126,8|0,0:0|0:0,0:0:0:0:
480,288,156223,2,0,L|496:176,1,95.9999970703126,8|0,0:0|0:0,0:0:0:0:
304,160,156457,2,8,L|176:160,1,95.9999970703126,8|12,0:0|0:0,0:0:0:0:
400,128,156692,6,0,L|528:128,2,95.9999970703126,8|0|8,0:0|0:0|0:0,0:0:0:0:
288,128,157044,1,4,0:0:0:0:
96,192,157161,2,0,L|208:192,1,95.9999970703126,8|0,0:0|0:0,0:0:0:0:
416,304,157395,2,0,P|448:256|352:160,1,191.999994140625,8|2,0:0|0:0,0:0:0:0:
208,144,157864,5,0,0:0:0:0:
384,192,158098,2,0,L|432:288,2,80,8|0|0,0:0|0:0|0:0,0:0:0:0:
208,240,158567,1,0,0:0:0:0:
384,256,158801,1,0,0:0:0:0:
208,320,159036,1,8,0:0:0:0:
246,250,159153,1,0,0:0:0:0:
285,180,159270,1,0,0:0:0:0:
80,144,159505,6,0,L|32:240,2,80,2|0|0,0:0|0:0|0:0,0:0:0:0:
224,144,159973,2,0,L|272:240,2,80,8|0|0,0:0|0:0|0:0,0:0:0:0:
400,144,160442,6,0,L|448:240,2,80
320,144,160794,1,0,0:0:0:0:
240,144,160911,2,0,L|192:240,2,80,8|0|0,0:0|0:0|0:0,0:0:0:0:
432,160,161380,5,2,0:0:0:0:
256,208,161614,1,0,0:0:0:0:
432,288,161848,1,8,0:0:0:0:
393,218,161965,1,0,0:0:0:0:
354,148,162082,1,0,0:0:0:0:
176,96,162317,5,0,0:0:0:0:
352,144,162551,1,0,0:0:0:0:
176,224,162785,1,8,0:0:0:0:
214,154,162902,1,0,0:0:0:0:
253,84,163019,1,0,0:0:0:0:
416,240,163255,6,0,L|368:144,2,80,2|0|0,0:0|0:0|0:0,0:0:0:0:
256,224,163723,2,0,L|208:128,2,80,8|0|0,0:0|0:0|0:0,0:0:0:0:
96,224,164192,6,0,L|48:128,2,80
192,224,164544,1,0,0:0:0:0:
384,64,164661,2,0,P|448:160|448:240,1,160,8|0,0:0|0:0,0:0:0:0:
384,240,165012,1,0,0:0:0:0:
96,320,165130,6,0,P|198:252|80:144,1,320,2|0,0:0|0:0,0:0:0:0:
224,96,165833,1,0,0:0:0:0:
416,320,166067,6,0,P|314:252|432:144,1,320,2|0,0:0|0:0,0:0:0:0:
288,96,166770,1,0,0:0:0:0:
96,288,167005,6,0,P|43:233|96:192,1,160,2|0,0:0|0:0,0:0:0:0:
256,240,167473,2,0,P|309:185|256:144,1,160
96,144,167942,5,2,0:0:0:0:
256,112,168176,1,0,0:0:0:0:
416,224,168411,2,0,P|469:169|416:128,1,160
256,336,168880,6,0,P|160:272|160:208,1,160,2|0,0:0|0:0,0:0:0:0:
256,336,169348,2,0,P|352:272|352:208,1,160
256,224,169817,6,0,P|284:151|357:124,1,160,2|0,0:0|0:0,0:0:0:0:
458,224,170286,2,0,P|429:151|356:124,1,160
256,112,170755,6,0,P|159:155|256:288,1,320,2|0,0:0|0:0,0:0:0:0:
431,317,171692,1,0,0:0:0:0:
432,320,172044,1,0,0:0:0:0:
336,320,172161,2,0,P|240:250|156:317,1,240,2|0,0:0|0:0,0:0:0:0:
