osu file format v14

[General]
AudioFilename: audio.mp3
AudioLeadIn: 0
PreviewTime: 59995
Countdown: 0
SampleSet: None
StackLeniency: 0.7
Mode: 0
LetterboxInBreaks: 0
WidescreenStoryboard: 0

[Editor]
Bookmarks: 29995,47338,59995,74995,90463
DistanceSpacing: 3
BeatDivisor: 4
GridSize: 4
TimelineZoom: 2.4

[Metadata]
Title:Carnivores
TitleUnicode:Carnivores
Artist:Creo
ArtistUnicode:Creo
Creator:uneskladovae
Version:smth
Source:
Tags:
BeatmapID:1425350
BeatmapSetID:673491

[Difficulty]
HPDrainRate:7
CircleSize:4.8
OverallDifficulty:9
ApproachRate:9.5
SliderMultiplier:1.8
SliderTickRate:1

[Events]
//Background and Video events
0,0,"dangel.jpg",0,0
//Break Periods
2,45195,46738
2,138945,140254
//Storyboard Layer 0 (Background)
//Storyboard Layer 1 (Fail)
//Storyboard Layer 2 (Pass)
//Storyboard Layer 3 (Foreground)
//Storyboard Sound Samples

[TimingPoints]
-5,468.75,4,2,0,50,1,0
29877,-125,4,2,0,50,0,0
44995,-100,4,2,0,50,0,0
58120,-125,4,2,0,50,0,0
59995,-83.3333333333333,4,2,0,50,0,1
71245,-83.3333333333333,4,2,0,50,0,0
74995,-83.3333333333333,4,2,0,50,0,1
86245,-83.3333333333333,4,2,0,50,0,0
90463,-83.3333333333333,4,2,0,50,0,0
119996,-83.3333333333333,4,2,0,50,0,1
131245,-83.3333333333333,4,2,0,50,0,0
134995,-125,4,2,0,50,0,0
150463,-100,4,2,0,50,0,1
163823,-125,4,2,0,50,0,0

[HitObjects]
392,236,29995,6,0,P|320:268|256:248,2,144
160,120,31401,1,0,0:0:0:0:
100,184,31635,2,0,P|156:208|192:204,1,72,2|0,0:0|0:0,0:0:0:0:
328,112,32104,5,0,0:0:0:0:
288,204,32338,1,0,0:0:0:0:
388,188,32573,2,0,P|424:248|372:324,1,144,2|0,0:0|0:0,0:0:0:0:
304,164,33276,2,0,P|276:128|268:92,1,72,2|0,0:0|0:0,0:0:0:0:
240,272,33745,5,0,0:0:0:0:
332,316,33979,1,0,0:0:0:0:
320,216,34213,1,2,0:0:0:0:
416,188,34448,6,0,B|328:84|232:172|232:172|196:100|196:100|128:88|128:88|71:159|152:224|152:224|88:271|88:271|140:320,1,648
236,252,37026,5,2,0:0:0:0:
176,304,37495,2,0,P|252:328|312:280,2,144
112,88,38901,1,0,0:0:0:0:
208,132,39135,2,0,P|280:152|304:144,1,72,2|0,0:0|0:0,0:0:0:0:
144,240,39604,5,0,0:0:0:0:
108,328,39838,1,0,0:0:0:0:
348,276,40073,2,0,P|320:208|360:144,1,144,2|0,0:0|0:0,0:0:0:0:
392,212,40776,2,0,P|328:228|264:156,1,144,2|0,0:0|0:0,0:0:0:0:
220,260,41479,6,0,B|276:304|276:304|232:364|232:364|136:280|136:280|180:140|92:97|92:97|184:64|184:64|228:112|228:112|312:76|352:168,1,792
272,176,44291,1,0,0:0:0:0:
328,240,44526,2,0,P|376:236|420:200,1,72,2|0,0:0|0:0,0:0:0:0:
100,304,44995,1,0,0:0:0:0:
248,200,47338,6,0,L|352:220,1,90,0|2,0:0|0:0,0:0:0:0:
332,92,47807,1,2,0:0:0:0:
120,148,48041,5,0,0:0:0:0:
52,48,48276,1,0,0:0:0:0:
176,36,48510,1,2,0:0:0:0:
52,276,48745,2,0,L|148:300,1,90,2|0,0:0|0:0,0:0:0:0:
260,264,49213,6,0,L|176:200,1,90,0|2,0:0|0:0,0:0:0:0:
404,196,49682,2,0,L|380:292,1,90,2|0,0:0|0:0,0:0:0:0:
284,92,50151,1,0,0:0:0:0:
404,56,50385,1,2,0:0:0:0:
196,228,50620,6,0,L|112:292,1,90,2|0,0:0|0:0,0:0:0:0:
336,252,51088,2,0,L|296:152,1,90,0|2,0:0|0:0,0:0:0:0:
44,92,51557,1,2,0:0:0:0:
152,156,51791,2,0,L|128:256,1,90
372,52,52260,1,2,0:0:0:0:
252,224,52495,6,0,L|344:260,1,90,2|0,0:0|0:0,0:0:0:0:
176,112,52963,2,0,L|84:76,1,90,0|2,0:0|0:0,0:0:0:0:
308,80,53432,1,2,0:0:0:0:
96,244,53666,1,0,0:0:0:0:
220,216,53901,1,0,0:0:0:0:
180,336,54135,2,0,L|272:312,1,90,2|2,0:0|0:0,0:0:0:0:
48,156,54604,1,0,0:0:0:0:
240,56,54838,1,0,0:0:0:0:
172,316,55073,2,0,L|144:224,1,90,2|2,0:0|0:0,0:0:0:0:
392,344,55541,1,0,0:0:0:0:
476,252,55776,1,0,0:0:0:0:
268,200,56010,1,2,0:0:0:0:
364,116,56245,5,2,0:0:0:0:
248,68,56479,1,0,0:0:0:0:
292,280,56713,1,2,0:0:0:0:
412,240,56948,1,0,0:0:0:0:
144,200,57182,1,2,0:0:0:0:
108,320,57416,1,0,0:0:0:0:
52,56,57651,1,2,0:0:0:0:
172,96,57885,1,0,0:0:0:0:
440,56,58120,6,0,P|416:120|336:164,1,144,2|0,0:0|0:0,0:0:0:0:
344,80,59057,6,0,P|280:128|292:208,1,144,2|0,0:0|0:0,0:0:0:0:
124,92,59995,2,0,L|168:212,1,107.999996704102
444,84,60463,2,0,L|324:40,1,107.999996704102
220,324,60932,1,0,0:0:0:0:
360,272,61166,1,0,0:0:0:0:
220,212,61401,6,0,B|352:164|352:164|216:100|288:-8,1,323.999990112305
340,64,62338,1,0,0:0:0:0:
188,112,62573,2,0,B|44:156|44:156|152:208|128:308,1,323.999990112305
44,256,63510,5,0,0:0:0:0:
340,192,63745,2,0,L|376:80,1,107.999996704102
200,216,64213,2,0,L|252:324,1,107.999996704102
40,108,64682,1,0,0:0:0:0:
328,68,64916,5,0,0:0:0:0:
364,72,65034,1,0,0:0:0:0:
400,88,65151,1,0,0:0:0:0:
420,116,65268,1,0,0:0:0:0:
436,148,65385,1,0,0:0:0:0:
432,188,65502,1,0,0:0:0:0:
420,224,65620,2,0,P|336:248|312:280,1,107.999996704102
396,304,66088,5,0,0:0:0:0:
124,196,66323,1,0,0:0:0:0:
272,40,66557,2,0,L|140:60,1,107.999996704102
444,144,67026,1,0,0:0:0:0:
232,340,67260,1,0,0:0:0:0:
192,332,67377,1,0,0:0:0:0:
156,324,67495,2,0,L|28:296,1,107.999996704102
332,228,67963,2,0,L|416:136,1,107.999996704102
256,184,68432,5,0,0:0:0:0:
440,296,68666,1,0,0:0:0:0:
312,120,68901,2,0,B|204:32|204:32|220:152|100:200,1,323.999990112305
116,84,69838,5,0,0:0:0:0:
404,132,70073,1,0,0:0:0:0:
232,260,70307,2,0,L|340:304,1,107.999996704102
156,156,70776,2,0,L|60:240,1,107.999996704102
384,232,71245,2,0,P|408:340|304:376,1,215.999993408203
232,68,72182,6,0,L|156:76,1,53.9999983520508
316,116,72416,2,0,L|392:108,1,53.9999983520508
244,184,72651,1,0,0:0:0:0:
96,148,72885,2,0,B|77:251|77:251|216:224|256:356,1,323.999990112305
144,328,73823,1,0,0:0:0:0:
420,228,74057,2,0,L|456:336,1,107.999996704102
452,40,74526,2,0,L|324:68,1,107.999996704102
316,276,74995,5,0,0:0:0:0:
104,232,75229,1,0,0:0:0:0:
204,196,75463,1,0,0:0:0:0:
304,4,75698,1,0,0:0:0:0:
448,256,75932,1,0,0:0:0:0:
408,252,76049,1,0,0:0:0:0:
372,248,76166,1,0,0:0:0:0:
88,324,76401,2,0,B|200:335|200:335|136:228|236:176|280:180,1,323.999990112305
260,268,77338,5,0,0:0:0:0:
72,44,77573,2,0,L|184:28,1,107.999996704102
116,236,78041,2,0,L|96:124,1,107.999996704102
368,236,78510,5,0,0:0:0:0:
436,372,78745,1,0,0:0:0:0:
196,244,78979,1,0,0:0:0:0:
324,164,79213,1,0,0:0:0:0:
68,204,79448,1,0,0:0:0:0:
8,64,79682,1,0,0:0:0:0:
136,328,79916,5,0,0:0:0:0:
172,324,80034,1,0,0:0:0:0:
208,308,80151,1,0,0:0:0:0:
228,280,80268,1,0,0:0:0:0:
244,248,80385,1,0,0:0:0:0:
240,208,80502,1,0,0:0:0:0:
228,172,80620,2,0,P|144:148|120:116,1,107.999996704102
404,236,81088,5,0,0:0:0:0:
244,60,81323,2,0,L|356:44,1,107.999996704102
148,260,81791,2,0,L|118:152,1,107.999996704102
324,84,82495,5,0,0:0:0:0:
180,44,82729,1,0,0:0:0:0:
292,276,82963,1,0,0:0:0:0:
432,220,83198,1,0,0:0:0:0:
144,188,83432,1,0,0:0:0:0:
68,320,83666,1,0,0:0:0:0:
96,60,83901,1,0,0:0:0:0:
320,188,84135,6,0,L|360:72,1,107.999996704102
208,300,84604,2,0,L|336:328,1,107.999996704102
68,240,85073,1,0,0:0:0:0:
120,100,85307,1,0,0:0:0:0:
368,176,85541,1,0,0:0:0:0:
216,200,85776,1,0,0:0:0:0:
448,84,86010,1,0,0:0:0:0:
384,336,86245,6,0,P|288:256|248:260,1,161.999995056153
259,257,86713,2,0,P|179:161|183:121,1,161.999995056153
180,132,87182,6,0,L|208:132,1,26.9999991760254
152,100,87299,2,0,L|124:100,1,26.9999991760254
188,80,87416,2,0,L|215:79,1,26.9999991760254
152,56,87534,2,0,L|124:56,1,26.9999991760254
180,36,87651,2,0,B|296:40|296:40|244:132|324:200|408:180,1,323.999990112305
364,96,88588,5,0,0:0:0:0:
140,232,88823,1,0,0:0:0:0:
268,312,89057,2,0,L|292:188,1,107.999996704102
192,92,89526,2,0,L|216:216,1,107.999996704102
436,68,89995,1,0,0:0:0:0:
136,228,90463,6,0,L|248:288,1,107.999996704102
108,92,90932,1,0,0:0:0:0:
92,64,91049,1,0,0:0:0:0:
76,32,91166,1,0,0:0:0:0:
320,120,91401,2,0,B|420:88|420:88|340:176|428:256|476:252,1,323.999990112305
472,160,92338,5,0,0:0:0:0:
220,220,92573,2,0,L|184:112,1,107.999996704102
40,76,93041,1,0,0:0:0:0:
332,68,93276,2,0,L|292:168,1,107.999996704102
320,316,93745,2,0,P|200:304|168:248,1,161.999995056153
179,278,94213,6,0,P|208:224|196:152,1,107.999996704102
360,172,94682,2,0,L|380:228,1,53.9999983520508
388,96,94916,2,0,L|440:64,1,53.9999983520508
308,108,95151,2,0,L|248:76,1,53.9999983520508
272,188,95385,5,0,0:0:0:0:
332,328,95620,1,0,0:0:0:0:
44,260,95854,1,0,0:0:0:0:
176,188,96088,1,0,0:0:0:0:
160,340,96323,1,0,0:0:0:0:
96,56,96557,1,0,0:0:0:0:
240,104,96791,1,0,0:0:0:0:
388,72,97026,1,0,0:0:0:0:
212,304,97260,1,0,0:0:0:0:
312,192,97495,5,0,0:0:0:0:
340,216,97612,1,0,0:0:0:0:
368,236,97729,1,0,0:0:0:0:
396,256,97846,1,0,0:0:0:0:
424,276,97963,2,0,L|312:344,1,107.999996704102
312,72,98432,5,0,0:0:0:0:
348,80,98549,1,0,0:0:0:0:
380,88,98666,1,0,0:0:0:0:
144,196,98901,1,0,0:0:0:0:
220,64,99135,6,0,L|112:28,1,107.999996704102
196,276,99604,1,0,0:0:0:0:
272,144,99838,1,0,0:0:0:0:
300,360,100073,2,0,L|420:320,1,107.999996704102
144,328,100541,1,0,0:0:0:0:
324,208,100776,2,0,P|352:132|300:68,1,161.999995056153
308,71,101245,6,0,P|400:76|432:64,1,107.999996704102
200,72,101713,2,0,P|108:77|76:65,1,107.999996704102
236,236,102182,2,0,L|180:212,1,53.9999983520508
264,312,102416,2,0,L|320:336,1,53.9999983520508
180,304,102651,1,0,0:0:0:0:
320,244,102885,2,0,B|360:140|360:140|264:156|204:96|224:16,1,323.999990112305
308,56,103823,5,0,0:0:0:0:
96,208,104057,1,0,0:0:0:0:
52,64,104291,1,0,0:0:0:0:
236,244,104526,2,0,P|300:312|344:308,1,107.999996704102
324,156,104995,6,0,L|296:100,1,53.9999983520508
392,212,105229,2,0,L|456:224,1,53.9999983520508
312,240,105463,6,0,L|240:324,1,107.999996704102
108,152,105932,1,0,0:0:0:0:
128,120,106049,1,0,0:0:0:0:
148,88,106166,1,0,0:0:0:0:
312,240,106401,1,0,0:0:0:0:
440,68,106635,6,0,L|328:100,1,107.999996704102
424,296,107104,1,0,0:0:0:0:
504,168,107338,1,0,0:0:0:0:
236,280,107573,2,0,L|176:172,1,107.999996704102
136,328,108041,1,0,0:0:0:0:
168,72,108276,2,0,L|324:152,1,161.999995056153
312,145,108745,6,0,P|300:213|308:261,1,107.999996704102
432,168,109213,2,0,P|444:100|436:52,1,107.999996704102
236,224,109682,2,0,L|216:168,1,53.9999983520508
208,300,109916,2,0,L|156:332,1,53.9999983520508
288,288,110151,2,0,L|348:320,1,53.9999983520508
148,232,110385,5,0,0:0:0:0:
64,108,110620,1,0,0:0:0:0:
216,96,110854,1,0,0:0:0:0:
88,320,111088,1,0,0:0:0:0:
332,232,111323,1,0,0:0:0:0:
260,364,111557,1,0,0:0:0:0:
304,76,111791,1,0,0:0:0:0:
440,144,112026,1,0,0:0:0:0:
152,96,112260,1,0,0:0:0:0:
320,292,112495,6,0,L|372:256,1,53.9999983520508
240,264,112729,2,0,L|188:300,1,53.9999983520508
304,208,112963,6,0,L|200:160,1,107.999996704102
460,104,113432,1,0,0:0:0:0:
448,136,113549,1,0,0:0:0:0:
436,168,113666,1,0,0:0:0:0:
160,264,113901,2,0,L|272:296,1,107.999996704102
208,84,114370,5,0,0:0:0:0:
64,44,114604,1,0,0:0:0:0:
252,220,114838,1,0,0:0:0:0:
384,148,115073,2,0,L|328:44,1,107.999996704102
344,312,115541,1,0,0:0:0:0:
112,192,115776,2,0,P|200:160|276:208,1,161.999995056153
258,186,116245,6,0,L|224:72,1,107.999996704102
140,328,116713,2,0,P|236:284|276:288,1,107.999996704102
412,160,117182,2,0,L|436:104,1,53.9999983520508
336,188,117416,2,0,L|312:244,1,53.9999983520508
344,104,117651,5,0,0:0:0:0:
148,192,117885,2,0,L|200:80,1,107.999996704102
268,296,118354,1,0,0:0:0:0:
264,300,118471,1,0,0:0:0:0:
260,304,118588,1,0,0:0:0:0:
52,236,118823,1,0,0:0:0:0:
200,212,119057,1,0,0:0:0:0:
300,20,119291,1,0,0:0:0:0:
424,284,119526,1,0,0:0:0:0:
160,72,119995,6,0,L|288:100,1,107.999996704102
312,304,120463,2,0,L|376:200,1,107.999996704102
108,216,120932,1,0,0:0:0:0:
160,72,121166,1,0,0:0:0:0:
388,200,121401,5,0,0:0:0:0:
356,52,121635,2,0,L|264:112,1,107.999996704102
484,200,122104,1,0,0:0:0:0:
252,312,122338,1,0,0:0:0:0:
116,248,122573,1,0,0:0:0:0:
400,308,122807,1,0,0:0:0:0:
348,176,123041,5,0,0:0:0:0:
484,200,123276,1,0,0:0:0:0:
400,308,123510,1,0,0:0:0:0:
296,36,123745,2,0,L|184:56,1,107.999996704102
260,304,124213,2,0,L|272:188,1,107.999996704102
56,180,124682,1,0,0:0:0:0:
312,168,124916,5,0,0:0:0:0:
304,132,125034,1,0,0:0:0:0:
284,104,125151,1,0,0:0:0:0:
260,76,125268,1,0,0:0:0:0:
292,60,125385,1,0,0:0:0:0:
324,48,125502,1,0,0:0:0:0:
356,36,125620,2,0,P|448:28|492:56,1,107.999996704102
416,288,126088,1,0,0:0:0:0:
220,200,126323,6,0,L|152:296,1,107.999996704102
344,180,126791,1,0,0:0:0:0:
476,108,127026,1,0,0:0:0:0:
192,48,127260,1,0,0:0:0:0:
220,200,127495,6,0,L|100:172,1,107.999996704102
332,316,127963,2,0,L|424:232,1,107.999996704102
152,268,128432,1,0,0:0:0:0:
188,120,128666,1,0,0:0:0:0:
472,48,128901,1,0,0:0:0:0:
372,160,129135,5,0,0:0:0:0:
472,352,129370,1,0,0:0:0:0:
508,204,129604,1,0,0:0:0:0:
268,304,129838,1,0,0:0:0:0:
304,48,130073,1,0,0:0:0:0:
164,104,130307,1,0,0:0:0:0:
388,236,130541,2,0,L|348:348,1,107.999996704102
304,48,131010,6,0,L|404:124,1,107.999996704102
108,192,131713,1,0,0:0:0:0:
364,328,132182,6,0,L|440:320,1,53.9999983520508
280,280,132416,2,0,L|204:288,1,53.9999983520508
352,212,132651,1,0,0:0:0:0:
500,248,132885,2,0,B|519:145|519:145|380:172|340:40,1,323.999990112305
452,68,133823,1,0,0:0:0:0:
176,168,134057,2,0,L|140:60,1,107.999996704102
144,356,134526,2,0,L|272:328,1,107.999996704102
256,192,134995,12,0,138745,0:0:0:0:
216,248,140854,6,0,P|172:160|192:100,2,144
264,168,142260,1,0,0:0:0:0:
400,128,142729,6,0,P|432:200|420:272,1,144
344,208,143666,2,0,P|312:136|324:64,1,144
216,92,144604,6,0,L|132:116,1,81
200,184,145102,2,0,L|284:160,1,81
280,244,145600,6,0,L|312:324,1,81
188,268,146069,2,0,P|144:296|100:296,1,90
380,196,146596,6,0,L|460:228,1,81
368,108,147065,2,0,L|288:76,1,81
128,136,147563,6,0,L|156:220,1,81
304,236,148032,1,0,0:0:0:0:
104,316,148266,1,0,0:0:0:0:
292,332,148471,2,0,L|380:320,1,81
440,248,148969,2,0,L|444:160,1,81
328,136,149467,6,0,L|360:212,1,81
244,112,149936,2,0,L|168:152,1,81
84,260,150463,6,0,L|172:304,1,90
312,144,150932,1,0,0:0:0:0:
340,124,151049,1,0,0:0:0:0:
368,104,151166,1,0,0:0:0:0:
336,316,151401,1,0,0:0:0:0:
224,264,151635,1,0,0:0:0:0:
252,48,151870,1,0,0:0:0:0:
216,60,151987,1,0,0:0:0:0:
184,72,152104,1,0,0:0:0:0:
360,196,152338,6,0,L|424:272,1,90
208,220,152807,2,0,L|292:160,1,90
72,216,153276,1,0,0:0:0:0:
84,248,153393,1,0,0:0:0:0:
96,280,153510,1,0,0:0:0:0:
364,328,153745,2,0,L|256:276,1,112.5
352,88,154272,5,0,0:0:0:0:
388,100,154389,1,0,0:0:0:0:
420,116,154507,1,0,0:0:0:0:
84,152,154799,1,0,0:0:0:0:
204,108,155034,1,0,0:0:0:0:
156,320,155268,1,0,0:0:0:0:
52,244,155502,1,0,0:0:0:0:
312,168,155737,5,0,0:0:0:0:
332,196,155854,1,0,0:0:0:0:
352,224,155970,1,0,0:0:0:0:
452,76,156205,1,0,0:0:0:0:
192,144,156440,2,0,L|128:40,1,112.5
320,224,156967,5,0,0:0:0:0:
168,320,157202,1,0,0:0:0:0:
152,288,157319,1,0,0:0:0:0:
136,256,157436,1,0,0:0:0:0:
380,136,157670,1,0,0:0:0:0:
264,92,157905,2,0,L|288:212,1,112.5
172,148,158432,6,0,L|104:60,1,90
388,68,158901,1,0,0:0:0:0:
488,144,159135,1,0,0:0:0:0:
468,168,159252,1,0,0:0:0:0:
448,200,159370,1,0,0:0:0:0:
172,148,159604,2,0,L|220:256,1,112.5
52,316,160131,5,0,0:0:0:0:
72,192,160366,1,0,0:0:0:0:
324,284,160600,1,0,0:0:0:0:
360,272,160717,1,0,0:0:0:0:
396,260,160834,1,0,0:0:0:0:
296,112,161069,1,0,0:0:0:0:
180,68,161303,1,0,0:0:0:0:
448,40,161537,2,0,L|484:156,1,112.5
308,192,162065,5,0,0:0:0:0:
272,180,162182,1,0,0:0:0:0:
236,168,162300,1,0,0:0:0:0:
88,268,162534,2,0,L|200:300,1,112.5
208,28,163061,2,0,L|96:56,1,112.5
112,236,163588,5,0,0:0:0:0:
148,248,163705,1,0,0:0:0:0:
184,256,163823,2,0,L|284:280,1,90
416,200,164467,5,0,0:0:0:0:
328,148,164702,1,0,0:0:0:0:
440,92,164995,2,0,L|328:52,1,108
136,120,165639,5,0,0:0:0:0:
216,180,165932,5,0,0:0:0:0:
108,244,166225,5,0,0:0:0:0:
272,312,166577,5,0,0:0:0:0:
