osu file format v14

[General]
AudioFilename: audio.mp3
AudioLeadIn: 0
PreviewTime: 63719
Countdown: 0
SampleSet: Soft
StackLeniency: 0.4
Mode: 3
LetterboxInBreaks: 0
SpecialStyle: 0
WidescreenStoryboard: 1

[Editor]
DistanceSpacing: 2
BeatDivisor: 4
GridSize: 4
TimelineZoom: 2.799998

[Metadata]
Title:Daten (TV Size)
TitleUnicode:堕天 (TV Size)
Artist:Creepy Nuts
ArtistUnicode:Creepy Nuts
Creator:Syadow-
Version:Nightfall
Source:よふかしのうた
Tags:by-ad byad SuzumeAyase Stelar Yofukashi no uta Call of the night Anime Opening OP Japanese hip-hop hiphop rap Pop jpop J-Pop
BeatmapID:3849278
BeatmapSetID:1870931

[Difficulty]
HPDrainRate:8.5
CircleSize:4
OverallDifficulty:8.5
ApproachRate:9.2
SliderMultiplier:2.37
SliderTickRate:2

[Events]
//Background and Video events
Video,-150,"video.mp4"
0,0,"ynu.jpg",0,0
//Break Periods
//Storyboard Layer 0 (Background)
//Storyboard Layer 1 (Fail)
//Storyboard Layer 2 (Pass)
//Storyboard Layer 3 (Foreground)
//Storyboard Layer 4 (Overlay)
//Storyboard Sound Samples

[TimingPoints]
644,300,4,2,2,80,1,0
30644,-100,4,2,2,80,0,1
53444,-100,4,2,2,80,0,0
62444,-100,4,2,2,50,0,0
63044,-100,4,2,2,80,0,0
64244,-100,4,2,2,80,0,1
83469,300,4,2,2,80,1,1
85882,300,4,2,2,80,1,1
87082,-100,4,2,2,80,0,0

[HitObjects]
192,192,1394,5,0,0:0:0:0:
320,192,1544,1,0,0:0:0:0:
192,192,1694,1,0,0:0:0:0:
64,192,1844,1,4,0:0:0:0:
320,192,1844,1,2,0:0:0:0:
448,192,1844,1,0,0:0:0:0:
320,192,1994,1,0,0:0:0:0:
64,192,2144,1,8,0:0:0:0:
192,192,2144,1,0,0:0:0:0:
448,192,2144,128,0,2294:0:0:0:0:
192,192,2294,1,0,0:0:0:0:
320,192,2444,1,0,0:0:0:0:
64,192,2594,1,2,0:0:0:0:
448,192,2594,128,0,2744:0:0:0:0:
64,192,2744,1,8,0:0:0:0:
192,192,2744,1,0,0:0:0:0:
320,192,2744,1,0,0:0:0:0:
320,192,2894,1,0,0:0:0:0:
192,192,3044,1,2,0:0:0:0:
448,192,3044,1,0,0:0:0:0:
192,192,3194,1,0,0:0:0:0:
64,192,3344,128,8,3494:0:0:0:0:
320,192,3344,1,0,0:0:0:0:
448,192,3344,1,0,0:0:0:0:
192,192,3494,1,2,0:0:0:0:
448,192,3494,1,0,0:0:0:0:
320,192,3644,1,0,0:0:0:0:
64,192,3794,128,2,3944:0:0:0:0:
192,192,3794,1,0,0:0:0:0:
192,192,3944,1,8,0:0:0:0:
320,192,3944,1,0,0:0:0:0:
448,192,3944,1,0,0:0:0:0:
320,192,4094,1,0,0:0:0:0:
64,192,4244,1,2,0:0:0:0:
448,192,4244,1,0,0:0:0:0:
64,192,4394,1,0,0:0:0:0:
192,192,4544,128,8,4694:0:0:0:0:
320,192,4544,1,0,0:0:0:0:
448,192,4544,1,0,0:0:0:0:
320,192,4694,1,0,0:0:0:0:
64,192,4844,1,0,0:0:0:0:
192,192,4994,128,2,5144:0:0:0:0:
448,192,4994,1,0,0:0:0:0:
64,192,5144,1,8,0:0:0:0:
320,192,5144,1,0,0:0:0:0:
448,192,5144,1,0,0:0:0:0:
320,192,5294,1,0,0:0:0:0:
64,192,5444,1,2,0:0:0:0:
192,192,5444,1,0,0:0:0:0:
192,192,5594,1,0,0:0:0:0:
64,192,5744,1,8,0:0:0:0:
320,192,5744,128,0,5894:0:0:0:0:
448,192,5744,1,0,0:0:0:0:
192,192,5894,1,2,0:0:0:0:
448,192,5894,1,0,0:0:0:0:
64,192,6044,1,0,0:0:0:0:
192,192,6194,1,2,0:0:0:0:
320,192,6194,128,0,6344:0:0:0:0:
64,192,6344,1,8,0:0:0:0:
192,192,6344,1,0,0:0:0:0:
448,192,6344,1,0,0:0:0:0:
448,192,6494,1,0,0:0:0:0:
64,192,6644,1,2,0:0:0:0:
320,192,6644,1,0,0:0:0:0:
320,192,6794,1,0,0:0:0:0:
64,192,6944,1,8,0:0:0:0:
192,192,6944,1,0,0:0:0:0:
448,192,6944,128,0,7094:0:0:0:0:
64,192,7094,1,0,0:0:0:0:
192,192,7244,1,0,0:0:0:0:
320,192,7394,1,2,0:0:0:0:
448,192,7394,128,0,7544:0:0:0:0:
64,192,7544,1,8,0:0:0:0:
192,192,7544,1,0,0:0:0:0:
320,192,7544,1,0,0:0:0:0:
192,192,7694,1,0,0:0:0:0:
64,192,7844,1,2,0:0:0:0:
448,192,7844,1,0,0:0:0:0:
448,192,7994,1,0,0:0:0:0:
64,192,8144,128,8,8294:0:0:0:0:
192,192,8144,1,0,0:0:0:0:
320,192,8144,1,0,0:0:0:0:
192,192,8294,1,2,0:0:0:0:
448,192,8294,1,0,0:0:0:0:
320,192,8444,1,0,0:0:0:0:
64,192,8594,128,2,8744:0:0:0:0:
448,192,8594,1,0,0:0:0:0:
192,192,8744,1,8,0:0:0:0:
320,192,8744,1,0,0:0:0:0:
448,192,8744,1,0,0:0:0:0:
192,192,8894,1,0,0:0:0:0:
64,192,9044,1,2,0:0:0:0:
320,192,9044,1,0,0:0:0:0:
320,192,9194,1,0,0:0:0:0:
64,192,9344,1,8,0:0:0:0:
192,192,9344,128,0,9494:0:0:0:0:
448,192,9344,1,0,0:0:0:0:
320,192,9494,1,0,0:0:0:0:
448,192,9644,1,0,0:0:0:0:
192,192,9794,128,2,9944:0:0:0:0:
320,192,9794,1,0,0:0:0:0:
64,192,9944,1,8,0:0:0:0:
320,192,9944,1,0,0:0:0:0:
448,192,9944,1,0,0:0:0:0:
64,192,10094,1,0,0:0:0:0:
192,192,10244,1,2,0:0:0:0:
448,192,10244,1,0,0:0:0:0:
192,192,10394,1,0,0:0:0:0:
64,192,10544,1,8,0:0:0:0:
320,192,10544,1,0,0:0:0:0:
448,192,10544,1,0,0:0:0:0:
192,192,10694,1,2,0:0:0:0:
320,192,10694,1,0,0:0:0:0:
64,192,10844,1,8,0:0:0:0:
192,192,10844,1,0,0:0:0:0:
448,192,10844,1,0,0:0:0:0:
64,192,10994,128,2,11294:0:0:0:0:
320,192,10994,1,0,0:0:0:0:
192,192,11294,1,8,0:0:0:0:
320,192,11294,1,0,0:0:0:0:
448,192,11294,1,0,0:0:0:0:
64,192,11444,1,2,0:0:0:0:
192,192,11444,1,4,0:0:0:0:
448,192,11444,1,0,0:0:0:0:
320,192,11594,128,0,11744:0:0:0:0:
64,192,11744,1,8,0:0:0:0:
192,192,11744,128,0,11894:0:0:0:0:
448,192,11744,1,0,0:0:0:0:
320,192,11894,128,0,12044:0:0:0:0:
448,192,12044,128,0,12194:0:0:0:0:
64,192,12194,128,2,12344:0:0:0:0:
192,192,12194,1,0,0:0:0:0:
192,192,12344,128,8,12494:0:0:0:0:
320,192,12344,1,0,0:0:0:0:
448,192,12344,1,0,0:0:0:0:
320,192,12494,128,0,12644:0:0:0:0:
64,192,12644,1,2,0:0:0:0:
448,192,12644,128,0,12944:0:0:0:0:
192,192,12794,1,0,0:0:0:0:
64,192,12944,1,8,0:0:0:0:
192,192,12944,128,0,13094:0:0:0:0:
320,192,12944,1,0,0:0:0:0:
320,192,13094,128,2,13244:0:0:0:0:
448,192,13094,1,0,0:0:0:0:
192,192,13244,128,0,13394:0:0:0:0:
64,192,13394,1,2,0:0:0:0:
448,192,13394,128,0,13544:0:0:0:0:
64,192,13544,1,8,0:0:0:0:
192,192,13544,1,0,0:0:0:0:
320,192,13544,128,0,13694:0:0:0:0:
192,192,13694,128,0,13844:0:0:0:0:
64,192,13844,128,2,14144:0:0:0:0:
448,192,13844,1,0,0:0:0:0:
320,192,13994,1,0,0:0:0:0:
192,192,14144,1,8,0:0:0:0:
320,192,14144,128,0,14294:0:0:0:0:
448,192,14144,1,0,0:0:0:0:
64,192,14294,128,0,14444:0:0:0:0:
448,192,14444,128,0,14594:0:0:0:0:
192,192,14594,1,2,0:0:0:0:
320,192,14594,128,0,14744:0:0:0:0:
64,192,14744,1,8,0:0:0:0:
192,192,14744,128,0,14894:0:0:0:0:
448,192,14744,1,0,0:0:0:0:
64,192,14894,128,0,15044:0:0:0:0:
320,192,15044,128,2,15344:0:0:0:0:
448,192,15044,1,0,0:0:0:0:
192,192,15194,1,0,0:0:0:0:
64,192,15344,1,8,0:0:0:0:
192,192,15344,128,0,15494:0:0:0:0:
448,192,15344,1,0,0:0:0:0:
320,192,15494,1,2,0:0:0:0:
448,192,15494,128,0,15644:0:0:0:0:
64,192,15644,128,0,15794:0:0:0:0:
192,192,15794,1,2,0:0:0:0:
448,192,15794,1,0,0:0:0:0:
64,192,15944,1,8,0:0:0:0:
192,192,15944,128,0,16244:0:0:0:0:
320,192,15944,1,0,0:0:0:0:
320,192,16094,1,0,0:0:0:0:
64,192,16244,1,2,0:0:0:0:
448,192,16244,1,0,0:0:0:0:
320,192,16394,128,0,16544:0:0:0:0:
64,192,16544,1,8,0:0:0:0:
192,192,16544,1,0,0:0:0:0:
448,192,16544,128,0,16694:0:0:0:0:
64,192,16694,128,0,16844:0:0:0:0:
320,192,16844,128,0,16994:0:0:0:0:
64,192,16994,1,2,0:0:0:0:
448,192,16994,128,0,17144:0:0:0:0:
64,192,17144,1,8,0:0:0:0:
192,192,17144,128,0,17294:0:0:0:0:
320,192,17144,1,0,0:0:0:0:
320,192,17294,128,0,17444:0:0:0:0:
64,192,17444,128,2,17594:0:0:0:0:
448,192,17444,1,0,0:0:0:0:
192,192,17594,128,0,17744:0:0:0:0:
64,192,17744,1,8,0:0:0:0:
320,192,17744,128,0,17894:0:0:0:0:
448,192,17744,1,0,0:0:0:0:
64,192,17894,1,2,0:0:0:0:
192,192,17894,128,0,18044:0:0:0:0:
448,192,18044,128,0,18194:0:0:0:0:
64,192,18194,1,2,0:0:0:0:
320,192,18194,128,0,18344:0:0:0:0:
64,192,18344,128,8,18494:0:0:0:0:
192,192,18344,1,0,0:0:0:0:
448,192,18344,1,0,0:0:0:0:
448,192,18494,128,0,18644:0:0:0:0:
64,192,18644,1,2,0:0:0:0:
192,192,18644,128,0,18794:0:0:0:0:
320,192,18794,128,0,18944:0:0:0:0:
64,192,18944,128,8,19094:0:0:0:0:
192,192,18944,1,0,0:0:0:0:
448,192,18944,1,0,0:0:0:0:
448,192,19094,128,0,19244:0:0:0:0:
192,192,19244,128,0,19394:0:0:0:0:
320,192,19394,128,2,19544:0:0:0:0:
448,192,19394,1,0,0:0:0:0:
64,192,19544,1,8,0:0:0:0:
192,192,19544,1,0,0:0:0:0:
448,192,19544,128,0,19694:0:0:0:0:
64,192,19694,128,0,19844:0:0:0:0:
448,192,19844,1,0,0:0:0:0:
320,192,19844,1,2,0:0:0:0:
64,192,19994,1,2,0:0:0:0:
192,192,19994,1,0,0:0:0:0:
64,192,20144,1,8,0:0:0:0:
320,192,20144,1,0,0:0:0:0:
448,192,20144,1,0,0:0:0:0:
192,192,20294,1,2,0:0:0:0:
320,192,20294,1,0,0:0:0:0:
64,192,20444,1,8,0:0:0:0:
192,192,20444,1,0,0:0:0:0:
448,192,20444,1,0,0:0:0:0:
64,192,20594,1,8,0:0:0:0:
320,192,20594,1,0,0:0:0:0:
192,192,20669,1,8,0:0:0:0:
448,192,20669,1,0,0:0:0:0:
64,192,20744,1,8,0:0:0:0:
320,192,20744,1,2,0:0:0:0:
192,192,20894,1,8,0:0:0:0:
320,192,20894,1,0,0:0:0:0:
448,192,20894,1,0,0:0:0:0:
64,192,21044,1,2,0:0:0:0:
192,192,21044,1,8,0:0:0:0:
448,192,21044,1,0,0:0:0:0:
320,192,21194,1,0,0:0:0:0:
192,192,21269,1,0,0:0:0:0:
64,192,21344,1,0,0:0:0:0:
448,192,21494,1,0,0:0:0:0:
192,192,21644,1,0,0:0:0:0:
64,192,21794,1,0,0:0:0:0:
448,192,21869,1,0,0:0:0:0:
320,192,21944,1,0,0:0:0:0:
192,192,22094,1,0,0:0:0:0:
64,192,22244,1,2,0:0:0:0:
320,192,22244,1,4,0:0:0:0:
448,192,22244,1,0,0:0:0:0:
192,192,22394,1,0,0:0:0:0:
448,192,22544,1,0,0:0:0:0:
64,192,22694,1,8,0:0:0:0:
192,192,22694,1,0,0:0:0:0:
320,192,22694,1,0,0:0:0:0:
64,192,22844,1,8,0:0:0:0:
192,192,22844,1,0,0:0:0:0:
320,192,22844,1,0,0:0:0:0:
64,192,22994,1,2,0:0:0:0:
448,192,22994,1,0,0:0:0:0:
320,192,23144,1,0,0:0:0:0:
192,192,23294,1,0,0:0:0:0:
64,192,23444,1,2,0:0:0:0:
320,192,23444,1,8,0:0:0:0:
448,192,23444,1,0,0:0:0:0:
192,192,23594,1,0,0:0:0:0:
320,192,23669,1,0,0:0:0:0:
448,192,23744,1,0,0:0:0:0:
64,192,23894,1,0,0:0:0:0:
320,192,24044,1,0,0:0:0:0:
448,192,24194,1,0,0:0:0:0:
64,192,24269,1,0,0:0:0:0:
192,192,24344,1,0,0:0:0:0:
320,192,24494,1,0,0:0:0:0:
64,192,24644,1,2,0:0:0:0:
192,192,24644,1,0,0:0:0:0:
448,192,24644,1,0,0:0:0:0:
320,192,24719,1,0,0:0:0:0:
192,192,24794,1,0,0:0:0:0:
320,192,24869,1,0,0:0:0:0:
192,192,24944,1,0,0:0:0:0:
448,192,25019,1,0,0:0:0:0:
320,192,25094,1,0,0:0:0:0:
192,192,25169,1,0,0:0:0:0:
64,192,25244,1,8,0:0:0:0:
320,192,25244,1,0,0:0:0:0:
448,192,25244,1,0,0:0:0:0:
320,192,25394,1,2,0:0:0:0:
64,192,25394,1,0,0:0:0:0:
192,192,25469,1,0,0:0:0:0:
320,192,25544,1,2,0:0:0:0:
448,192,25544,1,0,0:0:0:0:
192,192,25694,1,8,0:0:0:0:
64,192,25694,1,0,0:0:0:0:
448,192,25694,1,0,0:0:0:0:
64,192,25844,1,8,0:0:0:0:
320,192,25844,1,2,0:0:0:0:
448,192,25844,1,0,0:0:0:0:
192,192,25994,1,0,0:0:0:0:
320,192,26069,1,0,0:0:0:0:
448,192,26144,1,0,0:0:0:0:
64,192,26294,1,0,0:0:0:0:
448,192,26444,1,0,0:0:0:0:
320,192,26594,1,0,0:0:0:0:
192,192,26669,1,0,0:0:0:0:
64,192,26744,1,0,0:0:0:0:
64,192,27044,1,8,0:0:0:0:
192,192,27044,1,2,0:0:0:0:
448,192,27044,1,0,0:0:0:0:
320,192,27119,1,0,0:0:0:0:
64,192,27194,1,0,0:0:0:0:
192,192,27269,1,0,0:0:0:0:
320,192,27344,1,2,0:0:0:0:
448,192,27344,1,0,0:0:0:0:
64,192,27444,1,8,0:0:0:0:
192,192,27444,1,0,0:0:0:0:
320,192,27544,1,8,0:0:0:0:
448,192,27544,1,0,0:0:0:0:
64,192,27644,1,8,0:0:0:0:
192,192,27644,1,0,0:0:0:0:
64,192,27794,1,0,0:0:0:0:
448,192,27794,1,0,0:0:0:0:
192,192,27944,1,0,0:0:0:0:
320,192,28094,1,0,0:0:0:0:
64,192,28244,1,2,0:0:0:0:
192,192,28244,1,0,0:0:0:0:
448,192,28244,1,0,0:0:0:0:
320,192,28394,1,0,0:0:0:0:
64,192,28544,1,0,0:0:0:0:
448,192,28694,1,0,0:0:0:0:
320,192,28844,1,0,0:0:0:0:
64,192,28994,1,0,0:0:0:0:
192,192,29069,1,0,0:0:0:0:
320,192,29144,1,0,0:0:0:0:
192,192,29294,1,0,0:0:0:0:
64,192,29444,1,8,0:0:0:0:
320,192,29444,1,2,0:0:0:0:
448,192,29444,1,0,0:0:0:0:
320,192,29594,1,0,0:0:0:0:
64,192,29744,1,8,0:0:0:0:
192,192,29744,1,2,0:0:0:0:
448,192,29744,1,0,0:0:0:0:
192,192,29894,1,0,0:0:0:0:
320,192,30044,1,2,0:0:0:0:
448,192,30044,1,0,0:0:0:0:
64,192,30194,1,8,0:0:0:0:
192,192,30194,1,0,0:0:0:0:
320,192,30269,1,8,0:0:0:0:
448,192,30269,1,0,0:0:0:0:
64,192,30344,1,8,0:0:0:0:
192,192,30344,1,0,0:0:0:0:
64,192,30494,1,8,0:0:0:0:
448,192,30494,1,0,0:0:0:0:
192,192,30569,1,0,0:0:0:0:
64,192,30644,1,4,0:0:0:0:
320,192,30644,1,2,0:0:0:0:
448,192,30644,128,0,31094:0:0:0:0:
64,192,30944,1,8,0:0:0:0:
192,192,30944,1,0,0:0:0:0:
320,192,30944,128,0,31094:0:0:0:0:
192,192,31094,1,0,0:0:0:0:
448,192,31244,128,0,31694:0:0:0:0:
64,192,31394,1,2,0:0:0:0:
320,192,31394,1,0,0:0:0:0:
64,192,31544,1,8,0:0:0:0:
192,192,31544,1,0,0:0:0:0:
320,192,31544,128,0,31694:0:0:0:0:
64,192,31844,128,2,31994:0:0:0:0:
448,192,31844,1,0,0:0:0:0:
192,192,31994,1,0,0:0:0:0:
320,192,32069,1,0,0:0:0:0:
64,192,32144,1,8,0:0:0:0:
192,192,32144,1,0,0:0:0:0:
448,192,32144,1,0,0:0:0:0:
448,192,32294,128,0,32744:0:0:0:0:
192,192,32444,1,2,0:0:0:0:
320,192,32444,1,0,0:0:0:0:
64,192,32594,1,2,0:0:0:0:
320,192,32594,128,0,32744:0:0:0:0:
64,192,32744,1,8,0:0:0:0:
192,192,32744,1,0,0:0:0:0:
192,192,32894,128,0,33194:0:0:0:0:
64,192,33044,1,2,0:0:0:0:
448,192,33044,1,0,0:0:0:0:
320,192,33194,128,0,33344:0:0:0:0:
64,192,33344,1,8,0:0:0:0:
192,192,33344,128,0,33494:0:0:0:0:
448,192,33344,1,0,0:0:0:0:
64,192,33494,128,0,33794:0:0:0:0:
448,192,33644,128,0,33794:0:0:0:0:
192,192,33794,1,2,0:0:0:0:
320,192,33794,1,0,0:0:0:0:
64,192,33944,1,8,0:0:0:0:
320,192,33944,1,0,0:0:0:0:
448,192,33944,1,0,0:0:0:0:
192,192,34094,1,0,0:0:0:0:
320,192,34244,128,2,34394:0:0:0:0:
448,192,34244,1,0,0:0:0:0:
192,192,34394,128,0,34544:0:0:0:0:
64,192,34544,1,8,0:0:0:0:
320,192,34544,1,0,0:0:0:0:
448,192,34544,1,0,0:0:0:0:
192,192,34694,1,2,0:0:0:0:
448,192,34694,128,0,34994:0:0:0:0:
320,192,34844,1,0,0:0:0:0:
64,192,34994,1,2,0:0:0:0:
192,192,34994,128,0,35294:0:0:0:0:
64,192,35144,1,8,0:0:0:0:
448,192,35144,1,0,0:0:0:0:
320,192,35144,1,0,0:0:0:0:
320,192,35294,128,0,35444:0:0:0:0:
64,192,35444,128,2,35894:0:0:0:0:
192,192,35444,1,4,0:0:0:0:
448,192,35444,1,0,0:0:0:0:
192,192,35744,128,8,35894:0:0:0:0:
320,192,35744,1,0,0:0:0:0:
448,192,35744,1,0,0:0:0:0:
448,192,35894,1,0,0:0:0:0:
64,192,36044,128,0,36494:0:0:0:0:
320,192,36044,1,0,0:0:0:0:
192,192,36194,1,2,0:0:0:0:
448,192,36194,1,0,0:0:0:0:
192,192,36344,128,8,36494:0:0:0:0:
320,192,36344,1,0,0:0:0:0:
448,192,36344,1,0,0:0:0:0:
320,192,36494,1,0,0:0:0:0:
192,192,36569,1,0,0:0:0:0:
64,192,36644,1,2,0:0:0:0:
448,192,36644,128,0,36794:0:0:0:0:
192,192,36794,128,0,36944:0:0:0:0:
64,192,36944,1,8,0:0:0:0:
320,192,36944,1,0,0:0:0:0:
448,192,36944,1,0,0:0:0:0:
320,192,37094,128,0,37244:0:0:0:0:
64,192,37244,1,2,0:0:0:0:
192,192,37244,1,0,0:0:0:0:
64,192,37394,128,2,37544:0:0:0:0:
448,192,37394,1,0,0:0:0:0:
192,192,37544,1,8,0:0:0:0:
320,192,37544,1,0,0:0:0:0:
448,192,37544,1,0,0:0:0:0:
192,192,37694,1,0,0:0:0:0:
320,192,37769,1,0,0:0:0:0:
64,192,37844,1,2,0:0:0:0:
448,192,37844,128,0,38144:0:0:0:0:
64,192,38144,1,8,0:0:0:0:
192,192,38144,128,0,38294:0:0:0:0:
320,192,38144,1,0,0:0:0:0:
320,192,38294,128,0,38444:0:0:0:0:
64,192,38444,128,0,38744:0:0:0:0:
192,192,38594,1,2,0:0:0:0:
448,192,38594,1,0,0:0:0:0:
192,192,38744,1,8,0:0:0:0:
320,192,38744,1,0,0:0:0:0:
448,192,38744,1,0,0:0:0:0:
320,192,38894,1,0,0:0:0:0:
64,192,39044,1,2,0:0:0:0:
192,192,39044,128,0,39194:0:0:0:0:
448,192,39194,128,0,39344:0:0:0:0:
64,192,39344,1,8,0:0:0:0:
192,192,39344,1,0,0:0:0:0:
320,192,39344,1,0,0:0:0:0:
64,192,39494,128,2,39794:0:0:0:0:
320,192,39494,1,0,0:0:0:0:
192,192,39644,1,0,0:0:0:0:
320,192,39794,1,2,0:0:0:0:
448,192,39794,128,0,39944:0:0:0:0:
64,192,39944,1,8,0:0:0:0:
192,192,39944,1,0,0:0:0:0:
320,192,39944,128,0,40094:0:0:0:0:
192,192,40094,128,0,40244:0:0:0:0:
64,192,40244,1,2,0:0:0:0:
320,192,40244,128,4,40469:0:0:0:0:
448,192,40244,128,0,40469:0:0:0:0:
64,192,40544,128,8,40769:0:0:0:0:
192,192,40544,128,0,40769:0:0:0:0:
448,192,40544,1,0,0:0:0:0:
320,192,40694,1,0,0:0:0:0:
320,192,40844,128,0,41069:0:0:0:0:
448,192,40844,128,0,41069:0:0:0:0:
64,192,40994,1,2,0:0:0:0:
192,192,40994,1,0,0:0:0:0:
64,192,41144,128,8,41369:0:0:0:0:
192,192,41144,128,0,41369:0:0:0:0:
448,192,41144,1,0,0:0:0:0:
64,192,41444,128,2,41669:0:0:0:0:
320,192,41444,128,0,41669:0:0:0:0:
448,192,41444,1,0,0:0:0:0:
64,192,41744,1,8,0:0:0:0:
192,192,41744,128,0,41894:0:0:0:0:
448,192,41744,1,0,0:0:0:0:
448,192,41894,128,0,42194:0:0:0:0:
64,192,42044,1,0,0:0:0:0:
320,192,42044,1,0,0:0:0:0:
64,192,42194,128,2,42344:0:0:0:0:
192,192,42194,1,0,0:0:0:0:
192,192,42344,128,8,42494:0:0:0:0:
320,192,42344,1,0,0:0:0:0:
448,192,42344,1,0,0:0:0:0:
320,192,42494,128,0,42644:0:0:0:0:
64,192,42644,128,2,42869:0:0:0:0:
192,192,42644,128,4,42869:0:0:0:0:
448,192,42644,1,0,0:0:0:0:
64,192,42944,1,8,0:0:0:0:
320,192,42944,128,0,43169:0:0:0:0:
448,192,42944,128,0,43169:0:0:0:0:
192,192,43094,1,0,0:0:0:0:
64,192,43244,128,0,43469:0:0:0:0:
192,192,43244,128,0,43469:0:0:0:0:
320,192,43394,1,2,0:0:0:0:
448,192,43394,1,0,0:0:0:0:
64,192,43544,1,8,0:0:0:0:
320,192,43544,128,0,43769:0:0:0:0:
448,192,43544,128,0,43769:0:0:0:0:
64,192,43844,1,2,0:0:0:0:
192,192,43844,128,0,44069:0:0:0:0:
448,192,43844,128,0,44069:0:0:0:0:
64,192,44144,1,8,0:0:0:0:
320,192,44144,128,0,44294:0:0:0:0:
448,192,44144,1,0,0:0:0:0:
64,192,44294,128,2,44594:0:0:0:0:
192,192,44294,1,0,0:0:0:0:
320,192,44444,1,0,0:0:0:0:
192,192,44594,1,2,0:0:0:0:
448,192,44594,128,0,44744:0:0:0:0:
64,192,44744,1,8,0:0:0:0:
192,192,44744,128,0,44894:0:0:0:0:
320,192,44894,128,0,45044:0:0:0:0:
64,192,45044,1,2,0:0:0:0:
192,192,45044,1,4,0:0:0:0:
448,192,45044,1,0,0:0:0:0:
64,192,45194,128,0,45644:0:0:0:0:
192,192,45344,128,8,45644:0:0:0:0:
320,192,45344,1,0,0:0:0:0:
448,192,45344,1,0,0:0:0:0:
448,192,45494,1,0,0:0:0:0:
320,192,45644,1,0,0:0:0:0:
64,192,45794,1,2,0:0:0:0:
192,192,45794,1,0,0:0:0:0:
64,192,45944,1,8,0:0:0:0:
320,192,45944,1,0,0:0:0:0:
448,192,45944,1,0,0:0:0:0:
320,192,46094,1,0,0:0:0:0:
64,192,46244,1,2,0:0:0:0:
448,192,46244,1,0,0:0:0:0:
192,192,46394,128,0,46694:0:0:0:0:
64,192,46544,1,8,0:0:0:0:
320,192,46544,1,0,0:0:0:0:
448,192,46544,1,0,0:0:0:0:
448,192,46694,128,0,46844:0:0:0:0:
64,192,46844,128,2,46994:0:0:0:0:
192,192,46844,1,0,0:0:0:0:
320,192,46994,128,2,47294:0:0:0:0:
448,192,46994,1,0,0:0:0:0:
64,192,47144,1,8,0:0:0:0:
192,192,47144,1,0,0:0:0:0:
448,192,47144,1,0,0:0:0:0:
192,192,47294,128,0,47594:0:0:0:0:
320,192,47444,1,2,0:0:0:0:
448,192,47444,1,0,0:0:0:0:
64,192,47594,128,0,47744:0:0:0:0:
192,192,47744,1,8,0:0:0:0:
320,192,47744,1,0,0:0:0:0:
448,192,47744,128,0,47894:0:0:0:0:
64,192,47894,1,0,0:0:0:0:
320,192,48044,128,0,48194:0:0:0:0:
64,192,48194,1,2,0:0:0:0:
192,192,48194,1,0,0:0:0:0:
64,192,48344,128,8,48644:0:0:0:0:
320,192,48344,1,0,0:0:0:0:
448,192,48344,1,0,0:0:0:0:
192,192,48494,128,0,48644:0:0:0:0:
320,192,48644,1,2,0:0:0:0:
448,192,48644,1,0,0:0:0:0:
192,192,48794,1,0,0:0:0:0:
320,192,48869,1,0,0:0:0:0:
64,192,48944,1,8,0:0:0:0:
192,192,48944,1,0,0:0:0:0:
448,192,48944,128,0,49094:0:0:0:0:
64,192,49094,1,2,0:0:0:0:
320,192,49094,1,0,0:0:0:0:
192,192,49244,128,0,49394:0:0:0:0:
320,192,49394,1,2,0:0:0:0:
448,192,49394,1,0,0:0:0:0:
64,192,49544,1,8,0:0:0:0:
320,192,49544,128,0,49694:0:0:0:0:
448,192,49544,1,0,0:0:0:0:
64,192,49694,1,8,0:0:0:0:
192,192,49694,128,0,49844:0:0:0:0:
448,192,49694,1,0,0:0:0:0:
64,192,49844,1,2,0:0:0:0:
320,192,49844,1,4,0:0:0:0:
448,192,49844,128,0,50744:0:0:0:0:
192,192,49994,1,0,0:0:0:0:
64,192,50144,1,8,0:0:0:0:
192,192,50144,1,0,0:0:0:0:
320,192,50294,1,0,0:0:0:0:
64,192,50444,1,2,0:0:0:0:
320,192,50444,1,0,0:0:0:0:
64,192,50594,1,8,0:0:0:0:
192,192,50594,1,0,0:0:0:0:
320,192,50669,1,0,0:0:0:0:
64,192,50744,1,8,0:0:0:0:
192,192,50744,1,2,0:0:0:0:
320,192,50819,1,0,0:0:0:0:
64,192,50894,1,8,0:0:0:0:
448,192,50894,1,0,0:0:0:0:
192,192,50969,1,0,0:0:0:0:
64,192,51044,1,8,0:0:0:0:
320,192,51044,1,0,0:0:0:0:
448,192,51044,1,0,0:0:0:0:
320,192,51344,128,2,51794:0:0:0:0:
448,192,51344,1,0,0:0:0:0:
64,192,51644,1,8,0:0:0:0:
192,192,51644,1,0,0:0:0:0:
64,192,51794,1,2,0:0:0:0:
192,192,51794,128,0,52244:0:0:0:0:
448,192,51794,1,0,0:0:0:0:
320,192,52244,1,2,0:0:0:0:
448,192,52244,128,0,53444:0:0:0:0:
64,192,52544,1,2,0:0:0:0:
192,192,52544,1,0,0:0:0:70:Tom1.wav
64,192,52694,1,8,0:0:0:0:
192,192,52694,1,0,0:0:0:0:
320,192,52694,1,0,0:0:0:0:
64,192,52844,1,2,0:0:0:0:
320,192,52844,1,0,0:0:0:0:
192,192,52994,1,0,0:0:0:70:Tom1.wav
320,192,52994,1,0,0:0:0:0:
64,192,53144,1,0,0:0:0:70:Tom1.wav
192,192,53144,1,0,0:0:0:0:
64,192,53294,1,2,0:0:0:0:
320,192,53294,1,0,0:0:0:0:
64,192,53444,1,8,0:0:0:0:
192,192,53444,1,0,0:0:0:0:
320,192,53444,1,0,0:0:0:0:
192,192,54494,1,0,0:0:0:0:
320,192,54569,1,0,0:0:0:0:
64,192,54644,1,2,0:0:0:0:
448,192,54644,1,0,0:0:0:0:
320,192,54944,1,0,0:0:0:0:
448,192,54944,1,0,0:0:0:0:
192,192,55094,1,0,0:0:0:0:
64,192,55244,1,2,0:0:0:0:
448,192,55244,1,0,0:0:0:0:
320,192,55394,1,0,0:0:0:0:
64,192,55544,1,0,0:0:0:0:
192,192,55544,1,0,0:0:0:0:
448,192,55694,1,0,0:0:0:0:
64,192,55844,1,2,0:0:0:0:
320,192,55844,1,0,0:0:0:0:
192,192,55994,1,0,0:0:0:0:
320,192,56144,1,0,0:0:0:0:
448,192,56144,1,0,0:0:0:0:
64,192,56294,1,0,0:0:0:0:
192,192,56444,1,2,0:0:0:0:
320,192,56444,1,0,0:0:0:0:
448,192,56594,1,0,0:0:0:0:
64,192,56744,1,0,0:0:0:0:
192,192,56744,1,0,0:0:0:0:
320,192,56894,1,0,0:0:0:0:
64,192,57044,1,2,0:0:0:0:
448,192,57044,1,0,0:0:0:0:
64,192,57344,1,0,0:0:0:0:
192,192,57344,1,0,0:0:0:0:
320,192,57381,1,0,0:0:0:0:
448,192,57381,1,0,0:0:0:0:
192,192,57494,1,0,0:0:0:0:
320,192,57644,1,2,0:0:0:0:
448,192,57644,1,0,0:0:0:0:
64,192,57794,1,0,0:0:0:0:
192,192,57794,1,0,0:0:0:0:
448,192,57944,1,0,0:0:0:0:
64,192,58019,1,0,0:0:0:0:
320,192,58094,1,0,0:0:0:0:
192,192,58244,1,2,0:0:0:0:
448,192,58244,1,0,0:0:0:0:
64,192,58394,1,0,0:0:0:0:
320,192,58469,1,0,0:0:0:0:
64,192,58544,1,0,0:0:0:0:
192,192,58544,1,0,0:0:0:0:
320,192,58694,1,0,0:0:0:0:
448,192,58694,1,0,0:0:0:0:
64,192,58844,1,2,0:0:0:0:
192,192,58844,1,0,0:0:0:0:
448,192,58919,1,0,0:0:0:0:
320,192,58994,1,0,0:0:0:0:
192,192,59069,1,0,0:0:0:0:
320,192,59144,1,0,0:0:0:0:
448,192,59144,1,0,0:0:0:0:
192,192,59294,1,0,0:0:0:0:
320,192,59369,1,0,0:0:0:0:
64,192,59444,1,2,0:0:0:0:
448,192,59444,1,0,0:0:0:0:
192,192,59594,1,0,0:0:0:0:
320,192,59744,1,2,0:0:0:0:
448,192,59744,1,0,0:0:0:0:
192,192,59894,1,0,0:0:0:0:
64,192,60044,1,2,0:0:0:0:
320,192,60044,1,0,0:0:0:0:
448,192,60119,1,0,0:0:0:0:
192,192,60194,1,0,0:0:0:0:
320,192,60269,1,0,0:0:0:0:
192,192,60344,1,2,0:0:0:0:
448,192,60344,1,0,0:0:0:0:
64,192,60494,1,0,0:0:0:0:
320,192,60644,1,2,0:0:0:0:
448,192,60644,1,0,0:0:0:0:
192,192,60744,1,0,0:0:0:0:
320,192,60794,1,0,0:0:0:0:
64,192,60944,1,2,0:0:0:0:
192,192,60944,1,0,0:0:0:0:
448,192,60944,1,0,0:0:0:0:
320,192,61094,1,0,0:0:0:0:
64,192,61244,1,2,0:0:0:0:
448,192,61244,1,0,0:0:0:0:
192,192,61394,1,0,0:0:0:0:
320,192,61544,1,2,0:0:0:0:
448,192,61544,1,0,0:0:0:0:
192,192,61694,1,0,0:0:0:0:
64,192,61844,1,2,0:0:0:0:
448,192,61844,1,0,0:0:0:0:
320,192,61919,1,0,0:0:0:0:
192,192,61994,1,0,0:0:0:0:
448,192,62069,1,0,0:0:0:0:
320,192,62069,1,0,0:0:0:0:
64,192,62144,1,2,0:0:0:0:
192,192,62144,1,0,0:0:0:0:
448,192,62294,1,0,0:0:0:0:
64,192,62444,1,2,0:0:0:0:
192,192,62444,1,8,0:0:0:0:
320,192,62544,1,8,0:0:0:0:
448,192,62544,1,0,0:0:0:0:
64,192,62644,1,8,0:0:0:0:
192,192,62644,1,0,0:0:0:0:
320,192,62744,1,2,0:0:0:0:
448,192,62744,1,8,0:0:0:0:
64,192,62844,1,8,0:0:0:0:
192,192,62844,1,0,0:0:0:0:
320,192,62944,1,8,0:0:0:0:
448,192,62944,1,0,0:0:0:0:
64,192,63044,1,2,0:0:0:0:
192,192,63044,1,4,0:0:0:0:
448,192,63044,1,0,0:0:0:0:
320,192,63794,128,0,63944:0:0:0:0:
192,192,63944,128,0,64094:0:0:0:0:
64,192,64244,128,4,64694:0:0:0:0:
320,192,64244,1,2,0:0:0:0:
448,192,64244,1,0,0:0:0:0:
192,192,64544,128,8,64694:0:0:0:0:
320,192,64544,1,0,0:0:0:0:
448,192,64544,1,0,0:0:0:0:
320,192,64694,1,0,0:0:0:0:
64,192,64844,128,0,65294:0:0:0:0:
192,192,64994,1,2,0:0:0:0:
448,192,64994,1,0,0:0:0:0:
192,192,65144,128,8,65294:0:0:0:0:
320,192,65144,1,0,0:0:0:0:
448,192,65144,1,0,0:0:0:0:
64,192,65444,1,2,0:0:0:0:
448,192,65444,128,0,65594:0:0:0:0:
320,192,65594,1,0,0:0:0:0:
192,192,65669,1,0,0:0:0:0:
64,192,65744,1,8,0:0:0:0:
320,192,65744,1,0,0:0:0:0:
448,192,65744,1,0,0:0:0:0:
64,192,65894,128,0,66344:0:0:0:0:
192,192,66044,1,2,0:0:0:0:
320,192,66044,1,0,0:0:0:0:
192,192,66194,128,2,66344:0:0:0:0:
448,192,66194,1,0,0:0:0:0:
320,192,66344,1,8,0:0:0:0:
448,192,66344,1,0,0:0:0:0:
320,192,66494,128,0,66794:0:0:0:0:
64,192,66644,1,2,0:0:0:0:
448,192,66644,1,0,0:0:0:0:
192,192,66794,128,0,66944:0:0:0:0:
64,192,66944,1,8,0:0:0:0:
320,192,66944,128,0,67094:0:0:0:0:
448,192,66944,1,0,0:0:0:0:
448,192,67094,128,0,67394:0:0:0:0:
64,192,67244,128,0,67394:0:0:0:0:
192,192,67394,1,2,0:0:0:0:
320,192,67394,1,0,0:0:0:0:
64,192,67544,1,8,0:0:0:0:
192,192,67544,1,0,0:0:0:0:
448,192,67544,1,0,0:0:0:0:
320,192,67694,1,0,0:0:0:0:
64,192,67844,1,2,0:0:0:0:
192,192,67844,128,0,67994:0:0:0:0:
320,192,67994,128,0,68144:0:0:0:0:
64,192,68144,1,8,0:0:0:0:
192,192,68144,1,0,0:0:0:0:
448,192,68144,1,0,0:0:0:0:
64,192,68294,128,2,68594:0:0:0:0:
320,192,68294,1,0,0:0:0:0:
192,192,68444,1,0,0:0:0:0:
320,192,68594,128,2,68894:0:0:0:0:
448,192,68594,1,0,0:0:0:0:
64,192,68744,1,8,0:0:0:0:
448,192,68744,1,0,0:0:0:0:
192,192,68744,1,0,0:0:0:0:
192,192,68894,128,0,69044:0:0:0:0:
64,192,69044,1,2,0:0:0:0:
320,192,69044,1,4,0:0:0:0:
448,192,69044,128,0,69494:0:0:0:0:
64,192,69344,1,8,0:0:0:0:
192,192,69344,1,0,0:0:0:0:
320,192,69344,128,0,69494:0:0:0:0:
64,192,69494,1,0,0:0:0:0:
448,192,69644,128,0,70094:0:0:0:0:
192,192,69644,1,0,0:0:0:0:
64,192,69794,1,2,0:0:0:0:
320,192,69794,1,0,0:0:0:0:
64,192,69944,1,8,0:0:0:0:
192,192,69944,1,0,0:0:0:0:
320,192,69944,128,0,70094:0:0:0:0:
192,192,70094,1,0,0:0:0:0:
320,192,70169,1,0,0:0:0:0:
64,192,70244,128,2,70394:0:0:0:0:
448,192,70244,1,0,0:0:0:0:
320,192,70394,128,0,70544:0:0:0:0:
64,192,70544,1,8,0:0:0:0:
192,192,70544,1,0,0:0:0:0:
448,192,70544,1,0,0:0:0:0:
192,192,70694,128,0,70844:0:0:0:0:
320,192,70844,1,2,0:0:0:0:
448,192,70844,1,0,0:0:0:0:
64,192,70994,1,2,0:0:0:0:
448,192,70994,128,0,71144:0:0:0:0:
64,192,71144,1,8,0:0:0:0:
192,192,71144,1,0,0:0:0:0:
320,192,71144,1,0,0:0:0:0:
320,192,71294,1,0,0:0:0:0:
192,192,71369,1,0,0:0:0:0:
64,192,71444,128,2,71744:0:0:0:0:
448,192,71444,1,0,0:0:0:0:
192,192,71744,1,8,0:0:0:0:
320,192,71744,128,0,71894:0:0:0:0:
448,192,71744,1,0,0:0:0:0:
192,192,71894,128,0,72044:0:0:0:0:
448,192,72044,128,0,72344:0:0:0:0:
64,192,72194,1,2,0:0:0:0:
320,192,72194,1,0,0:0:0:0:
64,192,72344,1,8,0:0:0:0:
192,192,72344,1,0,0:0:0:0:
320,192,72344,1,0,0:0:0:0:
192,192,72494,1,0,0:0:0:0:
320,192,72644,128,2,72794:0:0:0:0:
448,192,72644,1,0,0:0:0:0:
64,192,72794,128,0,72944:0:0:0:0:
192,192,72944,1,8,0:0:0:0:
320,192,72944,1,0,0:0:0:0:
448,192,72944,1,0,0:0:0:0:
192,192,73094,1,2,0:0:0:0:
448,192,73094,128,0,73394:0:0:0:0:
320,192,73244,1,0,0:0:0:0:
64,192,73394,128,2,73544:0:0:0:0:
192,192,73394,1,0,0:0:0:0:
192,192,73544,128,8,73694:0:0:0:0:
320,192,73544,1,0,0:0:0:0:
448,192,73544,1,0,0:0:0:0:
64,192,73694,1,8,0:0:0:0:
320,192,73694,128,0,73844:0:0:0:0:
448,192,73694,1,0,0:0:0:0:
64,192,73844,128,2,74069:0:0:0:0:
192,192,73844,128,4,74069:0:0:0:0:
448,192,73844,1,0,0:0:0:0:
64,192,74144,1,8,0:0:0:0:
320,192,74144,128,0,74369:0:0:0:0:
448,192,74144,128,0,74369:0:0:0:0:
192,192,74294,1,0,0:0:0:0:
64,192,74444,128,0,74669:0:0:0:0:
192,192,74444,128,0,74669:0:0:0:0:
320,192,74594,1,2,0:0:0:0:
448,192,74594,1,0,0:0:0:0:
64,192,74744,1,8,0:0:0:0:
320,192,74744,128,0,74969:0:0:0:0:
448,192,74744,128,0,74969:0:0:0:0:
64,192,75044,1,2,0:0:0:0:
192,192,75044,128,0,75269:0:0:0:0:
448,192,75044,128,0,75269:0:0:0:0:
64,192,75344,1,8,0:0:0:0:
320,192,75344,128,0,75494:0:0:0:0:
448,192,75344,1,0,0:0:0:0:
64,192,75494,128,2,75794:0:0:0:0:
192,192,75494,1,0,0:0:0:0:
448,192,75644,1,0,0:0:0:0:
320,192,75794,1,2,0:0:0:0:
448,192,75794,128,0,75944:0:0:0:0:
64,192,75944,1,8,0:0:0:0:
192,192,75944,1,0,0:0:0:0:
320,192,75944,128,0,76094:0:0:0:0:
192,192,76094,128,0,76244:0:0:0:0:
64,192,76244,1,2,0:0:0:0:
320,192,76244,128,4,76469:0:0:0:0:
448,192,76244,128,0,76469:0:0:0:0:
64,192,76544,128,8,76769:0:0:0:0:
192,192,76544,128,0,76769:0:0:0:0:
448,192,76544,1,0,0:0:0:0:
320,192,76694,1,0,0:0:0:0:
320,192,76844,128,0,77069:0:0:0:0:
448,192,76844,128,0,77069:0:0:0:0:
64,192,76994,1,2,0:0:0:0:
192,192,76994,1,0,0:0:0:0:
64,192,77144,128,8,77369:0:0:0:0:
192,192,77144,128,0,77369:0:0:0:0:
448,192,77144,1,0,0:0:0:0:
64,192,77444,128,2,77669:0:0:0:0:
320,192,77444,128,0,77669:0:0:0:0:
448,192,77444,1,0,0:0:0:0:
64,192,77744,1,8,0:0:0:0:
192,192,77744,128,0,77894:0:0:0:0:
448,192,77744,1,0,0:0:0:0:
320,192,77894,1,2,0:0:0:0:
448,192,77894,128,0,78194:0:0:0:0:
192,192,78044,1,0,0:0:0:0:
64,192,78194,128,2,78344:0:0:0:0:
320,192,78194,1,0,0:0:0:0:
320,192,78344,128,8,78494:0:0:0:0:
448,192,78344,1,0,0:0:0:0:
192,192,78494,128,0,78644:0:0:0:0:
64,192,78644,1,2,0:0:0:0:
320,192,78644,1,4,0:0:0:0:
448,192,78644,1,0,0:0:0:0:
448,192,78794,128,0,79244:0:0:0:0:
64,192,78944,1,8,0:0:0:0:
192,192,78944,1,0,0:0:0:0:
320,192,78944,128,0,79244:0:0:0:0:
64,192,79094,1,0,0:0:0:0:
192,192,79244,1,0,0:0:0:0:
320,192,79394,1,2,0:0:0:0:
448,192,79394,1,0,0:0:0:0:
64,192,79544,1,8,0:0:0:0:
192,192,79544,1,0,0:0:0:0:
448,192,79544,1,0,0:0:0:0:
192,192,79694,1,0,0:0:0:0:
64,192,79844,1,2,0:0:0:0:
448,192,79844,1,0,0:0:0:0:
320,192,79994,128,0,80294:0:0:0:0:
64,192,80144,1,8,0:0:0:0:
192,192,80144,1,0,0:0:0:0:
448,192,80144,1,0,0:0:0:0:
64,192,80294,128,2,80444:0:0:0:0:
192,192,80294,1,0,0:0:0:0:
448,192,80444,128,0,80594:0:0:0:0:
64,192,80594,1,2,0:0:0:0:
192,192,80594,128,0,80894:0:0:0:0:
64,192,80744,1,8,0:0:0:0:
320,192,80744,1,0,0:0:0:0:
448,192,80744,1,0,0:0:0:0:
320,192,80894,128,0,81194:0:0:0:0:
64,192,81044,1,2,0:0:0:0:
192,192,81044,1,0,0:0:0:0:
64,192,81194,1,2,0:0:0:0:
448,192,81194,128,0,81344:0:0:0:0:
64,192,81344,128,8,81494:0:0:0:0:
192,192,81344,1,0,0:0:0:0:
320,192,81344,1,0,0:0:0:0:
448,192,81494,1,0,0:0:0:0:
192,192,81644,128,2,81794:0:0:0:0:
320,192,81644,1,0,0:0:0:0:
320,192,81794,1,2,0:0:0:0:
448,192,81794,1,0,0:0:0:0:
64,192,81944,1,8,0:0:0:0:
192,192,81944,1,0,0:0:0:0:
448,192,81944,128,0,82244:0:0:0:0:
320,192,82094,128,0,82244:0:0:0:0:
64,192,82244,1,2,0:0:0:0:
192,192,82244,1,0,0:0:0:0:
64,192,82394,1,2,0:0:0:0:
320,192,82394,1,0,0:0:0:0:
192,192,82469,1,0,0:0:0:0:
64,192,82544,128,8,82694:0:0:0:0:
320,192,82544,1,0,0:0:0:0:
448,192,82544,1,0,0:0:0:0:
192,192,82694,1,2,0:0:0:0:
448,192,82694,1,0,0:0:0:0:
320,192,82844,128,0,82994:0:0:0:0:
64,192,82994,1,2,0:0:0:0:
192,192,82994,1,0,0:0:0:0:
64,192,83144,1,8,0:0:0:0:
192,192,83144,128,0,83294:0:0:0:0:
448,192,83144,1,0,0:0:0:0:
64,192,83294,1,8,0:0:0:0:
320,192,83294,128,0,83469:0:0:0:0:
448,192,83294,1,0,0:0:0:0:
64,192,83469,128,2,84369:0:0:0:0:
192,192,83469,1,4,0:0:0:0:
448,192,83469,1,0,0:0:0:0:
320,192,83619,1,0,0:0:0:0:
320,192,83769,1,8,0:0:0:0:
448,192,83769,1,0,0:0:0:0:
192,192,83919,1,0,0:0:0:0:
192,192,84069,1,2,0:0:0:0:
448,192,84069,1,0,0:0:0:0:
320,192,84219,1,8,0:0:0:0:
448,192,84219,1,0,0:0:0:0:
192,192,84294,1,0,0:0:0:0:
320,192,84369,1,8,0:0:0:0:
448,192,84369,1,2,0:0:0:0:
192,192,84444,1,0,0:0:0:0:
64,192,84519,1,8,0:0:0:0:
448,192,84519,1,0,0:0:0:0:
320,192,84594,1,0,0:0:0:0:
64,192,84669,1,8,0:0:0:0:
192,192,84669,1,0,0:0:0:0:
448,192,84669,1,0,0:0:0:0:
64,192,84969,1,2,0:0:0:0:
192,192,84969,128,0,85419:0:0:0:0:
320,192,85269,1,8,0:0:0:0:
448,192,85269,1,0,0:0:0:0:
64,192,85419,1,2,0:0:0:0:
320,192,85419,128,0,85882:0:0:0:0:
448,192,85419,1,0,0:0:0:0:
192,192,85569,1,0,0:0:0:0:
64,192,85882,128,8,87082:0:0:0:0:
192,192,85882,1,2,0:0:0:0:
448,192,85882,1,0,0:0:0:0:
320,192,86032,1,0,0:0:0:0:
192,192,86107,1,0,0:0:0:70:Tom1.wav
320,192,86182,1,2,0:0:0:0:
448,192,86182,1,0,0:0:0:70:Tom1.wav
192,192,86332,1,0,0:0:0:70:Tom2.wav
448,192,86332,1,0,0:0:0:0:
192,192,86482,1,2,0:0:0:0:
320,192,86482,1,0,0:0:0:0:
320,192,86632,1,0,0:0:0:70:Tom3.wav
448,192,86632,1,0,0:0:0:0:
192,192,86782,1,0,0:0:0:70:Tom3.wav
448,192,86782,1,0,0:0:0:0:
192,192,86932,1,2,0:0:0:0:
320,192,86932,1,0,0:0:0:0:
192,192,87082,1,8,0:0:0:0:
320,192,87082,1,0,0:0:0:0:
448,192,87082,1,0,0:0:0:0:
