osu file format v14

[General]
AudioFilename: audio.mp3
AudioLeadIn: 0
PreviewTime: 30215
Countdown: 0
SampleSet: Soft
StackLeniency: 0.5
Mode: 0
LetterboxInBreaks: 0
WidescreenStoryboard: 1

[Editor]
DistanceSpacing: 1.4
BeatDivisor: 3
GridSize: 32
TimelineZoom: 5.500002

[Metadata]
Title:Daten (TV Size)
TitleUnicode:堕天 (TV Size)
Artist:Creepy Nuts
ArtistUnicode:Creepy Nuts
Creator:Nachmark
Version:Hard
Source:よふかしのうた
Tags:Vanya2 Bakugo- Tucho yofukashi no uta call of the night anime 七草ナズナ Nazuna Nanakusa opening op japanese pop j-pop jpop hiphop hip-hop hip hop rock jrock male vocals vocalist
BeatmapID:3713553
BeatmapSetID:1810487

[Difficulty]
HPDrainRate:4
CircleSize:3.6
OverallDifficulty:6.2
ApproachRate:7.7
SliderMultiplier:1.22
SliderTickRate:1

[Events]
//Background and Video events
Video,-100,"video.mp4"
0,0,"DZpDAs1.jpeg",0,0
//Break Periods
//Storyboard Layer 0 (Background)
//Storyboard Layer 1 (Fail)
//Storyboard Layer 2 (Pass)
//Storyboard Layer 3 (Foreground)
//Storyboard Layer 4 (Overlay)
//Storyboard Sound Samples

[TimingPoints]
1403,294.117647058824,4,2,1,42,1,0
1403,-100,4,2,1,42,0,0
1844,300.3003003003,4,2,1,52,1,0
3195,-100,4,2,1,62,0,0
3345,-100,4,2,1,52,0,0
3495,-100,4,2,1,52,0,0
3645,-100,4,2,1,52,0,0
4171,-100,4,2,1,62,0,0
4246,-100,4,2,1,52,0,0
4396,-100,4,2,100,52,0,0
4546,-100,4,2,1,52,0,0
5597,-100,4,2,1,62,0,0
5747,-100,4,2,1,52,0,0
5898,-100,4,2,1,52,0,0
6047,-100,4,2,1,52,0,0
6573,-100,4,2,1,62,0,0
6648,300,4,2,1,52,1,0
6798,-100,4,2,100,52,0,0
6948,-100,4,2,1,52,0,0
7548,-100,4,2,1,52,0,0
7698,-100,4,2,1,52,0,0
7848,-100,4,1,100,52,0,0
7998,-100,4,2,1,52,0,0
8973,-100,4,2,1,62,0,0
9048,-100,4,2,1,52,0,0
9198,-100,4,2,100,52,0,0
9348,-100,4,2,1,52,0,0
10848,-103.950103950104,4,2,1,52,0,0
10998,324.324324324324,4,2,1,52,1,0
10998,-103.950103950104,4,2,1,52,0,0
11148,-103.950103950104,4,2,1,52,0,0
11160,-103.950103950104,4,2,100,52,0,0
11322,-100,4,2,1,52,0,0
11461,298.507462686567,4,2,1,52,1,0
13849,300,4,2,1,52,1,0
15274,-100,4,2,1,52,0,0
15349,-100,4,2,1,52,0,0
15649,-100,4,2,1,52,0,0
15799,-100,4,2,1,52,0,0
16249,300,4,2,1,52,1,0
17449,301.659125188537,4,2,1,52,1,0
17599,-100,4,2,100,52,0,0
17750,-100,4,2,1,52,0,0
18806,-100,4,2,100,52,0,0
18956,-100,4,2,1,52,0,0
19862,300,4,2,1,52,1,0
20012,-100,4,1,101,52,0,0
20087,-100,4,2,100,52,0,0
20162,-100,4,2,1,52,0,0
20312,-100,4,2,1,52,0,0
21062,300,4,2,1,52,1,0
21812,-100,4,2,100,52,0,0
22112,267.857142857143,4,2,1,52,1,0
22178,-100,4,2,1,52,0,0
22245,300,4,2,1,52,1,0
22395,-100,4,2,100,52,0,0
22545,-100,4,2,1,52,0,0
22695,272.727272727273,4,2,1,52,1,0
22830,312.5,4,2,1,52,1,0
23455,301.507537688442,4,2,1,52,1,0
24208,-100,4,2,100,52,0,0
24510,272.727272727273,4,2,1,52,1,0
24646,300,4,2,1,52,1,0
24646,-133.333333333333,4,2,1,52,0,0
24796,-133.333333333333,4,2,100,52,0,0
24946,-133.333333333333,4,2,1,52,0,0
24951,-133.333333333333,4,2,1,52,0,0
26596,-133.333333333333,4,2,100,52,0,0
26896,-133.333333333333,4,2,1,52,0,0
27043,309.278350515464,4,2,1,52,1,0
27043,-133.333333333333,4,2,1,52,0,0
27197,-133.333333333333,4,2,100,52,0,0
27352,-133.333333333333,4,2,1,52,0,0
27558,-133.333333333333,4,2,1,52,0,0
27661,327.868852459016,4,2,1,52,1,0
27824,288.461538461538,4,2,1,52,1,0
28256,301.507537688442,4,2,1,52,1,0
30215,285.714285714286,4,2,1,62,1,0
30643,300,4,2,1,72,1,1
30643,-83.3333333333333,4,2,1,72,0,1
30867,-83.3333333333333,4,2,1,82,0,1
30943,-83.3333333333333,4,2,1,72,0,1
31093,-83.3333333333333,4,2,1,82,0,1
31243,-83.3333333333333,4,2,1,72,0,1
31393,-83.3333333333333,4,2,1,72,0,1
31542,-83.3333333333333,4,2,1,72,0,1
31693,-83.3333333333333,4,2,1,72,0,1
31767,-83.3333333333333,4,2,1,82,0,1
31843,301.507537688442,4,2,1,72,1,1
31843,-83.3333333333333,4,2,1,72,0,1
31993,-83.3333333333333,4,2,1,72,0,1
32294,-83.3333333333333,4,2,1,72,0,1
32370,-83.3333333333333,4,2,1,82,0,1
32446,-83.3333333333333,4,2,1,72,0,1
33049,-83.3333333333333,4,1,101,72,0,1
33199,-83.3333333333333,4,2,1,72,0,1
33802,-83.3333333333333,4,2,1,72,0,1
33953,-83.3333333333333,4,2,1,72,0,1
34179,-83.3333333333333,4,2,1,82,0,1
34255,-83.3333333333333,4,2,1,72,0,1
35461,300,4,2,1,72,1,1
35461,-83.3333333333333,4,2,1,72,0,1
35685,-83.3333333333333,4,2,1,82,0,1
35761,-83.3333333333333,4,2,1,72,0,1
35911,-83.3333333333333,4,2,1,82,0,1
36061,-83.3333333333333,4,2,1,72,0,1
36211,-83.3333333333333,4,2,1,72,0,1
36360,-83.3333333333333,4,2,1,72,0,1
36511,-83.3333333333333,4,2,1,72,0,1
36585,-83.3333333333333,4,2,1,82,0,1
36661,299.25187032419,4,2,1,72,1,1
36661,-83.3333333333333,4,2,1,72,0,1
36810,-83.3333333333333,4,2,1,72,0,1
36960,-83.3333333333333,4,2,1,72,0,1
37184,-83.3333333333333,4,2,1,82,0,1
37259,-83.3333333333333,4,2,1,72,0,1
37858,-83.3333333333333,4,1,101,72,0,1
38007,-83.3333333333333,4,2,101,82,0,1
38157,-83.3333333333333,4,2,1,72,0,1
38979,-83.3333333333333,4,2,1,82,0,1
39055,300,4,2,1,72,1,1
39055,-83.3333333333333,4,2,1,72,0,1
40404,-83.3333333333333,4,2,1,72,0,1
40479,-83.3333333333333,4,2,1,82,0,1
40556,-83.3333333333333,4,2,1,72,0,1
40705,-83.3333333333333,4,2,1,82,0,1
40856,-83.3333333333333,4,2,1,72,0,1
41305,-83.3333333333333,4,2,1,82,0,1
41456,-83.3333333333333,4,2,1,72,0,1
42055,-83.3333333333333,4,1,101,72,0,1
42204,-83.3333333333333,4,2,1,72,0,1
42804,-83.3333333333333,4,2,1,72,0,1
42879,-83.3333333333333,4,2,1,82,0,1
42955,-83.3333333333333,4,2,1,72,0,1
43104,-83.3333333333333,4,2,1,82,0,1
43255,-83.3333333333333,4,2,1,72,0,1
43704,-83.3333333333333,4,2,1,82,0,1
43855,-83.3333333333333,4,2,1,72,0,1
44004,-83.3333333333333,4,2,1,72,0,1
44155,-83.3333333333333,4,2,1,72,0,1
44454,-83.3333333333333,4,2,1,82,0,1
44605,-83.3333333333333,4,2,1,72,0,1
45055,-83.3333333333333,4,1,100,72,0,1
45205,-83.3333333333333,4,2,1,72,0,1
45279,-83.3333333333333,4,2,1,72,0,1
45355,-83.3333333333333,4,2,1,72,0,1
45504,-83.3333333333333,4,2,1,82,0,1
45805,-83.3333333333333,4,2,1,72,0,1
46104,-83.3333333333333,4,2,1,82,0,1
46255,297.029702970297,4,2,1,72,1,1
46255,-83.3333333333333,4,2,1,72,0,1
47443,300,4,1,101,72,1,1
47443,-83.3333333333333,4,1,101,72,0,1
47591,-83.3333333333333,4,2,1,72,0,1
48193,-83.3333333333333,4,2,1,72,0,1
48342,-83.3333333333333,4,2,1,72,0,1
48643,-83.3333333333333,4,1,101,72,0,1
48792,-83.3333333333333,4,2,101,82,0,1
48943,-83.3333333333333,4,2,1,72,0,1
51043,-83.3333333333333,4,2,1,72,0,0
51343,-133.333333333333,4,2,1,72,0,0
52093,-133.333333333333,4,2,1,82,0,0
52243,-133.333333333333,4,2,1,72,0,0
52393,-133.333333333333,4,2,1,72,0,0
52543,-133.333333333333,4,2,1,72,0,0
52843,295.566502463054,4,2,1,62,1,0
53434,303.030303030303,4,2,1,62,1,0
54646,300,4,2,1,32,1,0
54646,-125,4,2,1,32,0,0
54945,-125,4,2,1,52,0,0
55096,-125,4,2,1,32,0,0
55546,-125,4,2,1,52,0,0
55846,-125,4,2,1,32,0,0
56145,-125,4,2,1,52,0,0
56296,-125,4,2,1,32,0,0
56895,-125,4,2,1,52,0,0
57046,-125,4,2,1,32,0,0
57345,-125,4,2,1,52,0,0
57496,-125,4,2,1,32,0,0
57946,-125,4,2,1,52,0,0
58246,-125,4,2,1,32,0,0
58545,-125,4,2,1,52,0,0
58696,-125,4,2,1,32,0,0
59295,-125,4,2,1,52,0,0
59446,-125,4,2,1,32,0,0
59596,-125,4,2,1,52,0,0
59746,-125,4,2,1,32,0,0
60496,-125,4,2,1,52,0,0
60646,295.566502463054,4,2,1,32,1,0
60793,-100,4,2,1,52,0,0
60941,-100,4,2,1,32,0,0
61532,315.789473684211,4,2,1,32,1,0
61689,-100,4,2,1,52,0,0
61847,295.566502463054,4,2,1,32,1,0
61920,-100,4,2,1,32,0,0
61994,-100,4,2,1,52,0,0
62142,-100,4,2,1,32,0,0
62215,-100,4,2,1,32,0,0
62289,-100,4,2,1,52,0,0
62438,-66.6666666666667,4,2,1,32,0,0
62733,-66.6666666666667,4,2,1,42,0,0
63029,306.122448979592,4,2,1,52,1,0
64253,301.507537688442,4,2,1,72,1,1
64253,-83.3333333333333,4,2,1,72,0,1
64479,-83.3333333333333,4,2,1,82,0,1
64554,-83.3333333333333,4,2,1,72,0,1
64705,-83.3333333333333,4,2,1,82,0,1
64856,-83.3333333333333,4,2,1,72,0,1
65006,-83.3333333333333,4,2,1,72,0,1
65157,-83.3333333333333,4,2,1,72,0,1
65308,-83.3333333333333,4,2,1,72,0,1
65383,-83.3333333333333,4,2,1,82,0,1
65459,-83.3333333333333,4,2,1,72,0,1
65609,-83.3333333333333,4,2,1,72,0,1
65910,-83.3333333333333,4,2,1,72,0,1
65986,-83.3333333333333,4,2,1,82,0,1
66062,-83.3333333333333,4,2,1,72,0,1
66815,-83.3333333333333,4,2,1,72,0,1
67795,-83.3333333333333,4,2,1,82,0,1
67871,300,4,2,1,72,1,1
67871,-83.3333333333333,4,2,1,72,0,1
69071,299.25187032419,4,2,1,72,1,1
69071,-83.3333333333333,4,2,1,72,0,1
69295,-83.3333333333333,4,2,1,82,0,1
69370,-83.3333333333333,4,2,1,72,0,1
69519,-83.3333333333333,4,2,1,82,0,1
69669,-83.3333333333333,4,2,1,72,0,1
69819,-83.3333333333333,4,2,1,72,0,1
69968,-83.3333333333333,4,2,1,72,0,1
70118,-83.3333333333333,4,2,1,72,0,1
70192,-83.3333333333333,4,2,1,82,0,1
70268,-83.3333333333333,4,2,1,72,0,1
70417,-83.3333333333333,4,2,1,72,0,1
70567,-83.3333333333333,4,2,1,72,0,1
70791,-83.3333333333333,4,2,1,82,0,1
70866,-83.3333333333333,4,2,1,72,0,1
71465,300,4,1,101,72,1,1
71465,-83.3333333333333,4,1,101,72,0,1
71614,-83.3333333333333,4,2,101,82,0,1
71765,-83.3333333333333,4,2,1,72,0,1
72589,-83.3333333333333,4,2,1,82,0,1
72665,-83.3333333333333,4,2,1,72,0,1
73639,-83.3333333333333,4,2,1,82,0,1
73715,-83.3333333333333,4,2,1,72,0,1
73789,-83.3333333333333,4,2,1,82,0,1
73865,-83.3333333333333,4,2,1,72,0,1
74014,-83.3333333333333,4,2,1,72,0,1
74089,-83.3333333333333,4,2,1,82,0,1
74166,-83.3333333333333,4,2,1,72,0,1
74315,-83.3333333333333,4,2,1,82,0,1
74465,-83.3333333333333,4,2,1,72,0,1
74914,-83.3333333333333,4,2,1,82,0,1
75066,-83.3333333333333,4,2,1,72,0,1
75665,-83.3333333333333,4,1,101,72,0,1
75814,-83.3333333333333,4,2,1,72,0,1
76414,-83.3333333333333,4,2,1,72,0,1
76489,-83.3333333333333,4,2,1,82,0,1
76566,-83.3333333333333,4,2,1,72,0,1
76715,-83.3333333333333,4,2,1,82,0,1
76866,-83.3333333333333,4,2,1,72,0,1
77315,-83.3333333333333,4,2,1,82,0,1
77466,-83.3333333333333,4,2,1,72,0,1
77615,-83.3333333333333,4,2,1,72,0,1
77765,-83.3333333333333,4,2,1,72,0,1
78064,-83.3333333333333,4,2,1,82,0,1
78215,-83.3333333333333,4,2,1,72,0,1
78665,297.029702970297,4,1,101,72,1,1
78665,-83.3333333333333,4,1,101,72,0,1
78813,-83.3333333333333,4,2,1,72,0,1
78887,-83.3333333333333,4,2,1,72,0,1
78962,-83.3333333333333,4,2,1,72,0,1
79110,-83.3333333333333,4,2,1,82,0,1
79407,-83.3333333333333,4,2,1,72,0,1
79704,-83.3333333333333,4,2,1,82,0,1
79853,300,4,2,1,72,1,1
81053,-83.3333333333333,4,1,101,72,0,1
81202,-83.3333333333333,4,2,1,72,0,1
81803,-83.3333333333333,4,2,1,72,0,1
81952,-83.3333333333333,4,2,1,72,0,1
82253,-83.3333333333333,4,1,101,72,0,1
82402,-83.3333333333333,4,2,101,82,0,1
82553,-83.3333333333333,4,2,1,72,0,1
84653,-83.3333333333333,4,2,1,72,0,0
84947,301.507537688442,4,2,1,62,1,0
84947,-133.333333333333,4,2,1,62,0,0
84953,-133.333333333333,4,1,102,62,0,0
85248,-133.333333333333,4,2,1,62,0,0
86002,-133.333333333333,4,2,102,62,0,0
86154,306.122448979592,4,2,1,62,1,0
87378,297.029702970297,4,2,13,52,1,0

[Colours]
Combo1 : 100,230,122
Combo2 : 18,185,199
Combo3 : 207,24,233

[HitObjects]
102,132,1403,6,0,P|88:90|78:57,2,61,2|2|2,0:0|0:0|0:0,0:0:0:0:
64,206,1844,6,0,P|103:173|188:170,1,122,6|10,1:2|0:0,0:0:0:0:
235,229,2294,1,2,0:2:0:0:
235,229,2444,2,0,P|257:198|256:167,1,61,2|2,0:2|1:2,0:0:0:0:
336,142,2744,2,0,P|311:102|284:94,1,61,10|2,0:0|0:2,0:0:0:0:
283,12,3045,2,0,P|231:37|211:102,2,122,2|10|2,1:2|0:0|0:2,0:0:0:0:
368,41,3795,1,0,1:2:0:0:
368,41,3946,2,0,P|440:58|495:70,1,122,8|0,0:0|1:2,0:0:0:0:
456,232,4546,6,0,P|408:220|372:212,1,61,10|2,0:0|0:2,0:0:0:0:
316,250,4847,2,0,P|258:267|241:273,1,61,2|2,0:2|1:2,0:0:0:0:
175,242,5147,1,10,0:0:0:0:
175,242,5297,1,2,0:2:0:0:
114,302,5447,2,0,P|84:243|101:191,2,122,2|10|2,1:2|0:0|0:2,0:0:0:0:
190,351,6198,1,0,1:2:0:0:
190,351,6348,2,0,L|327:374,1,122,8|0,0:0|1:2,0:0:0:0:
461,301,6948,6,0,P|444:256|450:229,1,61,10|2,0:0|0:2,0:0:0:0:
495,175,7248,1,2,0:2:0:0:
441,108,7398,2,0,P|401:129|323:114,1,122,2|2,1:2|0:2,0:0:0:0:
292,38,7848,2,0,P|259:25|225:42,1,61,0|2,0:0|0:2,0:0:0:0:
171,88,8148,1,10,0:0:0:0:
171,88,8298,1,2,1:2:0:0:
97,44,8448,2,0,P|82:87|93:115,1,61,2|0,0:2|1:2,0:0:0:0:
141,165,8748,2,0,P|153:212|133:285,1,122,8|0,0:0|1:2,0:0:0:0:
297,335,9348,6,0,P|336:318|364:305,1,61,10|2,0:0|0:2,0:0:0:0:
431,344,9648,2,0,P|442:304|424:268,1,61,2|2,0:2|1:2,0:0:0:0:
373,229,9948,1,10,0:0:0:0:
373,229,10098,1,2,0:2:0:0:
445,184,10248,2,0,P|456:115|463:52,1,122,2|10,1:2|0:0,0:0:0:0:
387,20,10698,1,2,1:2:0:0:
324,78,10848,2,0,P|264:98|204:73,1,122,10|0,0:0|0:0,0:0:0:0:
151,4,11322,1,8,0:0:0:0:
67,35,11461,1,4,1:2:0:0:
73,176,11759,6,0,P|126:192|150:197,1,61,10|2,0:0|0:2,0:0:0:0:
174,267,12058,2,0,P|221:254|246:250,1,61,2|2,0:2|1:2,0:0:0:0:
299,197,12356,1,10,0:0:0:0:
299,197,12505,1,2,0:2:0:0:
358,258,12655,2,0,P|379:222|357:139,1,122,2|10,1:2|0:0,0:0:0:0:
332,67,13102,6,0,L|256:84,1,61,2|2,1:2|0:2,0:0:0:0:
200,126,13400,2,0,L|119:102,1,61,2|10,1:2|0:0,0:0:0:0:
61,78,13699,1,2,0:2:0:0:
61,78,13849,2,0,P|94:123|84:212,1,122,2|10,1:2|0:0,0:0:0:0:
43,255,14299,5,2,0:2:0:0:
97,320,14449,2,0,P|143:308|173:301,1,61,2|2,0:2|1:2,0:0:0:0:
222,249,14749,1,10,0:0:0:0:
222,249,14899,1,2,0:2:0:0:
274,316,15049,2,0,P|301:285|302:225,1,91.5,2|0,1:2|0:0,0:0:0:0:
305,236,15349,5,10,0:0:0:0:
382,187,15499,2,0,P|373:162|349:122,1,61,2|2,1:2|0:2,0:0:0:0:
409,56,15799,1,0,1:2:0:0:
409,56,15949,2,0,P|355:38|288:72,1,122,10|0,0:0|1:2,0:0:0:0:
119,102,16549,6,0,P|131:150|135:172,1,61,10|2,0:0|0:2,0:0:0:0:
203,210,16849,2,0,P|189:256|184:278,1,61,2|2,0:2|1:2,0:0:0:0:
122,325,17149,1,10,0:0:0:0:
122,325,17299,1,2,0:2:0:0:
199,360,17449,2,0,P|236:342|324:352,1,122,2|10,1:2|0:0,0:0:0:0:
397,370,17901,5,2,1:2:0:0:
397,370,18052,2,0,P|391:324|384:287,1,61,2|2,0:2|1:2,0:0:0:0:
445,245,18353,1,10,0:0:0:0:
445,245,18504,1,2,0:2:0:0:
468,160,18655,2,0,P|409:163|368:206,1,122,2|10,1:2|0:0,0:0:0:0:
285,231,19108,5,2,0:2:0:0:
223,171,19258,2,0,P|182:163|158:160,1,61,2|2,0:2|1:2,0:0:0:0:
84,195,19560,2,0,P|66:154|74:125,1,61,10|2,0:0|0:2,0:0:0:0:
57,53,19862,1,2,1:2:0:0:
142,58,20012,2,0,P|221:44|283:33,1,122,0|2,0:0|1:2,0:0:0:0:
341,67,20462,2,0,P|387:82|408:92,1,61,10|8,0:0|0:0,0:0:0:0:
440,90,20687,1,8,0:0:0:0:
440,90,20762,1,10,0:0:0:0:
393,161,20912,1,8,0:0:0:0:
457,245,21062,5,8,1:2:0:0:
51,335,22245,1,0,1:2:0:0:
183,92,22695,2,0,L|198:165,1,61,10|10,0:0|0:0,0:0:0:0:
217,239,22986,1,0,1:2:0:0:
51,335,23455,5,8,1:2:0:0:
500,97,24646,2,0,P|431:63|365:90,1,137.250005235672,4|2,1:2|0:2,0:0:0:0:
316,136,25246,1,10,1:2:0:0:
233,155,25396,1,10,1:2:0:0:
233,155,25471,1,10,1:2:0:0:
233,155,25546,1,10,0:0:0:0:
153,104,25696,1,10,0:0:0:0:
154,12,25846,5,8,1:2:0:0:
504,355,27043,2,0,P|487:293|479:264,1,91.5000034904481,8|10,0:2|0:2,0:0:0:0:
409,202,27506,2,0,L|416:151,1,45.7500017452241,2|10,0:2|0:0,0:0:0:0:
432,51,27824,1,0,1:2:0:0:
444,60,28256,5,2,1:2:0:0:
142,62,29462,6,0,P|86:73|38:136,2,122,0|2|2,1:2|1:2|1:2,0:0:0:0:
235,96,30215,1,10,0:0:0:0:
235,96,30286,1,8,0:0:0:0:
235,96,30357,1,10,1:2:0:0:
308,140,30500,1,8,0:0:0:0:
382,76,30643,6,0,P|399:123|366:214,1,146.399995532227,6|10,1:2|0:0,0:0:0:0:
286,238,31093,1,0,0:0:0:0:
331,312,31243,2,0,P|264:294|179:270,1,146.399995532227,2|10,0:2|0:0,0:0:0:0:
130,206,31693,1,0,0:0:0:0:
66,266,31843,2,0,P|94:228|86:125,1,146.399995532227,2|8,1:2|0:0,0:0:0:0:
20,79,32295,2,0,P|50:50|83:45,1,73.1999977661134,2|0,0:2|1:2,0:0:0:0:
157,87,32596,2,0,P|203:102|236:89,1,73.1999977661134,2|8,1:2|0:0,0:0:0:0:
289,34,32898,6,0,B|336:19|367:52|344:65|393:86|434:69,1,146.399995532227,2|2,0:2|0:2,0:0:0:0:
494,23,33350,1,10,0:0:0:0:
494,23,33501,1,2,0:2:0:0:
421,72,33652,2,0,P|430:137|449:228,1,146.399995532227,2|8,0:2|0:0,0:0:0:0:
299,313,34255,5,2,1:2:0:0:
236,251,34405,2,0,P|178:269|143:280,1,73.1999977661134,2|8,0:2|0:0,0:0:0:0:
123,350,34707,2,0,P|90:312|100:208,1,146.399995532227,2|2,1:2|1:2,0:0:0:0:
155,158,35159,1,10,0:0:0:0:
155,158,35310,1,2,0:2:0:0:
86,102,35461,6,0,P|143:65|218:101,1,146.399995532227,2|10,1:2|0:0,0:0:0:0:
270,156,35911,1,0,0:0:0:0:
343,107,36061,2,0,L|300:257,1,146.399995532227,2|10,0:2|0:0,0:0:0:0:
351,317,36511,1,0,0:0:0:0:
266,342,36661,2,0,B|231:318|193:342|210:362|167:373|123:355,1,146.399995532227,2|8,1:2|0:0,0:0:0:0:
37,345,37109,2,0,P|45:310|74:289,1,73.1999977661134,2|0,0:2|1:2,0:0:0:0:
39,207,37409,2,0,P|95:201|124:227,1,73.1999977661134,2|8,1:2|0:0,0:0:0:0:
164,275,37708,6,0,P|146:173|127:101,1,146.399995532227,2|0,0:2|0:0,0:0:0:0:
195,67,38157,1,10,0:0:0:0:
195,67,38306,1,2,0:2:0:0:
119,21,38456,2,0,P|56:43|19:57,2,73.1999977661134,2|0|8,0:2|1:2|0:0,0:0:0:0:
128,155,39055,5,2,1:2:0:0:
187,215,39205,2,0,P|138:243|113:239,1,73.1999977661134,2|8,0:2|0:0,0:0:0:0:
46,179,39505,2,0,P|75:246|67:318,1,146.399995532227,2|2,1:2|1:2,0:0:0:0:
0,384,39955,1,10,0:0:0:0:
0,384,40105,1,2,0:2:0:0:
67,318,40255,6,0,P|102:326|138:335,1,73.1999977661134,2|0,1:2|0:0,0:0:0:0:
153,351,40556,2,0,L|223:330,1,73.1999977661134,10|0,0:0|0:0,0:0:0:0:
223,329,40856,2,0,L|292:351,1,73.1999977661134,2|0,0:2|1:2,0:0:0:0:
292,351,41156,2,0,L|361:327,1,73.1999977661134,10|0,0:0|0:0,0:0:0:0:
361,326,41456,2,0,P|396:335|431:345,1,73.1999977661134,2|2,1:2|0:2,0:0:0:0:
496,293,41755,5,10,0:0:0:0:
417,258,41905,2,0,P|392:167|373:102,1,146.399995532227,2|2,0:2|1:2,0:0:0:0:
447,62,42355,1,10,0:0:0:0:
447,62,42505,1,2,0:2:0:0:
363,36,42655,6,0,P|304:22|278:15,1,73.1999977661134,2|0,1:2|0:0,0:0:0:0:
291,18,42955,2,0,L|204:42,1,73.1999977661134,10|0,0:0|0:0,0:0:0:0:
220,37,43255,2,0,L|136:9,1,73.1999977661134,2|0,0:2|1:2,0:0:0:0:
150,14,43555,2,0,L|71:40,1,73.1999977661134,10|0,0:0|0:0,0:0:0:0:
80,37,43855,2,0,P|33:24|1:15,1,73.1999977661134,2|0,1:2|0:0,0:0:0:0:
19,111,44155,5,10,0:0:0:0:
97,160,44305,2,0,P|83:214|72:260,1,73.1999977661134,2|0,1:2|0:0,0:0:0:0:
16,293,44605,1,2,1:2:0:0:
16,293,44755,2,0,P|56:317|110:308,1,73.1999977661134,10|2,0:0|0:2,0:0:0:0:
155,270,45055,6,0,P|236:283|287:293,1,109.79999664917
299,314,45355,2,0,P|327:285|323:243,1,73.1999977661134,10|0,0:0|0:0,0:0:0:0:
277,182,45655,1,0,0:0:0:0:
277,182,45805,1,0,1:2:0:0:
376,173,45955,2,0,P|363:124|356:100,1,73.1999977661134,8|0,0:0|0:0,0:0:0:0:
393,5,46255,5,2,0:0:0:0:
393,5,46403,2,0,P|344:-2|262:55,1,146.399995532227,0|0,1:2|0:0,0:0:0:0:
228,126,46849,1,2,0:0:0:0:
228,126,46997,2,0,P|179:133|97:76,1,146.399995532227,2|0,1:2|0:0,0:0:0:0:
44,20,47443,5,0,0:0:0:0:
44,20,47593,1,2,0:2:0:0:
22,118,47743,1,10,0:0:0:0:
22,118,47893,1,2,0:2:0:0:
97,166,48043,6,0,L|79:316,1,146.399995532227,2|10,0:2|0:0,0:0:0:0:
11,384,48493,2,0,P|63:347|162:353,1,146.399995532227,2|0,0:2|0:0,0:0:0:0:
237,362,48943,2,0,P|262:330|261:291,1,73.1999977661134,10|0,0:0|1:2,0:0:0:0:
351,293,49243,2,0,P|339:257|348:215,1,73.1999977661134,2|0,0:2|1:2,0:0:0:0:
414,168,49543,1,10,0:0:0:0:
414,168,49693,1,10,0:0:0:0:
491,126,49843,2,0,P|392:106|314:90,1,146.399995532227,2|8,1:2|0:0,0:0:0:0:
184,30,50443,5,0,1:2:0:0:
184,30,50593,1,8,0:0:0:0:
125,95,50743,1,8,1:2:0:0:
125,95,50893,1,8,0:0:0:0:
205,168,51043,5,8,0:0:0:0:
63,337,51343,2,0,P|114:311|161:312,1,91.5000034904481,6|8,1:2|0:0,0:0:0:0:
229,339,51793,2,0,P|266:354|325:338,1,91.5000034904481,6|0,1:2|0:0,0:0:0:0:
401,307,52243,2,0,P|394:258|394:257,1,45.7500017452241,6|0,1:2|0:0,0:0:0:0:
466,199,52543,5,8,0:3:0:0:
466,199,52693,1,8,0:0:0:0:
396,141,52843,1,0,1:2:0:0:
396,141,52990,1,8,0:3:0:0:
468,95,53138,2,0,P|475:57|481:27,1,61
340,22,53434,5,8,0:0:0:0:
79,345,54646,6,0,P|65:296|39:236,1,97.6,2|0,1:2|0:0,0:0:0:0:
96,183,55096,1,2,0:2:0:0:
96,183,55246,2,0,P|104:146|113:116,1,48.8,0|2,1:2|0:2,0:0:0:0:
28,98,55546,2,0,P|20:67|8:33,1,48.8
121,32,55846,6,0,P|150:50|223:44,1,97.6,2|0,1:2|0:0,0:0:0:0:
305,11,56296,1,0,0:0:0:0:
305,11,56446,2,0,P|320:49|305:103,1,97.6,2|0,0:2|0:0,0:0:0:0:
317,276,57046,6,0,P|264:260|206:247,1,97.6,2|0,1:2|0:0,0:0:0:0:
142,297,57496,2,0,P|126:265|130:247,1,48.8,2|0,0:2|1:2,0:0:0:0:
166,178,57796,1,2,0:2:0:0:
166,178,57946,2,0,P|182:146|178:128,1,48.8
114,64,58246,6,0,P|169:45|220:29,1,97.6,2|0,1:2|0:0,0:0:0:0:
290,71,58696,1,2,0:2:0:0:
366,25,58846,2,0,P|352:79|379:135,1,97.6,2|0,1:2|0:0,0:0:0:0:
434,176,59296,1,0,0:0:0:0:
434,176,59446,6,0,P|427:226|418:282,1,97.6,2|0,1:2|1:2,0:0:0:0:
456,347,59896,1,2,0:2:0:0:
456,347,60046,2,0,P|424:328|359:326,1,97.6,0|0,1:2|1:2,0:0:0:0:
183,351,60646,6,0,P|172:314|163:292,1,61,2|0,1:2|0:0,0:0:0:0:
94,228,60941,1,4,1:2:0:0:
184,190,61089,2,0,P|195:153|204:131,1,61,2|0,0:2|1:2,0:0:0:0:
118,90,61384,2,0,P|107:53|98:31,1,61,2|4,0:2|1:2,0:0:0:0:
256,29,61847,6,0,P|293:22|325:16,1,61,2|0,1:2|0:0,0:0:0:0:
368,84,62142,2,0,P|397:89|427:95,1,61,6|0,1:2|0:0,0:0:0:0:
504,66,62438,6,0,P|512:103|480:149,5,61.0000023269654,2|8|8|10|8|8,1:2|0:0|0:0|0:0|0:0|0:0,0:0:0:0:
442,188,63029,5,2,1:2:0:0:
72,27,64253,6,0,B|46:69|46:69|79:186,1,146.399995532227,6|10,1:2|0:0,0:0:0:0:
149,218,64705,1,0,0:0:0:0:
73,276,64856,2,0,P|126:256|224:277,1,146.399995532227,2|10,0:2|0:0,0:0:0:0:
279,337,65308,1,0,0:0:0:0:
363,293,65459,6,0,P|351:215|334:131,1,146.399995532227,2|8,1:2|0:0,0:0:0:0:
390,69,65911,2,0,P|342:51|297:63,1,73.1999977661134,2|0,0:2|1:2,0:0:0:0:
238,4,66212,2,0,P|221:44|231:86,1,73.1999977661134,2|8,1:2|0:0,0:0:0:0:
226,168,66514,6,0,B|185:150|158:171|172:184|120:215|69:184,1,146.399995532227,2|2,0:2|0:2,0:0:0:0:
20,126,66966,1,10,0:0:0:0:
20,126,67117,1,2,0:2:0:0:
111,100,67268,2,0,L|80:2,2,73.1999977661134,2|0|8,0:2|1:2|0:0,0:0:0:0:
127,315,67871,5,2,1:2:0:0:
207,264,68021,2,0,P|254:273|293:282,1,73.1999977661134,2|8,0:2|0:0,0:0:0:0:
343,349,68321,2,0,P|330:308|371:216,1,146.399995532227,2|2,1:2|1:2,0:0:0:0:
458,183,68771,1,10,0:0:0:0:
458,183,68921,1,2,0:2:0:0:
497,96,69071,6,0,L|331:69,1,146.399995532227,2|10,1:2|0:0,0:0:0:0:
273,20,69519,1,0,0:0:0:0:
235,107,69669,2,0,B|187:84|162:108|174:123|125:154|88:126,1,146.399995532227,2|10,0:2|0:0,0:0:0:0:
26,72,70118,1,0,0:0:0:0:
26,72,70268,6,0,P|63:115|55:231,1,146.399995532227,2|8,1:2|0:0,0:0:0:0:
11,276,70716,2,0,P|62:289|87:296,1,73.1999977661134,2|0,0:2|1:2,0:0:0:0:
150,361,71016,2,0,P|191:346|218:328,1,73.1999977661134,2|8,1:2|0:0,0:0:0:0:
309,346,71315,6,0,P|304:293|230:242,1,146.399995532227,2|0,0:2|0:0,0:0:0:0:
140,237,71765,1,10,0:0:0:0:
140,237,71915,1,2,0:2:0:0:
187,165,72065,2,0,L|158:94,2,73.1999977661134,2|0|8,0:2|1:2|0:0,0:0:0:0:
434,20,72665,5,2,1:2:0:0:
366,86,72815,2,0,P|385:142|395:170,1,73.1999977661134,2|8,0:2|0:0,0:0:0:0:
483,174,73115,2,0,P|462:264|447:333,1,146.399995532227,2|2,1:2|1:2,0:0:0:0:
372,372,73565,1,10,0:0:0:0:
372,372,73715,1,2,0:2:0:0:
350,279,73865,6,0,P|314:269|279:259,1,73.1999977661134,2|0,1:2|0:0,0:0:0:0:
280,260,74166,2,0,L|210:283,1,73.1999977661134,10|0,0:0|0:0,0:0:0:0:
210,283,74465,2,0,L|140:260,1,73.1999977661134,2|0,0:2|1:2,0:0:0:0:
141,260,74765,2,0,L|70:280,1,73.1999977661134,10|0,0:0|0:0,0:0:0:0:
71,281,75066,2,0,P|35:271|0:263,1,73.1999977661134,2|2,1:2|0:2,0:0:0:0:
80,185,75365,5,10,0:0:0:0:
0,153,75515,2,0,P|41:137|140:100,1,146.399995532227,2|2,0:2|1:2,0:0:0:0:
174,27,75965,1,10,0:0:0:0:
174,27,76115,1,2,0:2:0:0:
152,116,76265,6,0,P|187:124|223:133,1,73.1999977661134,2|0,1:2|0:0,0:0:0:0:
223,133,76566,2,0,L|293:112,1,73.1999977661134,10|0,0:0|0:0,0:0:0:0:
293,111,76866,2,0,L|362:133,1,73.1999977661134,2|0,0:2|1:2,0:0:0:0:
362,133,77166,2,0,L|431:109,1,73.1999977661134,10|0,0:0|0:0,0:0:0:0:
431,108,77466,2,0,P|466:117|501:127,1,73.1999977661134,2|0,1:2|0:0,0:0:0:0:
427,199,77765,5,10,0:0:0:0:
484,264,77915,2,0,P|433:289|391:268,1,73.1999977661134,2|0,1:2|0:0,0:0:0:0:
331,249,78215,1,2,1:2:0:0:
331,249,78365,2,0,P|285:266|241:280,1,73.1999977661134,10|2,0:0|0:2,0:0:0:0:
207,352,78665,6,0,P|165:309|169:254,1,109.79999664917
192,222,78962,2,0,P|174:166|158:126,1,73.1999977661134,10|0,0:0|0:0,0:0:0:0:
89,102,79259,1,0,0:0:0:0:
89,102,79407,1,0,1:2:0:0:
159,37,79556,2,0,P|203:40|246:47,1,73.1999977661134,8|0,0:0|0:0,0:0:0:0:
318,18,79853,5,2,1:2:0:0:
318,18,80003,2,0,P|328:63|294:129,1,122,0|0,1:2|0:0,0:0:0:0:
218,179,80453,1,2,1:2:0:0:
218,179,80603,2,0,P|209:238|240:289,1,122,2|0,1:2|0:0,0:0:0:0:
264,384,81053,5,0,0:0:0:0:
264,384,81203,1,2,0:2:0:0:
179,347,81353,1,10,0:0:0:0:
179,347,81503,1,2,0:2:0:0:
98,383,81653,6,0,P|82:302|69:210,1,146.399995532227,2|10,0:2|0:0,0:0:0:0:
20,141,82103,2,0,P|79:160|166:119,1,146.399995532227,2|0,0:2|0:0,0:0:0:0:
245,77,82553,2,0,P|298:90|346:105,1,73.1999977661134,10|0,0:0|1:2,0:0:0:0:
363,187,82853,2,0,P|403:168|440:155,1,73.1999977661134,2|0,0:2|1:2,0:0:0:0:
476,73,83153,1,10,0:0:0:0:
476,73,83303,1,10,0:0:0:0:
430,158,83453,2,0,P|418:209|473:316,1,146.399995532227,2|8,1:2|0:0,0:0:0:0:
259,302,84053,5,0,1:2:0:0:
259,302,84203,1,8,0:0:0:0:
179,250,84353,1,8,1:2:0:0:
179,250,84503,1,8,0:0:0:0:
82,338,84653,5,8,0:0:0:0:
86,84,84947,2,0,P|142:99|186:79,1,91.5000034904481,4|8,0:0|0:0,0:0:0:0:
229,37,85399,2,0,P|271:20|323:47,1,91.5000034904481,4|0,1:2|0:0,0:0:0:0:
371,97,85851,2,0,P|381:138|385:159,1,45.7500017452241,14|0,1:2|0:0,0:0:0:0:
455,196,86153,5,0,1:2:0:0:
455,196,86307,1,8,0:3:0:0:
385,255,86460,1,0,1:2:0:0:
385,255,86613,1,8,0:0:0:0:
470,293,86766,2,0,P|460:345|455:370,1,61,8|0,0:0|1:2,0:0:0:0:
334,355,87072,5,12,0:0:0:0:
