osu file format v14

[General]
AudioFilename: audio.mp3
AudioLeadIn: 0
PreviewTime: 62365
Countdown: 0
SampleSet: Soft
StackLeniency: 0.3
Mode: 0
LetterboxInBreaks: 0
WidescreenStoryboard: 1

[Editor]
DistanceSpacing: 1.1
BeatDivisor: 4
GridSize: 16
TimelineZoom: 1

[Metadata]
Title:Bling-Bang-Bang-Born (TV Size)
TitleUnicode:Bling-Bang-Bang-Born (TV Size)
Artist:Creepy Nuts
ArtistUnicode:Creepy Nuts
Creator:Yudragen
Version:totally chadded lean party 347kg bench press
Source:マッシュル-MASHLE- 神覚者候補選抜試験編
Tags:Mashle: Kami Satoru-sha Kouho Senbatsu Shiken-hen anime japanese rap hiphop MAGIC AND MUSCLES The Divine Visionary Candidate Exam Arc chaoticred jersey club Hip Hop second season 2nd DJ松永 DJ Matsunaga R-Shitei R-指定
BeatmapID:4448167
BeatmapSetID:2116067

[Difficulty]
HPDrainRate:5.5
CircleSize:4
OverallDifficulty:8
ApproachRate:9.4
SliderMultiplier:2
SliderTickRate:1

[Events]
//Background and Video events
0,0,"firefox_We54uAT81D.png",0,0
Video,-170,"video.mp4"
//Break Periods
//Storyboard Layer 0 (Background)
//Storyboard Layer 1 (Fail)
//Storyboard Layer 2 (Pass)
//Storyboard Layer 3 (Foreground)
//Storyboard Layer 4 (Overlay)
//Storyboard Sound Samples

[TimingPoints]
1888,382.165605095541,4,2,0,70,1,0
14117,-100,4,2,0,60,0,0
50805,-100,4,2,0,50,0,0
61505,-100,4,2,0,60,0,0
63034,-100,4,2,0,80,0,1
87493,-100,4,2,0,20,0,0
89786,-100,4,2,0,20,0,0
89881,-100,4,2,0,5,0,0

[Colours]
Combo1 : 241,241,92
Combo2 : 166,168,166
Combo3 : 228,214,82
Combo4 : 186,193,197

[HitObjects]
50,40,1888,5,0,1:0:0:0:
67,118,2270,1,0,1:0:0:0:
126,65,2652,1,0,1:0:0:0:
0,179,2938,1,0,1:0:0:0:
152,249,3225,1,0,1:0:0:0:
279,135,3416,5,0,1:0:0:0:
262,213,3798,1,0,1:0:0:0:
203,160,4180,1,0,1:0:0:0:
374,67,4466,1,0,1:0:0:0:
358,252,4753,1,0,1:0:0:0:
502,185,4945,5,0,1:0:0:0:
485,107,5327,1,0,1:0:0:0:
426,160,5709,1,0,1:0:0:0:
512,267,5995,1,0,1:0:0:0:
475,32,6282,1,0,1:0:0:0:
375,317,6473,5,0,1:0:0:0:
392,239,6855,1,0,1:0:0:0:
451,292,7237,1,0,1:0:0:0:
304,271,7523,1,0,1:0:0:0:
512,189,7810,1,0,1:0:0:0:
244,351,8002,5,2,1:0:0:0:
160,329,8384,1,0,1:0:0:0:
223,264,8766,1,0,1:0:0:0:
87,356,9053,1,0,1:0:0:0:
326,352,9340,1,0,1:0:0:0:
137,217,9531,5,2,1:3:0:0:
221,195,9913,1,0,1:0:0:0:
158,130,10295,1,0,1:0:0:0:
35,209,10582,1,0,1:0:0:0:
304,271,10869,1,0,1:0:0:0:
289,8,11059,5,0,1:0:0:0:
289,8,11155,1,0,0:2:0:0:
289,8,11251,1,0,0:0:0:0:
320,83,11442,1,0,1:0:0:0:
320,83,11537,1,0,0:2:0:0:
320,83,11633,1,0,0:0:0:0:
236,73,11824,1,0,1:0:0:0:
320,83,12110,1,0,1:0:0:0:
289,8,12397,1,0,1:0:0:0:
50,156,12588,5,2,1:3:0:0:
484,333,14117,5,2,1:2:0:0:
411,305,14403,1,2,0:0:0:0:
411,305,14499,1,0,1:0:0:0:
484,333,14690,1,2,0:0:0:0:
328,357,14881,1,2,1:2:0:0:
405,214,15072,1,2,0:0:0:0:
405,214,15168,1,0,1:0:0:0:
405,214,15263,1,2,1:2:0:0:
221,247,15454,1,2,1:2:0:0:
297,269,15645,5,2,1:2:0:0:
255,168,15932,1,2,0:0:0:0:
255,168,16028,1,0,1:0:0:0:
135,264,16219,1,2,1:2:0:0:
273,361,16410,1,2,1:2:0:0:
395,247,16601,1,2,0:0:0:0:
395,247,16696,1,0,1:0:0:0:
395,247,16792,1,2,1:2:0:0:
273,361,16983,1,0,1:0:0:0:
221,247,17174,5,2,1:2:0:0:
297,269,17365,1,0,0:0:0:0:
176,178,17556,1,0,1:0:0:0:
187,175,17652,1,2,0:0:0:0:
171,170,17747,1,2,0:0:0:0:
328,123,17938,1,0,1:0:0:0:
263,81,18130,1,2,0:0:0:0:
398,23,18321,1,0,1:0:0:0:
380,14,18416,1,2,0:0:0:0:
394,11,18512,1,2,1:2:0:0:
145,75,18703,5,2,1:2:0:0:
208,22,18989,1,2,3:0:0:0:
208,22,19085,1,0,1:0:0:0:
145,75,19276,1,2,3:2:0:0:
249,223,19467,1,2,1:2:0:0:
453,168,19658,1,2,3:2:0:0:
453,168,19754,1,0,1:0:0:0:
453,168,19849,1,2,0:0:0:0:
431,93,20040,1,0,1:0:0:0:
278,146,20231,5,2,1:2:0:0:
328,208,20805,1,2,0:0:0:0:
328,208,20996,1,0,1:0:0:0:
249,223,21760,1,2,1:2:0:0:
278,146,22047,1,2,3:2:0:0:
328,208,22333,1,2,3:2:0:0:
249,223,22524,1,2,1:2:0:0:
362,122,22716,5,2,3:2:0:0:
362,122,22811,1,0,1:0:0:0:
362,122,22907,1,2,3:2:0:0:
314,295,23098,1,0,1:0:0:0:
171,168,23289,5,2,1:2:0:0:
314,295,23862,1,2,0:0:0:0:
314,295,24053,1,0,1:0:0:0:
362,122,24817,1,2,0:0:0:0:
314,295,25104,1,2,0:0:0:0:
171,168,25391,1,2,0:0:0:0:
332,202,25582,5,2,1:2:0:0:
260,160,25773,1,2,0:0:0:0:
260,160,25868,1,0,1:0:0:0:
260,160,25964,1,2,1:2:0:0:
261,237,26155,1,0,1:2:0:0:
509,90,26346,5,2,1:2:0:0:
348,39,26537,1,2,0:0:0:0:
433,97,26728,1,0,1:0:0:0:
418,110,26824,1,2,0:0:0:0:
434,114,26919,1,2,0:0:0:0:
446,0,27110,1,0,1:0:0:0:
324,146,27302,1,2,0:0:0:0:
453,219,27493,1,2,1:2:0:0:
480,238,27588,1,0,3:0:0:0:
482,286,27684,1,2,1:2:0:0:
440,320,27779,1,2,0:0:0:0:
394,307,27875,5,2,1:2:0:0:
253,214,28066,1,2,0:0:0:0:
260,227,28161,1,2,0:0:0:0:
248,247,28257,1,2,1:2:0:0:
274,218,28352,1,2,0:0:0:0:
250,189,28448,1,2,0:0:0:0:
305,340,28639,1,0,1:0:0:0:
225,86,28830,1,2,0:0:0:0:
130,285,29021,1,2,1:2:0:0:
160,285,29117,1,2,0:0:0:0:
180,302,29212,1,2,1:2:0:0:
192,337,29308,1,2,0:0:0:0:
171,378,29403,5,0,1:0:0:0:
216,203,29595,1,2,0:0:0:0:
227,166,29690,1,2,0:0:0:0:
209,133,29786,1,0,1:0:0:0:
226,123,29881,1,2,0:0:0:0:
222,104,29977,1,2,0:0:0:0:
114,177,30168,1,0,1:0:0:0:
250,334,30359,1,2,0:0:0:0:
419,161,30550,1,2,1:2:0:0:
406,144,30645,1,2,0:0:0:0:
370,132,30741,1,0,1:0:0:0:
338,155,30837,1,2,0:0:0:0:
336,196,30932,5,0,1:0:0:0:
424,60,31123,1,2,0:0:0:0:
477,240,31314,1,0,1:0:0:0:
485,227,31410,1,2,0:0:0:0:
456,234,31505,1,2,0:0:0:0:
435,317,31696,1,2,1:2:0:0:
320,242,31887,1,2,0:0:0:0:
242,358,32079,1,0,1:2:0:0:
262,362,32174,1,2,0:0:0:0:
243,371,32270,1,2,1:2:0:0:
275,175,32461,5,2,1:2:0:0:
357,366,32652,1,2,0:0:0:0:
197,182,32843,1,0,1:0:0:0:
189,201,32938,1,2,0:0:0:0:
178,167,33034,1,2,0:0:0:0:
413,29,33225,1,0,1:0:0:0:
383,115,33607,5,2,1:2:0:0:
383,115,33655,1,2,1:2:0:0:
306,103,34372,5,2,1:2:0:0:
306,103,34420,1,2,1:2:0:0:
228,87,35136,5,2,1:2:0:0:
228,87,35184,1,2,1:2:0:0:
155,120,35327,1,0,1:0:0:0:
160,40,35518,5,2,1:2:0:0:
94,233,35709,1,2,0:0:0:0:
99,240,35805,1,2,1:2:0:0:
174,219,35996,1,2,3:2:0:0:
171,224,36091,1,2,0:0:0:0:
156,300,36282,1,0,1:0:0:0:
152,294,36378,1,2,0:0:0:0:
336,208,36569,1,2,0:0:0:0:
340,215,36665,1,2,1:3:0:0:
308,285,36856,1,2,0:0:0:0:
303,281,36951,1,2,0:0:0:0:
298,276,37047,5,0,1:0:0:0:
368,145,37333,1,2,0:0:0:0:
378,150,37429,1,0,1:0:0:0:
250,180,37620,1,2,0:0:0:0:
479,253,37811,1,0,1:0:0:0:
328,81,38002,5,2,0:3:0:0:
328,81,38098,1,0,1:0:0:0:
328,81,38193,1,2,1:3:0:0:
409,344,38384,1,2,0:0:0:0:
512,167,38575,5,2,1:2:0:0:
393,209,38766,1,2,0:0:0:0:
413,202,38862,1,2,3:2:0:0:
389,194,38958,1,0,1:0:0:0:
368,209,39053,1,0,0:0:0:0:
330,210,39149,1,2,0:0:0:0:
235,343,39340,1,0,1:0:0:0:
169,168,39531,1,2,0:0:0:0:
143,184,39626,1,2,3:2:0:0:
120,192,39722,1,2,1:3:0:0:
4,207,39913,1,0,1:0:0:0:
23,224,40009,1,2,0:0:0:0:
40,245,40104,5,2,1:2:0:0:
38,125,40295,1,2,0:0:0:0:
57,109,40391,1,2,0:0:0:0:
67,87,40486,1,0,1:0:0:0:
93,81,40582,1,0,0:0:0:0:
117,86,40677,1,2,0:0:0:0:
208,250,40868,1,0,1:0:0:0:
259,0,41059,1,2,0:0:0:0:
385,63,41251,1,2,1:3:0:0:
403,48,41346,1,2,0:2:0:0:
376,34,41442,1,0,1:2:0:0:
394,76,41537,1,2,0:0:0:0:
437,103,41633,5,2,1:2:0:0:
383,208,41824,1,2,0:0:0:0:
410,187,41919,1,2,0:0:0:0:
425,230,42015,1,0,1:0:0:0:
380,248,42110,1,0,0:0:0:0:
329,233,42206,1,2,0:0:0:0:
256,362,42397,1,0,1:0:0:0:
141,222,42588,1,2,0:0:0:0:
109,244,42684,1,0,1:0:0:0:
115,277,42779,1,2,1:3:0:0:
144,315,42875,1,2,0:0:0:0:
173,280,42970,1,0,1:0:0:0:
154,227,43066,1,2,0:0:0:0:
98,225,43161,5,0,1:0:0:0:
35,166,43352,1,2,0:0:0:0:
14,133,43448,1,2,0:0:0:0:
37,96,43544,1,0,1:0:0:0:
67,122,43639,1,2,0:0:0:0:
100,125,43735,1,2,0:0:0:0:
0,246,43926,1,2,1:2:0:0:
274,128,44117,5,2,0:0:0:0:
274,128,44212,1,0,1:0:0:0:
274,128,44308,1,2,1:3:0:0:
125,19,44499,1,0,1:0:0:0:
389,90,44690,5,0,1:0:0:0:
430,170,44881,1,2,0:0:0:0:
439,149,44977,1,2,0:0:0:0:
454,182,45072,1,0,1:0:0:0:
434,215,45168,1,0,0:0:0:0:
445,253,45263,1,2,0:0:0:0:
219,192,45454,1,0,1:0:0:0:
334,286,45645,1,2,0:0:0:0:
320,301,45741,1,2,1:2:0:0:
299,311,45837,1,2,1:3:0:0:
252,289,45932,1,2,0:0:0:0:
194,286,46028,1,2,1:2:0:0:
145,317,46123,1,2,0:0:0:0:
136,365,46219,5,2,1:0:0:0:
258,94,46410,1,2,0:2:0:0:
4,275,46601,1,2,1:0:0:0:
31,264,46696,1,2,0:0:0:0:
0,248,46792,1,2,0:0:0:0:
262,179,46983,5,2,1:0:0:0:
48,126,47270,1,2,1:2:0:0:
48,126,47365,1,2,1:3:0:0:
262,179,47556,1,2,1:2:0:0:
107,69,47747,5,2,1:2:0:0:
181,223,47938,1,2,0:0:0:0:
166,190,48034,1,2,0:0:0:0:
168,163,48130,1,0,1:0:0:0:
89,230,48321,1,2,0:0:0:0:
241,83,48512,1,2,1:2:0:0:
297,261,48703,1,2,0:0:0:0:
282,294,48799,1,2,1:0:0:0:
284,321,48895,1,2,1:3:0:0:
364,197,49085,1,2,1:2:0:0:
192,321,49276,5,2,1:2:0:0:
385,283,49467,1,2,0:0:0:0:
406,282,49563,1,2,0:0:0:0:
441,296,49658,1,2,1:0:0:0:
484,275,49754,1,2,0:0:0:0:
493,228,49849,1,2,0:0:0:0:
313,112,50040,1,2,1:2:0:0:
256,196,50423,5,2,0:2:0:0:
226,222,50805,5,0,1:0:0:0:
298,195,51091,1,0,3:0:0:0:
298,195,51187,1,0,1:0:0:0:
226,222,51378,1,0,3:0:0:0:
227,146,51569,1,0,1:0:0:0:
293,273,51760,1,0,3:0:0:0:
227,146,51951,1,0,1:0:0:0:
298,195,52142,1,0,3:0:0:0:
226,222,52333,1,0,1:0:0:0:
298,195,52620,1,0,3:0:0:0:
298,195,52716,1,0,1:0:0:0:
226,222,52907,1,0,3:0:0:0:
293,273,53098,1,0,1:0:0:0:
227,146,53289,1,0,3:0:0:0:
121,229,53480,5,2,1:2:0:0:
400,169,53671,1,2,0:0:0:0:
121,229,53862,1,0,1:0:0:0:
390,252,54244,5,0,1:0:0:0:
126,140,54435,1,2,0:0:0:0:
390,252,54626,1,0,1:0:0:0:
260,13,55009,5,0,1:0:0:0:
282,371,55391,1,0,1:0:0:0:
260,13,55773,1,0,1:0:0:0:
282,371,56155,1,0,1:0:0:0:
260,13,56537,1,0,1:0:0:0:
298,195,56919,5,2,1:2:0:0:
226,222,57205,1,0,3:0:0:0:
226,222,57301,1,0,1:0:0:0:
298,195,57492,1,0,3:0:0:0:
297,271,57683,1,0,1:0:0:0:
231,144,57874,1,0,3:0:0:0:
297,271,58065,1,0,1:0:0:0:
226,222,58256,1,0,3:0:0:0:
298,195,58447,1,0,1:0:0:0:
226,222,58734,1,0,3:0:0:0:
226,222,58830,1,0,1:0:0:0:
298,195,59021,1,0,3:0:0:0:
231,144,59212,1,0,1:0:0:0:
297,271,59403,1,0,3:0:0:0:
391,155,59595,5,2,1:2:0:0:
112,215,59786,1,2,0:0:0:0:
391,155,59977,1,0,1:0:0:0:
122,132,60359,5,2,1:2:0:0:
386,244,60550,1,2,0:0:0:0:
122,132,60741,1,2,1:2:0:0:
252,371,61028,5,0,1:0:0:0:
252,371,61124,1,0,1:0:0:0:
291,304,61314,1,0,1:0:0:0:
212,301,61505,1,0,1:0:0:0:
188,165,63034,5,6,1:2:0:0:
313,143,63321,1,2,0:2:0:0:
313,143,63416,1,0,1:2:0:0:
273,256,63607,1,2,0:1:0:0:
176,106,63798,5,2,1:2:0:0:
366,185,64085,1,2,1:0:0:0:
366,185,64180,1,0,1:2:0:0:
213,297,64372,1,2,1:1:0:0:
283,34,64563,5,2,1:2:0:0:
351,321,64849,1,2,0:0:0:0:
351,321,64945,1,0,1:0:0:0:
65,209,65136,1,2,0:1:0:0:
295,180,65327,5,2,1:2:0:0:
235,237,65518,1,2,0:0:0:0:
235,237,65614,1,0,1:0:0:0:
235,237,65709,1,2,1:0:0:0:
217,154,65900,1,0,1:0:0:0:
381,330,66091,5,2,1:2:0:0:
92,226,66377,1,2,0:0:0:0:
92,226,66473,1,0,1:0:0:0:
310,20,66664,1,2,0:1:0:0:
164,293,66856,5,2,1:2:0:0:
364,244,67142,1,0,1:0:0:0:
364,244,67238,1,2,1:2:0:0:
204,67,67429,1,2,1:0:0:0:
321,173,67620,5,2,1:2:0:0:
184,145,67907,1,2,0:2:0:0:
184,145,68002,1,0,1:0:0:0:
233,266,68193,1,2,0:1:0:0:
270,150,68384,5,0,1:0:0:0:
286,232,68575,1,2,1:2:0:0:
286,232,68671,1,0,1:0:0:0:
286,232,68766,1,2,1:0:0:0:
205,200,68958,1,0,1:0:0:0:
307,128,69149,5,2,1:2:0:0:
166,169,69435,1,2,0:0:0:0:
166,169,69531,1,0,1:0:0:0:
276,265,69722,1,2,0:0:0:0:
237,89,69913,5,2,1:2:0:0:
169,259,70200,1,0,1:2:0:0:
169,259,70295,1,2,1:2:0:0:
350,218,70486,1,2,1:0:0:0:
153,83,70677,5,2,1:2:0:0:
384,147,70964,1,2,0:0:0:0:
384,147,71059,1,0,1:0:0:0:
231,308,71251,1,2,0:1:0:0:
254,180,71442,5,2,1:2:0:0:
254,180,71633,1,2,0:1:0:0:
139,297,71824,5,2,1:3:0:0:
336,37,72015,1,0,1:3:0:0:
139,297,72206,1,2,1:0:0:0:
196,242,72493,5,2,3:2:0:0:
196,242,72588,1,2,1:0:0:0:
485,195,72779,1,2,0:2:0:0:
196,242,72970,1,2,1:0:0:0:
139,297,73257,5,0,1:0:0:0:
139,297,73352,1,2,1:3:0:0:
88,6,73544,1,0,1:3:0:0:
139,297,73735,1,2,1:2:0:0:
176,166,73926,5,2,3:2:0:0:
121,223,74117,1,0,1:0:0:0:
139,297,74308,1,2,0:2:0:0:
196,242,74499,1,0,1:0:0:0:
443,313,74690,5,2,0:1:0:0:
443,313,74786,1,0,1:0:0:0:
443,313,74881,1,2,1:3:0:0:
417,234,75072,1,0,1:0:0:0:
63,362,75263,5,2,1:2:0:0:
445,5,75645,1,2,1:2:0:0:
251,66,76028,1,2,1:0:0:0:
251,66,76123,1,2,0:0:0:0:
479,127,76314,1,0,1:0:0:0:
452,139,76505,1,2,0:0:0:0:
406,113,76601,1,2,1:2:0:0:
350,140,76696,1,2,0:0:0:0:
345,212,76792,5,0,1:0:0:0:
421,238,76983,1,2,1:1:0:0:
249,197,77174,1,0,1:0:0:0:
313,384,77365,1,2,0:1:0:0:
172,146,77556,1,0,1:0:0:0:
82,376,77747,1,2,3:2:0:0:
82,376,77843,1,0,1:0:0:0:
82,376,77938,1,8,1:2:0:0:
172,146,78130,1,0,1:0:0:0:
449,362,78321,5,2,1:2:0:0:
83,23,78703,1,2,1:2:0:0:
16,150,79085,1,2,1:0:0:0:
16,150,79180,1,2,0:0:0:0:
209,36,79372,1,2,1:0:0:0:
180,19,79563,1,2,0:0:0:0:
240,22,79658,1,2,1:2:0:0:
281,55,79754,1,2,3:2:0:0:
279,116,79849,5,0,1:0:0:0:
206,154,80040,1,2,0:1:0:0:
314,241,80231,1,0,1:0:0:0:
130,213,80423,1,2,0:1:0:0:
250,377,80614,1,0,1:0:0:0:
29,228,80805,1,2,3:2:0:0:
29,228,80900,1,2,1:2:0:0:
29,228,80996,1,8,1:2:0:0:
250,377,81187,1,0,1:0:0:0:
429,23,81378,5,2,1:2:0:0:
63,362,81760,1,2,1:2:0:0:
245,299,82142,1,2,1:0:0:0:
245,299,82238,1,2,0:0:0:0:
21,226,82429,1,2,1:1:0:0:
29,261,82620,1,2,0:0:0:0:
84,256,82716,1,2,3:2:0:0:
125,208,82811,1,2,1:2:0:0:
102,150,82907,5,0,1:0:0:0:
178,109,83098,1,2,0:1:0:0:
219,217,83289,1,0,1:0:0:0:
303,91,83480,1,2,0:1:0:0:
300,318,83671,1,2,1:2:0:0:
412,38,83862,1,2,3:2:0:0:
412,38,83958,1,0,1:0:0:0:
412,38,84053,1,8,1:2:0:0:
300,318,84244,1,0,1:0:0:0:
83,23,84435,5,2,1:2:0:0:
449,362,84817,1,2,1:2:0:0:
512,216,85200,1,2,1:0:0:0:
512,216,85295,1,2,0:0:0:0:
319,343,85486,1,2,1:0:0:0:
352,355,85677,1,2,0:0:0:0:
383,307,85773,1,2,1:2:0:0:
353,255,85868,1,2,3:2:0:0:
285,257,85964,5,0,1:0:0:0:
247,374,86155,1,2,0:1:0:0:
223,203,86346,1,0,1:0:0:0:
109,331,86537,1,2,0:1:0:0:
206,121,86728,1,2,1:2:0:0:
0,228,86919,1,2,3:2:0:0:
0,228,87015,1,2,1:2:0:0:
0,228,87110,1,8,1:2:0:0:
206,121,87302,1,0,1:0:0:0:
108,157,87493,5,2,3:1:0:0:
111,164,87684,1,2,0:1:0:0:
120,163,87875,1,2,0:1:0:0:
119,153,88066,1,2,0:1:0:0:
108,157,88257,1,2,0:1:0:0:
111,164,88448,1,2,0:1:0:0:
120,163,88639,1,2,0:1:0:0:
119,153,88830,1,2,0:1:0:0:
108,157,89021,1,2,0:1:0:0:
111,164,89212,1,2,0:1:0:0:
120,163,89403,1,2,0:1:0:0:
119,153,89594,1,2,0:1:0:0:
37,139,89786,5,0,3:0:0:0:
