osu file format v14

[General]
AudioFilename: audio.ogg
AudioLeadIn: 0
PreviewTime: 62500
Countdown: 0
SampleSet: Soft
StackLeniency: 0.7
Mode: 3
LetterboxInBreaks: 0
SpecialStyle: 0
WidescreenStoryboard: 0

[Editor]
Bookmarks: 2023,14252,26481,38710,50940,63169,75398,87628
DistanceSpacing: 0.3
BeatDivisor: 16
GridSize: 32
TimelineZoom: 0.1

[Metadata]
Title:Bling-Bang-Bang-Born (TV Size)
TitleUnicode:Bling-Bang-Bang-Born (TV Size)
Artist:Creepy Nuts
ArtistUnicode:Creepy Nuts
Creator:Flade
Version:MUSCLES TIGHT
Source:マッシュル-MASHLE- 神覚者候補選抜試験編
Tags:Japanese Rap J-Rap JRap Hip-Hop Hip Hop Anime Opening Mashle: Magic and Muscles - The Divine Visionary Candidate Exam Arc 2nd Season 第2期 Kami Satoru-sha Kouho Senbatsu Shiken-hen Ainer brim bam bom brim-bam-bam-bom bling bang born
BeatmapID:4446611
BeatmapSetID:2117314

[Difficulty]
HPDrainRate:8
CircleSize:4
OverallDifficulty:8
ApproachRate:5
SliderMultiplier:1.4
SliderTickRate:1

[Events]
//Background and Video events
0,0,"bg.jpg",0,0
Video,-65,"vid.avi"
//Break Periods
//Storyboard Layer 0 (Background)
//Storyboard Layer 1 (Fail)
//Storyboard Layer 2 (Pass)
//Storyboard Layer 3 (Foreground)
//Storyboard Layer 4 (Overlay)
//Storyboard Sound Samples

[TimingPoints]
2023,382.165605095541,4,2,1,35,1,0
63169,-100,4,2,1,35,0,1
87628,-100,4,2,1,35,0,0

[HitObjects]
448,192,494,5,0,0:0:0:0:
192,192,589,1,0,0:0:0:0:
64,192,589,1,0,0:0:0:0:
320,192,685,1,0,0:0:0:0:
448,192,780,1,0,0:0:0:0:
192,192,876,1,0,0:0:0:0:
320,192,972,1,0,0:0:0:0:
64,192,1067,1,0,0:0:0:0:
192,192,1163,1,0,0:0:0:0:
448,192,1258,1,0,0:0:0:0:
320,192,1258,1,0,0:0:0:0:
64,192,1354,1,0,0:0:0:0:
192,192,1449,1,0,0:0:0:0:
64,192,1545,1,0,0:0:0:0:
320,192,1640,1,0,0:0:0:0:
192,192,1736,1,0,0:0:0:0:
448,192,1831,1,0,0:0:0:0:
320,192,1927,1,0,0:0:0:0:
192,192,2023,1,0,0:0:0:0:
64,192,2023,1,0,0:0:0:0:
64,192,2214,1,0,0:0:0:0:
192,192,2405,1,0,0:0:0:0:
320,192,2405,1,0,0:0:0:0:
320,192,2596,1,0,0:0:0:0:
448,192,2787,1,0,0:0:0:0:
192,192,2787,1,0,0:0:0:0:
448,192,2882,1,0,0:0:0:0:
64,192,2978,1,0,0:0:0:0:
64,192,3073,1,0,0:0:0:0:
320,192,3073,1,0,0:0:0:0:
192,192,3169,1,0,0:0:0:0:
448,192,3360,1,0,0:0:0:0:
64,192,3360,1,0,0:0:0:0:
448,192,3551,1,0,0:0:0:0:
320,192,3551,1,0,0:0:0:0:
320,192,3742,1,0,0:0:0:0:
448,192,3933,1,0,0:0:0:0:
64,192,3933,1,0,0:0:0:0:
192,192,4124,1,0,0:0:0:0:
192,192,4220,1,0,0:0:0:0:
448,192,4315,1,0,0:0:0:0:
320,192,4315,1,0,0:0:0:0:
320,192,4411,1,0,0:0:0:0:
64,192,4507,1,0,0:0:0:0:
448,192,4602,1,0,0:0:0:0:
64,192,4602,1,0,0:0:0:0:
192,192,4698,1,0,0:0:0:0:
320,192,4889,1,0,0:0:0:0:
448,192,4889,1,0,0:0:0:0:
64,192,5080,1,0,0:0:0:0:
320,192,5080,1,0,0:0:0:0:
192,192,5271,1,0,0:0:0:0:
192,192,5366,1,0,0:0:0:0:
448,192,5462,1,0,0:0:0:0:
320,192,5462,1,0,0:0:0:0:
320,192,5558,1,0,0:0:0:0:
192,192,5653,1,0,0:0:0:0:
448,192,5844,1,0,0:0:0:0:
320,192,5844,1,0,0:0:0:0:
448,192,5940,1,0,0:0:0:0:
64,192,6035,1,0,0:0:0:0:
64,192,6131,1,0,0:0:0:0:
192,192,6131,1,0,0:0:0:0:
320,192,6226,1,0,0:0:0:0:
192,192,6417,1,0,0:0:0:0:
448,192,6417,1,0,0:0:0:0:
192,192,6513,1,0,0:0:0:0:
320,192,6608,1,0,0:0:0:0:
448,192,6608,1,0,0:0:0:0:
64,192,6800,1,0,0:0:0:0:
64,192,6895,1,0,0:0:0:0:
320,192,6991,1,0,0:0:0:0:
192,192,6991,1,0,0:0:0:0:
320,192,7086,1,0,0:0:0:0:
64,192,7182,1,0,0:0:0:0:
192,192,7373,1,0,0:0:0:0:
448,192,7373,1,0,0:0:0:0:
448,192,7468,1,0,0:0:0:0:
64,192,7564,1,0,0:0:0:0:
320,192,7659,1,0,0:0:0:0:
64,192,7659,1,0,0:0:0:0:
192,192,7755,1,0,0:0:0:0:
448,192,7946,1,0,0:0:0:0:
64,192,7946,1,0,0:0:0:0:
448,192,8137,1,0,0:0:0:0:
192,192,8137,1,0,0:0:0:0:
320,192,8519,1,0,0:0:0:0:
64,192,8519,1,0,0:0:0:0:
448,192,8710,1,0,0:0:0:0:
448,192,8806,1,0,0:0:0:0:
192,192,8901,1,0,0:0:0:0:
320,192,8901,1,0,0:0:0:0:
192,192,9029,1,0,0:0:0:0:
320,192,9188,1,0,0:0:0:0:
64,192,9188,1,0,0:0:0:0:
320,192,9284,1,0,0:0:0:0:
64,192,9475,1,0,0:0:0:0:
448,192,9475,1,0,0:0:0:0:
192,192,9666,1,0,0:0:0:0:
448,192,9666,1,0,0:0:0:0:
64,192,10048,1,0,0:0:0:0:
320,192,10048,1,0,0:0:0:0:
64,192,10144,1,0,0:0:0:0:
448,192,10239,1,0,0:0:0:0:
448,192,10335,1,0,0:0:0:0:
320,192,10430,1,0,0:0:0:0:
192,192,10430,1,0,0:0:0:0:
320,192,10558,1,0,0:0:0:0:
192,192,10717,1,0,0:0:0:0:
448,192,10717,1,0,0:0:0:0:
192,192,10812,1,0,0:0:0:0:
448,192,11003,1,0,0:0:0:0:
64,192,11003,1,0,0:0:0:0:
64,192,11194,1,0,0:0:0:0:
320,192,11194,1,0,0:0:0:0:
320,192,11290,1,0,0:0:0:0:
192,192,11386,1,0,0:0:0:0:
448,192,11577,1,0,0:0:0:0:
64,192,11577,1,0,0:0:0:0:
64,192,11672,1,0,0:0:0:0:
320,192,11768,1,0,0:0:0:0:
448,192,11959,1,0,0:0:0:0:
192,192,11959,1,0,0:0:0:0:
448,192,12054,1,0,0:0:0:0:
64,192,12150,1,0,0:0:0:0:
64,192,12245,1,0,0:0:0:0:
320,192,12245,1,0,0:0:0:0:
192,192,12341,1,0,0:0:0:0:
448,192,12437,1,0,0:0:0:0:
320,192,12532,1,0,0:0:0:0:
448,192,12532,1,0,0:0:0:0:
64,192,12723,1,0,0:0:0:0:
320,192,12723,1,0,0:0:0:0:
192,192,12723,1,0,0:0:0:0:
64,192,12819,1,0,0:0:0:0:
448,192,12914,1,0,0:0:0:0:
320,192,13105,1,0,0:0:0:0:
320,192,13201,1,0,0:0:0:0:
320,192,13296,1,0,0:0:0:0:
320,192,13392,1,0,0:0:0:0:
192,192,13487,1,0,0:0:0:0:
192,192,13583,1,0,0:0:0:0:
192,192,13679,1,0,0:0:0:0:
192,192,13774,1,0,0:0:0:0:
448,192,13870,1,0,0:0:0:0:
448,192,13965,1,0,0:0:0:0:
64,192,14061,1,0,0:0:0:0:
64,192,14156,1,0,0:0:0:0:
320,192,14252,1,0,0:0:0:0:
192,192,14252,128,0,14347:0:0:0:0:
448,192,14443,1,0,0:0:0:0:
192,192,14538,128,0,14634:0:0:0:0:
64,192,14634,1,0,0:0:0:0:
320,192,14634,1,0,0:0:0:0:
448,192,14825,128,0,14921:0:0:0:0:
64,192,15016,1,0,0:0:0:0:
320,192,15016,128,0,15112:0:0:0:0:
192,192,15207,128,0,15303:0:0:0:0:
448,192,15303,1,0,0:0:0:0:
320,192,15303,1,0,0:0:0:0:
192,192,15398,128,0,15494:0:0:0:0:
448,192,15589,1,0,0:0:0:0:
64,192,15589,128,0,15685:0:0:0:0:
448,192,15780,1,0,0:0:0:0:
192,192,15780,128,0,15876:0:0:0:0:
320,192,15972,1,0,0:0:0:0:
192,192,16067,128,0,16163:0:0:0:0:
448,192,16163,1,0,0:0:0:0:
64,192,16163,1,0,0:0:0:0:
448,192,16354,128,0,16449:0:0:0:0:
320,192,16545,1,0,0:0:0:0:
64,192,16545,128,0,16640:0:0:0:0:
192,192,16736,128,0,16831:0:0:0:0:
320,192,16831,1,0,0:0:0:0:
448,192,16831,1,0,0:0:0:0:
192,192,16927,128,0,17022:0:0:0:0:
448,192,17118,1,0,0:0:0:0:
320,192,17118,128,0,17214:0:0:0:0:
448,192,17309,1,0,0:0:0:0:
64,192,17309,128,0,17405:0:0:0:0:
320,192,17500,1,0,0:0:0:0:
64,192,17596,128,0,17691:0:0:0:0:
448,192,17691,1,0,0:0:0:0:
192,192,17691,1,0,0:0:0:0:
192,192,17787,1,0,0:0:0:0:
320,192,17882,128,0,17978:0:0:0:0:
64,192,18073,1,0,0:0:0:0:
448,192,18073,128,0,18169:0:0:0:0:
192,192,18265,128,0,18360:0:0:0:0:
448,192,18360,1,0,0:0:0:0:
320,192,18360,1,0,0:0:0:0:
192,192,18456,128,0,18551:0:0:0:0:
320,192,18551,1,0,0:0:0:0:
320,192,18647,1,0,0:0:0:0:
64,192,18647,128,0,18742:0:0:0:0:
64,192,18838,1,0,0:0:0:0:
320,192,18838,128,0,18933:0:0:0:0:
192,192,18901,1,0,0:0:0:0:
448,192,18965,1,0,0:0:0:0:
64,192,19029,1,0,0:0:0:0:
320,192,19124,128,0,19220:0:0:0:0:
64,192,19220,1,0,0:0:0:0:
448,192,19220,1,0,0:0:0:0:
192,192,19284,1,0,0:0:0:0:
320,192,19347,1,0,0:0:0:0:
448,192,19411,128,0,19507:0:0:0:0:
448,192,19602,1,0,0:0:0:0:
64,192,19602,128,0,19698:0:0:0:0:
192,192,19666,1,0,0:0:0:0:
320,192,19730,1,0,0:0:0:0:
192,192,19793,128,0,19889:0:0:0:0:
64,192,19889,1,0,0:0:0:0:
448,192,19889,1,0,0:0:0:0:
192,192,19984,128,0,20080:0:0:0:0:
320,192,20048,1,0,0:0:0:0:
448,192,20112,1,0,0:0:0:0:
320,192,20175,128,0,20271:0:0:0:0:
64,192,20175,1,0,0:0:0:0:
64,192,20366,1,0,0:0:0:0:
448,192,20366,128,0,20462:0:0:0:0:
320,192,20558,1,0,0:0:0:0:
64,192,20653,128,0,20749:0:0:0:0:
448,192,20749,1,0,0:0:0:0:
192,192,20749,1,0,0:0:0:0:
320,192,20940,128,0,21035:0:0:0:0:
448,192,21131,1,0,0:0:0:0:
320,192,21131,128,0,21226:0:0:0:0:
192,192,21322,128,0,21417:0:0:0:0:
64,192,21417,1,0,0:0:0:0:
320,192,21417,1,0,0:0:0:0:
448,192,21513,128,0,21608:0:0:0:0:
320,192,21704,1,0,0:0:0:0:
64,192,21704,128,0,21800:0:0:0:0:
448,192,21895,1,0,0:0:0:0:
320,192,21895,128,0,21991:0:0:0:0:
192,192,22086,1,0,0:0:0:0:
320,192,22182,128,0,22277:0:0:0:0:
64,192,22277,1,0,0:0:0:0:
448,192,22277,1,0,0:0:0:0:
448,192,22468,128,0,22564:0:0:0:0:
320,192,22659,1,0,0:0:0:0:
64,192,22659,128,0,22755:0:0:0:0:
192,192,22851,128,0,22946:0:0:0:0:
320,192,22946,1,0,0:0:0:0:
448,192,22946,1,0,0:0:0:0:
192,192,23042,128,0,23137:0:0:0:0:
192,192,23233,1,0,0:0:0:0:
320,192,23233,128,0,23328:0:0:0:0:
192,192,23424,1,0,0:0:0:0:
64,192,23424,128,0,23519:0:0:0:0:
448,192,23615,1,0,0:0:0:0:
64,192,23710,128,0,23806:0:0:0:0:
192,192,23806,1,0,0:0:0:0:
320,192,23806,1,0,0:0:0:0:
448,192,23997,128,0,24093:0:0:0:0:
64,192,24188,1,0,0:0:0:0:
320,192,24188,128,0,24284:0:0:0:0:
192,192,24379,128,0,24475:0:0:0:0:
448,192,24475,1,0,0:0:0:0:
320,192,24475,1,0,0:0:0:0:
192,192,24570,128,0,24666:0:0:0:0:
448,192,24761,1,0,0:0:0:0:
64,192,24761,128,0,24857:0:0:0:0:
448,192,24952,1,0,0:0:0:0:
320,192,24952,128,0,25048:0:0:0:0:
192,192,25144,1,0,0:0:0:0:
320,192,25239,128,0,25335:0:0:0:0:
64,192,25335,1,0,0:0:0:0:
448,192,25335,1,0,0:0:0:0:
64,192,25526,128,0,25621:0:0:0:0:
320,192,25717,1,0,0:0:0:0:
192,192,25717,128,0,25812:0:0:0:0:
448,192,25908,128,0,26003:0:0:0:0:
320,192,26003,1,0,0:0:0:0:
64,192,26003,1,0,0:0:0:0:
192,192,26099,128,0,26194:0:0:0:0:
448,192,26290,1,0,0:0:0:0:
192,192,26290,128,0,26386:0:0:0:0:
448,192,26386,1,0,0:0:0:0:
64,192,26481,1,0,0:0:0:0:
320,192,26481,1,0,0:0:0:0:
192,192,26672,1,0,0:0:0:0:
448,192,26863,1,0,0:0:0:0:
320,192,26863,1,0,0:0:0:0:
64,192,26863,1,0,0:0:0:0:
64,192,26959,1,0,0:0:0:0:
320,192,27054,1,0,0:0:0:0:
448,192,27245,1,0,0:0:0:0:
192,192,27245,1,0,0:0:0:0:
320,192,27437,1,0,0:0:0:0:
64,192,27532,1,0,0:0:0:0:
192,192,27532,1,0,0:0:0:0:
448,192,27628,1,0,0:0:0:0:
192,192,27628,1,0,0:0:0:0:
64,192,27628,1,0,0:0:0:0:
448,192,27723,1,0,0:0:0:0:
320,192,27819,1,0,0:0:0:0:
192,192,27819,1,0,0:0:0:0:
192,192,27914,1,0,0:0:0:0:
64,192,28010,1,0,0:0:0:0:
320,192,28010,1,0,0:0:0:0:
448,192,28201,1,0,0:0:0:0:
448,192,28296,1,0,0:0:0:0:
320,192,28392,1,0,0:0:0:0:
64,192,28392,1,0,0:0:0:0:
192,192,28392,1,0,0:0:0:0:
64,192,28487,1,0,0:0:0:0:
320,192,28583,1,0,0:0:0:0:
64,192,28774,1,0,0:0:0:0:
448,192,28774,1,0,0:0:0:0:
192,192,28965,1,0,0:0:0:0:
320,192,29061,1,0,0:0:0:0:
448,192,29061,1,0,0:0:0:0:
320,192,29156,1,0,0:0:0:0:
448,192,29156,1,0,0:0:0:0:
64,192,29156,1,0,0:0:0:0:
64,192,29252,1,0,0:0:0:0:
448,192,29347,1,0,0:0:0:0:
192,192,29347,1,0,0:0:0:0:
448,192,29443,1,0,0:0:0:0:
320,192,29538,1,0,0:0:0:0:
192,192,29538,1,0,0:0:0:0:
64,192,29730,1,0,0:0:0:0:
64,192,29825,1,0,0:0:0:0:
320,192,29921,1,0,0:0:0:0:
448,192,29921,1,0,0:0:0:0:
192,192,29921,1,0,0:0:0:0:
320,192,30016,1,0,0:0:0:0:
192,192,30112,1,0,0:0:0:0:
64,192,30303,1,0,0:0:0:0:
448,192,30303,1,0,0:0:0:0:
320,192,30494,1,0,0:0:0:0:
192,192,30589,1,0,0:0:0:0:
448,192,30589,1,0,0:0:0:0:
192,192,30685,1,0,0:0:0:0:
448,192,30685,1,0,0:0:0:0:
64,192,30685,1,0,0:0:0:0:
64,192,30780,1,0,0:0:0:0:
192,192,30876,1,0,0:0:0:0:
320,192,30876,1,0,0:0:0:0:
320,192,30972,1,0,0:0:0:0:
448,192,31067,1,0,0:0:0:0:
192,192,31067,1,0,0:0:0:0:
320,192,31258,1,0,0:0:0:0:
192,192,31449,1,0,0:0:0:0:
448,192,31449,1,0,0:0:0:0:
64,192,31449,1,0,0:0:0:0:
192,192,31545,1,0,0:0:0:0:
320,192,31640,1,0,0:0:0:0:
192,192,31831,1,0,0:0:0:0:
64,192,31831,1,0,0:0:0:0:
448,192,32022,1,0,0:0:0:0:
192,192,32118,1,0,0:0:0:0:
320,192,32118,1,0,0:0:0:0:
320,192,32214,1,0,0:0:0:0:
192,192,32214,1,0,0:0:0:0:
64,192,32214,1,0,0:0:0:0:
64,192,32309,1,0,0:0:0:0:
320,192,32405,1,0,0:0:0:0:
448,192,32405,1,0,0:0:0:0:
64,192,32596,1,0,0:0:0:0:
448,192,32596,1,0,0:0:0:0:
192,192,32787,1,0,0:0:0:0:
64,192,32978,1,0,0:0:0:0:
448,192,32978,1,0,0:0:0:0:
320,192,32978,1,0,0:0:0:0:
448,192,33073,1,0,0:0:0:0:
192,192,33169,1,0,0:0:0:0:
64,192,33360,1,0,0:0:0:0:
320,192,33360,1,0,0:0:0:0:
448,192,33551,1,0,0:0:0:0:
192,192,33647,1,0,0:0:0:0:
64,192,33647,1,0,0:0:0:0:
192,192,33742,1,0,0:0:0:0:
64,192,33742,1,0,0:0:0:0:
320,192,33790,1,0,0:0:0:0:
448,192,33838,1,0,0:0:0:0:
320,192,33933,1,0,0:0:0:0:
64,192,33933,1,0,0:0:0:0:
448,192,34124,1,0,0:0:0:0:
64,192,34124,1,0,0:0:0:0:
320,192,34315,1,0,0:0:0:0:
448,192,34507,1,0,0:0:0:0:
64,192,34507,1,0,0:0:0:0:
192,192,34554,1,0,0:0:0:0:
320,192,34602,1,0,0:0:0:0:
64,192,34698,1,0,0:0:0:0:
448,192,34889,1,0,0:0:0:0:
192,192,34889,1,0,0:0:0:0:
64,192,35080,1,0,0:0:0:0:
448,192,35175,1,0,0:0:0:0:
320,192,35175,1,0,0:0:0:0:
448,192,35271,1,0,0:0:0:0:
320,192,35271,1,0,0:0:0:0:
192,192,35319,1,0,0:0:0:0:
64,192,35366,1,0,0:0:0:0:
320,192,35462,1,0,0:0:0:0:
448,192,35462,1,0,0:0:0:0:
448,192,35558,1,0,0:0:0:0:
64,192,35653,1,0,0:0:0:0:
192,192,35653,1,0,0:0:0:0:
192,192,35844,1,0,0:0:0:0:
192,192,35940,1,0,0:0:0:0:
320,192,36035,1,0,0:0:0:0:
448,192,36035,1,0,0:0:0:0:
64,192,36035,1,0,0:0:0:0:
448,192,36131,1,0,0:0:0:0:
192,192,36226,1,0,0:0:0:0:
320,192,36417,1,0,0:0:0:0:
64,192,36417,1,0,0:0:0:0:
64,192,36513,1,0,0:0:0:0:
320,192,36704,1,0,0:0:0:0:
448,192,36704,1,0,0:0:0:0:
320,192,36800,1,0,0:0:0:0:
448,192,36800,1,0,0:0:0:0:
192,192,36800,1,0,0:0:0:0:
192,192,36895,1,0,0:0:0:0:
320,192,36991,1,0,0:0:0:0:
64,192,36991,1,0,0:0:0:0:
320,192,37086,1,0,0:0:0:0:
192,192,37182,1,0,0:0:0:0:
64,192,37182,1,0,0:0:0:0:
448,192,37468,1,0,0:0:0:0:
64,192,37564,1,0,0:0:0:0:
448,192,37564,1,0,0:0:0:0:
192,192,37564,1,0,0:0:0:0:
64,192,37659,1,0,0:0:0:0:
320,192,37755,1,0,0:0:0:0:
320,192,37946,1,0,0:0:0:0:
64,192,37946,1,0,0:0:0:0:
448,192,38137,1,0,0:0:0:0:
64,192,38233,1,0,0:0:0:0:
192,192,38233,1,0,0:0:0:0:
320,192,38328,1,0,0:0:0:0:
192,192,38328,1,0,0:0:0:0:
64,192,38328,1,0,0:0:0:0:
320,192,38519,1,0,0:0:0:0:
448,192,38519,1,0,0:0:0:0:
448,192,38615,1,0,0:0:0:0:
320,192,38710,1,0,0:0:0:0:
64,192,38710,1,0,0:0:0:0:
192,192,38806,1,0,0:0:0:0:
64,192,38901,1,0,0:0:0:0:
64,192,38997,1,0,0:0:0:0:
320,192,39093,1,0,0:0:0:0:
448,192,39093,1,0,0:0:0:0:
192,192,39093,1,0,0:0:0:0:
320,192,39188,1,0,0:0:0:0:
64,192,39284,1,0,0:0:0:0:
192,192,39379,1,0,0:0:0:0:
320,192,39475,1,0,0:0:0:0:
448,192,39475,1,0,0:0:0:0:
64,192,39570,1,0,0:0:0:0:
448,192,39666,1,0,0:0:0:0:
320,192,39761,1,0,0:0:0:0:
192,192,39761,1,0,0:0:0:0:
320,192,39857,1,0,0:0:0:0:
64,192,39857,1,0,0:0:0:0:
192,192,39857,1,0,0:0:0:0:
448,192,39952,1,0,0:0:0:0:
64,192,40048,1,0,0:0:0:0:
192,192,40048,1,0,0:0:0:0:
64,192,40144,1,0,0:0:0:0:
448,192,40239,1,0,0:0:0:0:
320,192,40239,1,0,0:0:0:0:
192,192,40335,1,0,0:0:0:0:
448,192,40430,1,0,0:0:0:0:
448,192,40526,1,0,0:0:0:0:
192,192,40621,1,0,0:0:0:0:
64,192,40621,1,0,0:0:0:0:
320,192,40621,1,0,0:0:0:0:
192,192,40717,1,0,0:0:0:0:
448,192,40812,1,0,0:0:0:0:
320,192,40908,1,0,0:0:0:0:
64,192,41003,1,0,0:0:0:0:
192,192,41003,1,0,0:0:0:0:
448,192,41099,1,0,0:0:0:0:
192,192,41194,1,0,0:0:0:0:
448,192,41290,1,0,0:0:0:0:
320,192,41290,1,0,0:0:0:0:
448,192,41386,1,0,0:0:0:0:
320,192,41386,1,0,0:0:0:0:
64,192,41386,1,0,0:0:0:0:
64,192,41481,1,0,0:0:0:0:
320,192,41577,1,0,0:0:0:0:
192,192,41577,1,0,0:0:0:0:
320,192,41672,1,0,0:0:0:0:
192,192,41768,1,0,0:0:0:0:
448,192,41768,1,0,0:0:0:0:
64,192,41863,1,0,0:0:0:0:
320,192,41959,1,0,0:0:0:0:
320,192,42054,1,0,0:0:0:0:
64,192,42150,1,0,0:0:0:0:
448,192,42150,1,0,0:0:0:0:
192,192,42150,1,0,0:0:0:0:
192,192,42245,1,0,0:0:0:0:
448,192,42341,1,0,0:0:0:0:
64,192,42437,1,0,0:0:0:0:
192,192,42532,1,0,0:0:0:0:
320,192,42532,1,0,0:0:0:0:
320,192,42628,1,0,0:0:0:0:
448,192,42723,1,0,0:0:0:0:
192,192,42819,1,0,0:0:0:0:
64,192,42819,1,0,0:0:0:0:
192,192,42914,1,0,0:0:0:0:
64,192,42914,1,0,0:0:0:0:
320,192,42914,1,0,0:0:0:0:
320,192,43010,1,0,0:0:0:0:
448,192,43105,1,0,0:0:0:0:
64,192,43105,1,0,0:0:0:0:
64,192,43201,1,0,0:0:0:0:
192,192,43296,1,0,0:0:0:0:
448,192,43296,1,0,0:0:0:0:
320,192,43392,1,0,0:0:0:0:
448,192,43487,1,0,0:0:0:0:
448,192,43583,1,0,0:0:0:0:
192,192,43679,1,0,0:0:0:0:
320,192,43679,1,0,0:0:0:0:
64,192,43679,1,0,0:0:0:0:
192,192,43774,1,0,0:0:0:0:
448,192,43870,1,0,0:0:0:0:
320,192,43965,1,0,0:0:0:0:
448,192,44061,1,0,0:0:0:0:
64,192,44061,1,0,0:0:0:0:
64,192,44156,1,0,0:0:0:0:
192,192,44252,1,0,0:0:0:0:
448,192,44347,1,0,0:0:0:0:
320,192,44347,1,0,0:0:0:0:
448,192,44443,1,0,0:0:0:0:
320,192,44443,1,0,0:0:0:0:
64,192,44443,1,0,0:0:0:0:
192,192,44634,1,0,0:0:0:0:
448,192,44634,1,0,0:0:0:0:
320,192,44730,1,0,0:0:0:0:
64,192,44825,1,0,0:0:0:0:
448,192,44825,1,0,0:0:0:0:
192,192,44921,1,0,0:0:0:0:
320,192,45016,1,0,0:0:0:0:
320,192,45112,1,0,0:0:0:0:
64,192,45207,1,0,0:0:0:0:
448,192,45207,1,0,0:0:0:0:
192,192,45207,1,0,0:0:0:0:
192,192,45303,1,0,0:0:0:0:
448,192,45398,1,0,0:0:0:0:
320,192,45494,1,0,0:0:0:0:
64,192,45589,1,0,0:0:0:0:
448,192,45589,1,0,0:0:0:0:
192,192,45685,1,0,0:0:0:0:
320,192,45780,1,0,0:0:0:0:
64,192,45876,1,0,0:0:0:0:
448,192,45876,1,0,0:0:0:0:
320,192,45972,1,0,0:0:0:0:
448,192,45972,1,0,0:0:0:0:
64,192,45972,1,0,0:0:0:0:
192,192,46067,1,0,0:0:0:0:
448,192,46163,1,0,0:0:0:0:
320,192,46163,1,0,0:0:0:0:
64,192,46258,1,0,0:0:0:0:
192,192,46354,1,0,0:0:0:0:
320,192,46354,1,0,0:0:0:0:
448,192,46449,1,0,0:0:0:0:
192,192,46545,1,0,0:0:0:0:
320,192,46640,1,0,0:0:0:0:
192,192,46736,1,0,0:0:0:0:
448,192,46736,1,0,0:0:0:0:
64,192,46736,1,0,0:0:0:0:
64,192,46831,1,0,0:0:0:0:
320,192,46927,1,0,0:0:0:0:
192,192,47022,1,0,0:0:0:0:
64,192,47118,1,0,0:0:0:0:
448,192,47118,1,0,0:0:0:0:
320,192,47309,1,0,0:0:0:0:
192,192,47405,1,0,0:0:0:0:
448,192,47405,1,0,0:0:0:0:
448,192,47500,1,0,0:0:0:0:
192,192,47500,1,0,0:0:0:0:
64,192,47500,1,0,0:0:0:0:
320,192,47691,1,0,0:0:0:0:
64,192,47691,1,0,0:0:0:0:
192,192,47787,1,0,0:0:0:0:
320,192,47882,1,0,0:0:0:0:
448,192,47882,1,0,0:0:0:0:
64,192,47978,1,0,0:0:0:0:
192,192,48073,1,0,0:0:0:0:
192,192,48169,1,0,0:0:0:0:
320,192,48265,1,0,0:0:0:0:
448,192,48265,1,0,0:0:0:0:
64,192,48265,1,0,0:0:0:0:
320,192,48360,1,0,0:0:0:0:
192,192,48456,1,0,0:0:0:0:
448,192,48551,1,0,0:0:0:0:
192,192,48647,1,0,0:0:0:0:
64,192,48647,1,0,0:0:0:0:
320,192,48742,1,0,0:0:0:0:
64,192,48838,1,0,0:0:0:0:
192,192,48933,1,0,0:0:0:0:
448,192,48933,1,0,0:0:0:0:
320,192,49029,1,0,0:0:0:0:
448,192,49029,1,0,0:0:0:0:
192,192,49029,1,0,0:0:0:0:
64,192,49124,1,0,0:0:0:0:
192,192,49220,1,0,0:0:0:0:
320,192,49220,1,0,0:0:0:0:
448,192,49315,1,0,0:0:0:0:
192,192,49411,1,0,0:0:0:0:
64,192,49411,1,0,0:0:0:0:
320,192,49459,1,0,0:0:0:0:
448,192,49507,1,0,0:0:0:0:
64,192,49602,1,0,0:0:0:0:
64,192,49698,1,0,0:0:0:0:
192,192,49793,1,0,0:0:0:0:
448,192,49793,1,0,0:0:0:0:
320,192,49793,1,0,0:0:0:0:
64,192,49889,1,0,0:0:0:0:
448,192,49984,1,0,0:0:0:0:
320,192,50080,1,0,0:0:0:0:
64,192,50175,1,0,0:0:0:0:
192,192,50175,1,0,0:0:0:0:
448,192,50223,1,0,0:0:0:0:
320,192,50271,1,0,0:0:0:0:
192,192,50319,1,0,0:0:0:0:
64,192,50366,1,0,0:0:0:0:
320,192,50558,1,0,0:0:0:0:
192,192,50621,1,0,0:0:0:0:
64,192,50685,1,0,0:0:0:0:
448,192,50749,1,0,0:0:0:0:
320,192,50780,1,0,0:0:0:0:
192,192,50812,1,0,0:0:0:0:
64,192,50876,1,0,0:0:0:0:
320,192,50940,1,0,0:0:0:0:
448,192,50940,128,0,51035:0:0:0:0:
448,192,51131,128,0,51322:0:0:0:0:
64,192,51226,1,0,0:0:0:0:
320,192,51322,1,0,0:0:0:0:
192,192,51322,128,0,51513:0:0:0:0:
320,192,51513,128,0,51704:0:0:0:0:
448,192,51704,1,0,0:0:0:0:
64,192,51704,128,0,51800:0:0:0:0:
64,192,51895,128,0,52086:0:0:0:0:
320,192,52086,1,0,0:0:0:0:
448,192,52086,128,0,52277:0:0:0:0:
192,192,52277,128,0,52468:0:0:0:0:
320,192,52468,1,0,0:0:0:0:
64,192,52468,128,0,52851:0:0:0:0:
192,192,52755,1,0,0:0:0:0:
448,192,52851,1,0,0:0:0:0:
320,192,52851,128,0,53233:0:0:0:0:
192,192,53042,1,0,0:0:0:0:
448,192,53233,1,0,0:0:0:0:
64,192,53233,128,0,53615:0:0:0:0:
320,192,53424,1,0,0:0:0:0:
192,192,53615,128,0,53997:0:0:0:0:
448,192,53615,128,0,53710:0:0:0:0:
448,192,53806,128,0,53997:0:0:0:0:
320,192,53997,128,0,54188:0:0:0:0:
64,192,53997,128,0,54188:0:0:0:0:
192,192,54284,1,0,0:0:0:0:
64,192,54379,128,0,54475:0:0:0:0:
448,192,54379,128,0,54761:0:0:0:0:
64,192,54570,128,0,54761:0:0:0:0:
192,192,54761,128,0,54952:0:0:0:0:
320,192,54761,128,0,54952:0:0:0:0:
448,192,54952,1,0,0:0:0:0:
320,192,55144,1,0,0:0:0:0:
64,192,55144,128,0,55526:0:0:0:0:
448,192,55335,1,0,0:0:0:0:
192,192,55526,1,0,0:0:0:0:
320,192,55526,128,0,56290:0:0:0:0:
448,192,55812,1,0,0:0:0:0:
64,192,55908,1,0,0:0:0:0:
192,192,55908,128,0,56099:0:0:0:0:
448,192,56099,128,0,56672:0:0:0:0:
192,192,56290,1,0,0:0:0:0:
64,192,56290,128,0,56672:0:0:0:0:
320,192,56481,1,0,0:0:0:0:
320,192,56672,1,0,0:0:0:0:
192,192,56672,1,0,0:0:0:0:
448,192,56863,1,0,0:0:0:0:
192,192,57054,1,0,0:0:0:0:
64,192,57054,128,0,57150:0:0:0:0:
64,192,57245,128,0,57437:0:0:0:0:
320,192,57341,1,0,0:0:0:0:
192,192,57437,1,0,0:0:0:0:
448,192,57437,128,0,57628:0:0:0:0:
320,192,57628,128,0,57819:0:0:0:0:
448,192,57819,1,0,0:0:0:0:
192,192,57819,128,0,57914:0:0:0:0:
192,192,58010,128,0,58201:0:0:0:0:
448,192,58201,1,0,0:0:0:0:
64,192,58201,128,0,58392:0:0:0:0:
320,192,58392,128,0,58583:0:0:0:0:
192,192,58583,1,0,0:0:0:0:
448,192,58583,128,0,58679:0:0:0:0:
448,192,58774,128,0,58965:0:0:0:0:
64,192,58870,1,0,0:0:0:0:
320,192,58965,1,0,0:0:0:0:
192,192,58965,128,0,59347:0:0:0:0:
448,192,59156,1,0,0:0:0:0:
64,192,59347,1,0,0:0:0:0:
320,192,59347,128,0,59730:0:0:0:0:
192,192,59538,1,0,0:0:0:0:
64,192,59730,128,0,60112:0:0:0:0:
448,192,59730,128,0,59825:0:0:0:0:
448,192,59921,128,0,60112:0:0:0:0:
192,192,60112,128,0,60303:0:0:0:0:
320,192,60112,128,0,60303:0:0:0:0:
64,192,60398,1,0,0:0:0:0:
192,192,60494,128,0,60589:0:0:0:0:
448,192,60494,128,0,60876:0:0:0:0:
192,192,60685,128,0,60876:0:0:0:0:
320,192,60876,128,0,61067:0:0:0:0:
64,192,60876,128,0,61067:0:0:0:0:
448,192,61067,1,0,0:0:0:0:
192,192,61163,1,0,0:0:0:0:
320,192,61163,1,0,0:0:0:0:
64,192,61258,128,0,61640:0:0:0:0:
448,192,61449,1,0,0:0:0:0:
320,192,61449,1,0,0:0:0:0:
448,192,61640,128,0,62214:0:0:0:0:
192,192,61640,128,0,62214:0:0:0:0:
320,192,61831,128,0,62118:0:0:0:0:
448,192,62596,128,0,62978:0:0:0:0:
192,192,62787,128,0,62978:0:0:0:0:
320,192,62978,128,0,63169:0:0:0:0:
64,192,63169,1,0,0:0:0:0:
448,192,63169,1,0,0:0:0:0:
192,192,63217,1,0,0:0:0:0:
320,192,63265,1,0,0:0:0:0:
64,192,63360,1,0,0:0:0:0:
192,192,63456,128,0,63742:0:0:0:0:
448,192,63551,1,0,0:0:0:0:
320,192,63551,1,0,0:0:0:0:
64,192,63551,1,0,0:0:0:0:
448,192,63742,128,0,63933:0:0:0:0:
64,192,63933,1,0,0:0:0:0:
192,192,63933,1,0,0:0:0:0:
320,192,63981,1,0,0:0:0:0:
448,192,64029,1,0,0:0:0:0:
64,192,64124,1,0,0:0:0:0:
320,192,64220,1,0,0:0:0:0:
192,192,64220,1,0,0:0:0:0:
320,192,64315,1,0,0:0:0:0:
192,192,64315,1,0,0:0:0:0:
448,192,64315,1,0,0:0:0:0:
192,192,64507,1,0,0:0:0:0:
64,192,64507,128,0,64698:0:0:0:0:
320,192,64698,1,0,0:0:0:0:
448,192,64698,1,0,0:0:0:0:
192,192,64745,1,0,0:0:0:0:
64,192,64793,1,0,0:0:0:0:
448,192,64889,1,0,0:0:0:0:
320,192,64984,128,0,65271:0:0:0:0:
64,192,65080,1,0,0:0:0:0:
448,192,65080,1,0,0:0:0:0:
192,192,65080,1,0,0:0:0:0:
192,192,65271,128,0,65653:0:0:0:0:
64,192,65462,1,0,0:0:0:0:
448,192,65462,128,0,65653:0:0:0:0:
64,192,65653,1,0,0:0:0:0:
448,192,65749,1,0,0:0:0:0:
320,192,65749,1,0,0:0:0:0:
448,192,65844,1,0,0:0:0:0:
192,192,65844,128,0,66035:0:0:0:0:
320,192,65844,128,0,66035:0:0:0:0:
448,192,66035,1,0,0:0:0:0:
64,192,66035,1,0,0:0:0:0:
64,192,66131,1,0,0:0:0:0:
448,192,66226,1,0,0:0:0:0:
320,192,66226,1,0,0:0:0:0:
192,192,66274,1,0,0:0:0:0:
64,192,66322,1,0,0:0:0:0:
320,192,66417,1,0,0:0:0:0:
192,192,66513,128,0,66800:0:0:0:0:
448,192,66608,1,0,0:0:0:0:
320,192,66608,1,0,0:0:0:0:
64,192,66608,1,0,0:0:0:0:
320,192,66800,128,0,66991:0:0:0:0:
448,192,66991,1,0,0:0:0:0:
64,192,66991,1,0,0:0:0:0:
192,192,67038,1,0,0:0:0:0:
320,192,67086,1,0,0:0:0:0:
448,192,67182,1,0,0:0:0:0:
192,192,67277,1,0,0:0:0:0:
64,192,67277,1,0,0:0:0:0:
320,192,67373,1,0,0:0:0:0:
64,192,67373,1,0,0:0:0:0:
192,192,67373,1,0,0:0:0:0:
320,192,67564,1,0,0:0:0:0:
448,192,67564,128,0,67755:0:0:0:0:
64,192,67755,1,0,0:0:0:0:
192,192,67755,1,0,0:0:0:0:
320,192,67803,1,0,0:0:0:0:
448,192,67851,1,0,0:0:0:0:
192,192,67946,1,0,0:0:0:0:
320,192,68042,128,0,68328:0:0:0:0:
448,192,68137,1,0,0:0:0:0:
64,192,68137,1,0,0:0:0:0:
192,192,68137,1,0,0:0:0:0:
64,192,68328,128,0,68710:0:0:0:0:
448,192,68519,1,0,0:0:0:0:
192,192,68519,128,0,68710:0:0:0:0:
320,192,68710,1,0,0:0:0:0:
448,192,68806,1,0,0:0:0:0:
64,192,68806,1,0,0:0:0:0:
320,192,68901,1,0,0:0:0:0:
448,192,68901,128,0,69093:0:0:0:0:
64,192,68901,128,0,69093:0:0:0:0:
320,192,69093,1,0,0:0:0:0:
192,192,69093,1,0,0:0:0:0:
320,192,69284,1,0,0:0:0:0:
448,192,69284,1,0,0:0:0:0:
192,192,69331,1,0,0:0:0:0:
64,192,69379,1,0,0:0:0:0:
448,192,69475,1,0,0:0:0:0:
320,192,69570,128,0,69857:0:0:0:0:
192,192,69666,1,0,0:0:0:0:
64,192,69666,1,0,0:0:0:0:
448,192,69666,1,0,0:0:0:0:
192,192,69857,128,0,70048:0:0:0:0:
448,192,70048,1,0,0:0:0:0:
64,192,70048,1,0,0:0:0:0:
320,192,70096,1,0,0:0:0:0:
192,192,70144,1,0,0:0:0:0:
64,192,70239,1,0,0:0:0:0:
320,192,70335,1,0,0:0:0:0:
448,192,70335,1,0,0:0:0:0:
192,192,70430,1,0,0:0:0:0:
320,192,70430,1,0,0:0:0:0:
448,192,70430,1,0,0:0:0:0:
448,192,70621,1,0,0:0:0:0:
64,192,70621,128,0,70812:0:0:0:0:
448,192,70812,1,0,0:0:0:0:
320,192,70812,1,0,0:0:0:0:
192,192,70860,1,0,0:0:0:0:
64,192,70908,1,0,0:0:0:0:
320,192,71003,1,0,0:0:0:0:
448,192,71099,128,0,71386:0:0:0:0:
64,192,71194,1,0,0:0:0:0:
320,192,71194,1,0,0:0:0:0:
192,192,71194,1,0,0:0:0:0:
192,192,71386,128,0,71768:0:0:0:0:
448,192,71577,1,0,0:0:0:0:
320,192,71577,128,0,71768:0:0:0:0:
64,192,71768,1,0,0:0:0:0:
192,192,71863,1,0,0:0:0:0:
448,192,71863,1,0,0:0:0:0:
448,192,71959,1,0,0:0:0:0:
320,192,71959,128,0,72150:0:0:0:0:
192,192,71959,128,0,72341:0:0:0:0:
448,192,72150,1,0,0:0:0:0:
64,192,72150,128,0,72341:0:0:0:0:
320,192,72341,128,0,72532:0:0:0:0:
448,192,72341,128,0,72532:0:0:0:0:
64,192,72532,1,0,0:0:0:0:
448,192,72628,1,0,0:0:0:0:
192,192,72723,1,0,0:0:0:0:
320,192,72723,128,0,72914:0:0:0:0:
64,192,72723,128,0,73105:0:0:0:0:
448,192,72914,128,0,73105:0:0:0:0:
192,192,73105,128,0,73296:0:0:0:0:
320,192,73105,128,0,73296:0:0:0:0:
64,192,73296,1,0,0:0:0:0:
448,192,73392,1,0,0:0:0:0:
192,192,73392,1,0,0:0:0:0:
64,192,73487,1,0,0:0:0:0:
192,192,73487,128,0,73870:0:0:0:0:
448,192,73487,1,0,0:0:0:0:
320,192,73679,1,0,0:0:0:0:
448,192,73679,1,0,0:0:0:0:
64,192,73870,1,0,0:0:0:0:
448,192,73870,128,0,74061:0:0:0:0:
192,192,74061,128,0,74156:0:0:0:0:
320,192,74156,128,0,74252:0:0:0:0:
448,192,74252,1,0,0:0:0:0:
192,192,74252,1,0,0:0:0:0:
64,192,74252,1,0,0:0:0:0:
448,192,74443,1,0,0:0:0:0:
192,192,74634,1,0,0:0:0:0:
320,192,74634,1,0,0:0:0:0:
320,192,74825,1,0,0:0:0:0:
64,192,74921,1,0,0:0:0:0:
192,192,74921,1,0,0:0:0:0:
448,192,75016,1,0,0:0:0:0:
64,192,75016,1,0,0:0:0:0:
192,192,75016,1,0,0:0:0:0:
448,192,75207,1,0,0:0:0:0:
320,192,75207,1,0,0:0:0:0:
64,192,75398,128,0,75589:0:0:0:0:
320,192,75398,128,0,75494:0:0:0:0:
320,192,75589,1,0,0:0:0:0:
192,192,75685,1,0,0:0:0:0:
448,192,75780,1,0,0:0:0:0:
320,192,75780,128,0,75972:0:0:0:0:
64,192,75780,128,0,75876:0:0:0:0:
192,192,75972,1,0,0:0:0:0:
64,192,76163,1,0,0:0:0:0:
448,192,76163,1,0,0:0:0:0:
448,192,76258,1,0,0:0:0:0:
192,192,76354,1,0,0:0:0:0:
64,192,76449,1,0,0:0:0:0:
320,192,76449,1,0,0:0:0:0:
64,192,76545,1,0,0:0:0:0:
320,192,76545,1,0,0:0:0:0:
448,192,76545,1,0,0:0:0:0:
192,192,76640,1,0,0:0:0:0:
192,192,76736,1,0,0:0:0:0:
448,192,76736,1,0,0:0:0:0:
320,192,76831,1,0,0:0:0:0:
64,192,76927,128,0,77118:0:0:0:0:
192,192,76927,128,0,77118:0:0:0:0:
448,192,77118,128,0,77214:0:0:0:0:
192,192,77214,128,0,77309:0:0:0:0:
320,192,77309,1,0,0:0:0:0:
64,192,77309,128,0,77500:0:0:0:0:
448,192,77309,128,0,77500:0:0:0:0:
320,192,77500,128,0,77691:0:0:0:0:
192,192,77691,128,0,77882:0:0:0:0:
448,192,77691,128,0,77882:0:0:0:0:
64,192,77882,128,0,77978:0:0:0:0:
448,192,77978,1,0,0:0:0:0:
320,192,77978,1,0,0:0:0:0:
192,192,78073,1,0,0:0:0:0:
320,192,78073,128,0,78265:0:0:0:0:
448,192,78073,128,0,78265:0:0:0:0:
192,192,78265,1,0,0:0:0:0:
64,192,78265,1,0,0:0:0:0:
448,192,78456,128,0,78647:0:0:0:0:
192,192,78456,128,0,78551:0:0:0:0:
64,192,78647,1,0,0:0:0:0:
320,192,78742,1,0,0:0:0:0:
64,192,78838,1,0,0:0:0:0:
192,192,78838,128,0,79029:0:0:0:0:
448,192,78838,128,0,78933:0:0:0:0:
320,192,79029,1,0,0:0:0:0:
64,192,79220,1,0,0:0:0:0:
192,192,79220,1,0,0:0:0:0:
64,192,79315,1,0,0:0:0:0:
448,192,79411,1,0,0:0:0:0:
320,192,79507,1,0,0:0:0:0:
192,192,79507,1,0,0:0:0:0:
192,192,79602,1,0,0:0:0:0:
320,192,79602,1,0,0:0:0:0:
64,192,79602,1,0,0:0:0:0:
448,192,79698,1,0,0:0:0:0:
64,192,79793,1,0,0:0:0:0:
448,192,79793,1,0,0:0:0:0:
192,192,79889,1,0,0:0:0:0:
448,192,79984,128,0,80175:0:0:0:0:
320,192,79984,128,0,80175:0:0:0:0:
64,192,80175,128,0,80271:0:0:0:0:
192,192,80271,128,0,80366:0:0:0:0:
448,192,80366,1,0,0:0:0:0:
320,192,80366,128,0,80653:0:0:0:0:
64,192,80366,128,0,80462:0:0:0:0:
192,192,80558,128,0,80653:0:0:0:0:
448,192,80749,128,0,80940:0:0:0:0:
192,192,80749,128,0,80940:0:0:0:0:
320,192,80940,128,0,81035:0:0:0:0:
64,192,81035,1,0,0:0:0:0:
192,192,81035,1,0,0:0:0:0:
448,192,81131,1,0,0:0:0:0:
64,192,81131,128,0,81322:0:0:0:0:
192,192,81131,128,0,81322:0:0:0:0:
448,192,81322,1,0,0:0:0:0:
320,192,81322,1,0,0:0:0:0:
64,192,81417,1,0,0:0:0:0:
192,192,81513,128,0,81704:0:0:0:0:
320,192,81513,128,0,81608:0:0:0:0:
448,192,81704,1,0,0:0:0:0:
64,192,81800,1,0,0:0:0:0:
448,192,81895,1,0,0:0:0:0:
320,192,81895,128,0,82086:0:0:0:0:
192,192,81895,128,0,81991:0:0:0:0:
64,192,82086,1,0,0:0:0:0:
320,192,82277,1,0,0:0:0:0:
448,192,82277,1,0,0:0:0:0:
320,192,82373,1,0,0:0:0:0:
192,192,82468,1,0,0:0:0:0:
64,192,82564,1,0,0:0:0:0:
448,192,82564,1,0,0:0:0:0:
64,192,82659,1,0,0:0:0:0:
320,192,82659,1,0,0:0:0:0:
448,192,82659,1,0,0:0:0:0:
192,192,82755,1,0,0:0:0:0:
192,192,82851,1,0,0:0:0:0:
320,192,82851,1,0,0:0:0:0:
448,192,82946,1,0,0:0:0:0:
64,192,83042,128,0,83233:0:0:0:0:
192,192,83042,128,0,83233:0:0:0:0:
320,192,83233,128,0,83328:0:0:0:0:
192,192,83328,128,0,83424:0:0:0:0:
448,192,83424,1,0,0:0:0:0:
64,192,83424,128,0,83615:0:0:0:0:
320,192,83424,128,0,83615:0:0:0:0:
448,192,83615,128,0,83806:0:0:0:0:
192,192,83806,128,0,83997:0:0:0:0:
320,192,83806,128,0,83997:0:0:0:0:
64,192,83997,128,0,84093:0:0:0:0:
448,192,84093,1,0,0:0:0:0:
320,192,84093,1,0,0:0:0:0:
192,192,84188,1,0,0:0:0:0:
320,192,84188,128,0,84379:0:0:0:0:
448,192,84188,128,0,84379:0:0:0:0:
192,192,84379,1,0,0:0:0:0:
64,192,84379,1,0,0:0:0:0:
64,192,84570,128,0,84761:0:0:0:0:
448,192,84570,128,0,84666:0:0:0:0:
320,192,84761,1,0,0:0:0:0:
192,192,84857,1,0,0:0:0:0:
320,192,84952,1,0,0:0:0:0:
448,192,84952,128,0,85144:0:0:0:0:
64,192,84952,128,0,85048:0:0:0:0:
192,192,85144,1,0,0:0:0:0:
64,192,85335,1,0,0:0:0:0:
320,192,85335,1,0,0:0:0:0:
64,192,85430,1,0,0:0:0:0:
448,192,85526,1,0,0:0:0:0:
320,192,85621,1,0,0:0:0:0:
192,192,85621,1,0,0:0:0:0:
192,192,85717,1,0,0:0:0:0:
320,192,85717,1,0,0:0:0:0:
448,192,85717,1,0,0:0:0:0:
64,192,85812,1,0,0:0:0:0:
64,192,85908,1,0,0:0:0:0:
320,192,85908,1,0,0:0:0:0:
192,192,86003,1,0,0:0:0:0:
320,192,86099,128,0,86290:0:0:0:0:
448,192,86099,128,0,86290:0:0:0:0:
64,192,86290,128,0,86386:0:0:0:0:
448,192,86386,128,0,86481:0:0:0:0:
192,192,86481,1,0,0:0:0:0:
320,192,86481,128,0,86672:0:0:0:0:
64,192,86481,128,0,86672:0:0:0:0:
192,192,86672,128,0,86863:0:0:0:0:
320,192,86863,128,0,87054:0:0:0:0:
448,192,86863,128,0,87054:0:0:0:0:
64,192,87054,128,0,87150:0:0:0:0:
192,192,87150,1,0,0:0:0:0:
320,192,87150,1,0,0:0:0:0:
448,192,87245,1,0,0:0:0:0:
192,192,87245,128,0,87437:0:0:0:0:
320,192,87245,128,0,87437:0:0:0:0:
448,192,87437,1,0,0:0:0:0:
64,192,87437,1,0,0:0:0:0:
192,192,87628,1,0,0:0:0:0:
192,192,87819,1,0,0:0:0:0:
320,192,88010,1,0,0:0:0:0:
320,192,88201,1,0,0:0:0:0:
192,192,88392,1,0,0:0:0:0:
192,192,88583,1,0,0:0:0:0:
320,192,88774,1,0,0:0:0:0:
320,192,88965,1,0,0:0:0:0:
64,192,89156,1,0,0:0:0:0:
192,192,89204,1,0,0:0:0:0:
320,192,89252,1,0,0:0:0:0:
