osu file format v14

[General]
AudioFilename: audio.ogg
AudioLeadIn: 0
PreviewTime: 62500
Countdown: 0
SampleSet: Soft
StackLeniency: 0.7
Mode: 3
LetterboxInBreaks: 0
SpecialStyle: 0
WidescreenStoryboard: 1

[Editor]
Bookmarks: 2023,14252,26481,38710,50940,63169,75398,87628
DistanceSpacing: 0.3
BeatDivisor: 16
GridSize: 32
TimelineZoom: 0.1

[Metadata]
Title:Bling-Bang-Bang-Born (TV Size)
TitleUnicode:Bling-Bang-Bang-Born (TV Size)
Artist:Creepy Nuts
ArtistUnicode:Creepy Nuts
Creator:Flade
Version:Easy
Source:マッシュル-MASHLE- 神覚者候補選抜試験編
Tags:Japanese Rap J-Rap JRap Hip-Hop Hip Hop Anime Opening Mashle: Magic and Muscles - The Divine Visionary Candidate Exam Arc 2nd Season 第2期 Kami Satoru-sha Kouho Senbatsu Shiken-hen Ainer brim bam bom brim-bam-bam-bom bling bang born
BeatmapID:4446609
BeatmapSetID:2117314

[Difficulty]
HPDrainRate:6.5
CircleSize:4
OverallDifficulty:6.5
ApproachRate:5
SliderMultiplier:1.4
SliderTickRate:1

[Events]
//Background and Video events
0,0,"bg.jpg",0,0
Video,-65,"vid.avi"
//Break Periods
//Storyboard Layer 0 (Background)
//Storyboard Layer 1 (Fail)
//Storyboard Layer 2 (Pass)
//Storyboard Layer 3 (Foreground)
//Storyboard Layer 4 (Overlay)
//Storyboard Sound Samples

[TimingPoints]
2023,382.165605095541,4,2,1,35,1,0
63169,-100,4,2,1,35,0,1
87628,-100,4,2,1,35,0,0

[HitObjects]
448,192,494,128,0,876:0:0:0:0:
64,192,876,128,0,1258:0:0:0:0:
320,192,1258,128,0,1640:0:0:0:0:
192,192,1640,128,0,2023:0:0:0:0:
448,192,2023,1,0,0:0:0:0:
320,192,2023,1,0,0:0:0:0:
64,192,2405,1,0,0:0:0:0:
320,192,2596,1,0,0:0:0:0:
192,192,2787,1,0,0:0:0:0:
448,192,3073,1,0,0:0:0:0:
64,192,3360,1,0,0:0:0:0:
192,192,3551,1,0,0:0:0:0:
320,192,3551,1,0,0:0:0:0:
64,192,3933,1,0,0:0:0:0:
448,192,4124,1,0,0:0:0:0:
192,192,4315,1,0,0:0:0:0:
320,192,4602,1,0,0:0:0:0:
64,192,4889,1,0,0:0:0:0:
320,192,5080,1,0,0:0:0:0:
192,192,5080,1,0,0:0:0:0:
448,192,5462,1,0,0:0:0:0:
64,192,5653,1,0,0:0:0:0:
320,192,5844,1,0,0:0:0:0:
448,192,6131,1,0,0:0:0:0:
192,192,6417,1,0,0:0:0:0:
64,192,6608,1,0,0:0:0:0:
320,192,6608,1,0,0:0:0:0:
448,192,6991,1,0,0:0:0:0:
64,192,7182,1,0,0:0:0:0:
320,192,7373,1,0,0:0:0:0:
192,192,7659,1,0,0:0:0:0:
448,192,7946,1,0,0:0:0:0:
320,192,8137,1,0,0:0:0:0:
64,192,8137,1,0,0:0:0:0:
192,192,8519,1,0,0:0:0:0:
448,192,8710,1,0,0:0:0:0:
64,192,8901,1,0,0:0:0:0:
320,192,9188,1,0,0:0:0:0:
192,192,9475,1,0,0:0:0:0:
448,192,9666,1,0,0:0:0:0:
320,192,9666,1,0,0:0:0:0:
64,192,10048,1,0,0:0:0:0:
448,192,10239,1,0,0:0:0:0:
192,192,10430,1,0,0:0:0:0:
320,192,10717,1,0,0:0:0:0:
64,192,11003,1,0,0:0:0:0:
192,192,11194,1,0,0:0:0:0:
448,192,11194,1,0,0:0:0:0:
320,192,11577,1,0,0:0:0:0:
64,192,11959,1,0,0:0:0:0:
320,192,12245,1,0,0:0:0:0:
192,192,12532,1,0,0:0:0:0:
64,192,12723,1,0,0:0:0:0:
448,192,12723,1,0,0:0:0:0:
320,192,13105,128,0,13487:0:0:0:0:
64,192,13487,1,0,0:0:0:0:
192,192,13679,1,0,0:0:0:0:
320,192,13870,1,0,0:0:0:0:
448,192,14061,1,0,0:0:0:0:
192,192,14252,1,0,0:0:0:0:
64,192,14252,1,0,0:0:0:0:
320,192,14634,1,0,0:0:0:0:
192,192,14825,1,0,0:0:0:0:
448,192,15016,1,0,0:0:0:0:
64,192,15303,1,0,0:0:0:0:
320,192,15589,1,0,0:0:0:0:
192,192,15780,1,0,0:0:0:0:
448,192,15780,1,0,0:0:0:0:
320,192,16163,1,0,0:0:0:0:
64,192,16354,1,0,0:0:0:0:
192,192,16545,1,0,0:0:0:0:
448,192,16831,1,0,0:0:0:0:
320,192,17118,1,0,0:0:0:0:
192,192,17309,1,0,0:0:0:0:
64,192,17309,1,0,0:0:0:0:
448,192,17691,1,0,0:0:0:0:
64,192,17882,1,0,0:0:0:0:
192,192,18073,1,0,0:0:0:0:
320,192,18360,1,0,0:0:0:0:
64,192,18647,1,0,0:0:0:0:
192,192,18838,1,0,0:0:0:0:
448,192,18838,1,0,0:0:0:0:
320,192,19220,1,0,0:0:0:0:
448,192,19411,1,0,0:0:0:0:
64,192,19602,1,0,0:0:0:0:
192,192,19889,1,0,0:0:0:0:
448,192,20175,1,0,0:0:0:0:
64,192,20366,1,0,0:0:0:0:
320,192,20366,1,0,0:0:0:0:
192,192,20749,1,0,0:0:0:0:
448,192,20940,1,0,0:0:0:0:
64,192,21131,1,0,0:0:0:0:
320,192,21417,1,0,0:0:0:0:
192,192,21704,1,0,0:0:0:0:
64,192,21895,1,0,0:0:0:0:
448,192,21895,1,0,0:0:0:0:
320,192,22277,1,0,0:0:0:0:
448,192,22468,1,0,0:0:0:0:
192,192,22659,1,0,0:0:0:0:
320,192,22946,1,0,0:0:0:0:
64,192,23233,1,0,0:0:0:0:
448,192,23424,1,0,0:0:0:0:
192,192,23424,1,0,0:0:0:0:
320,192,23806,1,0,0:0:0:0:
64,192,23997,1,0,0:0:0:0:
192,192,24188,1,0,0:0:0:0:
448,192,24475,1,0,0:0:0:0:
64,192,24761,1,0,0:0:0:0:
320,192,24952,1,0,0:0:0:0:
448,192,24952,1,0,0:0:0:0:
192,192,25335,1,0,0:0:0:0:
448,192,25717,1,0,0:0:0:0:
320,192,26003,1,0,0:0:0:0:
192,192,26290,1,0,0:0:0:0:
64,192,26481,1,0,0:0:0:0:
448,192,26863,1,0,0:0:0:0:
320,192,26863,1,0,0:0:0:0:
192,192,27245,1,0,0:0:0:0:
64,192,27628,1,0,0:0:0:0:
448,192,27628,1,0,0:0:0:0:
192,192,27819,1,0,0:0:0:0:
320,192,28010,1,0,0:0:0:0:
64,192,28392,1,0,0:0:0:0:
192,192,28392,1,0,0:0:0:0:
448,192,28774,1,0,0:0:0:0:
192,192,29156,1,0,0:0:0:0:
320,192,29156,1,0,0:0:0:0:
64,192,29347,1,0,0:0:0:0:
320,192,29538,1,0,0:0:0:0:
448,192,29921,1,0,0:0:0:0:
64,192,29921,1,0,0:0:0:0:
320,192,30303,1,0,0:0:0:0:
192,192,30685,1,0,0:0:0:0:
64,192,30685,1,0,0:0:0:0:
448,192,30876,1,0,0:0:0:0:
64,192,31067,1,0,0:0:0:0:
320,192,31449,1,0,0:0:0:0:
448,192,31449,1,0,0:0:0:0:
192,192,31831,1,0,0:0:0:0:
64,192,32214,1,0,0:0:0:0:
448,192,32214,1,0,0:0:0:0:
192,192,32405,1,0,0:0:0:0:
320,192,32596,1,0,0:0:0:0:
192,192,32978,1,0,0:0:0:0:
64,192,32978,1,0,0:0:0:0:
448,192,33360,1,0,0:0:0:0:
192,192,33742,1,0,0:0:0:0:
320,192,33742,1,0,0:0:0:0:
64,192,33933,1,0,0:0:0:0:
448,192,34124,1,0,0:0:0:0:
64,192,34507,1,0,0:0:0:0:
192,192,34507,1,0,0:0:0:0:
320,192,34889,1,0,0:0:0:0:
448,192,35271,1,0,0:0:0:0:
64,192,35271,1,0,0:0:0:0:
192,192,35462,1,0,0:0:0:0:
320,192,35653,1,0,0:0:0:0:
448,192,36035,1,0,0:0:0:0:
192,192,36035,1,0,0:0:0:0:
320,192,36417,1,0,0:0:0:0:
192,192,36800,1,0,0:0:0:0:
64,192,36800,1,0,0:0:0:0:
448,192,36991,1,0,0:0:0:0:
320,192,37182,1,0,0:0:0:0:
64,192,37564,1,0,0:0:0:0:
448,192,37564,1,0,0:0:0:0:
192,192,37946,1,0,0:0:0:0:
64,192,38328,1,0,0:0:0:0:
320,192,38328,1,0,0:0:0:0:
448,192,38519,1,0,0:0:0:0:
192,192,38710,1,0,0:0:0:0:
448,192,39093,1,0,0:0:0:0:
320,192,39093,1,0,0:0:0:0:
64,192,39284,1,0,0:0:0:0:
320,192,39475,1,0,0:0:0:0:
448,192,39857,1,0,0:0:0:0:
192,192,39857,1,0,0:0:0:0:
320,192,40048,1,0,0:0:0:0:
192,192,40239,1,0,0:0:0:0:
448,192,40621,1,0,0:0:0:0:
64,192,40621,1,0,0:0:0:0:
320,192,40812,1,0,0:0:0:0:
192,192,41003,1,0,0:0:0:0:
448,192,41386,1,0,0:0:0:0:
320,192,41386,1,0,0:0:0:0:
64,192,41577,1,0,0:0:0:0:
192,192,41768,1,0,0:0:0:0:
64,192,42150,1,0,0:0:0:0:
320,192,42150,1,0,0:0:0:0:
192,192,42341,1,0,0:0:0:0:
448,192,42532,1,0,0:0:0:0:
64,192,42914,1,0,0:0:0:0:
192,192,42914,1,0,0:0:0:0:
320,192,43105,1,0,0:0:0:0:
64,192,43296,1,0,0:0:0:0:
448,192,43679,1,0,0:0:0:0:
192,192,43679,1,0,0:0:0:0:
320,192,43870,1,0,0:0:0:0:
448,192,44061,1,0,0:0:0:0:
320,192,44443,1,0,0:0:0:0:
192,192,44443,1,0,0:0:0:0:
64,192,44634,1,0,0:0:0:0:
448,192,44825,1,0,0:0:0:0:
64,192,45207,1,0,0:0:0:0:
192,192,45207,1,0,0:0:0:0:
320,192,45398,1,0,0:0:0:0:
448,192,45589,1,0,0:0:0:0:
320,192,45972,1,0,0:0:0:0:
192,192,45972,1,0,0:0:0:0:
64,192,46163,1,0,0:0:0:0:
320,192,46354,1,0,0:0:0:0:
448,192,46736,1,0,0:0:0:0:
192,192,46736,1,0,0:0:0:0:
320,192,46927,1,0,0:0:0:0:
64,192,47118,1,0,0:0:0:0:
320,192,47500,1,0,0:0:0:0:
448,192,47500,1,0,0:0:0:0:
192,192,47691,1,0,0:0:0:0:
64,192,47882,1,0,0:0:0:0:
192,192,48265,1,0,0:0:0:0:
320,192,48265,1,0,0:0:0:0:
448,192,48456,1,0,0:0:0:0:
192,192,48647,1,0,0:0:0:0:
320,192,49029,1,0,0:0:0:0:
64,192,49029,1,0,0:0:0:0:
192,192,49220,1,0,0:0:0:0:
448,192,49411,1,0,0:0:0:0:
192,192,49793,1,0,0:0:0:0:
320,192,49793,1,0,0:0:0:0:
64,192,49984,1,0,0:0:0:0:
448,192,50175,1,0,0:0:0:0:
64,192,50940,1,0,0:0:0:0:
192,192,50940,1,0,0:0:0:0:
448,192,51322,1,0,0:0:0:0:
320,192,51704,1,0,0:0:0:0:
192,192,52086,1,0,0:0:0:0:
320,192,52468,1,0,0:0:0:0:
448,192,52468,128,0,52851:0:0:0:0:
64,192,52851,128,0,53233:0:0:0:0:
320,192,53233,128,0,53615:0:0:0:0:
192,192,53615,1,0,0:0:0:0:
448,192,53806,1,0,0:0:0:0:
64,192,53997,1,0,0:0:0:0:
320,192,53997,1,0,0:0:0:0:
192,192,54379,1,0,0:0:0:0:
64,192,54570,1,0,0:0:0:0:
448,192,54761,1,0,0:0:0:0:
320,192,55144,1,0,0:0:0:0:
192,192,55526,1,0,0:0:0:0:
448,192,55526,128,0,55908:0:0:0:0:
64,192,55908,1,0,0:0:0:0:
320,192,56099,1,0,0:0:0:0:
192,192,56290,128,0,56672:0:0:0:0:
448,192,56672,1,0,0:0:0:0:
64,192,57054,1,0,0:0:0:0:
192,192,57054,1,0,0:0:0:0:
320,192,57437,1,0,0:0:0:0:
64,192,57819,1,0,0:0:0:0:
448,192,58201,1,0,0:0:0:0:
320,192,58583,1,0,0:0:0:0:
192,192,58583,1,0,0:0:0:0:
64,192,58965,128,0,59347:0:0:0:0:
448,192,59347,128,0,59730:0:0:0:0:
192,192,59730,1,0,0:0:0:0:
320,192,59921,1,0,0:0:0:0:
192,192,60112,1,0,0:0:0:0:
64,192,60112,1,0,0:0:0:0:
320,192,60494,1,0,0:0:0:0:
192,192,60685,1,0,0:0:0:0:
448,192,60876,1,0,0:0:0:0:
64,192,61163,1,0,0:0:0:0:
320,192,61449,1,0,0:0:0:0:
192,192,61640,1,0,0:0:0:0:
448,192,61640,1,0,0:0:0:0:
320,192,62596,1,0,0:0:0:0:
192,192,62787,1,0,0:0:0:0:
64,192,62978,1,0,0:0:0:0:
448,192,63169,1,0,0:0:0:0:
192,192,63551,1,0,0:0:0:0:
320,192,63551,1,0,0:0:0:0:
64,192,63742,1,0,0:0:0:0:
320,192,63933,1,0,0:0:0:0:
192,192,64220,1,0,0:0:0:0:
448,192,64507,1,0,0:0:0:0:
64,192,64698,1,0,0:0:0:0:
448,192,65080,1,0,0:0:0:0:
320,192,65080,1,0,0:0:0:0:
192,192,65271,1,0,0:0:0:0:
448,192,65462,1,0,0:0:0:0:
64,192,65749,1,0,0:0:0:0:
320,192,66035,1,0,0:0:0:0:
192,192,66226,1,0,0:0:0:0:
64,192,66608,1,0,0:0:0:0:
448,192,66608,1,0,0:0:0:0:
320,192,66800,1,0,0:0:0:0:
192,192,66991,1,0,0:0:0:0:
448,192,67277,1,0,0:0:0:0:
320,192,67564,1,0,0:0:0:0:
64,192,67755,1,0,0:0:0:0:
192,192,68137,1,0,0:0:0:0:
320,192,68137,1,0,0:0:0:0:
448,192,68328,1,0,0:0:0:0:
64,192,68519,1,0,0:0:0:0:
192,192,68806,1,0,0:0:0:0:
448,192,69093,1,0,0:0:0:0:
320,192,69284,1,0,0:0:0:0:
64,192,69666,1,0,0:0:0:0:
192,192,69666,1,0,0:0:0:0:
448,192,69857,1,0,0:0:0:0:
64,192,70048,1,0,0:0:0:0:
320,192,70335,1,0,0:0:0:0:
192,192,70621,1,0,0:0:0:0:
448,192,70812,1,0,0:0:0:0:
64,192,71194,1,0,0:0:0:0:
320,192,71194,1,0,0:0:0:0:
192,192,71386,1,0,0:0:0:0:
448,192,71577,1,0,0:0:0:0:
64,192,71959,1,0,0:0:0:0:
320,192,72150,1,0,0:0:0:0:
192,192,72341,1,0,0:0:0:0:
448,192,72723,1,0,0:0:0:0:
320,192,72723,1,0,0:0:0:0:
64,192,72914,1,0,0:0:0:0:
448,192,73105,1,0,0:0:0:0:
192,192,73487,1,0,0:0:0:0:
320,192,73679,1,0,0:0:0:0:
64,192,73870,1,0,0:0:0:0:
192,192,74252,1,0,0:0:0:0:
448,192,74252,1,0,0:0:0:0:
320,192,74634,1,0,0:0:0:0:
64,192,74921,1,0,0:0:0:0:
448,192,75207,1,0,0:0:0:0:
192,192,75398,1,0,0:0:0:0:
320,192,75780,1,0,0:0:0:0:
192,192,75780,1,0,0:0:0:0:
448,192,76163,1,0,0:0:0:0:
64,192,76449,1,0,0:0:0:0:
320,192,76736,1,0,0:0:0:0:
448,192,76927,1,0,0:0:0:0:
64,192,77309,1,0,0:0:0:0:
192,192,77309,1,0,0:0:0:0:
320,192,77500,1,0,0:0:0:0:
448,192,77691,1,0,0:0:0:0:
192,192,77978,1,0,0:0:0:0:
320,192,78265,1,0,0:0:0:0:
64,192,78456,1,0,0:0:0:0:
64,192,78838,1,0,0:0:0:0:
448,192,78838,1,0,0:0:0:0:
320,192,79220,1,0,0:0:0:0:
192,192,79507,1,0,0:0:0:0:
64,192,79793,1,0,0:0:0:0:
448,192,79984,1,0,0:0:0:0:
192,192,80366,1,0,0:0:0:0:
64,192,80366,1,0,0:0:0:0:
320,192,80558,1,0,0:0:0:0:
64,192,80749,1,0,0:0:0:0:
448,192,81035,1,0,0:0:0:0:
192,192,81322,1,0,0:0:0:0:
320,192,81513,1,0,0:0:0:0:
64,192,81895,1,0,0:0:0:0:
320,192,81895,1,0,0:0:0:0:
192,192,82277,1,0,0:0:0:0:
448,192,82564,1,0,0:0:0:0:
320,192,82851,1,0,0:0:0:0:
64,192,83042,1,0,0:0:0:0:
448,192,83424,1,0,0:0:0:0:
320,192,83424,1,0,0:0:0:0:
192,192,83615,1,0,0:0:0:0:
448,192,83806,1,0,0:0:0:0:
64,192,84093,1,0,0:0:0:0:
320,192,84379,1,0,0:0:0:0:
192,192,84570,1,0,0:0:0:0:
192,192,84952,1,0,0:0:0:0:
64,192,84952,1,0,0:0:0:0:
448,192,85335,1,0,0:0:0:0:
192,192,85621,1,0,0:0:0:0:
320,192,85908,1,0,0:0:0:0:
64,192,86099,1,0,0:0:0:0:
448,192,86481,1,0,0:0:0:0:
320,192,86481,1,0,0:0:0:0:
192,192,86672,1,0,0:0:0:0:
64,192,86863,1,0,0:0:0:0:
448,192,87150,1,0,0:0:0:0:
320,192,87437,1,0,0:0:0:0:
64,192,87628,1,0,0:0:0:0:
192,192,88010,1,0,0:0:0:0:
448,192,88392,1,0,0:0:0:0:
320,192,88774,1,0,0:0:0:0:
64,192,89156,1,0,0:0:0:0:
