osu file format v14

[General]
AudioFilename: audio.mp3
AudioLeadIn: 0
PreviewTime: 62270
Countdown: 0
SampleSet: Normal
StackLeniency: 0.7
Mode: 1
LetterboxInBreaks: 0
WidescreenStoryboard: 1

[Editor]
DistanceSpacing: 1.1
BeatDivisor: 16
GridSize: 16
TimelineZoom: 2.7

[Metadata]
Title:Bling-Bang-Bang-Born (TV Size)
TitleUnicode:Bling-Bang-Bang-Born (TV Size)
Artist:Creepy Nuts
ArtistUnicode:Creepy Nuts
Creator:Cryceptio
Version:Futsuu
Source:マッシュル-MASHLE- 神覚者候補選抜試験編
Tags:mashle: kami satoru-sha kouho senbatsu shiken-hen anime japanese rap hiphop magic and muscles the divine visionary candidate exam arc jersey club hip hop second season 2nd dj松永 dj matsunaga r-shitei r-指定 liku the law the_law law maxie Molybdenum
BeatmapID:4462637
BeatmapSetID:2122246

[Difficulty]
HPDrainRate:7
CircleSize:5
OverallDifficulty:4
ApproachRate:5
SliderMultiplier:1.4
SliderTickRate:1

[Events]
//Background and Video events
0,0,"firefox_We54uAT81D.png",0,0
Video,-170,"output.mp4"
//Break Periods
//Storyboard Layer 0 (Background)
//Storyboard Layer 1 (Fail)
//Storyboard Layer 2 (Pass)
//Storyboard Layer 3 (Foreground)
//Storyboard Layer 4 (Overlay)
//Storyboard Sound Samples

[TimingPoints]
1888,382.165605095541,4,1,0,60,1,0
1888,-100,4,1,0,60,0,0
14117,-100,4,1,0,70,0,0
26346,-100,4,1,0,60,0,0
38575,-100,4,1,0,70,0,0
50040,-100,4,1,0,60,0,0
63034,-100,4,1,0,80,0,1
71442,-100,4,1,0,70,0,0
72206,-100,4,1,0,70,0,0
75263,-100,4,1,0,80,0,1
87493,-100,4,1,0,40,0,0
89021,382.165605095541,4,1,0,40,1,8
89786,-100,4,1,0,40,0,0

[HitObjects]
448,64,1888,5,8,0:0:0:0:
448,64,2270,1,8,0:0:0:0:
448,64,2652,1,8,0:0:0:0:
448,64,2843,1,8,0:0:0:0:
64,240,3034,1,0,0:0:0:0:
64,240,3225,1,0,0:0:0:0:
448,64,3416,1,8,0:0:0:0:
448,64,3798,1,8,0:0:0:0:
448,64,4180,1,8,0:0:0:0:
448,64,4372,1,8,0:0:0:0:
448,64,4563,1,8,0:0:0:0:
64,240,4754,1,0,0:0:0:0:
448,64,4945,1,8,0:0:0:0:
64,240,5327,1,0,0:0:0:0:
448,64,5709,1,8,0:0:0:0:
448,64,5900,1,8,0:0:0:0:
64,240,6091,1,0,0:0:0:0:
448,64,6282,1,8,0:0:0:0:
448,64,6473,1,8,0:0:0:0:
448,64,6856,1,8,0:0:0:0:
448,64,7238,1,8,0:0:0:0:
64,240,7429,1,0,0:0:0:0:
448,64,7620,1,8,0:0:0:0:
448,64,7811,1,8,0:0:0:0:
64,240,8002,1,0,0:0:0:0:
448,64,8766,1,8,0:0:0:0:
448,64,8958,1,8,0:0:0:0:
64,240,9149,1,0,0:0:0:0:
448,64,9340,1,8,0:0:0:0:
64,240,9531,1,0,0:0:0:0:
64,240,9913,1,0,0:0:0:0:
448,64,10295,1,8,0:0:0:0:
64,240,10486,1,0,0:0:0:0:
448,64,10677,1,8,0:0:0:0:
448,64,10868,1,8,0:0:0:0:
448,64,11059,1,8,0:0:0:0:
448,64,11442,1,8,0:0:0:0:
64,240,11824,1,0,0:0:0:0:
448,64,12015,1,8,0:0:0:0:
448,64,12206,1,8,0:0:0:0:
448,64,12397,1,8,0:0:0:0:
64,320,12588,1,4,0:0:0:0:
448,64,14117,1,8,0:0:0:0:
64,240,14690,1,0,0:0:0:0:
64,240,15072,1,0,0:0:0:0:
448,64,15263,1,8,0:0:0:0:
64,240,15454,1,0,0:0:0:0:
448,64,15645,1,8,0:0:0:0:
64,240,16219,1,0,0:0:0:0:
64,240,16601,1,0,0:0:0:0:
448,64,16792,1,8,0:0:0:0:
64,240,16983,1,0,0:0:0:0:
448,64,17174,1,8,0:0:0:0:
64,240,17556,1,0,0:0:0:0:
448,64,17747,1,8,0:0:0:0:
64,240,18130,1,0,0:0:0:0:
64,240,18321,1,0,0:0:0:0:
64,240,18512,1,0,0:0:0:0:
448,64,18703,1,8,0:0:0:0:
448,64,19085,1,8,0:0:0:0:
448,64,19467,1,8,0:0:0:0:
448,64,19849,1,8,0:0:0:0:
64,240,20231,1,0,0:0:0:0:
448,64,20805,1,8,0:0:0:0:
448,64,20996,1,8,0:0:0:0:
64,240,21760,1,0,0:0:0:0:
448,64,22333,1,8,0:0:0:0:
448,64,22524,1,8,0:0:0:0:
64,240,23289,1,0,0:0:0:0:
448,64,23862,1,8,0:0:0:0:
448,64,24053,1,8,0:0:0:0:
448,64,24817,1,8,0:0:0:0:
448,64,25391,1,8,0:0:0:0:
448,64,25582,1,8,0:0:0:0:
64,240,26346,1,0,0:0:0:0:
448,64,26728,1,8,0:0:0:0:
448,64,26919,1,8,0:0:0:0:
64,240,27110,1,0,0:0:0:0:
448,64,27493,1,8,0:0:0:0:
64,240,27684,1,0,0:0:0:0:
448,64,27875,1,8,0:0:0:0:
448,64,28257,1,8,0:0:0:0:
64,240,28639,1,0,0:0:0:0:
448,64,29021,1,8,0:0:0:0:
448,64,29212,1,8,0:0:0:0:
64,240,29403,1,0,0:0:0:0:
64,240,29786,1,0,0:0:0:0:
448,64,29977,1,8,0:0:0:0:
64,240,30168,1,0,0:0:0:0:
448,64,30550,1,8,0:0:0:0:
64,240,30932,1,0,0:0:0:0:
448,64,31314,1,8,0:0:0:0:
448,64,31505,1,8,0:0:0:0:
64,240,31696,1,0,0:0:0:0:
64,240,32461,1,0,0:0:0:0:
64,240,32843,1,0,0:0:0:0:
448,64,33034,1,8,0:0:0:0:
448,64,33225,1,8,0:0:0:0:
448,64,33607,1,8,0:0:0:0:
448,64,34372,1,8,0:0:0:0:
448,64,35136,1,8,0:0:0:0:
64,240,35518,1,0,0:0:0:0:
64,240,35900,1,0,0:0:0:0:
64,240,36091,1,0,0:0:0:0:
64,240,36473,1,0,0:0:0:0:
64,240,36665,1,0,0:0:0:0:
448,64,36856,1,8,0:0:0:0:
448,64,37047,1,8,0:0:0:0:
64,240,37429,1,0,0:0:0:0:
64,240,37811,1,0,0:0:0:0:
448,64,38002,1,8,0:0:0:0:
448,64,38575,1,8,0:0:0:0:
448,64,38958,1,8,0:0:0:0:
64,240,39149,1,0,0:0:0:0:
64,240,39340,1,0,0:0:0:0:
64,240,39722,1,0,0:0:0:0:
448,64,39913,1,8,0:0:0:0:
448,64,40104,1,8,0:0:0:0:
448,64,40486,1,8,0:0:0:0:
448,64,40868,1,8,0:0:0:0:
64,240,41633,1,0,0:0:0:0:
64,240,42015,1,0,0:0:0:0:
448,64,42206,1,8,0:0:0:0:
448,64,42397,1,8,0:0:0:0:
448,64,42779,1,8,0:0:0:0:
448,64,42970,1,8,0:0:0:0:
64,240,43161,1,0,0:0:0:0:
448,64,43544,1,8,0:0:0:0:
64,240,43926,1,0,0:0:0:0:
64,240,44690,1,0,0:0:0:0:
64,240,45072,1,0,0:0:0:0:
448,64,45263,1,8,0:0:0:0:
64,240,45454,1,0,0:0:0:0:
448,64,45837,1,8,0:0:0:0:
64,240,46028,1,0,0:0:0:0:
448,64,46219,1,8,0:0:0:0:
448,64,46601,1,8,0:0:0:0:
448,64,46983,1,8,0:0:0:0:
64,240,47747,1,0,0:0:0:0:
448,64,48130,1,8,0:0:0:0:
448,64,48321,1,8,0:0:0:0:
64,240,48512,1,0,0:0:0:0:
448,64,48894,1,8,0:0:0:0:
64,240,49085,1,0,0:0:0:0:
448,64,49276,1,8,0:0:0:0:
448,64,49658,1,8,0:0:0:0:
448,64,50040,1,8,0:0:0:0:
64,240,50805,1,0,0:0:0:0:
448,64,51187,1,8,0:0:0:0:
64,240,51569,1,0,0:0:0:0:
448,64,51760,1,8,0:0:0:0:
64,240,51951,1,0,0:0:0:0:
48,240,52142,1,0,0:0:0:0:
448,64,52333,1,8,0:0:0:0:
448,64,52716,1,8,0:0:0:0:
448,64,53098,1,8,0:0:0:0:
448,64,53480,1,8,0:0:0:0:
448,64,53671,1,8,0:0:0:0:
448,64,53862,1,8,0:0:0:0:
448,64,54244,1,8,0:0:0:0:
64,240,54435,1,0,0:0:0:0:
448,64,54626,1,8,0:0:0:0:
448,64,55009,1,8,0:0:0:0:
448,64,55391,1,8,0:0:0:0:
448,64,56155,1,8,0:0:0:0:
64,240,56919,1,0,0:0:0:0:
448,64,57302,1,8,0:0:0:0:
448,64,57684,1,8,0:0:0:0:
448,64,57875,1,8,0:0:0:0:
448,64,58066,1,8,0:0:0:0:
448,64,58257,1,8,0:0:0:0:
64,240,58448,1,0,0:0:0:0:
448,64,58830,1,8,0:0:0:0:
448,64,59212,1,8,0:0:0:0:
448,64,59595,1,8,0:0:0:0:
448,64,59786,1,8,0:0:0:0:
48,240,59977,1,0,0:0:0:0:
448,64,60359,1,8,0:0:0:0:
48,240,60550,1,0,0:0:0:0:
448,64,60741,1,8,0:0:0:0:
448,64,61123,1,8,0:0:0:0:
64,320,61505,1,4,0:0:0:0:
48,240,63034,1,0,0:0:0:0:
448,64,63607,1,8,0:0:0:0:
48,240,63798,1,0,0:0:0:0:
448,64,64372,1,8,0:0:0:0:
48,240,64563,1,0,0:0:0:0:
448,64,65136,1,8,0:0:0:0:
48,240,65327,1,0,0:0:0:0:
48,240,65709,1,0,0:0:0:0:
48,240,66091,1,0,0:0:0:0:
448,64,66665,1,8,0:0:0:0:
48,240,66856,1,0,0:0:0:0:
448,64,67429,1,8,0:0:0:0:
48,240,67620,1,0,0:0:0:0:
448,64,68193,1,8,0:0:0:0:
48,240,68384,1,0,0:0:0:0:
448,64,68766,1,8,0:0:0:0:
48,240,69149,1,0,0:0:0:0:
448,64,69722,1,8,0:0:0:0:
48,240,69913,1,0,0:0:0:0:
448,64,70486,1,8,0:0:0:0:
48,240,70677,1,0,0:0:0:0:
448,64,71251,1,8,0:0:0:0:
48,240,71442,1,0,0:0:0:0:
448,64,71824,1,8,0:0:0:0:
48,240,72015,1,0,0:0:0:0:
448,64,72206,1,8,0:0:0:0:
448,64,72588,1,8,0:0:0:0:
448,64,72779,1,8,0:0:0:0:
48,240,72970,1,0,0:0:0:0:
448,64,73352,1,8,0:0:0:0:
48,240,73735,1,0,0:0:0:0:
448,64,74499,1,8,0:0:0:0:
448,64,75263,1,8,0:0:0:0:
448,64,75645,1,8,0:0:0:0:
448,64,76028,1,8,0:0:0:0:
448,64,76601,1,8,0:0:0:0:
448,64,76792,1,8,0:0:0:0:
448,64,76983,1,8,0:0:0:0:
48,240,77174,1,0,0:0:0:0:
448,64,77365,1,8,0:0:0:0:
448,64,77556,1,8,0:0:0:0:
448,64,78321,1,8,0:0:0:0:
448,64,78703,1,8,0:0:0:0:
448,64,79085,1,8,0:0:0:0:
48,240,79658,1,0,0:0:0:0:
448,64,79849,1,8,0:0:0:0:
48,240,80040,1,0,0:0:0:0:
448,64,80231,1,8,0:0:0:0:
448,64,80423,1,8,0:0:0:0:
448,64,80614,1,8,0:0:0:0:
448,64,81378,1,8,0:0:0:0:
448,64,81760,1,8,0:0:0:0:
448,64,82142,1,8,0:0:0:0:
48,240,82716,1,0,0:0:0:0:
48,240,82907,1,0,0:0:0:0:
448,64,83098,1,8,0:0:0:0:
448,64,83289,1,8,0:0:0:0:
448,64,83480,1,8,0:0:0:0:
448,64,83671,1,8,0:0:0:0:
448,64,84435,1,8,0:0:0:0:
448,64,84817,1,8,0:0:0:0:
448,64,85200,1,8,0:0:0:0:
48,240,85773,1,0,0:0:0:0:
448,64,85964,1,8,0:0:0:0:
48,240,86155,1,0,0:0:0:0:
448,64,86346,1,8,0:0:0:0:
48,240,86537,1,0,0:0:0:0:
48,240,86728,1,0,0:0:0:0:
448,64,89809,1,8,0:0:0:0:
