osu file format v14

[General]
AudioFilename: audio.mp3
AudioLeadIn: 0
PreviewTime: 81314
Countdown: 0
SampleSet: Normal
StackLeniency: 0.7
Mode: 1
LetterboxInBreaks: 0
WidescreenStoryboard: 0

[Editor]
Bookmarks: 21200,41411,61621,81832,91933,102038,112143
DistanceSpacing: 1.7
BeatDivisor: 4
GridSize: 32
TimelineZoom: 2.8

[Metadata]
Title:Bling-Bang-Bang-Born (7_7 bootleg)
TitleUnicode:Bling-Bang-Bang-Born (7_7 bootleg)
Artist:Creepy Nuts
ArtistUnicode:Creepy Nuts
Creator:_Rise
Version:Oni
Source:マッシュル-MASHLE- 神覚者候補選抜試験編
Tags:japanese electronic remix rap hiphop hip hop anime mashle: kami satoru-sha kouho senbatsu shiken-hen magic and muscles the divine visionary candidate exam arc second season 2nd dj松永 dj matsunaga r-shitei r-指定
BeatmapID:4500847
BeatmapSetID:2138532

[Difficulty]
HPDrainRate:6
CircleSize:5
OverallDifficulty:5.5
ApproachRate:10
SliderMultiplier:1.4
SliderTickRate:1

[Events]
//Background and Video events
0,0,"bg.jpg",0,-50
//Break Periods
//Storyboard Layer 0 (Background)
//Storyboard Layer 1 (Fail)
//Storyboard Layer 2 (Pass)
//Storyboard Layer 3 (Foreground)
//Storyboard Layer 4 (Overlay)
//Storyboard Sound Samples

[TimingPoints]
984,315.789473684211,4,1,0,90,1,0
21174,-100,4,1,0,100,0,0
21194,-100,4,1,0,100,0,1
30036,-100,4,1,0,100,0,0
31299,-100,4,1,0,100,0,1
40141,-100,4,1,0,100,0,0
40181,-100,4,1,0,90,0,0
82437,-100,4,1,0,100,0,0
82457,-100,4,1,0,100,0,1
90668,-100,4,1,0,100,0,0
91931,-100,4,1,0,100,0,1
100773,-100,4,1,0,100,0,0
100812,-100,4,1,0,90,0,0
102016,-100,4,1,0,100,0,0
102036,-100,4,1,0,100,0,1
110878,-100,4,1,0,100,0,0
112141,-100,4,1,0,100,0,1
120984,-100,4,1,0,100,0,0

[HitObjects]
256,192,11089,5,4,0:0:0:0:
256,192,11326,1,4,0:0:0:0:
256,192,11562,1,4,0:0:0:0:
256,192,11720,1,8,0:0:0:0:
256,192,12036,1,8,0:0:0:0:
256,192,12194,1,8,0:0:0:0:
256,192,12352,1,8,0:0:0:0:
256,192,12668,1,8,0:0:0:0:
256,192,12826,1,8,0:0:0:0:
256,192,12905,1,8,0:0:0:0:
256,192,12984,1,8,0:0:0:0:
256,192,13141,1,8,0:0:0:0:
256,192,13299,1,0,0:0:0:0:
256,192,13457,1,8,0:0:0:0:
256,192,13615,1,4,0:0:0:0:
256,192,13852,1,4,0:0:0:0:
256,192,14089,1,4,0:0:0:0:
256,192,14247,1,8,0:0:0:0:
256,192,14562,1,8,0:0:0:0:
256,192,14720,1,8,0:0:0:0:
256,192,14878,1,8,0:0:0:0:
256,192,15194,1,8,0:0:0:0:
256,192,15273,1,8,0:0:0:0:
256,192,15352,1,8,0:0:0:0:
256,192,15510,1,8,0:0:0:0:
256,192,15668,1,8,0:0:0:0:
256,192,15826,1,0,0:0:0:0:
256,192,15984,1,8,0:0:0:0:
256,192,16141,1,4,0:0:0:0:
256,192,16378,1,4,0:0:0:0:
256,192,16615,1,4,0:0:0:0:
256,192,16773,1,8,0:0:0:0:
256,192,17089,1,8,0:0:0:0:
256,192,17247,1,8,0:0:0:0:
256,192,17405,1,8,0:0:0:0:
256,192,17720,1,8,0:0:0:0:
256,192,17878,1,8,0:0:0:0:
256,192,18036,1,8,0:0:0:0:
256,192,18115,1,8,0:0:0:0:
256,192,18194,1,8,0:0:0:0:
256,192,18273,1,8,0:0:0:0:
256,192,18352,1,0,0:0:0:0:
256,192,18510,1,8,0:0:0:0:
256,192,18668,1,4,0:0:0:0:
256,192,18905,1,4,0:0:0:0:
256,192,19141,1,4,0:0:0:0:
256,192,19299,1,8,0:0:0:0:
256,192,19615,1,8,0:0:0:0:
256,192,19773,1,8,0:0:0:0:
256,192,19931,1,8,0:0:0:0:
256,192,20247,1,8,0:0:0:0:
256,192,20326,1,8,0:0:0:0:
256,192,20484,1,8,0:0:0:0:
256,192,20562,1,8,0:0:0:0:
256,192,20720,1,8,0:0:0:0:
256,192,20799,1,8,0:0:0:0:
256,192,20878,1,0,0:0:0:0:
256,192,21036,1,8,0:0:0:0:
256,192,21194,1,4,0:0:0:0:
256,192,21510,1,0,0:0:0:0:
256,192,21668,1,8,0:0:0:0:
256,192,21826,1,0,0:0:0:0:
256,192,21984,1,0,0:0:0:0:
256,192,22062,1,0,0:0:0:0:
256,192,22141,1,8,0:0:0:0:
256,192,22299,1,0,0:0:0:0:
256,192,22457,1,8,0:0:0:0:
256,192,22615,1,8,0:0:0:0:
256,192,22694,1,8,0:0:0:0:
256,192,22773,1,0,0:0:0:0:
256,192,22931,1,0,0:0:0:0:
256,192,23089,1,8,0:0:0:0:
256,192,23247,1,0,0:0:0:0:
256,192,23405,1,8,0:0:0:0:
256,192,23720,1,0,0:0:0:0:
256,192,24036,1,0,0:0:0:0:
256,192,24115,1,0,0:0:0:0:
256,192,24194,1,8,0:0:0:0:
256,192,24352,1,0,0:0:0:0:
256,192,24510,1,0,0:0:0:0:
256,192,24668,1,8,0:0:0:0:
256,192,24747,1,8,0:0:0:0:
256,192,24826,1,0,0:0:0:0:
256,192,24984,1,8,0:0:0:0:
256,192,25141,1,8,0:0:0:0:
256,192,25299,1,0,0:0:0:0:
256,192,25457,1,0,0:0:0:0:
256,192,25615,1,8,0:0:0:0:
256,192,25773,1,0,0:0:0:0:
256,192,25852,1,8,0:0:0:0:
256,192,26010,1,0,0:0:0:0:
256,192,26089,1,8,0:0:0:0:
256,192,26247,1,0,0:0:0:0:
256,192,26562,1,0,0:0:0:0:
256,192,26720,1,8,0:0:0:0:
256,192,26878,1,8,0:0:0:0:
256,192,27115,1,8,0:0:0:0:
256,192,27194,1,0,0:0:0:0:
256,192,27352,1,8,0:0:0:0:
256,192,27510,1,0,0:0:0:0:
256,192,27589,1,8,0:0:0:0:
256,192,27747,1,8,0:0:0:0:
256,192,27826,1,0,0:0:0:0:
256,192,27984,1,8,0:0:0:0:
256,192,28141,1,0,0:0:0:0:
256,192,28299,1,8,0:0:0:0:
256,192,28378,1,8,0:0:0:0:
256,192,28457,1,8,0:0:0:0:
256,192,28615,1,0,0:0:0:0:
256,192,28773,1,8,0:0:0:0:
256,192,29089,1,8,0:0:0:0:
256,192,29247,1,0,0:0:0:0:
256,192,29405,1,8,0:0:0:0:
256,192,29484,1,8,0:0:0:0:
256,192,29641,1,0,0:0:0:0:
256,192,29720,1,8,0:0:0:0:
256,192,29878,1,8,0:0:0:0:
256,192,30036,1,4,0:0:0:0:
256,192,30352,1,0,0:0:0:0:
256,192,30668,1,8,0:0:0:0:
256,192,30826,1,0,0:0:0:0:
256,192,30905,1,0,0:0:0:0:
256,192,30984,1,0,0:0:0:0:
256,192,31299,1,4,0:0:0:0:
256,192,31615,1,0,0:0:0:0:
256,192,31773,1,8,0:0:0:0:
256,192,31931,1,0,0:0:0:0:
256,192,32089,1,0,0:0:0:0:
256,192,32168,1,0,0:0:0:0:
256,192,32247,1,8,0:0:0:0:
256,192,32405,1,0,0:0:0:0:
256,192,32562,1,8,0:0:0:0:
256,192,32720,1,8,0:0:0:0:
256,192,32799,1,8,0:0:0:0:
256,192,32878,1,0,0:0:0:0:
256,192,33036,1,0,0:0:0:0:
256,192,33194,1,8,0:0:0:0:
256,192,33352,1,0,0:0:0:0:
256,192,33510,1,8,0:0:0:0:
256,192,33826,1,0,0:0:0:0:
256,192,34141,1,0,0:0:0:0:
256,192,34220,1,0,0:0:0:0:
256,192,34299,1,8,0:0:0:0:
256,192,34457,1,0,0:0:0:0:
256,192,34615,1,0,0:0:0:0:
256,192,34773,1,8,0:0:0:0:
256,192,34852,1,8,0:0:0:0:
256,192,34931,1,0,0:0:0:0:
256,192,35089,1,8,0:0:0:0:
256,192,35247,1,8,0:0:0:0:
256,192,35405,1,0,0:0:0:0:
256,192,35562,1,0,0:0:0:0:
256,192,35720,1,8,0:0:0:0:
256,192,35878,1,0,0:0:0:0:
256,192,35957,1,8,0:0:0:0:
256,192,36115,1,0,0:0:0:0:
256,192,36194,1,8,0:0:0:0:
256,192,36352,1,0,0:0:0:0:
256,192,36668,1,0,0:0:0:0:
256,192,36826,1,8,0:0:0:0:
256,192,36984,1,8,0:0:0:0:
256,192,37220,1,8,0:0:0:0:
256,192,37299,1,0,0:0:0:0:
256,192,37457,1,8,0:0:0:0:
256,192,37615,1,0,0:0:0:0:
256,192,37694,1,8,0:0:0:0:
256,192,37852,1,8,0:0:0:0:
256,192,37931,1,0,0:0:0:0:
256,192,38089,1,8,0:0:0:0:
256,192,38247,1,0,0:0:0:0:
256,192,38405,1,8,0:0:0:0:
256,192,38484,1,8,0:0:0:0:
256,192,38562,1,8,0:0:0:0:
256,192,38720,1,0,0:0:0:0:
256,192,38878,1,8,0:0:0:0:
256,192,39194,1,8,0:0:0:0:
256,192,39352,1,0,0:0:0:0:
256,192,39510,1,8,0:0:0:0:
256,192,39589,1,8,0:0:0:0:
256,192,39747,1,0,0:0:0:0:
256,192,39826,1,8,0:0:0:0:
256,192,39984,1,8,0:0:0:0:
256,192,40141,1,4,0:0:0:0:
256,192,40299,12,0,41089,0:0:0:0:
256,192,41405,5,0,0:0:0:0:
256,192,41720,1,8,0:0:0:0:
256,192,41957,1,8,0:0:0:0:
256,192,42036,1,0,0:0:0:0:
256,192,42194,1,0,0:0:0:0:
256,192,42352,1,8,0:0:0:0:
256,192,42510,1,8,0:0:0:0:
256,192,42589,1,8,0:0:0:0:
256,192,42668,1,0,0:0:0:0:
256,192,42826,1,0,0:0:0:0:
256,192,42905,1,0,0:0:0:0:
256,192,42984,1,8,0:0:0:0:
256,192,43141,1,8,0:0:0:0:
256,192,43299,1,0,0:0:0:0:
256,192,43457,1,0,0:0:0:0:
256,192,43615,1,8,0:0:0:0:
256,192,43931,1,0,0:0:0:0:
256,192,44168,1,0,0:0:0:0:
256,192,44247,1,8,0:0:0:0:
256,192,44405,1,8,0:0:0:0:
256,192,44562,1,0,0:0:0:0:
256,192,44720,1,0,0:0:0:0:
256,192,44878,1,8,0:0:0:0:
256,192,44957,1,8,0:0:0:0:
256,192,45036,1,8,0:0:0:0:
256,192,45194,1,0,0:0:0:0:
256,192,45352,1,0,0:0:0:0:
256,192,45510,1,8,0:0:0:0:
256,192,45589,1,8,0:0:0:0:
256,192,45668,1,0,0:0:0:0:
256,192,45826,1,8,0:0:0:0:
256,192,45984,1,0,0:0:0:0:
256,192,46141,1,8,0:0:0:0:
256,192,46457,1,0,0:0:0:0:
256,192,46615,1,0,0:0:0:0:
256,192,46694,1,0,0:0:0:0:
256,192,46773,1,8,0:0:0:0:
256,192,46852,1,8,0:0:0:0:
256,192,46931,1,0,0:0:0:0:
256,192,47089,1,8,0:0:0:0:
256,192,47247,1,0,0:0:0:0:
256,192,47405,1,8,0:0:0:0:
256,192,48036,1,8,0:0:0:0:
256,192,48510,1,0,0:0:0:0:
256,192,48668,1,8,0:0:0:0:
256,192,48826,1,8,0:0:0:0:
256,192,48984,1,0,0:0:0:0:
256,192,49141,1,0,0:0:0:0:
256,192,49220,1,8,0:0:0:0:
256,192,49378,1,8,0:0:0:0:
256,192,49457,1,0,0:0:0:0:
256,192,49615,1,8,0:0:0:0:
256,192,49773,1,0,0:0:0:0:
256,192,49931,1,8,0:0:0:0:
256,192,50010,1,8,0:0:0:0:
256,192,50089,1,8,0:0:0:0:
256,192,50247,1,0,0:0:0:0:
256,192,50405,1,8,0:0:0:0:
256,192,50484,1,0,0:0:0:0:
256,192,50641,1,0,0:0:0:0:
256,192,50720,1,8,0:0:0:0:
256,192,50878,1,0,0:0:0:0:
256,192,51036,1,0,0:0:0:0:
256,192,51194,1,8,0:0:0:0:
256,192,51510,1,0,0:0:0:0:
256,192,51826,1,8,0:0:0:0:
256,192,52062,1,8,0:0:0:0:
256,192,52141,1,0,0:0:0:0:
256,192,52299,1,0,0:0:0:0:
256,192,52457,1,8,0:0:0:0:
256,192,52615,1,8,0:0:0:0:
256,192,52694,1,8,0:0:0:0:
256,192,52773,1,0,0:0:0:0:
256,192,52931,1,0,0:0:0:0:
256,192,53010,1,0,0:0:0:0:
256,192,53089,1,8,0:0:0:0:
256,192,53247,1,8,0:0:0:0:
256,192,53405,1,0,0:0:0:0:
256,192,53562,1,0,0:0:0:0:
256,192,53720,1,8,0:0:0:0:
256,192,54036,1,0,0:0:0:0:
256,192,54273,1,0,0:0:0:0:
256,192,54352,1,8,0:0:0:0:
256,192,54510,1,8,0:0:0:0:
256,192,54668,1,0,0:0:0:0:
256,192,54826,1,0,0:0:0:0:
256,192,54984,1,8,0:0:0:0:
256,192,55062,1,8,0:0:0:0:
256,192,55141,1,8,0:0:0:0:
256,192,55299,1,0,0:0:0:0:
256,192,55457,1,0,0:0:0:0:
256,192,55615,1,8,0:0:0:0:
256,192,55694,1,8,0:0:0:0:
256,192,55773,1,0,0:0:0:0:
256,192,55931,1,8,0:0:0:0:
256,192,56089,1,0,0:0:0:0:
256,192,56247,1,8,0:0:0:0:
256,192,56562,1,0,0:0:0:0:
256,192,56878,1,8,0:0:0:0:
256,192,57036,1,0,0:0:0:0:
256,192,57115,1,0,0:0:0:0:
256,192,57194,1,0,0:0:0:0:
256,192,57352,1,0,0:0:0:0:
256,192,57510,1,8,0:0:0:0:
256,192,57668,1,0,0:0:0:0:
256,192,57826,1,8,0:0:0:0:
256,192,57984,1,0,0:0:0:0:
256,192,58062,1,0,0:0:0:0:
256,192,58141,1,8,0:0:0:0:
256,192,58220,1,8,0:0:0:0:
256,192,58299,1,0,0:0:0:0:
256,192,58457,1,8,0:0:0:0:
256,192,58694,1,8,0:0:0:0:
256,192,58931,1,8,0:0:0:0:
256,192,59089,1,0,0:0:0:0:
256,192,59326,1,0,0:0:0:0:
256,192,59405,1,8,0:0:0:0:
256,192,59562,1,8,0:0:0:0:
256,192,59720,1,0,0:0:0:0:
256,192,59878,1,0,0:0:0:0:
256,192,59957,1,0,0:0:0:0:
256,192,60036,1,8,0:0:0:0:
256,192,60194,1,0,0:0:0:0:
256,192,60352,1,8,0:0:0:0:
256,192,60510,1,8,0:0:0:0:
256,192,60589,1,8,0:0:0:0:
256,192,60668,1,8,0:0:0:0:
256,192,60826,1,8,0:0:0:0:
256,192,60984,1,0,0:0:0:0:
256,192,61141,1,0,0:0:0:0:
256,192,61299,1,8,0:0:0:0:
256,192,61615,1,4,0:0:0:0:
256,192,63826,1,8,0:0:0:0:
256,192,63984,1,8,0:0:0:0:
256,192,64141,5,8,0:0:0:0:
256,192,64457,1,8,0:0:0:0:
256,192,64615,1,8,0:0:0:0:
256,192,64773,1,8,0:0:0:0:
256,192,65089,1,8,0:0:0:0:
256,192,65405,1,8,0:0:0:0:
256,192,66668,1,0,0:0:0:0:
256,192,68878,1,8,0:0:0:0:
256,192,69036,1,8,0:0:0:0:
256,192,69194,5,8,0:0:0:0:
256,192,69510,1,8,0:0:0:0:
256,192,69668,1,8,0:0:0:0:
256,192,69826,1,8,0:0:0:0:
256,192,70141,1,8,0:0:0:0:
256,192,70457,1,8,0:0:0:0:
256,192,71247,1,8,0:0:0:0:
256,192,71405,1,8,0:0:0:0:
256,192,71562,1,8,0:0:0:0:
256,192,71720,5,0,0:0:0:0:
256,192,71957,1,8,0:0:0:0:
256,192,72194,1,8,0:0:0:0:
256,192,72352,1,0,0:0:0:0:
256,192,72589,1,8,0:0:0:0:
256,192,72826,1,8,0:0:0:0:
256,192,72984,1,0,0:0:0:0:
256,192,73220,1,0,0:0:0:0:
256,192,73457,1,8,0:0:0:0:
256,192,73615,1,0,0:0:0:0:
256,192,73773,1,8,0:0:0:0:
256,192,73852,1,8,0:0:0:0:
256,192,73931,1,8,0:0:0:0:
256,192,74247,1,0,0:0:0:0:
256,192,74484,1,8,0:0:0:0:
256,192,74720,1,8,0:0:0:0:
256,192,74878,1,0,0:0:0:0:
256,192,75115,1,8,0:0:0:0:
256,192,75352,1,8,0:0:0:0:
256,192,75510,1,0,0:0:0:0:
256,192,75747,1,0,0:0:0:0:
256,192,75984,1,8,0:0:0:0:
256,192,76141,1,0,0:0:0:0:
256,192,76299,1,8,0:0:0:0:
256,192,76378,1,8,0:0:0:0:
256,192,76457,1,8,0:0:0:0:
256,192,76773,1,0,0:0:0:0:
256,192,77010,1,8,0:0:0:0:
256,192,77247,1,8,0:0:0:0:
256,192,77405,1,0,0:0:0:0:
256,192,77641,1,8,0:0:0:0:
256,192,77878,1,8,0:0:0:0:
256,192,78036,1,0,0:0:0:0:
256,192,78273,1,0,0:0:0:0:
256,192,78510,1,8,0:0:0:0:
256,192,78668,1,0,0:0:0:0:
256,192,78984,1,8,0:0:0:0:
256,192,79141,1,8,0:0:0:0:
256,192,79299,1,0,0:0:0:0:
256,192,79615,1,8,0:0:0:0:
256,192,79773,1,8,0:0:0:0:
256,192,79931,1,0,0:0:0:0:
256,192,80247,1,8,0:0:0:0:
256,192,80562,1,0,0:0:0:0:
256,192,81352,1,8,0:0:0:0:
256,192,81510,1,8,0:0:0:0:
256,192,81668,1,8,0:0:0:0:
256,192,81826,1,0,0:0:0:0:
256,192,82457,1,12,0:0:0:0:
256,192,82694,1,8,0:0:0:0:
256,192,82773,1,8,0:0:0:0:
256,192,82931,1,8,0:0:0:0:
256,192,83089,1,0,0:0:0:0:
256,192,83247,1,8,0:0:0:0:
256,192,83326,1,0,0:0:0:0:
256,192,83484,1,8,0:0:0:0:
256,192,83562,1,0,0:0:0:0:
256,192,83720,1,0,0:0:0:0:
256,192,83878,1,8,0:0:0:0:
256,192,83957,1,8,0:0:0:0:
256,192,84036,1,0,0:0:0:0:
256,192,84352,1,8,0:0:0:0:
256,192,84589,1,8,0:0:0:0:
256,192,84668,1,8,0:0:0:0:
256,192,84826,1,8,0:0:0:0:
256,192,84984,1,0,0:0:0:0:
256,192,85220,1,0,0:0:0:0:
256,192,85299,1,0,0:0:0:0:
256,192,85457,1,0,0:0:0:0:
256,192,85615,1,8,0:0:0:0:
256,192,85773,1,0,0:0:0:0:
256,192,85852,1,8,0:0:0:0:
256,192,86010,1,0,0:0:0:0:
256,192,86089,1,8,0:0:0:0:
256,192,86247,1,8,0:0:0:0:
256,192,86405,1,0,0:0:0:0:
256,192,86484,1,0,0:0:0:0:
256,192,86562,1,8,0:0:0:0:
256,192,86878,1,0,0:0:0:0:
256,192,87115,1,0,0:0:0:0:
256,192,87194,1,0,0:0:0:0:
256,192,87352,1,0,0:0:0:0:
256,192,87510,1,8,0:0:0:0:
256,192,87747,1,8,0:0:0:0:
256,192,87826,1,8,0:0:0:0:
256,192,87984,1,8,0:0:0:0:
256,192,88141,1,0,0:0:0:0:
256,192,88299,1,8,0:0:0:0:
256,192,88378,1,0,0:0:0:0:
256,192,88536,1,8,0:0:0:0:
256,192,88615,1,0,0:0:0:0:
256,192,88773,1,0,0:0:0:0:
256,192,89089,1,8,0:0:0:0:
256,192,89247,1,8,0:0:0:0:
256,192,89405,1,0,0:0:0:0:
256,192,89562,1,0,0:0:0:0:
256,192,89641,1,0,0:0:0:0:
256,192,89720,1,8,0:0:0:0:
256,192,89878,1,0,0:0:0:0:
256,192,90036,1,8,0:0:0:0:
256,192,90194,1,8,0:0:0:0:
256,192,90273,1,0,0:0:0:0:
256,192,90431,1,8,0:0:0:0:
256,192,90510,1,0,0:0:0:0:
256,192,90668,1,4,0:0:0:0:
256,192,90984,1,0,0:0:0:0:
256,192,91299,1,8,0:0:0:0:
256,192,91457,1,0,0:0:0:0:
256,192,91536,1,0,0:0:0:0:
256,192,91615,1,0,0:0:0:0:
256,192,91931,1,4,0:0:0:0:
256,192,92247,1,0,0:0:0:0:
256,192,92562,1,0,0:0:0:0:
256,192,92641,1,0,0:0:0:0:
256,192,92720,1,8,0:0:0:0:
256,192,92799,1,0,0:0:0:0:
256,192,92957,1,0,0:0:0:0:
256,192,93036,1,8,0:0:0:0:
256,192,93194,1,0,0:0:0:0:
256,192,93352,1,8,0:0:0:0:
256,192,93431,1,8,0:0:0:0:
256,192,93510,1,0,0:0:0:0:
256,192,93668,1,0,0:0:0:0:
256,192,93826,1,8,0:0:0:0:
256,192,93984,1,8,0:0:0:0:
256,192,94141,1,0,0:0:0:0:
256,192,94299,1,0,0:0:0:0:
256,192,94457,1,8,0:0:0:0:
256,192,94773,1,8,0:0:0:0:
256,192,95089,1,8,0:0:0:0:
256,192,95168,1,8,0:0:0:0:
256,192,95247,1,0,0:0:0:0:
256,192,95326,1,8,0:0:0:0:
256,192,95484,1,8,0:0:0:0:
256,192,95562,1,0,0:0:0:0:
256,192,95720,1,8,0:0:0:0:
256,192,95878,1,0,0:0:0:0:
256,192,95957,1,0,0:0:0:0:
256,192,96036,1,8,0:0:0:0:
256,192,96194,1,8,0:0:0:0:
256,192,96352,1,0,0:0:0:0:
256,192,96510,1,8,0:0:0:0:
256,192,96589,1,8,0:0:0:0:
256,192,96668,1,8,0:0:0:0:
256,192,96984,1,0,0:0:0:0:
256,192,97299,1,0,0:0:0:0:
256,192,97615,1,0,0:0:0:0:
256,192,97694,1,0,0:0:0:0:
256,192,97773,1,8,0:0:0:0:
256,192,97852,1,0,0:0:0:0:
256,192,98010,1,0,0:0:0:0:
256,192,98089,1,8,0:0:0:0:
256,192,98247,1,0,0:0:0:0:
256,192,98405,1,8,0:0:0:0:
256,192,98484,1,8,0:0:0:0:
256,192,98562,1,0,0:0:0:0:
256,192,98720,1,0,0:0:0:0:
256,192,98878,1,8,0:0:0:0:
256,192,99036,1,8,0:0:0:0:
256,192,99194,1,0,0:0:0:0:
256,192,99352,1,0,0:0:0:0:
256,192,99510,1,8,0:0:0:0:
256,192,99826,1,8,0:0:0:0:
256,192,100141,1,8,0:0:0:0:
256,192,100220,1,8,0:0:0:0:
256,192,100299,1,0,0:0:0:0:
256,192,100378,1,8,0:0:0:0:
256,192,100536,1,8,0:0:0:0:
256,192,100615,1,0,0:0:0:0:
256,192,100773,1,4,0:0:0:0:
256,192,100931,12,0,101720,0:0:0:0:
256,192,102036,5,4,0:0:0:0:
256,192,102273,1,0,0:0:0:0:
256,192,102352,1,0,0:0:0:0:
256,192,102510,1,0,0:0:0:0:
256,192,102668,1,8,0:0:0:0:
256,192,102905,1,8,0:0:0:0:
256,192,102984,1,8,0:0:0:0:
256,192,103141,1,8,0:0:0:0:
256,192,103299,1,0,0:0:0:0:
256,192,103457,1,8,0:0:0:0:
256,192,103536,1,0,0:0:0:0:
256,192,103694,1,8,0:0:0:0:
256,192,103773,1,0,0:0:0:0:
256,192,103931,1,0,0:0:0:0:
256,192,104089,1,8,0:0:0:0:
256,192,104168,1,8,0:0:0:0:
256,192,104247,1,0,0:0:0:0:
256,192,104562,1,8,0:0:0:0:
256,192,104799,1,8,0:0:0:0:
256,192,104878,1,8,0:0:0:0:
256,192,105036,1,8,0:0:0:0:
256,192,105194,1,0,0:0:0:0:
256,192,105431,1,0,0:0:0:0:
256,192,105510,1,0,0:0:0:0:
256,192,105668,1,0,0:0:0:0:
256,192,105826,1,8,0:0:0:0:
256,192,105984,1,0,0:0:0:0:
256,192,106062,1,8,0:0:0:0:
256,192,106220,1,0,0:0:0:0:
256,192,106299,1,8,0:0:0:0:
256,192,106457,1,8,0:0:0:0:
256,192,106615,1,0,0:0:0:0:
256,192,106694,1,0,0:0:0:0:
256,192,106773,1,8,0:0:0:0:
256,192,107089,1,0,0:0:0:0:
256,192,107326,1,0,0:0:0:0:
256,192,107405,1,0,0:0:0:0:
256,192,107562,1,0,0:0:0:0:
256,192,107720,1,8,0:0:0:0:
256,192,107957,1,8,0:0:0:0:
256,192,108036,1,8,0:0:0:0:
256,192,108194,1,8,0:0:0:0:
256,192,108352,1,0,0:0:0:0:
256,192,108510,1,8,0:0:0:0:
256,192,108589,1,0,0:0:0:0:
256,192,108747,1,8,0:0:0:0:
256,192,108826,1,0,0:0:0:0:
256,192,108984,1,0,0:0:0:0:
256,192,109299,1,8,0:0:0:0:
256,192,109457,1,8,0:0:0:0:
256,192,109615,1,0,0:0:0:0:
256,192,109773,1,0,0:0:0:0:
256,192,109852,1,0,0:0:0:0:
256,192,109931,1,8,0:0:0:0:
256,192,110089,1,0,0:0:0:0:
256,192,110247,1,8,0:0:0:0:
256,192,110405,1,8,0:0:0:0:
256,192,110484,1,0,0:0:0:0:
256,192,110641,1,8,0:0:0:0:
256,192,110720,1,0,0:0:0:0:
256,192,110878,1,4,0:0:0:0:
256,192,111194,1,0,0:0:0:0:
256,192,111510,1,8,0:0:0:0:
256,192,111668,1,0,0:0:0:0:
256,192,111747,1,0,0:0:0:0:
256,192,111826,1,0,0:0:0:0:
256,192,112141,1,4,0:0:0:0:
256,192,112457,1,0,0:0:0:0:
256,192,112773,1,0,0:0:0:0:
256,192,112852,1,0,0:0:0:0:
256,192,112931,1,8,0:0:0:0:
256,192,113010,1,0,0:0:0:0:
256,192,113168,1,0,0:0:0:0:
256,192,113247,1,8,0:0:0:0:
256,192,113405,1,0,0:0:0:0:
256,192,113562,1,8,0:0:0:0:
256,192,113641,1,8,0:0:0:0:
256,192,113720,1,0,0:0:0:0:
256,192,113878,1,0,0:0:0:0:
256,192,114036,1,8,0:0:0:0:
256,192,114194,1,8,0:0:0:0:
256,192,114352,1,0,0:0:0:0:
256,192,114510,1,0,0:0:0:0:
256,192,114668,1,8,0:0:0:0:
256,192,114984,1,8,0:0:0:0:
256,192,115299,1,8,0:0:0:0:
256,192,115378,1,8,0:0:0:0:
256,192,115457,1,0,0:0:0:0:
256,192,115536,1,8,0:0:0:0:
256,192,115694,1,8,0:0:0:0:
256,192,115773,1,0,0:0:0:0:
256,192,115931,1,8,0:0:0:0:
256,192,116089,1,0,0:0:0:0:
256,192,116168,1,0,0:0:0:0:
256,192,116247,1,8,0:0:0:0:
256,192,116405,1,8,0:0:0:0:
256,192,116562,1,0,0:0:0:0:
256,192,116720,1,8,0:0:0:0:
256,192,116799,1,8,0:0:0:0:
256,192,116878,1,8,0:0:0:0:
256,192,117194,1,0,0:0:0:0:
256,192,117510,1,0,0:0:0:0:
256,192,117826,1,0,0:0:0:0:
256,192,117905,1,0,0:0:0:0:
256,192,117984,1,8,0:0:0:0:
256,192,118062,1,0,0:0:0:0:
256,192,118220,1,0,0:0:0:0:
256,192,118299,1,8,0:0:0:0:
256,192,118457,1,0,0:0:0:0:
256,192,118615,1,8,0:0:0:0:
256,192,118694,1,8,0:0:0:0:
256,192,118773,1,0,0:0:0:0:
256,192,118931,1,0,0:0:0:0:
256,192,119089,1,8,0:0:0:0:
256,192,119247,1,8,0:0:0:0:
256,192,119405,1,0,0:0:0:0:
256,192,119562,1,0,0:0:0:0:
256,192,119720,1,8,0:0:0:0:
256,192,120036,1,8,0:0:0:0:
256,192,120352,1,8,0:0:0:0:
256,192,120431,1,8,0:0:0:0:
256,192,120510,1,0,0:0:0:0:
256,192,120589,1,8,0:0:0:0:
256,192,120747,1,8,0:0:0:0:
256,192,120826,1,0,0:0:0:0:
256,192,120984,1,0,0:0:0:0:
256,192,121141,1,8,0:0:0:0:
256,192,121299,1,8,0:0:0:0:
256,192,121457,1,0,0:0:0:0:
256,192,121615,1,8,0:0:0:0:
256,192,121773,1,0,0:0:0:0:
256,192,121852,1,0,0:0:0:0:
256,192,121931,1,8,0:0:0:0:
