osu file format v14

[General]
AudioFilename: audio.mp3
AudioLeadIn: 0
PreviewTime: 81314
Countdown: 0
SampleSet: Normal
StackLeniency: 0.7
Mode: 1
LetterboxInBreaks: 0
WidescreenStoryboard: 0

[Editor]
Bookmarks: 21200,41411,61621,81832,91933,102038,112143
DistanceSpacing: 1.7
BeatDivisor: 4
GridSize: 32
TimelineZoom: 2.8

[Metadata]
Title:Bling-Bang-Bang-Born (7_7 bootleg)
TitleUnicode:Bling-Bang-Bang-Born (7_7 bootleg)
Artist:Creepy Nuts
ArtistUnicode:Creepy Nuts
Creator:_Rise
Version:Hell Oni
Source:マッシュル-MASHLE- 神覚者候補選抜試験編
Tags:japanese electronic remix rap hiphop hip hop anime mashle: kami satoru-sha kouho senbatsu shiken-hen magic and muscles the divine visionary candidate exam arc second season 2nd dj松永 dj matsunaga r-shitei r-指定
BeatmapID:4500706
BeatmapSetID:2138532

[Difficulty]
HPDrainRate:6
CircleSize:5
OverallDifficulty:6.5
ApproachRate:10
SliderMultiplier:1.4
SliderTickRate:1

[Events]
//Background and Video events
0,0,"bg.jpg",0,-50
//Break Periods
//Storyboard Layer 0 (Background)
//Storyboard Layer 1 (Fail)
//Storyboard Layer 2 (Pass)
//Storyboard Layer 3 (Foreground)
//Storyboard Layer 4 (Overlay)
//Storyboard Sound Samples

[TimingPoints]
984,315.789473684211,4,1,0,90,1,0
11069,-90.9090909090909,4,1,0,90,0,0
11700,-111.111111111111,4,1,0,90,0,0
13595,-90.9090909090909,4,1,0,90,0,0
14227,-111.111111111111,4,1,0,90,0,0
16122,-90.9090909090908,4,1,0,90,0,0
16753,-111.111111111111,4,1,0,90,0,0
18648,-90.9090909090909,4,1,0,90,0,0
19280,-111.111111111111,4,1,0,90,0,0
21174,-83.3333333333333,4,1,0,100,0,0
21194,-83.3333333333333,4,1,0,100,0,1
21332,-83.7840613446529,4,1,0,100,0,1
21411,-84.0112587100539,4,1,0,100,0,1
21490,-84.2396916087286,4,1,0,100,0,1
21569,-84.4693701466782,4,1,0,100,0,1
21648,-84.7003045404208,4,1,0,100,0,1
21727,-84.9325051185064,4,1,0,100,0,1
21806,-85.1659823230566,4,1,0,100,0,1
21885,-85.4007467113298,4,1,0,100,0,1
21964,-85.6368089573128,4,1,0,100,0,1
22043,-85.8741798533385,4,1,0,100,0,1
22122,-86.1128703117304,4,1,0,100,0,1
22201,-86.352891366475,4,1,0,100,0,1
22280,-86.5942541749222,4,1,0,100,0,1
22359,-86.8369700195139,4,1,0,100,0,1
22437,-87.0779521115736,4,1,0,100,0,1
22516,-87.3233908948195,4,1,0,100,0,1
22595,-87.5702171812945,4,1,0,100,0,1
22674,-87.8184427700036,4,1,0,100,0,1
22753,-88.0680795941132,4,1,0,100,0,1
22832,-88.3191397228637,4,1,0,100,0,1
22911,-88.5716353635147,4,1,0,100,0,1
22990,-88.8255788633229,4,1,0,100,0,1
23069,-89.080982711556,4,1,0,100,0,1
23148,-89.3378595415389,4,1,0,100,0,1
23227,-89.5962221327379,4,1,0,100,0,1
23306,-89.8560834128791,4,1,0,100,0,1
23385,-90.1174564601053,4,1,0,100,0,1
23464,-90.3803545051699,4,1,0,100,0,1
23543,-90.6447909336691,4,1,0,100,0,1
23701,-91.1783332712439,4,1,0,100,0,1
23859,-91.7181937418025,4,1,0,100,0,1
23937,-91.9870710715225,4,1,0,100,0,1
24016,-92.2610072376357,4,1,0,100,0,1
24095,-92.5365798328859,4,1,0,100,0,1
24174,-92.8138035646568,4,1,0,100,0,1
24253,-93.0926933171047,4,1,0,100,0,1
24332,-93.3732641538227,4,1,0,100,0,1
24490,-93.9395102479466,4,1,0,100,0,1
24569,-94.2252165543792,4,1,0,100,0,1
24648,-94.5126660488106,4,1,0,100,0,1
24727,-94.8018747337026,4,1,0,100,0,1
24806,-95.0928588079882,4,1,0,100,0,1
24885,-95.3856346700963,4,1,0,100,0,1
24964,-95.6802189210321,4,1,0,100,0,1
25122,-96.2748800251751,4,1,0,100,0,1
25201,-96.5749911218088,4,1,0,100,0,1
25280,-96.8769791006967,4,1,0,100,0,1
25359,-97.1808616239825,4,1,0,100,0,1
25437,-97.4827737284423,4,1,0,100,0,1
25516,-97.7904746683714,4,1,0,100,0,1
25595,-98.1001242534771,4,1,0,100,0,1
25674,-98.4117410534781,4,1,0,100,0,1
25753,-98.7253438747933,4,1,0,100,0,1
25832,-99.040951764325,4,1,0,100,0,1
25911,-99.3585840133155,4,1,0,100,0,1
25990,-99.6782601612772,4,1,0,100,0,1
26069,-100,4,1,0,100,0,1
26227,-83.3333333333333,4,1,0,100,0,1
26385,-83.7699807654043,4,1,0,100,0,1
26464,-83.9900249376559,4,1,0,100,0,1
26543,-84.2112281637552,4,1,0,100,0,1
26622,-84.4335996256309,4,1,0,100,0,1
26701,-84.6571486024533,4,1,0,100,0,1
26780,-84.8818844719245,4,1,0,100,0,1
26859,-85.1078167115903,4,1,0,100,0,1
26937,-85.3320721572867,4,1,0,100,0,1
27016,-85.5604105273854,4,1,0,100,0,1
27095,-85.7899741882896,4,1,0,100,0,1
27174,-86.0207730291163,4,1,0,100,0,1
27253,-86.2528170456874,4,1,0,100,0,1
27332,-86.4861163419728,4,1,0,100,0,1
27411,-86.7206811315573,4,1,0,100,0,1
27490,-86.9565217391304,4,1,0,100,0,1
27569,-87.1936486020021,4,1,0,100,0,1
27648,-87.4320722716417,4,1,0,100,0,1
27727,-87.6718034152437,4,1,0,100,0,1
27806,-87.9128528173181,4,1,0,100,0,1
27885,-88.155231381308,4,1,0,100,0,1
27964,-88.3989501312336,4,1,0,100,0,1
28043,-88.6440202133633,4,1,0,100,0,1
28122,-88.8904528979132,4,1,0,100,0,1
28201,-89.1382595807749,4,1,0,100,0,1
28280,-89.387451785272,4,1,0,100,0,1
28359,-89.6380411639461,4,1,0,100,0,1
28437,-89.8868407942495,4,1,0,100,0,1
28516,-90.1402419441173,4,1,0,100,0,1
28595,-90.3950758660178,4,1,0,100,0,1
28753,-90.9090909090909,4,1,0,100,0,1
28911,-91.4289850875923,4,1,0,100,0,1
28990,-91.6911684634651,4,1,0,100,0,1
29069,-91.9548598471059,4,1,0,100,0,1
29148,-92.2200722865175,4,1,0,100,0,1
29227,-92.4868189806678,4,1,0,100,0,1
29306,-92.7551132816803,4,1,0,100,0,1
29385,-93.0249686970612,4,1,0,100,0,1
29464,-93.2963988919668,4,1,0,100,0,1
29543,-93.5694176915099,4,1,0,100,0,1
29622,-93.8440390831073,4,1,0,100,0,1
29701,-94.1202772188688,4,1,0,100,0,1
29780,-94.3981464180276,4,1,0,100,0,1
29859,-94.6776611694153,4,1,0,100,0,1
30016,-111.111111111111,4,1,0,100,0,1
30036,-111.111111111111,4,1,0,100,0,0
31299,-111.111111111111,4,1,0,100,0,1
31437,-83.7812853083165,4,1,0,100,0,1
31516,-84.0085141444658,4,1,0,100,0,1
31595,-84.2369788977245,4,1,0,100,0,1
31674,-84.4666896789783,4,1,0,100,0,1
31753,-84.697656709702,4,1,0,100,0,1
31832,-84.9298903234763,4,1,0,100,0,1
31911,-85.1634009675286,4,1,0,100,0,1
31990,-85.3981992042996,4,1,0,100,0,1
32069,-85.6342957130359,4,1,0,100,0,1
32148,-85.8717012914093,4,1,0,100,0,1
32227,-86.110426857163,4,1,0,100,0,1
32306,-86.3504834497848,4,1,0,100,0,1
32385,-86.5918822322092,4,1,0,100,0,1
32464,-86.8346344925479,4,1,0,100,0,1
32543,-87.0787516458489,4,1,0,100,0,1
32622,-87.3242452358861,4,1,0,100,0,1
32701,-87.5711269369789,4,1,0,100,0,1
32780,-87.8194085558427,4,1,0,100,0,1
32859,-88.0691020334713,4,1,0,100,0,1
32937,-88.3170317970188,4,1,0,100,0,1
33016,-88.5695671058347,4,1,0,100,0,1
33095,-88.8235507640931,4,1,0,100,0,1
33174,-89.0789952675646,4,1,0,100,0,1
33253,-89.335913256179,4,1,0,100,0,1
33332,-89.5943175161101,4,1,0,100,0,1
33411,-89.854220981897,4,1,0,100,0,1
33490,-90.1156367386021,4,1,0,100,0,1
33569,-90.3785780240074,4,1,0,100,0,1
33648,-90.643058230849,4,1,0,100,0,1
33806,-91.1766897682391,4,1,0,100,0,1
33964,-91.7166416791604,4,1,0,100,0,1
34043,-91.9890229690613,4,1,0,100,0,1
34122,-92.2630269210467,4,1,0,100,0,1
34201,-92.5386680785085,4,1,0,100,0,1
34280,-92.8159611591564,4,1,0,100,0,1
34359,-93.0949210576375,4,1,0,100,0,1
34437,-93.371999847369,4,1,0,100,0,1
34595,-93.9383469614957,4,1,0,100,0,1
34674,-94.2241047362341,4,1,0,100,0,1
34753,-94.5116063496968,4,1,0,100,0,1
34832,-94.8008678134201,4,1,0,100,0,1
34911,-95.0919053355614,4,1,0,100,0,1
34990,-95.3847353239261,4,1,0,100,0,1
35069,-95.6793743890518,4,1,0,100,0,1
35227,-96.2741472242987,4,1,0,100,0,1
35306,-96.5743152577157,4,1,0,100,0,1
35385,-96.876360901065,4,1,0,100,0,1
35464,-97.1803018268467,4,1,0,100,0,1
35543,-97.4861559300426,4,1,0,100,0,1
35622,-97.7939413316282,4,1,0,100,0,1
35701,-98.1036763821513,4,1,0,100,0,1
35780,-98.4153796653797,4,1,0,100,0,1
35859,-98.7290700020174,4,1,0,100,0,1
35937,-99.0407576800097,4,1,0,100,0,1
36016,-99.3584537924314,4,1,0,100,0,1
36095,-99.6781946311459,4,1,0,100,0,1
36174,-100,4,1,0,100,0,1
36332,-83.3333333333333,4,1,0,100,0,1
36490,-83.7698649514842,4,1,0,100,0,1
36569,-83.9898503030505,4,1,0,100,0,1
36648,-84.210994089677,4,1,0,100,0,1
36727,-84.4333054859371,4,1,0,100,0,1
36806,-84.6567937635417,4,1,0,100,0,1
36885,-84.8814682926283,4,1,0,100,0,1
36964,-85.1073385430701,4,1,0,100,0,1
37043,-85.3344140858072,4,1,0,100,0,1
37122,-85.562704594198,4,1,0,100,0,1
37201,-85.7922198453929,4,1,0,100,0,1
37280,-86.0229697217305,4,1,0,100,0,1
37359,-86.2549642121553,4,1,0,100,0,1
37437,-86.4852530092989,4,1,0,100,0,1
37516,-86.7197510525353,4,1,0,100,0,1
37595,-86.9555241995618,4,1,0,100,0,1
37674,-87.1925828789657,4,1,0,100,0,1
37753,-87.4309376333668,4,1,0,100,0,1
37832,-87.6705991209808,4,1,0,100,0,1
37911,-87.9115781172077,4,1,0,100,0,1
37990,-88.1538855162468,4,1,0,100,0,1
38069,-88.3975323327386,4,1,0,100,0,1
38148,-88.6425297034334,4,1,0,100,0,1
38227,-88.8888888888889,4,1,0,100,0,1
38306,-89.1366212751946,4,1,0,100,0,1
38385,-89.3857383757267,4,1,0,100,0,1
38464,-89.6362518329313,4,1,0,100,0,1
38543,-89.8881734201383,4,1,0,100,0,1
38622,-90.1415150434059,4,1,0,100,0,1
38701,-90.3962887433962,4,1,0,100,0,1
38859,-90.9101812206911,4,1,0,100,0,1
39016,-91.4266415786173,4,1,0,100,0,1
39095,-91.6887421223888,4,1,0,100,0,1
39174,-91.9523497585948,4,1,0,100,0,1
39253,-92.2174775235106,4,1,0,100,0,1
39332,-92.4841386041972,4,1,0,100,0,1
39411,-92.7523463406875,4,1,0,100,0,1
39490,-93.022114228211,4,1,0,100,0,1
39569,-93.2934559194575,4,1,0,100,0,1
39648,-93.56638522688,4,1,0,100,0,1
39727,-93.8409161250387,4,1,0,100,0,1
39806,-94.1170627529862,4,1,0,100,0,1
39885,-94.3948394166947,4,1,0,100,0,1
39964,-94.6742605915268,4,1,0,100,0,1
40122,-95.2380952380952,4,1,0,100,0,1
40141,-95.2380952380952,4,1,0,100,0,0
40181,-95.2380952380952,4,1,0,90,0,0
41385,-100,4,1,0,90,0,0
62859,-111.111111111111,4,1,0,90,0,0
81806,-90.9090909090908,4,1,0,90,0,0
82437,-90.9090909090908,4,1,0,100,0,0
82457,-90.9090909090908,4,1,0,100,0,1
90648,-111.111111111111,4,1,0,100,0,1
90668,-111.111111111111,4,1,0,100,0,0
91931,-111.111111111111,4,1,0,100,0,1
92069,-90.9090909090909,4,1,0,100,0,1
100773,-90.9090909090909,4,1,0,100,0,0
100812,-90.9090909090909,4,1,0,90,0,0
102016,-83.3333333333333,4,1,0,100,0,0
102036,-83.3333333333333,4,1,0,100,0,1
102095,-83.7990802971348,4,1,0,100,0,1
102174,-84.270062606716,4,1,0,100,0,1
102253,-84.746369034843,4,1,0,100,0,1
102332,-85.2280903727155,4,1,0,100,0,1
102411,-85.7153194876619,4,1,0,100,0,1
102490,-86.2081513828239,4,1,0,100,0,1
102569,-86.7066832589122,4,1,0,100,0,1
102648,-87.2110145781181,4,1,0,100,0,1
102727,-87.7212471302674,4,1,0,100,0,1
102806,-88.2374851013111,4,1,0,100,0,1
102885,-88.7598351442488,4,1,0,100,0,1
102964,-89.2884064525856,4,1,0,100,0,1
103043,-89.8233108364298,4,1,0,100,0,1
103122,-90.3646628013427,4,1,0,100,0,1
103201,-90.912579630056,4,1,0,100,0,1
103280,-91.4671814671815,4,1,0,100,0,1
103359,-92.0285914070391,4,1,0,100,0,1
103437,-92.5896974908153,4,1,0,100,0,1
103516,-93.1650149441561,4,1,0,100,0,1
103595,-93.7475267115156,4,1,0,100,0,1
103674,-94.3373685887225,4,1,0,100,0,1
103753,-94.934679810852,4,1,0,100,0,1
103832,-95.5396031618003,4,1,0,100,0,1
103911,-96.1522850880753,4,1,0,100,0,1
103990,-96.7728758169935,4,1,0,100,0,1
104069,-97.4015294794836,4,1,0,100,0,1
104122,-97.8278823918071,4,1,0,100,0,1
104174,-98.2498341074984,4,1,0,100,0,1
104227,-98.6836624177289,4,1,0,100,0,1
104306,-99.3374706474337,4,1,0,100,0,1
104385,-100,4,1,0,100,0,1
104543,-83.3333333333333,4,1,0,100,0,1
104622,-83.7992780805436,4,1,0,100,0,1
104701,-84.270462633452,4,1,0,100,0,1
104780,-84.7469758786057,4,1,0,100,0,1
104859,-85.2289087244457,4,1,0,100,0,1
104937,-85.710149124077,4,1,0,100,0,1
105016,-86.2031306880233,4,1,0,100,0,1
105095,-86.7018160515524,4,1,0,100,0,1
105174,-87.2063047801429,4,1,0,100,0,1
105253,-87.7166987701882,4,1,0,100,0,1
105332,-88.2331023176094,4,1,0,100,0,1
105411,-88.7556221889056,4,1,0,100,0,1
105490,-89.284367694744,4,1,0,100,0,1
105569,-89.8194507661963,4,1,0,100,0,1
105648,-90.3609860337327,4,1,0,100,0,1
105727,-90.9090909090909,4,1,0,100,0,1
105806,-91.4638856701429,4,1,0,100,0,1
105885,-92.0254935488886,4,1,0,100,0,1
105964,-92.5940408227106,4,1,0,100,0,1
106043,-93.1696569090337,4,1,0,100,0,1
106122,-93.7524744635363,4,1,0,100,0,1
106201,-94.3426294820717,4,1,0,100,0,1
106280,-94.940261406463,4,1,0,100,0,1
106359,-95.5455132343448,4,1,0,100,0,1
106437,-96.1507227545883,4,1,0,100,0,1
106516,-96.771557008582,4,1,0,100,0,1
106595,-97.4004606778546,4,1,0,100,0,1
106648,-97.8269850450302,4,1,0,100,0,1
106701,-98.2572614107884,4,1,0,100,0,1
106753,-98.6831138523087,4,1,0,100,0,1
106832,-99.3371927175099,4,1,0,100,0,1
106911,-100,4,1,0,100,0,1
107069,-83.3333333333333,4,1,0,100,0,1
107148,-83.7992780805436,4,1,0,100,0,1
107227,-84.270462633452,4,1,0,100,0,1
107306,-84.7469758786057,4,1,0,100,0,1
107385,-85.2289087244457,4,1,0,100,0,1
107464,-85.7163541591255,4,1,0,100,0,1
107543,-86.2094073103248,4,1,0,100,0,1
107622,-86.7081655071403,4,1,0,100,0,1
107701,-87.2127283441367,4,1,0,100,0,1
107780,-87.7231977476476,4,1,0,100,0,1
107859,-88.239678044418,4,1,0,100,0,1
107937,-88.7556221889056,4,1,0,100,0,1
108016,-89.284367694744,4,1,0,100,0,1
108095,-89.8194507661963,4,1,0,100,0,1
108174,-90.3609860337327,4,1,0,100,0,1
108253,-90.9090909090909,4,1,0,100,0,1
108332,-91.4638856701429,4,1,0,100,0,1
108411,-92.0254935488886,4,1,0,100,0,1
108490,-92.5940408227106,4,1,0,100,0,1
108569,-93.1696569090337,4,1,0,100,0,1
108648,-93.7524744635363,4,1,0,100,0,1
108727,-94.3426294820717,4,1,0,100,0,1
108806,-94.940261406463,4,1,0,100,0,1
108885,-95.5455132343448,4,1,0,100,0,1
108964,-96.1585316332332,4,1,0,100,0,1
109043,-96.7794670590159,4,1,0,100,0,1
109122,-97.4084738790621,4,1,0,100,0,1
109201,-98.0457105001656,4,1,0,100,0,1
109280,-98.6913395015421,4,1,0,100,0,1
109359,-99.3455277731163,4,1,0,100,0,1
109437,-100,4,1,0,100,0,1
109595,-83.3333333333333,4,1,0,100,0,1
109753,-84.2105263157895,4,1,0,100,0,1
109832,-84.6560846560847,4,1,0,100,0,1
109911,-85.1063829787234,4,1,0,100,0,1
110069,-86.0215053763441,4,1,0,100,0,1
110227,-86.9565217391304,4,1,0,100,0,1
110306,-87.431693989071,4,1,0,100,0,1
110385,-87.9120879120879,4,1,0,100,0,1
110464,-88.3977900552486,4,1,0,100,0,1
110543,-88.8888888888889,4,1,0,100,0,1
110622,-89.3854748603352,4,1,0,100,0,1
110701,-89.8876404494382,4,1,0,100,0,1
110859,-111.111111111111,4,1,0,100,0,1
110878,-111.111111111111,4,1,0,100,0,0
112141,-111.111111111111,4,1,0,100,0,1
112280,-84.270462633452,4,1,0,100,0,1
112359,-84.7469758786057,4,1,0,100,0,1
112437,-85.2227740588786,4,1,0,100,0,1
112595,-86.2031306880233,4,1,0,100,0,1
112674,-86.7018160515524,4,1,0,100,0,1
112753,-87.2063047801429,4,1,0,100,0,1
112832,-87.7166987701882,4,1,0,100,0,1
112911,-88.2331023176094,4,1,0,100,0,1
112990,-88.7556221889056,4,1,0,100,0,1
113069,-89.284367694744,4,1,0,100,0,1
113148,-89.8194507661963,4,1,0,100,0,1
113227,-90.3609860337327,4,1,0,100,0,1
113306,-90.9090909090909,4,1,0,100,0,1
113385,-91.4638856701429,4,1,0,100,0,1
113464,-92.0254935488886,4,1,0,100,0,1
113543,-92.5940408227106,4,1,0,100,0,1
113622,-93.1696569090337,4,1,0,100,0,1
113701,-93.7524744635363,4,1,0,100,0,1
113780,-94.3426294820717,4,1,0,100,0,1
113859,-94.940261406463,4,1,0,100,0,1
113937,-95.5378035988058,4,1,0,100,0,1
114016,-96.1507227545883,4,1,0,100,0,1
114069,-96.5663485849441,4,1,0,100,0,1
114122,-96.9855832241153,4,1,0,100,0,1
114174,-97.4004606778546,4,1,0,100,0,1
114253,-98.0375921172477,4,1,0,100,0,1
114332,-98.6831138523087,4,1,0,100,0,1
114411,-99.3371927175099,4,1,0,100,0,1
114490,-100,4,1,0,100,0,1
114648,-83.3333333333333,4,1,0,100,0,1
114806,-84.270462633452,4,1,0,100,0,1
114885,-84.7469758786057,4,1,0,100,0,1
114964,-85.2289087244457,4,1,0,100,0,1
115043,-85.7163541591255,4,1,0,100,0,1
115201,-86.7081655071403,4,1,0,100,0,1
115280,-87.2127283441367,4,1,0,100,0,1
115359,-87.7231977476476,4,1,0,100,0,1
115437,-88.2331023176094,4,1,0,100,0,1
115516,-88.7556221889056,4,1,0,100,0,1
115595,-89.284367694744,4,1,0,100,0,1
115674,-89.8194507661963,4,1,0,100,0,1
115753,-90.3609860337327,4,1,0,100,0,1
115832,-90.9090909090909,4,1,0,100,0,1
115911,-91.4638856701429,4,1,0,100,0,1
115990,-92.0254935488886,4,1,0,100,0,1
116069,-92.5940408227106,4,1,0,100,0,1
116148,-93.1696569090337,4,1,0,100,0,1
116227,-93.7524744635363,4,1,0,100,0,1
116306,-94.3426294820717,4,1,0,100,0,1
116385,-94.940261406463,4,1,0,100,0,1
116464,-95.5455132343448,4,1,0,100,0,1
116543,-96.1585316332332,4,1,0,100,0,1
116595,-96.5663485849441,4,1,0,100,0,1
116648,-96.9855832241153,4,1,0,100,0,1
116701,-97.4084738790621,4,1,0,100,0,1
116780,-98.0457105001656,4,1,0,100,0,1
116859,-98.6913395015421,4,1,0,100,0,1
117016,-100,4,1,0,100,0,1
117174,-83.3333333333333,4,1,0,100,0,1
117332,-84.270062606716,4,1,0,100,0,1
117411,-84.746369034843,4,1,0,100,0,1
117490,-85.2280903727155,4,1,0,100,0,1
117648,-86.2081513828239,4,1,0,100,0,1
117727,-86.7066832589122,4,1,0,100,0,1
117806,-87.2110145781181,4,1,0,100,0,1
117885,-87.7212471302674,4,1,0,100,0,1
117964,-88.2374851013111,4,1,0,100,0,1
118043,-88.7598351442488,4,1,0,100,0,1
118122,-89.2884064525856,4,1,0,100,0,1
118201,-89.8233108364298,4,1,0,100,0,1
118280,-90.3646628013427,4,1,0,100,0,1
118359,-90.912579630056,4,1,0,100,0,1
118437,-91.4601189097367,4,1,0,100,0,1
118516,-92.0214418893723,4,1,0,100,0,1
118595,-92.5896974908153,4,1,0,100,0,1
118674,-93.1650149441561,4,1,0,100,0,1
118753,-93.7475267115156,4,1,0,100,0,1
118832,-94.3373685887225,4,1,0,100,0,1
118911,-94.934679810852,4,1,0,100,0,1
118990,-95.5396031618003,4,1,0,100,0,1
119069,-96.1522850880753,4,1,0,100,0,1
119122,-96.5677482471873,4,1,0,100,0,1
119174,-96.9788766988701,4,1,0,100,0,1
119227,-97.4015294794836,4,1,0,100,0,1
119306,-98.038404237709,4,1,0,100,0,1
119385,-98.6836624177289,4,1,0,100,0,1
119464,-99.3374706474337,4,1,0,100,0,1
119543,-100,4,1,0,100,0,1
119701,-83.3333333333333,4,1,0,100,0,1
119859,-84.33826896657,4,1,0,100,0,1
119937,-84.8433660933661,4,1,0,100,0,1
120016,-85.3611432985709,4,1,0,100,0,1
120095,-85.8852790300016,4,1,0,100,0,1
120253,-86.9531004091911,4,1,0,100,0,1
120332,-87.4970306437564,4,1,0,100,0,1
120411,-88.0478087649402,4,1,0,100,0,1
120490,-88.6055649105926,4,1,0,100,0,1
120569,-89.1704325371207,4,1,0,100,0,1
120648,-89.7425485259482,4,1,0,100,0,1
120727,-90.3220532940984,4,1,0,100,0,1
120806,-90.9090909090909,4,1,0,100,0,1
120964,-111.111111111111,4,1,0,100,0,1
120984,-111.111111111111,4,1,0,100,0,0

[HitObjects]
256,192,11089,5,4,0:0:0:0:
256,192,11326,1,4,0:0:0:0:
256,192,11562,1,4,0:0:0:0:
256,192,11720,1,8,0:0:0:0:
256,192,11878,1,8,0:0:0:0:
256,192,11957,1,8,0:0:0:0:
256,192,12036,1,8,0:0:0:0:
256,192,12194,1,0,0:0:0:0:
256,192,12352,1,8,0:0:0:0:
256,192,12510,1,0,0:0:0:0:
256,192,12668,1,8,0:0:0:0:
256,192,12826,1,0,0:0:0:0:
256,192,12905,1,0,0:0:0:0:
256,192,12984,1,8,0:0:0:0:
256,192,13062,1,8,0:0:0:0:
256,192,13141,1,8,0:0:0:0:
256,192,13220,1,0,0:0:0:0:
256,192,13299,1,8,0:0:0:0:
256,192,13457,1,8,0:0:0:0:
256,192,13615,1,4,0:0:0:0:
256,192,13852,1,4,0:0:0:0:
256,192,14089,1,4,0:0:0:0:
256,192,14247,1,8,0:0:0:0:
256,192,14326,1,8,0:0:0:0:
256,192,14484,1,0,0:0:0:0:
256,192,14562,1,8,0:0:0:0:
256,192,14720,1,8,0:0:0:0:
256,192,14799,1,8,0:0:0:0:
256,192,14878,1,8,0:0:0:0:
256,192,15036,1,0,0:0:0:0:
256,192,15194,1,8,0:0:0:0:
256,192,15273,1,0,0:0:0:0:
256,192,15352,1,8,0:0:0:0:
256,192,15510,1,8,0:0:0:0:
256,192,15589,1,8,0:0:0:0:
256,192,15668,1,0,0:0:0:0:
256,192,15747,1,8,0:0:0:0:
256,192,15826,1,8,0:0:0:0:
256,192,15984,1,8,0:0:0:0:
256,192,16141,1,4,0:0:0:0:
256,192,16378,1,4,0:0:0:0:
256,192,16615,1,4,0:0:0:0:
256,192,16773,1,8,0:0:0:0:
256,192,16931,1,8,0:0:0:0:
256,192,17010,1,8,0:0:0:0:
256,192,17089,1,8,0:0:0:0:
256,192,17247,1,8,0:0:0:0:
256,192,17405,1,0,0:0:0:0:
256,192,17720,1,8,0:0:0:0:
256,192,17878,1,8,0:0:0:0:
256,192,17957,1,0,0:0:0:0:
256,192,18036,1,8,0:0:0:0:
256,192,18115,1,8,0:0:0:0:
256,192,18194,1,0,0:0:0:0:
256,192,18273,1,0,0:0:0:0:
256,192,18352,1,8,0:0:0:0:
256,192,18510,1,8,0:0:0:0:
256,192,18668,1,4,0:0:0:0:
256,192,18905,1,4,0:0:0:0:
256,192,19141,1,4,0:0:0:0:
256,192,19299,1,8,0:0:0:0:
256,192,19378,1,8,0:0:0:0:
256,192,19457,1,8,0:0:0:0:
256,192,19536,1,8,0:0:0:0:
256,192,19615,1,8,0:0:0:0:
256,192,19773,1,0,0:0:0:0:
256,192,19931,1,8,0:0:0:0:
256,192,20089,1,0,0:0:0:0:
256,192,20247,1,8,0:0:0:0:
256,192,20326,1,0,0:0:0:0:
256,192,20484,1,0,0:0:0:0:
256,192,20562,1,8,0:0:0:0:
256,192,20641,1,8,0:0:0:0:
256,192,20720,1,0,0:0:0:0:
256,192,20799,1,0,0:0:0:0:
256,192,20878,1,8,0:0:0:0:
256,192,20957,1,0,0:0:0:0:
256,192,21036,1,8,0:0:0:0:
256,192,21194,1,4,0:0:0:0:
256,192,21352,1,0,0:0:0:0:
256,192,21431,1,8,0:0:0:0:
256,192,21510,1,0,0:0:0:0:
256,192,21589,1,0,0:0:0:0:
256,192,21668,1,8,0:0:0:0:
256,192,21747,1,8,0:0:0:0:
256,192,21826,1,0,0:0:0:0:
256,192,21905,1,0,0:0:0:0:
256,192,21984,1,8,0:0:0:0:
256,192,22062,1,0,0:0:0:0:
256,192,22141,1,8,0:0:0:0:
256,192,22220,1,8,0:0:0:0:
256,192,22299,1,0,0:0:0:0:
256,192,22378,1,8,0:0:0:0:
256,192,22457,1,0,0:0:0:0:
256,192,22536,1,0,0:0:0:0:
256,192,22615,1,8,0:0:0:0:
256,192,22694,1,8,0:0:0:0:
256,192,22773,1,0,0:0:0:0:
256,192,22852,1,8,0:0:0:0:
256,192,22931,1,8,0:0:0:0:
256,192,23010,1,8,0:0:0:0:
256,192,23089,1,0,0:0:0:0:
256,192,23168,1,8,0:0:0:0:
256,192,23247,1,8,0:0:0:0:
256,192,23326,1,0,0:0:0:0:
256,192,23405,1,8,0:0:0:0:
256,192,23484,1,8,0:0:0:0:
256,192,23562,1,0,0:0:0:0:
256,192,23720,1,0,0:0:0:0:
256,192,23878,1,0,0:0:0:0:
256,192,23957,1,8,0:0:0:0:
256,192,24036,1,0,0:0:0:0:
256,192,24115,1,0,0:0:0:0:
256,192,24194,1,8,0:0:0:0:
256,192,24273,1,8,0:0:0:0:
256,192,24352,1,0,0:0:0:0:
256,192,24510,1,8,0:0:0:0:
256,192,24589,1,0,0:0:0:0:
256,192,24668,1,8,0:0:0:0:
256,192,24747,1,8,0:0:0:0:
256,192,24826,1,0,0:0:0:0:
256,192,24905,1,0,0:0:0:0:
256,192,24984,1,8,0:0:0:0:
256,192,25141,1,0,0:0:0:0:
256,192,25220,1,0,0:0:0:0:
256,192,25299,1,8,0:0:0:0:
256,192,25378,1,8,0:0:0:0:
256,192,25457,1,0,0:0:0:0:
256,192,25536,1,0,0:0:0:0:
256,192,25615,1,8,0:0:0:0:
256,192,25694,1,0,0:0:0:0:
256,192,25773,1,0,0:0:0:0:
256,192,25852,1,8,0:0:0:0:
256,192,25931,1,0,0:0:0:0:
256,192,26010,1,0,0:0:0:0:
256,192,26089,1,8,0:0:0:0:
256,192,26247,1,0,0:0:0:0:
256,192,26405,1,0,0:0:0:0:
256,192,26484,1,8,0:0:0:0:
256,192,26562,1,0,0:0:0:0:
256,192,26641,1,0,0:0:0:0:
256,192,26720,1,8,0:0:0:0:
256,192,26799,1,0,0:0:0:0:
256,192,26878,1,8,0:0:0:0:
256,192,26957,1,0,0:0:0:0:
256,192,27036,1,0,0:0:0:0:
256,192,27115,1,8,0:0:0:0:
256,192,27194,1,0,0:0:0:0:
256,192,27273,1,0,0:0:0:0:
256,192,27352,1,8,0:0:0:0:
256,192,27431,1,8,0:0:0:0:
256,192,27510,1,0,0:0:0:0:
256,192,27589,1,0,0:0:0:0:
256,192,27668,1,0,0:0:0:0:
256,192,27747,1,8,0:0:0:0:
256,192,27826,1,0,0:0:0:0:
256,192,27905,1,0,0:0:0:0:
256,192,27984,1,8,0:0:0:0:
256,192,28062,1,0,0:0:0:0:
256,192,28141,1,8,0:0:0:0:
256,192,28220,1,8,0:0:0:0:
256,192,28299,1,8,0:0:0:0:
256,192,28378,1,0,0:0:0:0:
256,192,28457,1,8,0:0:0:0:
256,192,28536,1,8,0:0:0:0:
256,192,28615,1,0,0:0:0:0:
256,192,28773,1,0,0:0:0:0:
256,192,28931,1,0,0:0:0:0:
256,192,29010,1,8,0:0:0:0:
256,192,29089,1,0,0:0:0:0:
256,192,29168,1,0,0:0:0:0:
256,192,29247,1,8,0:0:0:0:
256,192,29326,1,0,0:0:0:0:
256,192,29405,1,8,0:0:0:0:
256,192,29484,1,8,0:0:0:0:
256,192,29562,1,0,0:0:0:0:
256,192,29641,1,8,0:0:0:0:
256,192,29720,1,0,0:0:0:0:
256,192,29799,1,0,0:0:0:0:
256,192,29878,1,8,0:0:0:0:
256,192,30036,1,4,0:0:0:0:
256,192,30194,1,8,0:0:0:0:
256,192,30273,1,8,0:0:0:0:
256,192,30352,1,0,0:0:0:0:
256,192,30431,1,8,0:0:0:0:
256,192,30510,1,0,0:0:0:0:
256,192,30668,1,12,0:0:0:0:
256,192,30826,1,0,0:0:0:0:
256,192,30878,1,0,0:0:0:0:
256,192,30931,1,0,0:0:0:0:
256,192,30984,1,0,0:0:0:0:
256,192,31141,1,8,0:0:0:0:
256,192,31194,1,8,0:0:0:0:
256,192,31247,1,8,0:0:0:0:
256,192,31299,1,0,0:0:0:0:
256,192,31457,1,0,0:0:0:0:
256,192,31536,1,8,0:0:0:0:
256,192,31615,1,0,0:0:0:0:
256,192,31694,1,0,0:0:0:0:
256,192,31773,1,8,0:0:0:0:
256,192,31852,1,8,0:0:0:0:
256,192,31931,1,0,0:0:0:0:
256,192,32010,1,0,0:0:0:0:
256,192,32089,1,8,0:0:0:0:
256,192,32168,1,0,0:0:0:0:
256,192,32247,1,8,0:0:0:0:
256,192,32326,1,8,0:0:0:0:
256,192,32405,1,0,0:0:0:0:
256,192,32484,1,8,0:0:0:0:
256,192,32562,1,0,0:0:0:0:
256,192,32641,1,0,0:0:0:0:
256,192,32720,1,8,0:0:0:0:
256,192,32799,1,8,0:0:0:0:
256,192,32878,1,0,0:0:0:0:
256,192,32957,1,8,0:0:0:0:
256,192,33036,1,8,0:0:0:0:
256,192,33115,1,8,0:0:0:0:
256,192,33194,1,0,0:0:0:0:
256,192,33273,1,8,0:0:0:0:
256,192,33352,1,8,0:0:0:0:
256,192,33431,1,0,0:0:0:0:
256,192,33510,1,8,0:0:0:0:
256,192,33589,1,8,0:0:0:0:
256,192,33668,1,0,0:0:0:0:
256,192,33826,1,0,0:0:0:0:
256,192,33984,1,0,0:0:0:0:
256,192,34062,1,8,0:0:0:0:
256,192,34141,1,0,0:0:0:0:
256,192,34220,1,0,0:0:0:0:
256,192,34299,1,8,0:0:0:0:
256,192,34378,1,8,0:0:0:0:
256,192,34457,1,0,0:0:0:0:
256,192,34615,1,8,0:0:0:0:
256,192,34694,1,0,0:0:0:0:
256,192,34773,1,8,0:0:0:0:
256,192,34852,1,8,0:0:0:0:
256,192,34931,1,0,0:0:0:0:
256,192,35010,1,0,0:0:0:0:
256,192,35089,1,8,0:0:0:0:
256,192,35247,1,0,0:0:0:0:
256,192,35326,1,0,0:0:0:0:
256,192,35405,1,8,0:0:0:0:
256,192,35484,1,8,0:0:0:0:
256,192,35562,1,0,0:0:0:0:
256,192,35641,1,0,0:0:0:0:
256,192,35720,1,8,0:0:0:0:
256,192,35799,1,0,0:0:0:0:
256,192,35878,1,0,0:0:0:0:
256,192,35957,1,8,0:0:0:0:
256,192,36036,1,0,0:0:0:0:
256,192,36115,1,0,0:0:0:0:
256,192,36194,1,8,0:0:0:0:
256,192,36352,1,0,0:0:0:0:
256,192,36510,1,0,0:0:0:0:
256,192,36589,1,8,0:0:0:0:
256,192,36668,1,0,0:0:0:0:
256,192,36747,1,0,0:0:0:0:
256,192,36826,1,8,0:0:0:0:
256,192,36905,1,0,0:0:0:0:
256,192,36984,1,8,0:0:0:0:
256,192,37062,1,0,0:0:0:0:
256,192,37141,1,0,0:0:0:0:
256,192,37220,1,8,0:0:0:0:
256,192,37299,1,0,0:0:0:0:
256,192,37378,1,0,0:0:0:0:
256,192,37457,1,8,0:0:0:0:
256,192,37536,1,8,0:0:0:0:
256,192,37615,1,0,0:0:0:0:
256,192,37694,1,0,0:0:0:0:
256,192,37773,1,0,0:0:0:0:
256,192,37852,1,8,0:0:0:0:
256,192,37931,1,0,0:0:0:0:
256,192,38010,1,0,0:0:0:0:
256,192,38089,1,8,0:0:0:0:
256,192,38168,1,0,0:0:0:0:
256,192,38247,1,8,0:0:0:0:
256,192,38326,1,8,0:0:0:0:
256,192,38405,1,8,0:0:0:0:
256,192,38484,1,0,0:0:0:0:
256,192,38562,1,8,0:0:0:0:
256,192,38641,1,8,0:0:0:0:
256,192,38720,1,0,0:0:0:0:
256,192,38878,1,0,0:0:0:0:
256,192,39036,1,0,0:0:0:0:
256,192,39115,1,8,0:0:0:0:
256,192,39194,1,0,0:0:0:0:
256,192,39273,1,0,0:0:0:0:
256,192,39352,1,8,0:0:0:0:
256,192,39431,1,0,0:0:0:0:
256,192,39510,1,8,0:0:0:0:
256,192,39589,1,8,0:0:0:0:
256,192,39668,1,0,0:0:0:0:
256,192,39747,1,8,0:0:0:0:
256,192,39826,1,0,0:0:0:0:
256,192,39905,1,0,0:0:0:0:
256,192,39984,1,8,0:0:0:0:
256,192,40141,1,4,0:0:0:0:
256,192,40299,12,0,41247,0:0:0:0:
256,192,41405,5,0,0:0:0:0:
256,192,41641,1,0,0:0:0:0:
256,192,41720,1,8,0:0:0:0:
256,192,41878,1,8,0:0:0:0:
256,192,41957,1,8,0:0:0:0:
256,192,42036,1,8,0:0:0:0:
256,192,42194,1,0,0:0:0:0:
256,192,42352,1,8,0:0:0:0:
256,192,42510,1,8,0:0:0:0:
256,192,42589,1,8,0:0:0:0:
256,192,42668,1,0,0:0:0:0:
256,192,42826,1,0,0:0:0:0:
256,192,42905,1,0,0:0:0:0:
256,192,42984,1,8,0:0:0:0:
256,192,43062,1,0,0:0:0:0:
256,192,43141,1,8,0:0:0:0:
256,192,43220,1,8,0:0:0:0:
256,192,43299,1,0,0:0:0:0:
256,192,43457,1,0,0:0:0:0:
256,192,43615,1,8,0:0:0:0:
256,192,43852,1,8,0:0:0:0:
256,192,43931,1,0,0:0:0:0:
256,192,44089,1,0,0:0:0:0:
256,192,44247,1,8,0:0:0:0:
256,192,44326,1,8,0:0:0:0:
256,192,44405,1,8,0:0:0:0:
256,192,44562,1,8,0:0:0:0:
256,192,44720,1,0,0:0:0:0:
256,192,44878,1,8,0:0:0:0:
256,192,44957,1,0,0:0:0:0:
256,192,45036,1,8,0:0:0:0:
256,192,45115,1,8,0:0:0:0:
256,192,45194,1,0,0:0:0:0:
256,192,45352,1,0,0:0:0:0:
256,192,45510,1,8,0:0:0:0:
256,192,45589,1,8,0:0:0:0:
256,192,45668,1,0,0:0:0:0:
256,192,45747,1,8,0:0:0:0:
256,192,45905,1,8,0:0:0:0:
256,192,45984,1,0,0:0:0:0:
256,192,46141,1,8,0:0:0:0:
256,192,46220,1,8,0:0:0:0:
256,192,46299,1,8,0:0:0:0:
256,192,46457,1,0,0:0:0:0:
256,192,46615,1,0,0:0:0:0:
256,192,46694,1,8,0:0:0:0:
256,192,46773,1,8,0:0:0:0:
256,192,46852,1,8,0:0:0:0:
256,192,46931,1,0,0:0:0:0:
256,192,47010,1,0,0:0:0:0:
256,192,47089,1,8,0:0:0:0:
256,192,47247,1,0,0:0:0:0:
256,192,47405,1,8,0:0:0:0:
256,192,48036,1,8,0:0:0:0:
256,192,48510,1,0,0:0:0:0:
256,192,48668,1,8,0:0:0:0:
256,192,48747,1,8,0:0:0:0:
256,192,48826,1,0,0:0:0:0:
256,192,48905,1,8,0:0:0:0:
256,192,48984,1,0,0:0:0:0:
256,192,49141,1,0,0:0:0:0:
256,192,49220,1,8,0:0:0:0:
256,192,49378,1,8,0:0:0:0:
256,192,49457,1,0,0:0:0:0:
256,192,49615,1,8,0:0:0:0:
256,192,49694,1,0,0:0:0:0:
256,192,49852,1,0,0:0:0:0:
256,192,49931,1,8,0:0:0:0:
256,192,50010,1,0,0:0:0:0:
256,192,50089,1,8,0:0:0:0:
256,192,50168,1,8,0:0:0:0:
256,192,50247,1,0,0:0:0:0:
256,192,50326,1,0,0:0:0:0:
256,192,50405,1,8,0:0:0:0:
256,192,50484,1,0,0:0:0:0:
256,192,50641,1,0,0:0:0:0:
256,192,50720,1,8,0:0:0:0:
256,192,50799,1,8,0:0:0:0:
256,192,50878,1,0,0:0:0:0:
256,192,50957,1,8,0:0:0:0:
256,192,51036,1,0,0:0:0:0:
256,192,51194,1,8,0:0:0:0:
256,192,51510,1,0,0:0:0:0:
256,192,51747,1,0,0:0:0:0:
256,192,51826,1,8,0:0:0:0:
256,192,51984,1,8,0:0:0:0:
256,192,52141,1,0,0:0:0:0:
256,192,52299,1,0,0:0:0:0:
256,192,52378,1,0,0:0:0:0:
256,192,52457,1,8,0:0:0:0:
256,192,52615,1,8,0:0:0:0:
256,192,52694,1,8,0:0:0:0:
256,192,52773,1,0,0:0:0:0:
256,192,52931,1,0,0:0:0:0:
256,192,53010,1,0,0:0:0:0:
256,192,53089,1,8,0:0:0:0:
256,192,53168,1,0,0:0:0:0:
256,192,53247,1,8,0:0:0:0:
256,192,53326,1,8,0:0:0:0:
256,192,53405,1,0,0:0:0:0:
256,192,53562,1,0,0:0:0:0:
256,192,53720,1,8,0:0:0:0:
256,192,53957,1,8,0:0:0:0:
256,192,54036,1,0,0:0:0:0:
256,192,54194,1,0,0:0:0:0:
256,192,54352,1,8,0:0:0:0:
256,192,54431,1,8,0:0:0:0:
256,192,54510,1,8,0:0:0:0:
256,192,54668,1,8,0:0:0:0:
256,192,54826,1,0,0:0:0:0:
256,192,54905,1,8,0:0:0:0:
256,192,54984,1,8,0:0:0:0:
256,192,55062,1,0,0:0:0:0:
256,192,55141,1,8,0:0:0:0:
256,192,55299,1,0,0:0:0:0:
256,192,55457,1,8,0:0:0:0:
256,192,55536,1,0,0:0:0:0:
256,192,55615,1,8,0:0:0:0:
256,192,55694,1,8,0:0:0:0:
256,192,55773,1,0,0:0:0:0:
256,192,55852,1,8,0:0:0:0:
256,192,56010,1,8,0:0:0:0:
256,192,56089,1,0,0:0:0:0:
256,192,56247,1,8,0:0:0:0:
256,192,56405,1,8,0:0:0:0:
256,192,56562,1,0,0:0:0:0:
256,192,56720,1,0,0:0:0:0:
256,192,56799,1,0,0:0:0:0:
256,192,56878,1,8,0:0:0:0:
256,192,57036,1,0,0:0:0:0:
256,192,57194,1,8,0:0:0:0:
256,192,57352,1,8,0:0:0:0:
256,192,57431,1,8,0:0:0:0:
256,192,57510,1,8,0:0:0:0:
256,192,57589,1,0,0:0:0:0:
256,192,57668,1,0,0:0:0:0:
256,192,57747,1,0,0:0:0:0:
256,192,57826,1,8,0:0:0:0:
256,192,57984,1,0,0:0:0:0:
256,192,58062,1,8,0:0:0:0:
256,192,58141,1,8,0:0:0:0:
256,192,58220,1,8,0:0:0:0:
256,192,58299,1,0,0:0:0:0:
256,192,58457,1,8,0:0:0:0:
256,192,58615,1,0,0:0:0:0:
256,192,58694,1,8,0:0:0:0:
256,192,58931,1,8,0:0:0:0:
256,192,59089,1,0,0:0:0:0:
256,192,59247,1,0,0:0:0:0:
256,192,59326,1,8,0:0:0:0:
256,192,59405,1,0,0:0:0:0:
256,192,59484,1,8,0:0:0:0:
256,192,59562,1,0,0:0:0:0:
256,192,59720,1,8,0:0:0:0:
256,192,59799,1,0,0:0:0:0:
256,192,59878,1,8,0:0:0:0:
256,192,59957,1,0,0:0:0:0:
256,192,60036,1,8,0:0:0:0:
256,192,60194,1,0,0:0:0:0:
256,192,60352,1,8,0:0:0:0:
256,192,60510,1,0,0:0:0:0:
256,192,60589,1,8,0:0:0:0:
256,192,60668,1,8,0:0:0:0:
256,192,60826,1,0,0:0:0:0:
256,192,60984,1,8,0:0:0:0:
256,192,61062,1,8,0:0:0:0:
256,192,61141,1,0,0:0:0:0:
256,192,61299,1,8,0:0:0:0:
256,192,61615,5,4,0:0:0:0:
256,192,63826,1,8,0:0:0:0:
256,192,63984,1,8,0:0:0:0:
256,192,64141,1,8,0:0:0:0:
256,192,64457,1,8,0:0:0:0:
256,192,64615,1,8,0:0:0:0:
256,192,64773,1,8,0:0:0:0:
256,192,65089,1,8,0:0:0:0:
256,192,65405,1,8,0:0:0:0:
256,192,65720,1,8,0:0:0:0:
256,192,65826,1,8,0:0:0:0:
256,192,65931,1,8,0:0:0:0:
256,192,66036,1,8,0:0:0:0:
256,192,66194,1,8,0:0:0:0:
256,192,66273,1,8,0:0:0:0:
256,192,66352,1,8,0:0:0:0:
256,192,66510,1,8,0:0:0:0:
256,192,66668,1,0,0:0:0:0:
256,192,68878,1,8,0:0:0:0:
256,192,69036,1,8,0:0:0:0:
256,192,69194,1,8,0:0:0:0:
256,192,69510,1,8,0:0:0:0:
256,192,69668,1,8,0:0:0:0:
256,192,69826,1,8,0:0:0:0:
256,192,70141,1,8,0:0:0:0:
256,192,70457,1,8,0:0:0:0:
256,192,71247,1,8,0:0:0:0:
256,192,71405,1,8,0:0:0:0:
256,192,71562,1,8,0:0:0:0:
256,192,71720,1,0,0:0:0:0:
256,192,71957,1,8,0:0:0:0:
256,192,72194,1,8,0:0:0:0:
256,192,72352,1,0,0:0:0:0:
256,192,72589,1,8,0:0:0:0:
256,192,72826,1,8,0:0:0:0:
256,192,72984,1,0,0:0:0:0:
256,192,73220,1,0,0:0:0:0:
256,192,73457,1,8,0:0:0:0:
256,192,73615,1,0,0:0:0:0:
256,192,73773,1,8,0:0:0:0:
256,192,73826,1,8,0:0:0:0:
256,192,73878,1,8,0:0:0:0:
256,192,73931,1,0,0:0:0:0:
256,192,74089,1,8,0:0:0:0:
256,192,74247,1,0,0:0:0:0:
256,192,74484,1,8,0:0:0:0:
256,192,74720,1,8,0:0:0:0:
256,192,74878,1,0,0:0:0:0:
256,192,75115,1,8,0:0:0:0:
256,192,75352,1,8,0:0:0:0:
256,192,75510,1,0,0:0:0:0:
256,192,75747,1,0,0:0:0:0:
256,192,75984,1,8,0:0:0:0:
256,192,76141,1,0,0:0:0:0:
256,192,76299,1,0,0:0:0:0:
256,192,76352,1,0,0:0:0:0:
256,192,76405,1,0,0:0:0:0:
256,192,76457,1,8,0:0:0:0:
256,192,76615,1,8,0:0:0:0:
256,192,76773,1,0,0:0:0:0:
256,192,77010,1,8,0:0:0:0:
256,192,77247,1,8,0:0:0:0:
256,192,77405,1,0,0:0:0:0:
256,192,77641,1,8,0:0:0:0:
256,192,77878,1,8,0:0:0:0:
256,192,78036,1,0,0:0:0:0:
256,192,78273,1,0,0:0:0:0:
256,192,78510,1,8,0:0:0:0:
256,192,78668,1,0,0:0:0:0:
256,192,78984,1,8,0:0:0:0:
256,192,79141,1,8,0:0:0:0:
256,192,79299,1,0,0:0:0:0:
256,192,79615,1,8,0:0:0:0:
256,192,79773,1,8,0:0:0:0:
256,192,79931,1,0,0:0:0:0:
256,192,80247,1,8,0:0:0:0:
256,192,80562,1,0,0:0:0:0:
256,192,81352,1,8,0:0:0:0:
256,192,81510,1,8,0:0:0:0:
256,192,81668,1,8,0:0:0:0:
256,192,81826,1,0,0:0:0:0:
256,192,81984,1,8,0:0:0:0:
256,192,82062,1,8,0:0:0:0:
256,192,82220,1,8,0:0:0:0:
256,192,82299,1,8,0:0:0:0:
256,192,82352,1,8,0:0:0:0:
256,192,82405,1,8,0:0:0:0:
256,192,82457,1,0,0:0:0:0:
256,192,82615,1,8,0:0:0:0:
256,192,82694,1,0,0:0:0:0:
256,192,82773,1,8,0:0:0:0:
256,192,82852,1,8,0:0:0:0:
256,192,82931,1,0,0:0:0:0:
256,192,83089,1,0,0:0:0:0:
256,192,83168,1,8,0:0:0:0:
256,192,83326,1,8,0:0:0:0:
256,192,83405,1,0,0:0:0:0:
256,192,83484,1,0,0:0:0:0:
256,192,83562,1,8,0:0:0:0:
256,192,83720,1,0,0:0:0:0:
256,192,83799,1,0,0:0:0:0:
256,192,83878,1,8,0:0:0:0:
256,192,83931,1,0,0:0:0:0:
256,192,83984,1,0,0:0:0:0:
256,192,84036,1,8,0:0:0:0:
256,192,84115,1,8,0:0:0:0:
256,192,84194,1,0,0:0:0:0:
256,192,84352,1,0,0:0:0:0:
256,192,84431,1,8,0:0:0:0:
256,192,84589,1,8,0:0:0:0:
256,192,84668,1,0,0:0:0:0:
256,192,84747,1,0,0:0:0:0:
256,192,84826,1,8,0:0:0:0:
256,192,84905,1,8,0:0:0:0:
256,192,84984,1,0,0:0:0:0:
256,192,85141,1,8,0:0:0:0:
256,192,85220,1,0,0:0:0:0:
256,192,85378,1,8,0:0:0:0:
256,192,85457,1,0,0:0:0:0:
256,192,85615,1,0,0:0:0:0:
256,192,85694,1,8,0:0:0:0:
256,192,85773,1,8,0:0:0:0:
256,192,85852,1,8,0:0:0:0:
256,192,85931,1,0,0:0:0:0:
256,192,86089,1,8,0:0:0:0:
256,192,86168,1,8,0:0:0:0:
256,192,86247,1,0,0:0:0:0:
256,192,86326,1,8,0:0:0:0:
256,192,86405,1,0,0:0:0:0:
256,192,86457,1,0,0:0:0:0:
256,192,86510,1,0,0:0:0:0:
256,192,86562,1,8,0:0:0:0:
256,192,86641,1,8,0:0:0:0:
256,192,86720,1,0,0:0:0:0:
256,192,86878,1,0,0:0:0:0:
256,192,87036,1,8,0:0:0:0:
256,192,87115,1,8,0:0:0:0:
256,192,87194,1,0,0:0:0:0:
256,192,87273,1,8,0:0:0:0:
256,192,87352,1,8,0:0:0:0:
256,192,87431,1,8,0:0:0:0:
256,192,87510,1,0,0:0:0:0:
256,192,87668,1,8,0:0:0:0:
256,192,87747,1,0,0:0:0:0:
256,192,87826,1,8,0:0:0:0:
256,192,87905,1,8,0:0:0:0:
256,192,87984,1,0,0:0:0:0:
256,192,88141,1,0,0:0:0:0:
256,192,88220,1,8,0:0:0:0:
256,192,88378,1,8,0:0:0:0:
256,192,88457,1,0,0:0:0:0:
256,192,88536,1,0,0:0:0:0:
256,192,88615,1,8,0:0:0:0:
256,192,88773,1,0,0:0:0:0:
256,192,88852,1,8,0:0:0:0:
256,192,88931,1,8,0:0:0:0:
256,192,89010,1,0,0:0:0:0:
256,192,89089,1,8,0:0:0:0:
256,192,89168,1,8,0:0:0:0:
256,192,89247,1,0,0:0:0:0:
256,192,89405,1,0,0:0:0:0:
256,192,89562,1,8,0:0:0:0:
256,192,89641,1,8,0:0:0:0:
256,192,89720,1,0,0:0:0:0:
256,192,89878,1,8,0:0:0:0:
256,192,90036,1,0,0:0:0:0:
256,192,90194,1,8,0:0:0:0:
256,192,90273,1,0,0:0:0:0:
256,192,90431,1,8,0:0:0:0:
256,192,90510,1,0,0:0:0:0:
256,192,90668,1,4,0:0:0:0:
256,192,90826,1,8,0:0:0:0:
256,192,90905,1,8,0:0:0:0:
256,192,90984,1,0,0:0:0:0:
256,192,91062,1,8,0:0:0:0:
256,192,91141,1,0,0:0:0:0:
256,192,91299,1,12,0:0:0:0:
256,192,91457,1,0,0:0:0:0:
256,192,91510,1,0,0:0:0:0:
256,192,91562,1,0,0:0:0:0:
256,192,91615,1,0,0:0:0:0:
256,192,91773,1,8,0:0:0:0:
256,192,91826,1,8,0:0:0:0:
256,192,91878,1,8,0:0:0:0:
256,192,91931,1,0,0:0:0:0:
256,192,92089,1,8,0:0:0:0:
256,192,92168,1,8,0:0:0:0:
256,192,92247,1,0,0:0:0:0:
256,192,92405,1,8,0:0:0:0:
256,192,92484,1,8,0:0:0:0:
256,192,92562,1,0,0:0:0:0:
256,192,92641,1,0,0:0:0:0:
256,192,92720,1,8,0:0:0:0:
256,192,92799,1,0,0:0:0:0:
256,192,92957,1,8,0:0:0:0:
256,192,93036,1,0,0:0:0:0:
256,192,93194,1,0,0:0:0:0:
256,192,93273,1,0,0:0:0:0:
256,192,93352,1,8,0:0:0:0:
256,192,93431,1,8,0:0:0:0:
256,192,93510,1,0,0:0:0:0:
256,192,93589,1,8,0:0:0:0:
256,192,93668,1,8,0:0:0:0:
256,192,93747,1,8,0:0:0:0:
256,192,93826,1,0,0:0:0:0:
256,192,93878,1,0,0:0:0:0:
256,192,93931,1,0,0:0:0:0:
256,192,93984,1,8,0:0:0:0:
256,192,94062,1,0,0:0:0:0:
256,192,94141,1,8,0:0:0:0:
256,192,94220,1,8,0:0:0:0:
256,192,94299,1,0,0:0:0:0:
256,192,94457,1,0,0:0:0:0:
256,192,94615,1,8,0:0:0:0:
256,192,94694,1,8,0:0:0:0:
256,192,94773,1,0,0:0:0:0:
256,192,94852,1,8,0:0:0:0:
256,192,95010,1,8,0:0:0:0:
256,192,95089,1,0,0:0:0:0:
256,192,95168,1,0,0:0:0:0:
256,192,95247,1,8,0:0:0:0:
256,192,95326,1,0,0:0:0:0:
256,192,95405,1,8,0:0:0:0:
256,192,95484,1,8,0:0:0:0:
256,192,95562,1,0,0:0:0:0:
256,192,95720,1,0,0:0:0:0:
256,192,95799,1,8,0:0:0:0:
256,192,95878,1,0,0:0:0:0:
256,192,95957,1,8,0:0:0:0:
256,192,96036,1,0,0:0:0:0:
256,192,96115,1,0,0:0:0:0:
256,192,96194,1,8,0:0:0:0:
256,192,96273,1,8,0:0:0:0:
256,192,96352,1,0,0:0:0:0:
256,192,96405,1,8,0:0:0:0:
256,192,96457,1,8,0:0:0:0:
256,192,96510,1,0,0:0:0:0:
256,192,96589,1,0,0:0:0:0:
256,192,96668,1,8,0:0:0:0:
256,192,96826,1,0,0:0:0:0:
256,192,96984,1,0,0:0:0:0:
256,192,97141,1,8,0:0:0:0:
256,192,97220,1,8,0:0:0:0:
256,192,97299,1,0,0:0:0:0:
256,192,97457,1,8,0:0:0:0:
256,192,97536,1,8,0:0:0:0:
256,192,97615,1,0,0:0:0:0:
256,192,97694,1,0,0:0:0:0:
256,192,97773,1,8,0:0:0:0:
256,192,97852,1,0,0:0:0:0:
256,192,97931,1,8,0:0:0:0:
256,192,98010,1,8,0:0:0:0:
256,192,98089,1,0,0:0:0:0:
256,192,98247,1,0,0:0:0:0:
256,192,98326,1,0,0:0:0:0:
256,192,98405,1,8,0:0:0:0:
256,192,98484,1,8,0:0:0:0:
256,192,98562,1,0,0:0:0:0:
256,192,98641,1,8,0:0:0:0:
256,192,98720,1,8,0:0:0:0:
256,192,98799,1,8,0:0:0:0:
256,192,98878,1,0,0:0:0:0:
256,192,98931,1,0,0:0:0:0:
256,192,98984,1,0,0:0:0:0:
256,192,99036,1,8,0:0:0:0:
256,192,99115,1,0,0:0:0:0:
256,192,99194,1,8,0:0:0:0:
256,192,99273,1,8,0:0:0:0:
256,192,99352,1,0,0:0:0:0:
256,192,99510,1,0,0:0:0:0:
256,192,99668,1,8,0:0:0:0:
256,192,99747,1,8,0:0:0:0:
256,192,99826,1,0,0:0:0:0:
256,192,99905,1,8,0:0:0:0:
256,192,100062,1,8,0:0:0:0:
256,192,100141,1,0,0:0:0:0:
256,192,100220,1,0,0:0:0:0:
256,192,100299,1,8,0:0:0:0:
256,192,100378,1,0,0:0:0:0:
256,192,100457,1,8,0:0:0:0:
256,192,100536,1,8,0:0:0:0:
256,192,100615,1,0,0:0:0:0:
256,192,100773,1,4,0:0:0:0:
256,192,100931,12,0,101878,0:0:0:0:
256,192,102036,5,0,0:0:0:0:
256,192,102115,1,0,0:0:0:0:
256,192,102194,1,0,0:0:0:0:
256,192,102273,1,8,0:0:0:0:
256,192,102352,1,0,0:0:0:0:
256,192,102431,1,0,0:0:0:0:
256,192,102510,1,8,0:0:0:0:
256,192,102589,1,8,0:0:0:0:
256,192,102668,1,0,0:0:0:0:
256,192,102747,1,0,0:0:0:0:
256,192,102826,1,8,0:0:0:0:
256,192,102905,1,0,0:0:0:0:
256,192,102984,1,8,0:0:0:0:
256,192,103062,1,8,0:0:0:0:
256,192,103141,1,0,0:0:0:0:
256,192,103220,1,8,0:0:0:0:
256,192,103299,1,0,0:0:0:0:
256,192,103378,1,0,0:0:0:0:
256,192,103457,1,8,0:0:0:0:
256,192,103536,1,8,0:0:0:0:
256,192,103615,1,0,0:0:0:0:
256,192,103694,1,8,0:0:0:0:
256,192,103773,1,8,0:0:0:0:
256,192,103852,1,8,0:0:0:0:
256,192,103931,1,0,0:0:0:0:
256,192,104010,1,0,0:0:0:0:
256,192,104089,1,8,0:0:0:0:
256,192,104141,1,0,0:0:0:0:
256,192,104194,1,0,0:0:0:0:
256,192,104247,1,8,0:0:0:0:
256,192,104326,1,8,0:0:0:0:
256,192,104405,1,0,0:0:0:0:
256,192,104562,1,0,0:0:0:0:
256,192,104641,1,8,0:0:0:0:
256,192,104720,1,0,0:0:0:0:
256,192,104799,1,8,0:0:0:0:
256,192,104878,1,0,0:0:0:0:
256,192,104957,1,0,0:0:0:0:
256,192,105036,1,8,0:0:0:0:
256,192,105115,1,8,0:0:0:0:
256,192,105194,1,0,0:0:0:0:
256,192,105273,1,0,0:0:0:0:
256,192,105352,1,8,0:0:0:0:
256,192,105431,1,0,0:0:0:0:
256,192,105510,1,0,0:0:0:0:
256,192,105589,1,8,0:0:0:0:
256,192,105668,1,0,0:0:0:0:
256,192,105747,1,8,0:0:0:0:
256,192,105826,1,0,0:0:0:0:
256,192,105905,1,8,0:0:0:0:
256,192,105984,1,8,0:0:0:0:
256,192,106062,1,8,0:0:0:0:
256,192,106141,1,0,0:0:0:0:
256,192,106220,1,0,0:0:0:0:
256,192,106299,1,8,0:0:0:0:
256,192,106378,1,8,0:0:0:0:
256,192,106457,1,0,0:0:0:0:
256,192,106536,1,8,0:0:0:0:
256,192,106615,1,0,0:0:0:0:
256,192,106668,1,0,0:0:0:0:
256,192,106720,1,0,0:0:0:0:
256,192,106773,1,8,0:0:0:0:
256,192,106852,1,8,0:0:0:0:
256,192,106931,1,0,0:0:0:0:
256,192,107089,1,0,0:0:0:0:
256,192,107168,1,0,0:0:0:0:
256,192,107247,1,0,0:0:0:0:
256,192,107326,1,8,0:0:0:0:
256,192,107405,1,0,0:0:0:0:
256,192,107484,1,0,0:0:0:0:
256,192,107562,1,8,0:0:0:0:
256,192,107641,1,8,0:0:0:0:
256,192,107720,1,0,0:0:0:0:
256,192,107799,1,0,0:0:0:0:
256,192,107878,1,8,0:0:0:0:
256,192,107957,1,0,0:0:0:0:
256,192,108036,1,8,0:0:0:0:
256,192,108115,1,8,0:0:0:0:
256,192,108194,1,0,0:0:0:0:
256,192,108273,1,8,0:0:0:0:
256,192,108352,1,0,0:0:0:0:
256,192,108431,1,0,0:0:0:0:
256,192,108510,1,8,0:0:0:0:
256,192,108589,1,8,0:0:0:0:
256,192,108668,1,0,0:0:0:0:
256,192,108747,1,8,0:0:0:0:
256,192,108826,1,8,0:0:0:0:
256,192,108905,1,8,0:0:0:0:
256,192,108984,1,0,0:0:0:0:
256,192,109062,1,0,0:0:0:0:
256,192,109141,1,8,0:0:0:0:
256,192,109220,1,0,0:0:0:0:
256,192,109299,1,8,0:0:0:0:
256,192,109378,1,8,0:0:0:0:
256,192,109457,1,0,0:0:0:0:
256,192,109615,1,0,0:0:0:0:
256,192,109773,1,8,0:0:0:0:
256,192,109852,1,8,0:0:0:0:
256,192,109931,1,0,0:0:0:0:
256,192,110089,1,8,0:0:0:0:
256,192,110247,1,0,0:0:0:0:
256,192,110326,1,8,0:0:0:0:
256,192,110405,1,8,0:0:0:0:
256,192,110484,1,0,0:0:0:0:
256,192,110562,1,8,0:0:0:0:
256,192,110641,1,8,0:0:0:0:
256,192,110720,1,0,0:0:0:0:
256,192,110878,1,4,0:0:0:0:
256,192,111036,1,8,0:0:0:0:
256,192,111115,1,8,0:0:0:0:
256,192,111194,1,0,0:0:0:0:
256,192,111273,1,8,0:0:0:0:
256,192,111352,1,0,0:0:0:0:
256,192,111510,1,12,0:0:0:0:
256,192,111668,1,0,0:0:0:0:
256,192,111720,1,0,0:0:0:0:
256,192,111773,1,0,0:0:0:0:
256,192,111826,1,0,0:0:0:0:
256,192,111984,1,8,0:0:0:0:
256,192,112036,1,8,0:0:0:0:
256,192,112089,1,8,0:0:0:0:
256,192,112141,1,0,0:0:0:0:
256,192,112299,1,8,0:0:0:0:
256,192,112378,1,8,0:0:0:0:
256,192,112457,1,0,0:0:0:0:
256,192,112615,1,8,0:0:0:0:
256,192,112694,1,8,0:0:0:0:
256,192,112773,1,0,0:0:0:0:
256,192,112852,1,0,0:0:0:0:
256,192,112931,1,8,0:0:0:0:
256,192,113010,1,0,0:0:0:0:
256,192,113089,1,8,0:0:0:0:
256,192,113168,1,8,0:0:0:0:
256,192,113247,1,0,0:0:0:0:
256,192,113326,1,8,0:0:0:0:
256,192,113405,1,0,0:0:0:0:
256,192,113484,1,0,0:0:0:0:
256,192,113562,1,8,0:0:0:0:
256,192,113641,1,8,0:0:0:0:
256,192,113720,1,0,0:0:0:0:
256,192,113799,1,8,0:0:0:0:
256,192,113878,1,8,0:0:0:0:
256,192,113957,1,8,0:0:0:0:
256,192,114036,1,0,0:0:0:0:
256,192,114089,1,0,0:0:0:0:
256,192,114141,1,0,0:0:0:0:
256,192,114194,1,8,0:0:0:0:
256,192,114273,1,0,0:0:0:0:
256,192,114352,1,8,0:0:0:0:
256,192,114431,1,8,0:0:0:0:
256,192,114510,1,0,0:0:0:0:
256,192,114668,1,0,0:0:0:0:
256,192,114826,1,8,0:0:0:0:
256,192,114905,1,8,0:0:0:0:
256,192,114984,1,0,0:0:0:0:
256,192,115062,1,8,0:0:0:0:
256,192,115220,1,8,0:0:0:0:
256,192,115299,1,0,0:0:0:0:
256,192,115378,1,0,0:0:0:0:
256,192,115457,1,8,0:0:0:0:
256,192,115536,1,0,0:0:0:0:
256,192,115615,1,8,0:0:0:0:
256,192,115694,1,8,0:0:0:0:
256,192,115773,1,0,0:0:0:0:
256,192,115852,1,8,0:0:0:0:
256,192,115931,1,0,0:0:0:0:
256,192,116010,1,0,0:0:0:0:
256,192,116089,1,0,0:0:0:0:
256,192,116168,1,8,0:0:0:0:
256,192,116247,1,0,0:0:0:0:
256,192,116326,1,0,0:0:0:0:
256,192,116405,1,8,0:0:0:0:
256,192,116484,1,8,0:0:0:0:
256,192,116562,1,0,0:0:0:0:
256,192,116615,1,8,0:0:0:0:
256,192,116668,1,8,0:0:0:0:
256,192,116720,1,0,0:0:0:0:
256,192,116799,1,0,0:0:0:0:
256,192,116878,1,8,0:0:0:0:
256,192,117036,1,0,0:0:0:0:
256,192,117194,1,0,0:0:0:0:
256,192,117352,1,8,0:0:0:0:
256,192,117431,1,8,0:0:0:0:
256,192,117510,1,0,0:0:0:0:
256,192,117668,1,8,0:0:0:0:
256,192,117747,1,8,0:0:0:0:
256,192,117826,1,0,0:0:0:0:
256,192,117905,1,0,0:0:0:0:
256,192,117984,1,8,0:0:0:0:
256,192,118062,1,0,0:0:0:0:
256,192,118141,1,8,0:0:0:0:
256,192,118220,1,8,0:0:0:0:
256,192,118299,1,0,0:0:0:0:
256,192,118378,1,8,0:0:0:0:
256,192,118457,1,0,0:0:0:0:
256,192,118536,1,0,0:0:0:0:
256,192,118615,1,8,0:0:0:0:
256,192,118694,1,8,0:0:0:0:
256,192,118773,1,0,0:0:0:0:
256,192,118852,1,8,0:0:0:0:
256,192,118931,1,8,0:0:0:0:
256,192,119010,1,8,0:0:0:0:
256,192,119089,1,0,0:0:0:0:
256,192,119141,1,0,0:0:0:0:
256,192,119194,1,0,0:0:0:0:
256,192,119247,1,8,0:0:0:0:
256,192,119326,1,0,0:0:0:0:
256,192,119405,1,8,0:0:0:0:
256,192,119484,1,8,0:0:0:0:
256,192,119562,1,0,0:0:0:0:
256,192,119720,1,0,0:0:0:0:
256,192,119878,1,8,0:0:0:0:
256,192,119957,1,8,0:0:0:0:
256,192,120036,1,0,0:0:0:0:
256,192,120115,1,8,0:0:0:0:
256,192,120273,1,8,0:0:0:0:
256,192,120352,1,0,0:0:0:0:
256,192,120431,1,0,0:0:0:0:
256,192,120510,1,8,0:0:0:0:
256,192,120589,1,0,0:0:0:0:
256,192,120668,1,8,0:0:0:0:
256,192,120747,1,8,0:0:0:0:
256,192,120826,1,0,0:0:0:0:
256,192,120984,1,0,0:0:0:0:
256,192,121141,1,8,0:0:0:0:
256,192,121299,1,8,0:0:0:0:
256,192,121457,1,0,0:0:0:0:
256,192,121615,1,8,0:0:0:0:
256,192,121773,1,0,0:0:0:0:
256,192,121826,1,0,0:0:0:0:
256,192,121878,1,0,0:0:0:0:
256,192,121931,5,8,0:0:0:0:
